osu file format v14

[General]
AudioFilename: audio.ogg
AudioLeadIn: 0
PreviewTime: 209083
Countdown: 0
SampleSet: Soft
StackLeniency: 0.7
Mode: 3
LetterboxInBreaks: 0
SpecialStyle: 0
WidescreenStoryboard: 1

[Editor]
Bookmarks: 118017
DistanceSpacing: 0.8
BeatDivisor: 4
GridSize: 32
TimelineZoom: 1.4

[Metadata]
Title:Simon Vandetta
TitleUnicode:Simon Vandetta
Artist:Strawberry Girls
ArtistUnicode:Strawberry Girls
Creator:Crisper
Version:Dreamer
Source:
Tags:math rock instrumental progressive experimental American Graffiti Tragic Hero Records Spirit Vision Studios Zachary Garren Ben Rosett Ian Jennings Dance Gavin Dance Eternity Forever LN Long Note Inverse
BeatmapID:3989031
BeatmapSetID:1928719

[Difficulty]
HPDrainRate:8
CircleSize:4
OverallDifficulty:7.5
ApproachRate:5
SliderMultiplier:1.4
SliderTickRate:1

[Events]
//Background and Video events
0,0,"bg.jpg",0,0
//Break Periods
//Storyboard Layer 0 (Background)
//Storyboard Layer 1 (Fail)
//Storyboard Layer 2 (Pass)
//Storyboard Layer 3 (Foreground)
//Storyboard Layer 4 (Overlay)
//Storyboard Sound Samples

[TimingPoints]
1157,500,4,2,1,40,1,0
1157,-82.75862069,4,2,1,40,0,0
43157,-82.75862069,4,2,1,40,0,1
75157,315.789473684211,4,2,1,40,1,0
75157,-131.0344828,4,2,1,40,0,0
115578,413.793103448276,3,2,1,40,1,0
118888,413.793103448276,3,2,1,40,1,0
122198,413.793103448276,3,2,1,40,1,0
125508,413.793103448276,3,2,1,40,1,0
127990,413.793103448276,4,2,1,40,1,0
129648,413.793103448276,3,2,1,40,1,1
132958,413.793103448276,3,2,1,40,1,1
136267,413.793103448276,3,2,1,40,1,1
139577,413.793103448276,3,2,1,40,1,1
142059,413.793103448276,4,2,1,40,1,1
143714,-100,4,2,1,40,0,0
209921,-100,4,2,1,40,0,1
236403,-100,4,2,1,40,0,0

[HitObjects]
320,192,1157,128,0,1657:0:0:0:0:
192,192,1157,1,0,0:0:0:0:
448,192,1157,128,0,1407:0:0:0:0:
192,192,1407,128,0,1657:0:0:0:0:
64,192,1657,128,0,2407:0:0:0:0:
448,192,1657,128,0,2657:0:0:0:0:
320,192,1907,128,0,2157:0:0:0:0:
192,192,2157,1,0,0:0:0:0:
192,192,2407,128,0,2657:0:0:0:0:
64,192,2657,128,0,3657:0:0:0:0:
320,192,2657,128,0,3407:0:0:0:0:
192,192,2907,128,0,3157:0:0:0:0:
448,192,3157,1,0,0:0:0:0:
448,192,3407,128,0,3657:0:0:0:0:
320,192,3657,128,0,4657:0:0:0:0:
192,192,3657,128,0,4407:0:0:0:0:
64,192,3907,128,0,4157:0:0:0:0:
448,192,4157,1,0,0:0:0:0:
448,192,4407,128,0,4657:0:0:0:0:
192,192,4657,128,0,5657:0:0:0:0:
64,192,4657,128,0,5407:0:0:0:0:
448,192,4907,128,0,5157:0:0:0:0:
320,192,5157,1,0,0:0:0:0:
320,192,5407,128,0,5657:0:0:0:0:
64,192,5657,128,0,6657:0:0:0:0:
448,192,5657,128,0,6407:0:0:0:0:
192,192,5907,128,0,6157:0:0:0:0:
320,192,6157,1,0,0:0:0:0:
320,192,6407,128,0,6657:0:0:0:0:
192,192,6657,128,0,7657:0:0:0:0:
448,192,6657,128,0,7407:0:0:0:0:
320,192,6907,128,0,7157:0:0:0:0:
64,192,7157,1,0,0:0:0:0:
64,192,7407,128,0,7657:0:0:0:0:
448,192,7657,128,0,8657:0:0:0:0:
320,192,7657,128,0,8407:0:0:0:0:
192,192,7907,128,0,8157:0:0:0:0:
64,192,8157,1,0,0:0:0:0:
64,192,8407,128,0,8657:0:0:0:0:
192,192,8657,128,0,9157:0:0:0:0:
320,192,8657,128,0,8907:0:0:0:0:
448,192,8907,1,0,0:0:0:0:
320,192,9157,1,0,0:0:0:0:
64,192,9157,128,0,10157:0:0:0:0:
448,192,9157,128,0,9407:0:0:0:0:
320,192,9407,128,0,9657:0:0:0:0:
448,192,9657,128,0,10407:0:0:0:0:
192,192,9657,128,0,9907:0:0:0:0:
320,192,9907,1,0,0:0:0:0:
320,192,10157,128,0,11157:0:0:0:0:
64,192,10407,128,0,10657:0:0:0:0:
192,192,10657,128,0,11407:0:0:0:0:
448,192,10657,128,0,10907:0:0:0:0:
64,192,10907,1,0,0:0:0:0:
64,192,11157,128,0,12157:0:0:0:0:
448,192,11407,128,0,11657:0:0:0:0:
320,192,11657,128,0,12407:0:0:0:0:
192,192,11657,128,0,11907:0:0:0:0:
448,192,11907,1,0,0:0:0:0:
448,192,12157,128,0,13157:0:0:0:0:
192,192,12407,128,0,12657:0:0:0:0:
64,192,12657,128,0,13407:0:0:0:0:
320,192,12657,128,0,12907:0:0:0:0:
192,192,12907,1,0,0:0:0:0:
192,192,13157,128,0,14157:0:0:0:0:
320,192,13407,128,0,13657:0:0:0:0:
448,192,13657,128,0,14407:0:0:0:0:
64,192,13657,128,0,13907:0:0:0:0:
320,192,13907,1,0,0:0:0:0:
320,192,14157,128,0,15157:0:0:0:0:
192,192,14407,128,0,14657:0:0:0:0:
448,192,14657,128,0,15407:0:0:0:0:
64,192,14657,128,0,14907:0:0:0:0:
192,192,14907,1,0,0:0:0:0:
192,192,15157,128,0,16157:0:0:0:0:
320,192,15407,128,0,15657:0:0:0:0:
448,192,15657,128,0,15907:0:0:0:0:
64,192,15657,128,0,16407:0:0:0:0:
320,192,15907,1,0,0:0:0:0:
320,192,16157,128,0,17157:0:0:0:0:
448,192,16407,128,0,16657:0:0:0:0:
192,192,16657,128,0,16907:0:0:0:0:
64,192,16657,128,0,16907:0:0:0:0:
448,192,16907,1,0,0:0:0:0:
192,192,17157,1,0,0:0:0:0:
448,192,17157,128,0,18157:0:0:0:0:
64,192,17157,128,0,17407:0:0:0:0:
192,192,17407,128,0,17657:0:0:0:0:
64,192,17657,128,0,18407:0:0:0:0:
320,192,17657,128,0,17907:0:0:0:0:
192,192,17907,1,0,0:0:0:0:
192,192,18157,128,0,19157:0:0:0:0:
448,192,18407,128,0,18657:0:0:0:0:
320,192,18657,128,0,19407:0:0:0:0:
64,192,18657,128,0,18907:0:0:0:0:
448,192,18907,1,0,0:0:0:0:
448,192,19157,128,0,20157:0:0:0:0:
64,192,19407,128,0,19657:0:0:0:0:
192,192,19657,128,0,20407:0:0:0:0:
320,192,19657,128,0,19907:0:0:0:0:
64,192,19907,1,0,0:0:0:0:
64,192,20157,128,0,21157:0:0:0:0:
320,192,20407,128,0,20657:0:0:0:0:
448,192,20657,128,0,21407:0:0:0:0:
192,192,20657,128,0,20907:0:0:0:0:
320,192,20907,1,0,0:0:0:0:
320,192,21157,128,0,22157:0:0:0:0:
192,192,21407,128,0,21657:0:0:0:0:
64,192,21657,128,0,22407:0:0:0:0:
448,192,21657,128,0,21907:0:0:0:0:
192,192,21907,1,0,0:0:0:0:
192,192,22157,128,0,23157:0:0:0:0:
320,192,22407,128,0,22657:0:0:0:0:
64,192,22657,128,0,23407:0:0:0:0:
448,192,22657,128,0,22907:0:0:0:0:
320,192,22907,1,0,0:0:0:0:
320,192,23157,128,0,24157:0:0:0:0:
192,192,23407,128,0,23657:0:0:0:0:
64,192,23657,128,0,23907:0:0:0:0:
448,192,23657,128,0,24407:0:0:0:0:
192,192,23907,1,0,0:0:0:0:
192,192,24157,128,0,24907:0:0:0:0:
320,192,24282,1,0,0:0:0:0:
64,192,24407,128,0,24657:0:0:0:0:
320,192,24657,128,0,24907:0:0:0:0:
448,192,24657,128,0,24907:0:0:0:0:
64,192,24907,1,0,0:0:0:0:
192,192,25032,128,0,25157:0:0:0:0:
64,192,25157,128,0,26032:0:0:0:0:
448,192,25157,128,0,25532:0:0:0:0:
320,192,25157,128,0,25407:0:0:0:0:
192,192,25407,1,0,0:0:0:0:
320,192,25532,1,0,0:0:0:0:
192,192,25657,128,0,25907:0:0:0:0:
448,192,25657,128,0,26032:0:0:0:0:
320,192,25907,128,0,26032:0:0:0:0:
192,192,26032,128,0,26157:0:0:0:0:
448,192,26157,128,0,27032:0:0:0:0:
320,192,26157,128,0,26407:0:0:0:0:
192,192,26407,1,0,0:0:0:0:
320,192,26532,1,0,0:0:0:0:
64,192,26657,128,0,26907:0:0:0:0:
192,192,26657,128,0,27032:0:0:0:0:
320,192,26907,128,0,27032:0:0:0:0:
64,192,27032,128,0,27157:0:0:0:0:
320,192,27157,128,0,27407:0:0:0:0:
192,192,27157,128,0,28032:0:0:0:0:
448,192,27407,1,0,0:0:0:0:
64,192,27532,1,0,0:0:0:0:
448,192,27657,128,0,28032:0:0:0:0:
320,192,27657,128,0,27907:0:0:0:0:
64,192,27907,128,0,28032:0:0:0:0:
320,192,28032,128,0,28157:0:0:0:0:
64,192,28157,128,0,29032:0:0:0:0:
448,192,28157,128,0,28407:0:0:0:0:
192,192,28407,1,0,0:0:0:0:
448,192,28532,1,0,0:0:0:0:
192,192,28657,128,0,29032:0:0:0:0:
320,192,28657,128,0,28907:0:0:0:0:
448,192,28907,128,0,29032:0:0:0:0:
320,192,29032,128,0,29157:0:0:0:0:
192,192,29157,128,0,30032:0:0:0:0:
64,192,29157,128,0,29407:0:0:0:0:
320,192,29407,1,0,0:0:0:0:
64,192,29532,1,0,0:0:0:0:
320,192,29657,128,0,30032:0:0:0:0:
448,192,29657,128,0,29907:0:0:0:0:
64,192,29907,128,0,30032:0:0:0:0:
448,192,30032,128,0,30157:0:0:0:0:
192,192,30157,128,0,30407:0:0:0:0:
320,192,30157,128,0,31032:0:0:0:0:
448,192,30407,1,0,0:0:0:0:
192,192,30532,1,0,0:0:0:0:
448,192,30657,128,0,31032:0:0:0:0:
64,192,30657,128,0,30907:0:0:0:0:
192,192,30907,128,0,31032:0:0:0:0:
64,192,31032,128,0,31157:0:0:0:0:
448,192,31157,128,0,32032:0:0:0:0:
320,192,31157,128,0,31407:0:0:0:0:
192,192,31407,1,0,0:0:0:0:
320,192,31532,1,0,0:0:0:0:
64,192,31657,128,0,32032:0:0:0:0:
192,192,31657,128,0,31907:0:0:0:0:
320,192,31907,128,0,32032:0:0:0:0:
192,192,32032,128,0,32157:0:0:0:0:
64,192,32157,128,0,32907:0:0:0:0:
448,192,32157,128,0,32407:0:0:0:0:
192,192,32407,128,0,32657:0:0:0:0:
320,192,32532,128,0,32782:0:0:0:0:
448,192,32657,128,0,32782:0:0:0:0:
192,192,32782,128,0,32907:0:0:0:0:
320,192,32907,5,0,0:0:0:0:
448,192,32907,1,0,0:0:0:0:
64,192,33032,1,0,0:0:0:0:
192,192,33032,1,0,0:0:0:0:
64,192,33157,128,0,34032:0:0:0:0:
448,192,33157,128,0,33532:0:0:0:0:
320,192,33157,128,0,33407:0:0:0:0:
192,192,33407,1,0,0:0:0:0:
320,192,33532,1,0,0:0:0:0:
192,192,33657,128,0,33907:0:0:0:0:
448,192,33657,128,0,34032:0:0:0:0:
320,192,33907,128,0,34032:0:0:0:0:
192,192,34032,128,0,34157:0:0:0:0:
448,192,34157,128,0,35032:0:0:0:0:
320,192,34157,128,0,34407:0:0:0:0:
192,192,34407,1,0,0:0:0:0:
320,192,34532,1,0,0:0:0:0:
64,192,34657,128,0,34907:0:0:0:0:
192,192,34657,128,0,35032:0:0:0:0:
320,192,34907,128,0,35032:0:0:0:0:
64,192,35032,128,0,35157:0:0:0:0:
320,192,35157,128,0,35407:0:0:0:0:
192,192,35157,128,0,36032:0:0:0:0:
448,192,35407,1,0,0:0:0:0:
64,192,35532,1,0,0:0:0:0:
448,192,35657,128,0,36032:0:0:0:0:
320,192,35657,128,0,35907:0:0:0:0:
64,192,35907,128,0,36032:0:0:0:0:
320,192,36032,128,0,36157:0:0:0:0:
64,192,36157,128,0,37032:0:0:0:0:
448,192,36157,128,0,36407:0:0:0:0:
192,192,36407,1,0,0:0:0:0:
448,192,36532,1,0,0:0:0:0:
192,192,36657,128,0,37032:0:0:0:0:
320,192,36657,128,0,36907:0:0:0:0:
448,192,36907,128,0,37032:0:0:0:0:
320,192,37032,128,0,37157:0:0:0:0:
192,192,37157,128,0,37782:0:0:0:0:
64,192,37157,128,0,37407:0:0:0:0:
320,192,37407,1,0,0:0:0:0:
64,192,37532,1,0,0:0:0:0:
320,192,37657,128,0,38032:0:0:0:0:
448,192,37657,128,0,38032:0:0:0:0:
64,192,37907,1,0,0:0:0:0:
192,192,37907,1,0,0:0:0:0:
64,192,38032,1,0,0:0:0:0:
192,192,38032,1,0,0:0:0:0:
320,192,38157,1,0,0:0:0:0:
448,192,38157,1,0,0:0:0:0:
64,192,38282,1,0,0:0:0:0:
192,192,38282,1,0,0:0:0:0:
320,192,38407,1,0,0:0:0:0:
448,192,38407,1,0,0:0:0:0:
320,192,38532,1,0,0:0:0:0:
448,192,38532,1,0,0:0:0:0:
64,192,38657,1,0,0:0:0:0:
192,192,38657,1,0,0:0:0:0:
320,192,38782,1,0,0:0:0:0:
448,192,38782,1,0,0:0:0:0:
64,192,38907,1,0,0:0:0:0:
192,192,38907,1,0,0:0:0:0:
64,192,39032,1,0,0:0:0:0:
192,192,39032,1,0,0:0:0:0:
320,192,39157,128,0,39407:0:0:0:0:
448,192,39157,128,0,39282:0:0:0:0:
64,192,39157,128,0,39282:0:0:0:0:
64,192,39407,128,0,39657:0:0:0:0:
192,192,39407,128,0,39532:0:0:0:0:
448,192,39407,128,0,39532:0:0:0:0:
448,192,39657,128,0,39907:0:0:0:0:
192,192,39657,128,0,39782:0:0:0:0:
320,192,39657,128,0,39782:0:0:0:0:
192,192,39907,128,0,40157:0:0:0:0:
320,192,39907,128,0,40032:0:0:0:0:
64,192,39907,128,0,40032:0:0:0:0:
320,192,40157,128,0,40407:0:0:0:0:
64,192,40157,128,0,40282:0:0:0:0:
448,192,40157,128,0,40282:0:0:0:0:
64,192,40407,128,0,40657:0:0:0:0:
192,192,40407,128,0,40532:0:0:0:0:
448,192,40407,128,0,40532:0:0:0:0:
448,192,40657,128,0,40907:0:0:0:0:
192,192,40657,128,0,40782:0:0:0:0:
320,192,40657,128,0,40782:0:0:0:0:
192,192,40907,128,0,41157:0:0:0:0:
320,192,40907,128,0,41032:0:0:0:0:
64,192,40907,128,0,41032:0:0:0:0:
320,192,41157,128,0,41532:0:0:0:0:
64,192,41282,128,0,41532:0:0:0:0:
192,192,41532,128,0,41907:0:0:0:0:
320,192,41907,128,0,42282:0:0:0:0:
448,192,42032,128,0,42282:0:0:0:0:
64,192,42282,128,0,42657:0:0:0:0:
448,192,42657,128,0,43157:0:0:0:0:
320,192,42657,128,0,42990:0:0:0:0:
192,192,42657,128,0,42823:0:0:0:0:
64,192,43157,128,0,43407:0:0:0:0:
320,192,43157,128,0,43282:0:0:0:0:
192,192,43157,128,0,43407:0:0:0:0:
448,192,43282,128,0,43532:0:0:0:0:
320,192,43407,128,0,43532:0:0:0:0:
64,192,43532,128,0,43657:0:0:0:0:
192,192,43532,128,0,43782:0:0:0:0:
448,192,43657,128,0,43782:0:0:0:0:
64,192,43782,128,0,43907:0:0:0:0:
320,192,43782,128,0,44032:0:0:0:0:
192,192,43907,128,0,44157:0:0:0:0:
448,192,43907,128,0,44032:0:0:0:0:
64,192,44032,128,0,44157:0:0:0:0:
448,192,44157,128,0,44407:0:0:0:0:
320,192,44157,128,0,44407:0:0:0:0:
192,192,44282,128,0,44532:0:0:0:0:
64,192,44407,128,0,44532:0:0:0:0:
320,192,44532,128,0,44782:0:0:0:0:
448,192,44532,128,0,44657:0:0:0:0:
64,192,44657,128,0,44782:0:0:0:0:
448,192,44782,128,0,44907:0:0:0:0:
192,192,44782,128,0,44907:0:0:0:0:
320,192,44907,128,0,45157:0:0:0:0:
64,192,44907,128,0,45032:0:0:0:0:
192,192,45032,128,0,45157:0:0:0:0:
448,192,45157,128,0,45407:0:0:0:0:
64,192,45157,128,0,45407:0:0:0:0:
192,192,45282,128,0,45532:0:0:0:0:
320,192,45407,128,0,45532:0:0:0:0:
448,192,45532,128,0,45782:0:0:0:0:
64,192,45532,128,0,45657:0:0:0:0:
192,192,45657,128,0,45782:0:0:0:0:
64,192,45782,128,0,46032:0:0:0:0:
320,192,45782,128,0,45907:0:0:0:0:
448,192,45907,128,0,46032:0:0:0:0:
192,192,45907,128,0,46157:0:0:0:0:
320,192,46032,128,0,46157:0:0:0:0:
64,192,46157,128,0,46407:0:0:0:0:
448,192,46157,128,0,46407:0:0:0:0:
320,192,46282,128,0,46532:0:0:0:0:
192,192,46407,128,0,46532:0:0:0:0:
64,192,46532,128,0,46657:0:0:0:0:
448,192,46532,128,0,46782:0:0:0:0:
192,192,46657,128,0,46782:0:0:0:0:
64,192,46782,128,0,46907:0:0:0:0:
320,192,46782,128,0,47032:0:0:0:0:
448,192,46907,128,0,47032:0:0:0:0:
192,192,46907,128,0,47157:0:0:0:0:
64,192,47032,128,0,47157:0:0:0:0:
320,192,47157,128,0,47407:0:0:0:0:
448,192,47157,128,0,47407:0:0:0:0:
64,192,47282,128,0,47532:0:0:0:0:
192,192,47407,128,0,47532:0:0:0:0:
320,192,47532,128,0,47782:0:0:0:0:
448,192,47532,128,0,47657:0:0:0:0:
64,192,47657,128,0,47782:0:0:0:0:
192,192,47782,128,0,48032:0:0:0:0:
448,192,47782,128,0,47907:0:0:0:0:
64,192,47907,128,0,48032:0:0:0:0:
320,192,47907,128,0,48157:0:0:0:0:
448,192,48032,128,0,48157:0:0:0:0:
192,192,48157,128,0,48407:0:0:0:0:
64,192,48157,128,0,48407:0:0:0:0:
320,192,48282,128,0,48532:0:0:0:0:
448,192,48407,128,0,48532:0:0:0:0:
64,192,48532,128,0,48657:0:0:0:0:
192,192,48532,128,0,48782:0:0:0:0:
448,192,48657,128,0,48782:0:0:0:0:
320,192,48782,128,0,49032:0:0:0:0:
64,192,48782,128,0,48907:0:0:0:0:
448,192,48907,128,0,49032:0:0:0:0:
192,192,48907,128,0,49157:0:0:0:0:
64,192,49032,128,0,49157:0:0:0:0:
320,192,49157,128,0,49407:0:0:0:0:
448,192,49157,128,0,49407:0:0:0:0:
64,192,49282,1,0,0:0:0:0:
192,192,49282,1,0,0:0:0:0:
64,192,49407,1,0,0:0:0:0:
192,192,49407,1,0,0:0:0:0:
320,192,49532,128,0,49657:0:0:0:0:
448,192,49532,128,0,49657:0:0:0:0:
64,192,49657,1,0,0:0:0:0:
192,192,49657,1,0,0:0:0:0:
320,192,49782,128,0,49907:0:0:0:0:
448,192,49782,128,0,49907:0:0:0:0:
64,192,49907,1,0,0:0:0:0:
192,192,49907,1,0,0:0:0:0:
448,192,50032,1,0,0:0:0:0:
320,192,50032,1,0,0:0:0:0:
192,192,50157,128,0,50407:0:0:0:0:
64,192,50157,128,0,50407:0:0:0:0:
448,192,50282,1,0,0:0:0:0:
320,192,50282,1,0,0:0:0:0:
448,192,50407,1,0,0:0:0:0:
320,192,50407,1,0,0:0:0:0:
192,192,50532,128,0,50657:0:0:0:0:
64,192,50532,128,0,50657:0:0:0:0:
448,192,50657,1,0,0:0:0:0:
320,192,50657,1,0,0:0:0:0:
192,192,50782,128,0,50907:0:0:0:0:
64,192,50782,128,0,50907:0:0:0:0:
448,192,50907,1,0,0:0:0:0:
320,192,50907,1,0,0:0:0:0:
192,192,51032,1,0,0:0:0:0:
64,192,51032,1,0,0:0:0:0:
448,192,51157,128,0,51407:0:0:0:0:
64,192,51157,128,0,51282:0:0:0:0:
320,192,51157,128,0,51407:0:0:0:0:
192,192,51282,128,0,51532:0:0:0:0:
64,192,51407,128,0,51532:0:0:0:0:
448,192,51532,128,0,51657:0:0:0:0:
320,192,51532,128,0,51782:0:0:0:0:
192,192,51657,128,0,51782:0:0:0:0:
448,192,51782,128,0,51907:0:0:0:0:
64,192,51782,128,0,52032:0:0:0:0:
320,192,51907,128,0,52157:0:0:0:0:
192,192,51907,128,0,52032:0:0:0:0:
448,192,52032,128,0,52157:0:0:0:0:
192,192,52157,128,0,52407:0:0:0:0:
64,192,52157,128,0,52407:0:0:0:0:
320,192,52282,128,0,52532:0:0:0:0:
448,192,52407,128,0,52532:0:0:0:0:
192,192,52532,128,0,52782:0:0:0:0:
64,192,52532,128,0,52657:0:0:0:0:
448,192,52657,128,0,52782:0:0:0:0:
64,192,52782,128,0,52907:0:0:0:0:
320,192,52782,128,0,52907:0:0:0:0:
448,192,52907,128,0,53157:0:0:0:0:
192,192,52907,128,0,53032:0:0:0:0:
64,192,53032,128,0,53157:0:0:0:0:
192,192,53157,128,0,53407:0:0:0:0:
320,192,53157,128,0,53407:0:0:0:0:
448,192,53282,128,0,53532:0:0:0:0:
64,192,53407,128,0,53532:0:0:0:0:
192,192,53532,128,0,53782:0:0:0:0:
320,192,53532,128,0,53657:0:0:0:0:
448,192,53657,128,0,53782:0:0:0:0:
320,192,53782,128,0,54032:0:0:0:0:
64,192,53782,128,0,53907:0:0:0:0:
192,192,53907,128,0,54032:0:0:0:0:
448,192,53907,128,0,54157:0:0:0:0:
64,192,54032,128,0,54157:0:0:0:0:
320,192,54157,128,0,54407:0:0:0:0:
192,192,54157,128,0,54407:0:0:0:0:
64,192,54282,128,0,54532:0:0:0:0:
448,192,54407,128,0,54532:0:0:0:0:
320,192,54532,128,0,54657:0:0:0:0:
192,192,54532,128,0,54782:0:0:0:0:
448,192,54657,128,0,54782:0:0:0:0:
320,192,54782,128,0,54907:0:0:0:0:
64,192,54782,128,0,55032:0:0:0:0:
192,192,54907,128,0,55032:0:0:0:0:
448,192,54907,128,0,55157:0:0:0:0:
320,192,55032,128,0,55157:0:0:0:0:
64,192,55157,128,0,55407:0:0:0:0:
192,192,55157,128,0,55407:0:0:0:0:
320,192,55282,128,0,55532:0:0:0:0:
448,192,55407,128,0,55532:0:0:0:0:
64,192,55532,128,0,55782:0:0:0:0:
192,192,55532,128,0,55657:0:0:0:0:
320,192,55657,128,0,55782:0:0:0:0:
448,192,55782,128,0,56032:0:0:0:0:
192,192,55782,128,0,55907:0:0:0:0:
320,192,55907,128,0,56032:0:0:0:0:
64,192,55907,128,0,56157:0:0:0:0:
192,192,56032,128,0,56157:0:0:0:0:
448,192,56157,128,0,56407:0:0:0:0:
320,192,56157,128,0,56407:0:0:0:0:
64,192,56282,128,0,56532:0:0:0:0:
192,192,56407,128,0,56532:0:0:0:0:
320,192,56532,128,0,56657:0:0:0:0:
448,192,56532,128,0,56782:0:0:0:0:
192,192,56657,128,0,56782:0:0:0:0:
64,192,56782,128,0,57032:0:0:0:0:
320,192,56782,128,0,56907:0:0:0:0:
192,192,56907,128,0,57032:0:0:0:0:
448,192,56907,128,0,57157:0:0:0:0:
320,192,57032,128,0,57157:0:0:0:0:
64,192,57157,128,0,57407:0:0:0:0:
192,192,57157,128,0,57407:0:0:0:0:
320,192,57282,1,0,0:0:0:0:
448,192,57282,1,0,0:0:0:0:
320,192,57407,1,0,0:0:0:0:
448,192,57407,1,0,0:0:0:0:
64,192,57532,128,0,57657:0:0:0:0:
192,192,57532,128,0,57657:0:0:0:0:
320,192,57657,1,0,0:0:0:0:
448,192,57657,1,0,0:0:0:0:
64,192,57782,128,0,57907:0:0:0:0:
192,192,57782,128,0,57907:0:0:0:0:
320,192,57907,1,0,0:0:0:0:
448,192,57907,1,0,0:0:0:0:
192,192,58032,1,0,0:0:0:0:
64,192,58032,1,0,0:0:0:0:
448,192,58157,128,0,58407:0:0:0:0:
320,192,58157,128,0,58407:0:0:0:0:
192,192,58282,1,0,0:0:0:0:
64,192,58282,1,0,0:0:0:0:
192,192,58407,1,0,0:0:0:0:
64,192,58407,1,0,0:0:0:0:
448,192,58532,128,0,58657:0:0:0:0:
320,192,58532,128,0,58657:0:0:0:0:
192,192,58657,1,0,0:0:0:0:
64,192,58657,1,0,0:0:0:0:
448,192,58782,128,0,58907:0:0:0:0:
320,192,58782,128,0,58907:0:0:0:0:
192,192,58907,1,0,0:0:0:0:
64,192,58907,1,0,0:0:0:0:
448,192,59032,1,0,0:0:0:0:
320,192,59032,1,0,0:0:0:0:
448,192,59157,128,0,59407:0:0:0:0:
64,192,59157,128,0,59407:0:0:0:0:
192,192,59157,128,0,59282:0:0:0:0:
320,192,59282,128,0,59407:0:0:0:0:
192,192,59407,128,0,59532:0:0:0:0:
64,192,59532,128,0,59657:0:0:0:0:
320,192,59532,128,0,59657:0:0:0:0:
448,192,59532,128,0,59657:0:0:0:0:
192,192,59657,128,0,59782:0:0:0:0:
320,192,59782,128,0,60032:0:0:0:0:
64,192,59782,128,0,60032:0:0:0:0:
448,192,59782,128,0,59907:0:0:0:0:
192,192,59907,128,0,60032:0:0:0:0:
448,192,60032,128,0,60157:0:0:0:0:
192,192,60157,128,0,60407:0:0:0:0:
320,192,60157,128,0,60407:0:0:0:0:
64,192,60157,128,0,60282:0:0:0:0:
448,192,60282,128,0,60407:0:0:0:0:
64,192,60407,128,0,60532:0:0:0:0:
192,192,60532,128,0,60657:0:0:0:0:
320,192,60532,128,0,60657:0:0:0:0:
448,192,60532,128,0,60657:0:0:0:0:
64,192,60657,128,0,60782:0:0:0:0:
320,192,60782,128,0,60907:0:0:0:0:
192,192,60782,128,0,61032:0:0:0:0:
448,192,60782,128,0,61032:0:0:0:0:
64,192,60907,128,0,61032:0:0:0:0:
320,192,61032,128,0,61157:0:0:0:0:
64,192,61157,128,0,61407:0:0:0:0:
448,192,61157,128,0,61407:0:0:0:0:
192,192,61157,128,0,61282:0:0:0:0:
320,192,61282,128,0,61407:0:0:0:0:
192,192,61407,128,0,61532:0:0:0:0:
320,192,61532,128,0,61657:0:0:0:0:
448,192,61532,128,0,61657:0:0:0:0:
64,192,61532,128,0,61657:0:0:0:0:
192,192,61657,128,0,61782:0:0:0:0:
64,192,61782,128,0,61907:0:0:0:0:
320,192,61782,128,0,62032:0:0:0:0:
448,192,61782,128,0,62032:0:0:0:0:
192,192,61907,128,0,62032:0:0:0:0:
64,192,62032,128,0,62157:0:0:0:0:
320,192,62157,128,0,62282:0:0:0:0:
192,192,62157,128,0,62407:0:0:0:0:
448,192,62157,128,0,62407:0:0:0:0:
64,192,62282,128,0,62407:0:0:0:0:
320,192,62407,128,0,62532:0:0:0:0:
192,192,62532,128,0,62657:0:0:0:0:
64,192,62532,128,0,62657:0:0:0:0:
448,192,62532,128,0,62657:0:0:0:0:
320,192,62657,128,0,62782:0:0:0:0:
192,192,62782,128,0,62907:0:0:0:0:
64,192,62782,128,0,63032:0:0:0:0:
448,192,62782,128,0,63032:0:0:0:0:
320,192,62907,128,0,63032:0:0:0:0:
192,192,63032,128,0,63157:0:0:0:0:
64,192,63157,128,0,63407:0:0:0:0:
320,192,63157,128,0,63407:0:0:0:0:
448,192,63157,128,0,63282:0:0:0:0:
192,192,63282,128,0,63407:0:0:0:0:
448,192,63407,128,0,63532:0:0:0:0:
192,192,63532,128,0,63657:0:0:0:0:
320,192,63532,128,0,63657:0:0:0:0:
64,192,63532,128,0,63657:0:0:0:0:
448,192,63657,128,0,63782:0:0:0:0:
64,192,63782,128,0,63907:0:0:0:0:
192,192,63782,128,0,64032:0:0:0:0:
320,192,63782,128,0,64032:0:0:0:0:
448,192,63907,128,0,64032:0:0:0:0:
64,192,64032,128,0,64157:0:0:0:0:
448,192,64157,128,0,64407:0:0:0:0:
320,192,64157,128,0,64282:0:0:0:0:
192,192,64157,128,0,64407:0:0:0:0:
64,192,64282,128,0,64407:0:0:0:0:
320,192,64407,128,0,64532:0:0:0:0:
448,192,64532,128,0,64657:0:0:0:0:
192,192,64532,128,0,64657:0:0:0:0:
64,192,64532,128,0,64657:0:0:0:0:
320,192,64657,128,0,64782:0:0:0:0:
64,192,64782,128,0,65032:0:0:0:0:
192,192,64782,128,0,64907:0:0:0:0:
448,192,64782,128,0,65032:0:0:0:0:
320,192,64907,128,0,65032:0:0:0:0:
192,192,65032,128,0,65157:0:0:0:0:
448,192,65157,128,0,65282:0:0:0:0:
320,192,65157,128,0,65282:0:0:0:0:
64,192,65157,128,0,65532:0:0:0:0:
192,192,65282,128,0,65407:0:0:0:0:
320,192,65407,1,0,0:0:0:0:
448,192,65407,1,0,0:0:0:0:
192,192,65532,1,0,0:0:0:0:
320,192,65532,128,0,65657:0:0:0:0:
448,192,65532,128,0,65657:0:0:0:0:
320,192,65782,128,0,65907:0:0:0:0:
448,192,65782,1,0,0:0:0:0:
192,192,65782,128,0,65907:0:0:0:0:
64,192,66032,128,0,66157:0:0:0:0:
192,192,66032,128,0,66157:0:0:0:0:
448,192,66032,1,0,0:0:0:0:
320,192,66282,128,0,66407:0:0:0:0:
64,192,66282,128,0,66407:0:0:0:0:
448,192,66282,1,0,0:0:0:0:
192,192,66532,128,0,66657:0:0:0:0:
320,192,66532,128,0,66657:0:0:0:0:
448,192,66532,1,0,0:0:0:0:
64,192,66782,128,0,67032:0:0:0:0:
192,192,66782,128,0,66907:0:0:0:0:
320,192,66907,128,0,67032:0:0:0:0:
448,192,66907,128,0,67032:0:0:0:0:
192,192,67032,128,0,67157:0:0:0:0:
64,192,67157,128,0,67407:0:0:0:0:
448,192,67157,128,0,67407:0:0:0:0:
320,192,67157,128,0,67282:0:0:0:0:
192,192,67282,128,0,67407:0:0:0:0:
320,192,67407,128,0,67532:0:0:0:0:
448,192,67532,128,0,67657:0:0:0:0:
192,192,67532,128,0,67657:0:0:0:0:
64,192,67532,128,0,67657:0:0:0:0:
320,192,67657,128,0,67782:0:0:0:0:
192,192,67782,128,0,68032:0:0:0:0:
448,192,67782,128,0,68032:0:0:0:0:
64,192,67782,128,0,67907:0:0:0:0:
320,192,67907,128,0,68032:0:0:0:0:
64,192,68032,128,0,68157:0:0:0:0:
320,192,68157,128,0,68407:0:0:0:0:
192,192,68157,128,0,68407:0:0:0:0:
448,192,68157,128,0,68282:0:0:0:0:
64,192,68282,128,0,68407:0:0:0:0:
448,192,68407,128,0,68532:0:0:0:0:
320,192,68532,128,0,68657:0:0:0:0:
192,192,68532,128,0,68657:0:0:0:0:
64,192,68532,128,0,68657:0:0:0:0:
448,192,68657,128,0,68782:0:0:0:0:
192,192,68782,128,0,68907:0:0:0:0:
320,192,68782,128,0,69032:0:0:0:0:
64,192,68782,128,0,69032:0:0:0:0:
448,192,68907,128,0,69032:0:0:0:0:
192,192,69032,128,0,69157:0:0:0:0:
448,192,69157,128,0,69407:0:0:0:0:
64,192,69157,128,0,69407:0:0:0:0:
320,192,69157,128,0,69282:0:0:0:0:
192,192,69282,128,0,69407:0:0:0:0:
320,192,69407,128,0,69532:0:0:0:0:
192,192,69532,128,0,69657:0:0:0:0:
64,192,69532,128,0,69657:0:0:0:0:
448,192,69532,128,0,69657:0:0:0:0:
320,192,69657,128,0,69782:0:0:0:0:
448,192,69782,128,0,69907:0:0:0:0:
192,192,69782,128,0,70032:0:0:0:0:
64,192,69782,128,0,70032:0:0:0:0:
320,192,69907,128,0,70032:0:0:0:0:
448,192,70032,128,0,70157:0:0:0:0:
192,192,70157,128,0,70282:0:0:0:0:
320,192,70157,128,0,70407:0:0:0:0:
64,192,70157,128,0,70407:0:0:0:0:
448,192,70282,128,0,70407:0:0:0:0:
192,192,70407,128,0,70532:0:0:0:0:
320,192,70532,128,0,70657:0:0:0:0:
448,192,70532,128,0,70657:0:0:0:0:
64,192,70532,128,0,70657:0:0:0:0:
192,192,70657,128,0,70782:0:0:0:0:
320,192,70782,128,0,70907:0:0:0:0:
448,192,70782,128,0,71032:0:0:0:0:
64,192,70782,128,0,71032:0:0:0:0:
192,192,70907,128,0,71032:0:0:0:0:
320,192,71032,128,0,71157:0:0:0:0:
448,192,71157,128,0,71407:0:0:0:0:
192,192,71157,128,0,71407:0:0:0:0:
64,192,71157,128,0,71282:0:0:0:0:
320,192,71282,128,0,71407:0:0:0:0:
64,192,71407,128,0,71532:0:0:0:0:
320,192,71532,128,0,71657:0:0:0:0:
192,192,71532,128,0,71657:0:0:0:0:
448,192,71532,128,0,71657:0:0:0:0:
64,192,71657,128,0,71782:0:0:0:0:
448,192,71782,128,0,71907:0:0:0:0:
320,192,71782,128,0,72032:0:0:0:0:
192,192,71782,128,0,72032:0:0:0:0:
64,192,71907,128,0,72032:0:0:0:0:
448,192,72032,128,0,72157:0:0:0:0:
64,192,72157,128,0,72407:0:0:0:0:
192,192,72157,128,0,72282:0:0:0:0:
320,192,72157,128,0,72407:0:0:0:0:
448,192,72282,128,0,72407:0:0:0:0:
192,192,72407,128,0,72532:0:0:0:0:
64,192,72532,128,0,72657:0:0:0:0:
320,192,72532,128,0,72657:0:0:0:0:
448,192,72532,128,0,72657:0:0:0:0:
192,192,72657,128,0,72782:0:0:0:0:
448,192,72782,128,0,73032:0:0:0:0:
320,192,72782,128,0,72907:0:0:0:0:
64,192,72782,128,0,73032:0:0:0:0:
192,192,72907,128,0,73032:0:0:0:0:
320,192,73032,128,0,73157:0:0:0:0:
64,192,73157,1,0,0:0:0:0:
192,192,73157,1,0,0:0:0:0:
448,192,73157,128,0,73282:0:0:0:0:
192,192,73282,128,0,73532:0:0:0:0:
64,192,73282,128,0,73407:0:0:0:0:
320,192,73407,1,0,0:0:0:0:
448,192,73407,1,0,0:0:0:0:
64,192,73532,1,0,0:0:0:0:
320,192,73532,128,0,73657:0:0:0:0:
448,192,73532,128,0,73657:0:0:0:0:
64,192,73657,1,0,0:0:0:0:
192,192,73657,1,0,0:0:0:0:
320,192,73782,1,0,0:0:0:0:
448,192,73782,1,0,0:0:0:0:
64,192,73907,1,0,0:0:0:0:
192,192,73907,1,0,0:0:0:0:
320,192,73907,128,0,74032:0:0:0:0:
64,192,74032,128,0,74282:0:0:0:0:
192,192,74032,128,0,74157:0:0:0:0:
320,192,74157,1,0,0:0:0:0:
448,192,74157,1,0,0:0:0:0:
192,192,74282,1,0,0:0:0:0:
320,192,74282,128,0,74407:0:0:0:0:
448,192,74282,128,0,74407:0:0:0:0:
192,192,74407,1,0,0:0:0:0:
64,192,74407,1,0,0:0:0:0:
320,192,74532,1,0,0:0:0:0:
448,192,74532,1,0,0:0:0:0:
64,192,74657,1,0,0:0:0:0:
192,192,74657,1,0,0:0:0:0:
448,192,74657,128,0,75032:0:0:0:0:
192,192,74782,1,0,0:0:0:0:
64,192,74782,1,0,0:0:0:0:
320,192,74907,128,0,75032:0:0:0:0:
64,192,74990,1,0,0:0:0:0:
192,192,75073,1,0,0:0:0:0:
320,192,75157,1,0,0:0:0:0:
448,192,75157,128,0,76104:0:0:0:0:
64,192,75157,128,0,75472:0:0:0:0:
192,192,75472,1,0,0:0:0:0:
320,192,75630,128,0,76420:0:0:0:0:
64,192,75788,1,0,0:0:0:0:
64,192,76104,128,0,76420:0:0:0:0:
192,192,76420,128,0,77367:0:0:0:0:
448,192,76420,128,0,76735:0:0:0:0:
320,192,76735,1,0,0:0:0:0:
64,192,76893,128,0,77683:0:0:0:0:
448,192,77051,1,0,0:0:0:0:
448,192,77367,128,0,77683:0:0:0:0:
320,192,77683,128,0,78630:0:0:0:0:
192,192,77683,128,0,77999:0:0:0:0:
64,192,77999,1,0,0:0:0:0:
448,192,78157,128,0,78946:0:0:0:0:
192,192,78314,1,0,0:0:0:0:
192,192,78630,128,0,78946:0:0:0:0:
320,192,78946,128,0,79262:0:0:0:0:
64,192,78946,128,0,80130:0:0:0:0:
448,192,79262,1,0,0:0:0:0:
192,192,79420,128,0,80130:0:0:0:0:
320,192,79578,1,0,0:0:0:0:
448,192,79893,128,0,80130:0:0:0:0:
320,192,79893,128,0,80130:0:0:0:0:
192,192,80209,1,0,0:0:0:0:
320,192,80209,1,0,0:0:0:0:
64,192,80209,128,0,81157:0:0:0:0:
448,192,80209,128,0,80525:0:0:0:0:
320,192,80525,1,0,0:0:0:0:
192,192,80683,128,0,81472:0:0:0:0:
448,192,80841,1,0,0:0:0:0:
448,192,81157,128,0,81472:0:0:0:0:
320,192,81472,128,0,82420:0:0:0:0:
64,192,81472,128,0,81788:0:0:0:0:
192,192,81788,1,0,0:0:0:0:
448,192,81946,128,0,82735:0:0:0:0:
64,192,82104,1,0,0:0:0:0:
64,192,82420,128,0,82735:0:0:0:0:
192,192,82735,128,0,83683:0:0:0:0:
320,192,82735,128,0,83051:0:0:0:0:
448,192,83051,1,0,0:0:0:0:
64,192,83209,128,0,83999:0:0:0:0:
320,192,83367,1,0,0:0:0:0:
320,192,83683,128,0,83999:0:0:0:0:
192,192,83999,128,0,84314:0:0:0:0:
448,192,83999,128,0,85183:0:0:0:0:
64,192,84314,1,0,0:0:0:0:
320,192,84472,128,0,85183:0:0:0:0:
192,192,84630,1,0,0:0:0:0:
64,192,84946,128,0,85183:0:0:0:0:
192,192,84946,128,0,85183:0:0:0:0:
192,192,85262,1,0,0:0:0:0:
320,192,85262,1,0,0:0:0:0:
448,192,85262,128,0,85893:0:0:0:0:
64,192,85262,128,0,85578:0:0:0:0:
320,192,85578,1,0,0:0:0:0:
192,192,85735,128,0,86209:0:0:0:0:
64,192,85735,128,0,86051:0:0:0:0:
320,192,85893,128,0,86367:0:0:0:0:
64,192,86209,128,0,86525:0:0:0:0:
448,192,86209,128,0,86367:0:0:0:0:
192,192,86525,128,0,87157:0:0:0:0:
320,192,86525,128,0,86841:0:0:0:0:
448,192,86525,1,0,0:0:0:0:
64,192,86841,1,0,0:0:0:0:
320,192,86999,128,0,87472:0:0:0:0:
448,192,86999,128,0,87314:0:0:0:0:
64,192,87157,128,0,87630:0:0:0:0:
448,192,87472,128,0,87788:0:0:0:0:
192,192,87472,128,0,87630:0:0:0:0:
320,192,87788,128,0,88420:0:0:0:0:
192,192,87788,128,0,88104:0:0:0:0:
64,192,87788,1,0,0:0:0:0:
448,192,88104,1,0,0:0:0:0:
64,192,88262,128,0,88893:0:0:0:0:
192,192,88262,128,0,88578:0:0:0:0:
448,192,88420,128,0,88735:0:0:0:0:
320,192,88735,128,0,89051:0:0:0:0:
192,192,88735,128,0,88893:0:0:0:0:
448,192,89051,128,0,89367:0:0:0:0:
64,192,89051,128,0,89683:0:0:0:0:
192,192,89051,1,0,0:0:0:0:
320,192,89367,1,0,0:0:0:0:
192,192,89525,128,0,90235:0:0:0:0:
448,192,89525,128,0,89841:0:0:0:0:
320,192,89683,128,0,90235:0:0:0:0:
448,192,89999,128,0,90235:0:0:0:0:
64,192,89999,128,0,90235:0:0:0:0:
192,192,90314,1,0,0:0:0:0:
320,192,90314,1,0,0:0:0:0:
64,192,90314,128,0,90946:0:0:0:0:
448,192,90314,128,0,90630:0:0:0:0:
192,192,90630,1,0,0:0:0:0:
320,192,90788,128,0,91262:0:0:0:0:
448,192,90788,128,0,91104:0:0:0:0:
192,192,90946,128,0,91420:0:0:0:0:
448,192,91262,128,0,91420:0:0:0:0:
64,192,91262,128,0,91420:0:0:0:0:
320,192,91420,128,0,91578:0:0:0:0:
64,192,91578,128,0,92209:0:0:0:0:
448,192,91578,128,0,91893:0:0:0:0:
192,192,91578,1,0,0:0:0:0:
192,192,91893,1,0,0:0:0:0:
320,192,92051,128,0,92683:0:0:0:0:
448,192,92051,128,0,92367:0:0:0:0:
192,192,92209,128,0,92525:0:0:0:0:
64,192,92525,128,0,92683:0:0:0:0:
448,192,92525,128,0,92683:0:0:0:0:
192,192,92683,128,0,92841:0:0:0:0:
448,192,92841,128,0,93314:0:0:0:0:
320,192,92841,128,0,93630:0:0:0:0:
64,192,92841,128,0,93157:0:0:0:0:
64,192,93314,1,0,0:0:0:0:
192,192,93314,1,0,0:0:0:0:
64,192,93472,128,0,93788:0:0:0:0:
448,192,93472,128,0,93630:0:0:0:0:
192,192,93788,128,0,93946:0:0:0:0:
448,192,93788,128,0,94262:0:0:0:0:
320,192,93788,128,0,94104:0:0:0:0:
192,192,94104,1,0,0:0:0:0:
64,192,94183,1,0,0:0:0:0:
320,192,94262,1,0,0:0:0:0:
192,192,94341,1,0,0:0:0:0:
448,192,94420,1,0,0:0:0:0:
192,192,94499,1,0,0:0:0:0:
320,192,94578,1,0,0:0:0:0:
448,192,94657,1,0,0:0:0:0:
64,192,94735,1,0,0:0:0:0:
448,192,94814,1,0,0:0:0:0:
64,192,94893,1,0,0:0:0:0:
192,192,94972,1,0,0:0:0:0:
320,192,95051,1,0,0:0:0:0:
448,192,95051,1,0,0:0:0:0:
64,192,95367,1,0,0:0:0:0:
192,192,95367,1,0,0:0:0:0:
448,192,95367,1,0,0:0:0:0:
320,192,95446,1,0,0:0:0:0:
64,192,95525,1,0,0:0:0:0:
320,192,95604,1,0,0:0:0:0:
192,192,95683,1,0,0:0:0:0:
64,192,95683,1,0,0:0:0:0:
448,192,95762,1,0,0:0:0:0:
320,192,95841,1,0,0:0:0:0:
192,192,95841,1,0,0:0:0:0:
64,192,95920,1,0,0:0:0:0:
448,192,95999,1,0,0:0:0:0:
320,192,95999,1,0,0:0:0:0:
192,192,96078,1,0,0:0:0:0:
448,192,96157,1,0,0:0:0:0:
192,192,96235,1,0,0:0:0:0:
64,192,96314,1,0,0:0:0:0:
448,192,96314,1,0,0:0:0:0:
320,192,96393,1,0,0:0:0:0:
64,192,96472,1,0,0:0:0:0:
448,192,96551,1,0,0:0:0:0:
192,192,96630,1,0,0:0:0:0:
320,192,96630,1,0,0:0:0:0:
64,192,96709,1,0,0:0:0:0:
320,192,96788,1,0,0:0:0:0:
64,192,96867,1,0,0:0:0:0:
448,192,96946,1,0,0:0:0:0:
320,192,96946,1,0,0:0:0:0:
192,192,97025,1,0,0:0:0:0:
448,192,97104,1,0,0:0:0:0:
64,192,97104,1,0,0:0:0:0:
320,192,97183,1,0,0:0:0:0:
64,192,97262,1,0,0:0:0:0:
192,192,97262,1,0,0:0:0:0:
448,192,97341,1,0,0:0:0:0:
192,192,97420,1,0,0:0:0:0:
448,192,97499,1,0,0:0:0:0:
320,192,97578,1,0,0:0:0:0:
192,192,97578,1,0,0:0:0:0:
64,192,97657,1,0,0:0:0:0:
320,192,97735,1,0,0:0:0:0:
192,192,97814,1,0,0:0:0:0:
64,192,97893,1,0,0:0:0:0:
448,192,97893,1,0,0:0:0:0:
320,192,97972,1,0,0:0:0:0:
64,192,98051,1,0,0:0:0:0:
320,192,98130,1,0,0:0:0:0:
192,192,98209,1,0,0:0:0:0:
64,192,98209,1,0,0:0:0:0:
448,192,98288,1,0,0:0:0:0:
320,192,98367,1,0,0:0:0:0:
192,192,98367,1,0,0:0:0:0:
64,192,98446,1,0,0:0:0:0:
320,192,98525,1,0,0:0:0:0:
448,192,98525,1,0,0:0:0:0:
192,192,98604,1,0,0:0:0:0:
448,192,98683,1,0,0:0:0:0:
192,192,98762,1,0,0:0:0:0:
448,192,98841,1,0,0:0:0:0:
64,192,98841,1,0,0:0:0:0:
320,192,98920,1,0,0:0:0:0:
64,192,98999,1,0,0:0:0:0:
448,192,99078,1,0,0:0:0:0:
192,192,99157,1,0,0:0:0:0:
320,192,99157,1,0,0:0:0:0:
64,192,99235,1,0,0:0:0:0:
320,192,99314,1,0,0:0:0:0:
64,192,99393,1,0,0:0:0:0:
448,192,99472,1,0,0:0:0:0:
320,192,99472,1,0,0:0:0:0:
192,192,99551,1,0,0:0:0:0:
448,192,99630,1,0,0:0:0:0:
64,192,99630,1,0,0:0:0:0:
320,192,99709,1,0,0:0:0:0:
64,192,99788,1,0,0:0:0:0:
192,192,99788,1,0,0:0:0:0:
448,192,99867,1,0,0:0:0:0:
192,192,99946,1,0,0:0:0:0:
448,192,100025,1,0,0:0:0:0:
320,192,100104,1,0,0:0:0:0:
192,192,100104,1,0,0:0:0:0:
64,192,100183,1,0,0:0:0:0:
320,192,100262,1,0,0:0:0:0:
192,192,100341,1,0,0:0:0:0:
448,192,100420,1,0,0:0:0:0:
320,192,100420,1,0,0:0:0:0:
64,192,100420,1,0,0:0:0:0:
192,192,100499,1,0,0:0:0:0:
448,192,100578,1,0,0:0:0:0:
192,192,100657,1,0,0:0:0:0:
320,192,100735,1,0,0:0:0:0:
448,192,100735,1,0,0:0:0:0:
64,192,100814,1,0,0:0:0:0:
192,192,100893,1,0,0:0:0:0:
320,192,100893,1,0,0:0:0:0:
448,192,100972,1,0,0:0:0:0:
64,192,101051,1,0,0:0:0:0:
192,192,101051,1,0,0:0:0:0:
320,192,101130,1,0,0:0:0:0:
64,192,101209,1,0,0:0:0:0:
320,192,101288,1,0,0:0:0:0:
448,192,101367,1,0,0:0:0:0:
64,192,101367,1,0,0:0:0:0:
192,192,101446,1,0,0:0:0:0:
448,192,101525,1,0,0:0:0:0:
64,192,101604,1,0,0:0:0:0:
320,192,101683,1,0,0:0:0:0:
192,192,101683,1,0,0:0:0:0:
448,192,101762,1,0,0:0:0:0:
192,192,101841,1,0,0:0:0:0:
448,192,101920,1,0,0:0:0:0:
64,192,101999,1,0,0:0:0:0:
192,192,101999,1,0,0:0:0:0:
320,192,102078,1,0,0:0:0:0:
64,192,102157,1,0,0:0:0:0:
448,192,102157,1,0,0:0:0:0:
192,192,102235,1,0,0:0:0:0:
448,192,102314,1,0,0:0:0:0:
320,192,102314,1,0,0:0:0:0:
64,192,102393,1,0,0:0:0:0:
320,192,102472,1,0,0:0:0:0:
64,192,102551,1,0,0:0:0:0:
192,192,102630,1,0,0:0:0:0:
320,192,102630,1,0,0:0:0:0:
448,192,102709,1,0,0:0:0:0:
192,192,102788,1,0,0:0:0:0:
320,192,102867,1,0,0:0:0:0:
448,192,102946,1,0,0:0:0:0:
64,192,102946,1,0,0:0:0:0:
192,192,103025,1,0,0:0:0:0:
448,192,103104,1,0,0:0:0:0:
192,192,103183,1,0,0:0:0:0:
320,192,103262,1,0,0:0:0:0:
448,192,103262,1,0,0:0:0:0:
64,192,103341,1,0,0:0:0:0:
192,192,103420,1,0,0:0:0:0:
320,192,103420,1,0,0:0:0:0:
448,192,103499,1,0,0:0:0:0:
192,192,103578,1,0,0:0:0:0:
64,192,103578,1,0,0:0:0:0:
320,192,103657,1,0,0:0:0:0:
64,192,103735,1,0,0:0:0:0:
320,192,103814,1,0,0:0:0:0:
64,192,103893,1,0,0:0:0:0:
448,192,103893,1,0,0:0:0:0:
192,192,103972,1,0,0:0:0:0:
448,192,104051,1,0,0:0:0:0:
320,192,104130,1,0,0:0:0:0:
192,192,104209,1,0,0:0:0:0:
64,192,104209,1,0,0:0:0:0:
448,192,104288,1,0,0:0:0:0:
64,192,104367,1,0,0:0:0:0:
192,192,104367,1,0,0:0:0:0:
320,192,104446,1,0,0:0:0:0:
64,192,104525,1,0,0:0:0:0:
192,192,104604,1,0,0:0:0:0:
448,192,104683,1,0,0:0:0:0:
320,192,104683,1,0,0:0:0:0:
64,192,104762,1,0,0:0:0:0:
448,192,104841,1,0,0:0:0:0:
320,192,104841,1,0,0:0:0:0:
192,192,104920,1,0,0:0:0:0:
448,192,104999,1,0,0:0:0:0:
320,192,105078,1,0,0:0:0:0:
192,192,105157,1,0,0:0:0:0:
64,192,105157,1,0,0:0:0:0:
448,192,105235,1,0,0:0:0:0:
320,192,105235,1,0,0:0:0:0:
64,192,105314,1,0,0:0:0:0:
320,192,105393,1,0,0:0:0:0:
64,192,105472,1,0,0:0:0:0:
192,192,105472,1,0,0:0:0:0:
448,192,105472,1,0,0:0:0:0:
320,192,105630,1,0,0:0:0:0:
192,192,105709,1,0,0:0:0:0:
64,192,105788,1,0,0:0:0:0:
448,192,105788,1,0,0:0:0:0:
320,192,105867,1,0,0:0:0:0:
192,192,105946,1,0,0:0:0:0:
448,192,105946,1,0,0:0:0:0:
64,192,106025,1,0,0:0:0:0:
448,192,106104,1,0,0:0:0:0:
320,192,106104,1,0,0:0:0:0:
64,192,106183,1,0,0:0:0:0:
192,192,106183,1,0,0:0:0:0:
320,192,106262,1,0,0:0:0:0:
192,192,106341,1,0,0:0:0:0:
448,192,106420,1,0,0:0:0:0:
64,192,106420,1,0,0:0:0:0:
320,192,106499,1,0,0:0:0:0:
64,192,106578,1,0,0:0:0:0:
448,192,106657,1,0,0:0:0:0:
192,192,106735,1,0,0:0:0:0:
64,192,106735,1,0,0:0:0:0:
320,192,106735,1,0,0:0:0:0:
448,192,106814,1,0,0:0:0:0:
192,192,106893,1,0,0:0:0:0:
320,192,106972,1,0,0:0:0:0:
64,192,107051,1,0,0:0:0:0:
448,192,107051,1,0,0:0:0:0:
192,192,107130,1,0,0:0:0:0:
320,192,107209,1,0,0:0:0:0:
448,192,107209,1,0,0:0:0:0:
192,192,107288,1,0,0:0:0:0:
320,192,107367,1,0,0:0:0:0:
448,192,107367,1,0,0:0:0:0:
64,192,107446,1,0,0:0:0:0:
192,192,107446,1,0,0:0:0:0:
320,192,107525,1,0,0:0:0:0:
192,192,107604,1,0,0:0:0:0:
320,192,107683,1,0,0:0:0:0:
448,192,107683,1,0,0:0:0:0:
192,192,107762,1,0,0:0:0:0:
64,192,107841,1,0,0:0:0:0:
320,192,107920,1,0,0:0:0:0:
64,192,107999,1,0,0:0:0:0:
448,192,107999,1,0,0:0:0:0:
192,192,107999,1,0,0:0:0:0:
320,192,108078,1,0,0:0:0:0:
192,192,108157,1,0,0:0:0:0:
320,192,108235,1,0,0:0:0:0:
448,192,108314,1,0,0:0:0:0:
64,192,108314,1,0,0:0:0:0:
192,192,108393,1,0,0:0:0:0:
320,192,108472,1,0,0:0:0:0:
64,192,108472,1,0,0:0:0:0:
448,192,108551,1,0,0:0:0:0:
64,192,108630,1,0,0:0:0:0:
192,192,108630,1,0,0:0:0:0:
448,192,108709,1,0,0:0:0:0:
320,192,108709,1,0,0:0:0:0:
192,192,108788,1,0,0:0:0:0:
320,192,108867,1,0,0:0:0:0:
64,192,108946,1,0,0:0:0:0:
448,192,108946,1,0,0:0:0:0:
192,192,109025,1,0,0:0:0:0:
448,192,109104,1,0,0:0:0:0:
64,192,109183,1,0,0:0:0:0:
320,192,109262,1,0,0:0:0:0:
448,192,109262,1,0,0:0:0:0:
192,192,109262,1,0,0:0:0:0:
64,192,109341,1,0,0:0:0:0:
320,192,109420,1,0,0:0:0:0:
192,192,109499,1,0,0:0:0:0:
448,192,109578,1,0,0:0:0:0:
64,192,109578,1,0,0:0:0:0:
320,192,109657,1,0,0:0:0:0:
192,192,109735,1,0,0:0:0:0:
64,192,109735,1,0,0:0:0:0:
320,192,109814,1,0,0:0:0:0:
448,192,109814,1,0,0:0:0:0:
192,192,109893,1,0,0:0:0:0:
448,192,109972,1,0,0:0:0:0:
320,192,109972,1,0,0:0:0:0:
192,192,110051,1,0,0:0:0:0:
320,192,110130,1,0,0:0:0:0:
192,192,110209,1,0,0:0:0:0:
64,192,110209,1,0,0:0:0:0:
320,192,110288,1,0,0:0:0:0:
448,192,110367,1,0,0:0:0:0:
192,192,110446,1,0,0:0:0:0:
448,192,110525,1,0,0:0:0:0:
64,192,110525,1,0,0:0:0:0:
320,192,110525,1,0,0:0:0:0:
192,192,110604,1,0,0:0:0:0:
320,192,110683,1,0,0:0:0:0:
192,192,110762,1,0,0:0:0:0:
64,192,110841,1,0,0:0:0:0:
448,192,110841,1,0,0:0:0:0:
320,192,110920,1,0,0:0:0:0:
192,192,110999,1,0,0:0:0:0:
448,192,110999,1,0,0:0:0:0:
64,192,111078,1,0,0:0:0:0:
448,192,111157,1,0,0:0:0:0:
320,192,111157,1,0,0:0:0:0:
64,192,111235,1,0,0:0:0:0:
192,192,111235,1,0,0:0:0:0:
320,192,111314,1,0,0:0:0:0:
192,192,111393,1,0,0:0:0:0:
448,192,111472,1,0,0:0:0:0:
64,192,111472,1,0,0:0:0:0:
320,192,111551,1,0,0:0:0:0:
64,192,111630,1,0,0:0:0:0:
448,192,111709,1,0,0:0:0:0:
192,192,111788,1,0,0:0:0:0:
64,192,111788,1,0,0:0:0:0:
320,192,111788,1,0,0:0:0:0:
448,192,111867,1,0,0:0:0:0:
192,192,111946,1,0,0:0:0:0:
320,192,112025,1,0,0:0:0:0:
64,192,112104,1,0,0:0:0:0:
448,192,112104,1,0,0:0:0:0:
192,192,112183,1,0,0:0:0:0:
320,192,112262,1,0,0:0:0:0:
448,192,112262,1,0,0:0:0:0:
192,192,112341,1,0,0:0:0:0:
64,192,112420,1,0,0:0:0:0:
448,192,112420,1,0,0:0:0:0:
320,192,112499,1,0,0:0:0:0:
192,192,112578,1,0,0:0:0:0:
64,192,112578,1,0,0:0:0:0:
320,192,112657,1,0,0:0:0:0:
448,192,112735,1,0,0:0:0:0:
64,192,112735,1,0,0:0:0:0:
192,192,112814,1,0,0:0:0:0:
320,192,112893,1,0,0:0:0:0:
448,192,112893,1,0,0:0:0:0:
192,192,112972,1,0,0:0:0:0:
448,192,113051,128,0,113525:0:0:0:0:
64,192,113051,128,0,113367:0:0:0:0:
320,192,113051,128,0,113525:0:0:0:0:
64,192,113525,1,0,0:0:0:0:
192,192,113525,1,0,0:0:0:0:
448,192,113683,1,0,0:0:0:0:
192,192,113683,128,0,113999:0:0:0:0:
320,192,113683,128,0,113841:0:0:0:0:
448,192,113999,128,0,114314:0:0:0:0:
320,192,113999,128,0,114314:0:0:0:0:
64,192,113999,128,0,114157:0:0:0:0:
64,192,114314,1,0,0:0:0:0:
192,192,114314,1,0,0:0:0:0:
320,192,114393,1,0,0:0:0:0:
448,192,114393,1,0,0:0:0:0:
64,192,114472,1,0,0:0:0:0:
192,192,114551,1,0,0:0:0:0:
320,192,114630,1,0,0:0:0:0:
64,192,114709,1,0,0:0:0:0:
320,192,114788,1,0,0:0:0:0:
448,192,114788,1,0,0:0:0:0:
64,192,114867,1,0,0:0:0:0:
192,192,114867,1,0,0:0:0:0:
320,192,114946,1,0,0:0:0:0:
448,192,115025,1,0,0:0:0:0:
192,192,115104,1,0,0:0:0:0:
320,192,115183,1,0,0:0:0:0:
64,192,115262,1,0,0:0:0:0:
192,192,115262,128,0,115578:0:0:0:0:
320,192,115578,128,0,115888:0:0:0:0:
448,192,115578,128,0,115733:0:0:0:0:
64,192,115578,128,0,115733:0:0:0:0:
192,192,115888,128,0,116198:0:0:0:0:
64,192,115888,128,0,116043:0:0:0:0:
448,192,115888,128,0,116043:0:0:0:0:
320,192,116198,1,0,0:0:0:0:
448,192,116198,1,0,0:0:0:0:
192,192,116302,1,0,0:0:0:0:
64,192,116302,1,0,0:0:0:0:
192,192,116405,1,0,0:0:0:0:
64,192,116405,1,0,0:0:0:0:
320,192,116509,1,0,0:0:0:0:
448,192,116509,1,0,0:0:0:0:
320,192,116612,1,0,0:0:0:0:
448,192,116612,1,0,0:0:0:0:
192,192,116715,1,0,0:0:0:0:
64,192,116715,1,0,0:0:0:0:
192,192,116819,128,0,117129:0:0:0:0:
64,192,116819,128,0,116974:0:0:0:0:
448,192,116819,128,0,116974:0:0:0:0:
320,192,117129,128,0,117440:0:0:0:0:
448,192,117129,128,0,117284:0:0:0:0:
64,192,117129,128,0,117284:0:0:0:0:
192,192,117440,1,0,0:0:0:0:
64,192,117440,1,0,0:0:0:0:
320,192,117543,1,0,0:0:0:0:
448,192,117543,1,0,0:0:0:0:
320,192,117646,1,0,0:0:0:0:
448,192,117646,1,0,0:0:0:0:
192,192,117750,1,0,0:0:0:0:
64,192,117750,1,0,0:0:0:0:
64,192,117853,1,0,0:0:0:0:
192,192,117853,1,0,0:0:0:0:
320,192,117957,1,0,0:0:0:0:
448,192,117957,1,0,0:0:0:0:
320,192,118060,128,0,118164:0:0:0:0:
448,192,118060,128,0,118164:0:0:0:0:
64,192,118060,128,0,118164:0:0:0:0:
192,192,118164,128,0,118267:0:0:0:0:
320,192,118267,128,0,118371:0:0:0:0:
448,192,118267,128,0,118371:0:0:0:0:
64,192,118267,128,0,118474:0:0:0:0:
192,192,118371,128,0,118474:0:0:0:0:
320,192,118474,1,0,0:0:0:0:
448,192,118474,1,0,0:0:0:0:
320,192,118578,1,0,0:0:0:0:
448,192,118578,1,0,0:0:0:0:
64,192,118681,1,0,0:0:0:0:
192,192,118681,1,0,0:0:0:0:
192,192,118784,1,0,0:0:0:0:
64,192,118784,1,0,0:0:0:0:
448,192,118888,128,0,119043:0:0:0:0:
320,192,118888,128,0,119198:0:0:0:0:
64,192,118888,128,0,119043:0:0:0:0:
64,192,119198,128,0,119353:0:0:0:0:
192,192,119198,128,0,119508:0:0:0:0:
448,192,119198,128,0,119353:0:0:0:0:
448,192,119508,1,0,0:0:0:0:
320,192,119508,1,0,0:0:0:0:
64,192,119612,1,0,0:0:0:0:
192,192,119612,1,0,0:0:0:0:
64,192,119715,1,0,0:0:0:0:
192,192,119715,1,0,0:0:0:0:
320,192,119819,1,0,0:0:0:0:
448,192,119819,1,0,0:0:0:0:
320,192,119922,1,0,0:0:0:0:
448,192,119922,1,0,0:0:0:0:
192,192,120025,1,0,0:0:0:0:
64,192,120025,1,0,0:0:0:0:
192,192,120129,128,0,120439:0:0:0:0:
64,192,120129,128,0,120284:0:0:0:0:
448,192,120129,128,0,120284:0:0:0:0:
320,192,120439,128,0,120750:0:0:0:0:
448,192,120439,128,0,120594:0:0:0:0:
64,192,120439,128,0,120594:0:0:0:0:
64,192,120750,1,0,0:0:0:0:
192,192,120750,1,0,0:0:0:0:
320,192,120853,1,0,0:0:0:0:
448,192,120853,1,0,0:0:0:0:
320,192,120956,1,0,0:0:0:0:
448,192,120956,1,0,0:0:0:0:
192,192,121060,1,0,0:0:0:0:
64,192,121060,1,0,0:0:0:0:
64,192,121163,1,0,0:0:0:0:
192,192,121163,1,0,0:0:0:0:
320,192,121267,1,0,0:0:0:0:
448,192,121267,1,0,0:0:0:0:
64,192,121370,1,0,0:0:0:0:
192,192,121370,1,0,0:0:0:0:
320,192,121370,128,0,121508:0:0:0:0:
448,192,121370,128,0,121646:0:0:0:0:
64,192,121508,128,0,121646:0:0:0:0:
192,192,121508,128,0,121784:0:0:0:0:
320,192,121646,128,0,121922:0:0:0:0:
64,192,121784,128,0,122060:0:0:0:0:
448,192,121784,128,0,121922:0:0:0:0:
192,192,121922,128,0,122060:0:0:0:0:
448,192,122060,1,0,0:0:0:0:
320,192,122060,1,0,0:0:0:0:
448,192,122198,128,0,122353:0:0:0:0:
64,192,122198,128,0,122353:0:0:0:0:
192,192,122198,128,0,122508:0:0:0:0:
64,192,122508,128,0,122663:0:0:0:0:
448,192,122508,128,0,122663:0:0:0:0:
320,192,122508,128,0,122818:0:0:0:0:
64,192,122818,1,0,0:0:0:0:
192,192,122818,1,0,0:0:0:0:
448,192,122922,1,0,0:0:0:0:
320,192,122922,1,0,0:0:0:0:
448,192,123025,1,0,0:0:0:0:
320,192,123025,1,0,0:0:0:0:
64,192,123129,1,0,0:0:0:0:
192,192,123129,1,0,0:0:0:0:
192,192,123232,1,0,0:0:0:0:
64,192,123232,1,0,0:0:0:0:
320,192,123335,1,0,0:0:0:0:
448,192,123335,1,0,0:0:0:0:
448,192,123439,128,0,123594:0:0:0:0:
320,192,123439,128,0,123749:0:0:0:0:
64,192,123439,128,0,123594:0:0:0:0:
192,192,123749,128,0,124060:0:0:0:0:
64,192,123749,128,0,123904:0:0:0:0:
448,192,123749,128,0,123904:0:0:0:0:
320,192,124060,1,0,0:0:0:0:
448,192,124060,1,0,0:0:0:0:
192,192,124163,1,0,0:0:0:0:
64,192,124163,1,0,0:0:0:0:
64,192,124266,1,0,0:0:0:0:
192,192,124266,1,0,0:0:0:0:
320,192,124370,1,0,0:0:0:0:
448,192,124370,1,0,0:0:0:0:
320,192,124473,1,0,0:0:0:0:
448,192,124473,1,0,0:0:0:0:
192,192,124577,1,0,0:0:0:0:
64,192,124577,1,0,0:0:0:0:
192,192,124680,128,0,124784:0:0:0:0:
64,192,124680,128,0,124784:0:0:0:0:
448,192,124680,128,0,124784:0:0:0:0:
320,192,124784,128,0,124887:0:0:0:0:
192,192,124887,128,0,124991:0:0:0:0:
64,192,124887,128,0,124991:0:0:0:0:
448,192,124887,128,0,125094:0:0:0:0:
320,192,124991,128,0,125094:0:0:0:0:
64,192,125094,1,0,0:0:0:0:
192,192,125094,1,0,0:0:0:0:
64,192,125198,1,0,0:0:0:0:
192,192,125198,1,0,0:0:0:0:
448,192,125301,1,0,0:0:0:0:
320,192,125301,1,0,0:0:0:0:
448,192,125404,1,0,0:0:0:0:
320,192,125404,1,0,0:0:0:0:
64,192,125508,128,0,125663:0:0:0:0:
192,192,125508,128,0,125818:0:0:0:0:
448,192,125508,128,0,125663:0:0:0:0:
64,192,125818,128,0,125973:0:0:0:0:
448,192,125818,128,0,125973:0:0:0:0:
320,192,125818,128,0,126128:0:0:0:0:
192,192,126128,1,0,0:0:0:0:
64,192,126128,1,0,0:0:0:0:
448,192,126232,1,0,0:0:0:0:
320,192,126232,1,0,0:0:0:0:
448,192,126335,1,0,0:0:0:0:
320,192,126335,1,0,0:0:0:0:
64,192,126439,1,0,0:0:0:0:
192,192,126439,1,0,0:0:0:0:
192,192,126542,1,0,0:0:0:0:
64,192,126542,1,0,0:0:0:0:
320,192,126645,1,0,0:0:0:0:
448,192,126645,1,0,0:0:0:0:
320,192,126749,128,0,127059:0:0:0:0:
448,192,126749,128,0,126904:0:0:0:0:
64,192,126749,128,0,126904:0:0:0:0:
64,192,127059,128,0,127214:0:0:0:0:
192,192,127059,128,0,127370:0:0:0:0:
448,192,127059,128,0,127214:0:0:0:0:
320,192,127370,1,0,0:0:0:0:
448,192,127370,1,0,0:0:0:0:
192,192,127473,1,0,0:0:0:0:
64,192,127473,1,0,0:0:0:0:
64,192,127576,1,0,0:0:0:0:
192,192,127576,1,0,0:0:0:0:
320,192,127680,1,0,0:0:0:0:
448,192,127680,1,0,0:0:0:0:
320,192,127783,1,0,0:0:0:0:
448,192,127783,1,0,0:0:0:0:
192,192,127887,1,0,0:0:0:0:
64,192,127887,1,0,0:0:0:0:
448,192,127990,1,0,0:0:0:0:
320,192,127990,1,0,0:0:0:0:
64,192,127990,128,0,128265:0:0:0:0:
192,192,127990,128,0,128127:0:0:0:0:
448,192,128127,128,0,128265:0:0:0:0:
320,192,128127,128,0,128403:0:0:0:0:
192,192,128265,128,0,128541:0:0:0:0:
448,192,128403,128,0,128679:0:0:0:0:
64,192,128403,128,0,128541:0:0:0:0:
320,192,128541,128,0,128679:0:0:0:0:
64,192,128679,1,0,0:0:0:0:
192,192,128679,1,0,0:0:0:0:
448,192,128817,1,0,0:0:0:0:
320,192,128817,128,0,129024:0:0:0:0:
192,192,128817,128,0,128921:0:0:0:0:
64,192,128921,128,0,129127:0:0:0:0:
192,192,129024,128,0,129231:0:0:0:0:
448,192,129024,128,0,129127:0:0:0:0:
320,192,129127,128,0,129334:0:0:0:0:
64,192,129231,128,0,129438:0:0:0:0:
448,192,129231,128,0,129334:0:0:0:0:
192,192,129334,128,0,129438:0:0:0:0:
448,192,129438,1,0,0:0:0:0:
320,192,129438,1,0,0:0:0:0:
192,192,129541,1,0,0:0:0:0:
320,192,129648,128,0,129854:0:0:0:0:
448,192,129648,128,0,129854:0:0:0:0:
64,192,129648,128,0,129854:0:0:0:0:
320,192,129958,128,0,130268:0:0:0:0:
448,192,129958,128,0,130268:0:0:0:0:
64,192,129958,1,0,0:0:0:0:
192,192,130061,1,0,0:0:0:0:
192,192,130268,128,0,130372:0:0:0:0:
64,192,130268,128,0,130372:0:0:0:0:
448,192,130372,128,0,130475:0:0:0:0:
64,192,130475,128,0,130785:0:0:0:0:
320,192,130475,128,0,130682:0:0:0:0:
192,192,130475,128,0,130579:0:0:0:0:
448,192,130579,128,0,130682:0:0:0:0:
192,192,130682,128,0,130785:0:0:0:0:
448,192,130785,128,0,130889:0:0:0:0:
64,192,130889,128,0,131096:0:0:0:0:
192,192,130889,128,0,131096:0:0:0:0:
320,192,130889,128,0,131096:0:0:0:0:
64,192,131199,128,0,131510:0:0:0:0:
192,192,131199,128,0,131510:0:0:0:0:
320,192,131199,1,0,0:0:0:0:
448,192,131303,1,0,0:0:0:0:
320,192,131510,128,0,131613:0:0:0:0:
448,192,131510,128,0,131613:0:0:0:0:
192,192,131613,128,0,131716:0:0:0:0:
320,192,131716,128,0,131820:0:0:0:0:
64,192,131716,128,0,131923:0:0:0:0:
448,192,131716,128,0,132027:0:0:0:0:
192,192,131820,128,0,131923:0:0:0:0:
320,192,131923,128,0,132027:0:0:0:0:
192,192,132027,128,0,132130:0:0:0:0:
448,192,132130,128,0,132234:0:0:0:0:
64,192,132130,128,0,132234:0:0:0:0:
320,192,132130,128,0,132234:0:0:0:0:
192,192,132234,128,0,132441:0:0:0:0:
64,192,132337,128,0,132441:0:0:0:0:
448,192,132337,128,0,132441:0:0:0:0:
320,192,132441,128,0,132648:0:0:0:0:
64,192,132544,128,0,132648:0:0:0:0:
448,192,132544,128,0,132648:0:0:0:0:
192,192,132648,128,0,132854:0:0:0:0:
448,192,132751,128,0,132854:0:0:0:0:
64,192,132751,128,0,132854:0:0:0:0:
320,192,132854,128,0,132958:0:0:0:0:
192,192,132958,128,0,133164:0:0:0:0:
64,192,132958,128,0,133164:0:0:0:0:
448,192,132958,128,0,133164:0:0:0:0:
192,192,133268,128,0,133578:0:0:0:0:
64,192,133268,128,0,133578:0:0:0:0:
448,192,133268,1,0,0:0:0:0:
320,192,133371,1,0,0:0:0:0:
320,192,133578,128,0,133682:0:0:0:0:
448,192,133578,128,0,133682:0:0:0:0:
64,192,133682,128,0,133785:0:0:0:0:
448,192,133785,128,0,134095:0:0:0:0:
192,192,133785,128,0,133992:0:0:0:0:
320,192,133785,128,0,133889:0:0:0:0:
64,192,133889,128,0,133992:0:0:0:0:
320,192,133992,128,0,134095:0:0:0:0:
64,192,134095,128,0,134199:0:0:0:0:
448,192,134199,128,0,134406:0:0:0:0:
320,192,134199,128,0,134406:0:0:0:0:
192,192,134199,128,0,134406:0:0:0:0:
448,192,134509,128,0,134820:0:0:0:0:
320,192,134509,128,0,134820:0:0:0:0:
192,192,134509,1,0,0:0:0:0:
64,192,134613,1,0,0:0:0:0:
192,192,134820,128,0,134923:0:0:0:0:
64,192,134820,128,0,134923:0:0:0:0:
320,192,134923,128,0,135026:0:0:0:0:
192,192,135026,128,0,135130:0:0:0:0:
448,192,135026,128,0,135233:0:0:0:0:
64,192,135026,128,0,135337:0:0:0:0:
320,192,135130,128,0,135233:0:0:0:0:
192,192,135233,128,0,135337:0:0:0:0:
320,192,135337,128,0,135440:0:0:0:0:
448,192,135440,128,0,135716:0:0:0:0:
192,192,135440,128,0,135578:0:0:0:0:
64,192,135440,128,0,135716:0:0:0:0:
320,192,135578,128,0,135854:0:0:0:0:
192,192,135716,128,0,135992:0:0:0:0:
448,192,135854,128,0,136130:0:0:0:0:
64,192,135854,128,0,136130:0:0:0:0:
320,192,135992,128,0,136130:0:0:0:0:
192,192,136130,128,0,136267:0:0:0:0:
320,192,136267,128,0,136473:0:0:0:0:
448,192,136267,128,0,136473:0:0:0:0:
64,192,136267,128,0,136473:0:0:0:0:
320,192,136577,128,0,136887:0:0:0:0:
448,192,136577,128,0,136887:0:0:0:0:
64,192,136577,1,0,0:0:0:0:
192,192,136680,1,0,0:0:0:0:
192,192,136887,128,0,136991:0:0:0:0:
64,192,136887,128,0,136991:0:0:0:0:
448,192,136991,128,0,137094:0:0:0:0:
64,192,137094,128,0,137404:0:0:0:0:
320,192,137094,128,0,137301:0:0:0:0:
192,192,137094,128,0,137198:0:0:0:0:
448,192,137198,128,0,137301:0:0:0:0:
192,192,137301,128,0,137404:0:0:0:0:
448,192,137404,128,0,137508:0:0:0:0:
64,192,137508,128,0,137715:0:0:0:0:
192,192,137508,128,0,137715:0:0:0:0:
320,192,137508,128,0,137715:0:0:0:0:
64,192,137818,128,0,138129:0:0:0:0:
192,192,137818,128,0,138129:0:0:0:0:
320,192,137818,1,0,0:0:0:0:
448,192,137922,1,0,0:0:0:0:
320,192,138129,128,0,138232:0:0:0:0:
448,192,138129,128,0,138232:0:0:0:0:
192,192,138232,128,0,138335:0:0:0:0:
320,192,138335,128,0,138439:0:0:0:0:
64,192,138335,128,0,138542:0:0:0:0:
448,192,138335,128,0,138646:0:0:0:0:
192,192,138439,128,0,138542:0:0:0:0:
320,192,138542,128,0,138646:0:0:0:0:
192,192,138646,128,0,138749:0:0:0:0:
448,192,138749,128,0,138853:0:0:0:0:
64,192,138749,128,0,138853:0:0:0:0:
320,192,138749,128,0,138853:0:0:0:0:
192,192,138853,128,0,139060:0:0:0:0:
64,192,138956,128,0,139060:0:0:0:0:
448,192,138956,128,0,139060:0:0:0:0:
320,192,139060,128,0,139267:0:0:0:0:
64,192,139163,128,0,139267:0:0:0:0:
448,192,139163,128,0,139267:0:0:0:0:
192,192,139267,128,0,139473:0:0:0:0:
448,192,139370,128,0,139473:0:0:0:0:
64,192,139370,128,0,139473:0:0:0:0:
320,192,139473,128,0,139577:0:0:0:0:
192,192,139577,128,0,139783:0:0:0:0:
64,192,139577,128,0,139783:0:0:0:0:
448,192,139577,128,0,139783:0:0:0:0:
192,192,139887,128,0,140197:0:0:0:0:
64,192,139887,128,0,140197:0:0:0:0:
448,192,139887,1,0,0:0:0:0:
320,192,139990,1,0,0:0:0:0:
320,192,140197,128,0,140301:0:0:0:0:
448,192,140197,128,0,140301:0:0:0:0:
64,192,140301,128,0,140404:0:0:0:0:
448,192,140404,128,0,140714:0:0:0:0:
192,192,140404,128,0,140611:0:0:0:0:
320,192,140404,128,0,140508:0:0:0:0:
64,192,140508,128,0,140611:0:0:0:0:
320,192,140611,128,0,140714:0:0:0:0:
64,192,140714,128,0,140818:0:0:0:0:
448,192,140818,128,0,141025:0:0:0:0:
320,192,140818,128,0,141025:0:0:0:0:
192,192,140818,128,0,141025:0:0:0:0:
448,192,141128,128,0,141439:0:0:0:0:
320,192,141128,128,0,141439:0:0:0:0:
192,192,141128,1,0,0:0:0:0:
64,192,141232,1,0,0:0:0:0:
192,192,141439,128,0,141542:0:0:0:0:
64,192,141439,128,0,141542:0:0:0:0:
320,192,141542,128,0,141645:0:0:0:0:
192,192,141645,128,0,141749:0:0:0:0:
448,192,141645,128,0,141852:0:0:0:0:
64,192,141645,128,0,141956:0:0:0:0:
320,192,141749,128,0,141852:0:0:0:0:
192,192,141852,128,0,141956:0:0:0:0:
320,192,141956,128,0,142059:0:0:0:0:
448,192,142059,128,0,142334:0:0:0:0:
192,192,142059,128,0,142196:0:0:0:0:
64,192,142059,128,0,142334:0:0:0:0:
320,192,142196,128,0,142472:0:0:0:0:
192,192,142334,128,0,142610:0:0:0:0:
448,192,142472,128,0,142748:0:0:0:0:
64,192,142472,128,0,142748:0:0:0:0:
320,192,142610,128,0,142748:0:0:0:0:
192,192,142748,128,0,142886:0:0:0:0:
448,192,142886,128,0,142990:0:0:0:0:
64,192,142886,128,0,143093:0:0:0:0:
320,192,142886,128,0,142990:0:0:0:0:
192,192,142990,128,0,143196:0:0:0:0:
320,192,143093,128,0,143196:0:0:0:0:
448,192,143093,128,0,143300:0:0:0:0:
64,192,143196,128,0,143403:0:0:0:0:
320,192,143300,128,0,143507:0:0:0:0:
192,192,143300,128,0,143403:0:0:0:0:
448,192,143403,128,0,143507:0:0:0:0:
192,192,143507,1,0,0:0:0:0:
64,192,143507,1,0,0:0:0:0:
320,192,143610,1,0,0:0:0:0:
64,192,143714,1,0,0:0:0:0:
448,192,143714,128,0,145369:0:0:0:0:
192,192,143714,1,0,0:0:0:0:
64,192,144024,1,0,0:0:0:0:
320,192,144127,1,0,0:0:0:0:
64,192,144334,1,0,0:0:0:0:
320,192,144541,1,0,0:0:0:0:
64,192,144541,1,0,0:0:0:0:
64,192,144852,1,0,0:0:0:0:
320,192,144955,1,0,0:0:0:0:
64,192,145162,1,0,0:0:0:0:
192,192,145369,1,0,0:0:0:0:
320,192,145369,128,0,146817:0:0:0:0:
192,192,145679,1,0,0:0:0:0:
448,192,145783,1,0,0:0:0:0:
192,192,145990,1,0,0:0:0:0:
448,192,146196,1,0,0:0:0:0:
192,192,146196,1,0,0:0:0:0:
192,192,146507,1,0,0:0:0:0:
448,192,146610,1,0,0:0:0:0:
192,192,146817,128,0,147024:0:0:0:0:
64,192,146817,1,0,0:0:0:0:
320,192,147024,1,0,0:0:0:0:
64,192,147024,128,0,148679:0:0:0:0:
320,192,147334,1,0,0:0:0:0:
192,192,147438,1,0,0:0:0:0:
320,192,147645,1,0,0:0:0:0:
320,192,147852,1,0,0:0:0:0:
192,192,147852,1,0,0:0:0:0:
320,192,148162,1,0,0:0:0:0:
192,192,148265,1,0,0:0:0:0:
320,192,148472,1,0,0:0:0:0:
192,192,148679,128,0,149507:0:0:0:0:
448,192,148679,1,0,0:0:0:0:
448,192,148990,1,0,0:0:0:0:
64,192,149093,1,0,0:0:0:0:
448,192,149300,1,0,0:0:0:0:
320,192,149507,128,0,150334:0:0:0:0:
64,192,149507,1,0,0:0:0:0:
64,192,149817,1,0,0:0:0:0:
448,192,149921,1,0,0:0:0:0:
64,192,150127,1,0,0:0:0:0:
64,192,150334,1,0,0:0:0:0:
448,192,150334,128,0,151990:0:0:0:0:
192,192,150334,1,0,0:0:0:0:
192,192,150645,1,0,0:0:0:0:
320,192,150748,1,0,0:0:0:0:
192,192,150955,1,0,0:0:0:0:
320,192,151162,1,0,0:0:0:0:
192,192,151162,1,0,0:0:0:0:
192,192,151472,1,0,0:0:0:0:
320,192,151576,1,0,0:0:0:0:
192,192,151783,1,0,0:0:0:0:
64,192,151990,1,0,0:0:0:0:
320,192,151990,128,0,153438:0:0:0:0:
64,192,152300,1,0,0:0:0:0:
448,192,152403,1,0,0:0:0:0:
64,192,152610,1,0,0:0:0:0:
448,192,152817,1,0,0:0:0:0:
64,192,152817,1,0,0:0:0:0:
64,192,153127,1,0,0:0:0:0:
448,192,153231,1,0,0:0:0:0:
64,192,153438,128,0,153645:0:0:0:0:
192,192,153438,1,0,0:0:0:0:
448,192,153645,1,0,0:0:0:0:
192,192,153645,128,0,155300:0:0:0:0:
448,192,153955,1,0,0:0:0:0:
64,192,154059,1,0,0:0:0:0:
448,192,154265,1,0,0:0:0:0:
448,192,154472,1,0,0:0:0:0:
64,192,154472,1,0,0:0:0:0:
448,192,154783,1,0,0:0:0:0:
64,192,154886,1,0,0:0:0:0:
448,192,155093,1,0,0:0:0:0:
64,192,155300,128,0,156127:0:0:0:0:
320,192,155300,1,0,0:0:0:0:
320,192,155610,1,0,0:0:0:0:
192,192,155714,1,0,0:0:0:0:
320,192,155921,1,0,0:0:0:0:
448,192,156127,128,0,156955:0:0:0:0:
192,192,156127,1,0,0:0:0:0:
320,192,156438,1,0,0:0:0:0:
192,192,156541,128,0,156748:0:0:0:0:
64,192,156541,128,0,156748:0:0:0:0:
64,192,156955,1,0,0:0:0:0:
192,192,156955,1,0,0:0:0:0:
320,192,156955,1,0,0:0:0:0:
448,192,157265,1,0,0:0:0:0:
64,192,157369,1,0,0:0:0:0:
192,192,157369,1,0,0:0:0:0:
320,192,157576,1,0,0:0:0:0:
64,192,157783,128,0,158196:0:0:0:0:
448,192,157783,128,0,158093:0:0:0:0:
192,192,158093,128,0,158196:0:0:0:0:
320,192,158196,128,0,158610:0:0:0:0:
448,192,158196,128,0,158403:0:0:0:0:
192,192,158403,128,0,158610:0:0:0:0:
448,192,158610,128,0,158921:0:0:0:0:
64,192,158610,128,0,159438:0:0:0:0:
192,192,158921,1,0,0:0:0:0:
448,192,159024,1,0,0:0:0:0:
320,192,159024,1,0,0:0:0:0:
320,192,159231,128,0,159438:0:0:0:0:
192,192,159438,128,0,160059:0:0:0:0:
448,192,159438,128,0,159748:0:0:0:0:
64,192,159748,1,0,0:0:0:0:
448,192,159852,1,0,0:0:0:0:
320,192,159852,1,0,0:0:0:0:
64,192,160059,1,0,0:0:0:0:
192,192,160265,1,0,0:0:0:0:
448,192,160265,1,0,0:0:0:0:
64,192,160576,1,0,0:0:0:0:
320,192,160679,1,0,0:0:0:0:
448,192,160679,1,0,0:0:0:0:
192,192,160886,1,0,0:0:0:0:
448,192,161093,128,0,161507:0:0:0:0:
64,192,161093,128,0,161403:0:0:0:0:
320,192,161403,128,0,161507:0:0:0:0:
192,192,161507,128,0,161921:0:0:0:0:
64,192,161507,128,0,161714:0:0:0:0:
320,192,161714,128,0,161921:0:0:0:0:
64,192,161921,128,0,162231:0:0:0:0:
448,192,161921,128,0,162748:0:0:0:0:
320,192,162231,1,0,0:0:0:0:
64,192,162334,1,0,0:0:0:0:
192,192,162334,1,0,0:0:0:0:
192,192,162541,128,0,162748:0:0:0:0:
320,192,162748,128,0,163576:0:0:0:0:
64,192,162748,128,0,163059:0:0:0:0:
448,192,163059,1,0,0:0:0:0:
64,192,163162,1,0,0:0:0:0:
192,192,163162,1,0,0:0:0:0:
448,192,163369,128,0,163576:0:0:0:0:
192,192,163576,128,0,164403:0:0:0:0:
64,192,163576,128,0,163783:0:0:0:0:
64,192,163886,1,0,0:0:0:0:
320,192,163990,1,0,0:0:0:0:
448,192,163990,1,0,0:0:0:0:
64,192,164196,1,0,0:0:0:0:
320,192,164403,128,0,164817:0:0:0:0:
448,192,164403,128,0,164714:0:0:0:0:
192,192,164714,128,0,164817:0:0:0:0:
448,192,164817,128,0,165231:0:0:0:0:
64,192,164817,128,0,165024:0:0:0:0:
320,192,165024,128,0,165231:0:0:0:0:
192,192,165231,128,0,165541:0:0:0:0:
64,192,165231,128,0,166059:0:0:0:0:
320,192,165541,1,0,0:0:0:0:
448,192,165645,1,0,0:0:0:0:
192,192,165645,1,0,0:0:0:0:
448,192,165852,128,0,166059:0:0:0:0:
192,192,166059,128,0,166369:0:0:0:0:
320,192,166059,128,0,166679:0:0:0:0:
448,192,166369,1,0,0:0:0:0:
64,192,166472,1,0,0:0:0:0:
192,192,166472,1,0,0:0:0:0:
448,192,166679,1,0,0:0:0:0:
64,192,166886,1,0,0:0:0:0:
320,192,166886,1,0,0:0:0:0:
192,192,167196,1,0,0:0:0:0:
448,192,167300,1,0,0:0:0:0:
64,192,167300,1,0,0:0:0:0:
320,192,167507,1,0,0:0:0:0:
192,192,167714,128,0,168127:0:0:0:0:
64,192,167714,128,0,168024:0:0:0:0:
320,192,168024,128,0,168127:0:0:0:0:
64,192,168127,128,0,168541:0:0:0:0:
448,192,168127,128,0,168334:0:0:0:0:
192,192,168334,128,0,168541:0:0:0:0:
320,192,168541,128,0,168852:0:0:0:0:
448,192,168541,128,0,169369:0:0:0:0:
64,192,168852,1,0,0:0:0:0:
320,192,168955,1,0,0:0:0:0:
192,192,168955,1,0,0:0:0:0:
64,192,169162,1,0,0:0:0:0:
192,192,169265,1,0,0:0:0:0:
64,192,169369,1,0,0:0:0:0:
320,192,169369,128,0,169990:0:0:0:0:
64,192,169576,1,0,0:0:0:0:
192,192,169576,1,0,0:0:0:0:
64,192,169783,1,0,0:0:0:0:
192,192,169783,1,0,0:0:0:0:
448,192,169990,128,0,170093:0:0:0:0:
192,192,170093,128,0,170196:0:0:0:0:
64,192,170196,1,0,0:0:0:0:
320,192,170196,1,0,0:0:0:0:
448,192,170196,128,0,170507:0:0:0:0:
192,192,170403,1,0,0:0:0:0:
320,192,170507,1,0,0:0:0:0:
64,192,170610,1,0,0:0:0:0:
448,192,170610,1,0,0:0:0:0:
192,192,170714,1,0,0:0:0:0:
320,192,170817,1,0,0:0:0:0:
64,192,171024,128,0,171438:0:0:0:0:
448,192,171024,128,0,171231:0:0:0:0:
192,192,171024,1,0,0:0:0:0:
320,192,171231,1,0,0:0:0:0:
192,192,171334,1,0,0:0:0:0:
320,192,171438,128,0,171852:0:0:0:0:
448,192,171438,128,0,171645:0:0:0:0:
64,192,171541,1,0,0:0:0:0:
192,192,171645,1,0,0:0:0:0:
448,192,171748,128,0,171852:0:0:0:0:
192,192,171852,128,0,172162:0:0:0:0:
64,192,171852,128,0,172472:0:0:0:0:
448,192,172059,1,0,0:0:0:0:
320,192,172162,1,0,0:0:0:0:
448,192,172265,1,0,0:0:0:0:
192,192,172265,1,0,0:0:0:0:
320,192,172369,1,0,0:0:0:0:
192,192,172472,128,0,172679:0:0:0:0:
64,192,172576,128,0,172679:0:0:0:0:
448,192,172679,128,0,173300:0:0:0:0:
320,192,172679,128,0,172990:0:0:0:0:
64,192,172886,1,0,0:0:0:0:
192,192,172990,1,0,0:0:0:0:
320,192,173093,1,0,0:0:0:0:
64,192,173093,1,0,0:0:0:0:
192,192,173196,1,0,0:0:0:0:
320,192,173300,1,0,0:0:0:0:
448,192,173403,1,0,0:0:0:0:
192,192,173507,1,0,0:0:0:0:
64,192,173507,1,0,0:0:0:0:
320,192,173714,1,0,0:0:0:0:
192,192,173817,1,0,0:0:0:0:
448,192,173921,1,0,0:0:0:0:
320,192,173921,1,0,0:0:0:0:
64,192,174024,1,0,0:0:0:0:
448,192,174127,1,0,0:0:0:0:
192,192,174231,1,0,0:0:0:0:
448,192,174334,128,0,174748:0:0:0:0:
320,192,174334,128,0,174541:0:0:0:0:
64,192,174334,1,0,0:0:0:0:
192,192,174541,1,0,0:0:0:0:
64,192,174645,1,0,0:0:0:0:
192,192,174748,128,0,175162:0:0:0:0:
320,192,174748,128,0,174955:0:0:0:0:
448,192,174852,1,0,0:0:0:0:
64,192,174955,1,0,0:0:0:0:
320,192,175059,128,0,175162:0:0:0:0:
448,192,175162,128,0,175783:0:0:0:0:
64,192,175162,128,0,175369:0:0:0:0:
320,192,175369,1,0,0:0:0:0:
64,192,175472,1,0,0:0:0:0:
192,192,175576,1,0,0:0:0:0:
320,192,175576,1,0,0:0:0:0:
64,192,175679,1,0,0:0:0:0:
320,192,175783,128,0,175990:0:0:0:0:
448,192,175886,128,0,175990:0:0:0:0:
192,192,175990,128,0,176714:0:0:0:0:
64,192,175990,128,0,176196:0:0:0:0:
320,192,176196,1,0,0:0:0:0:
448,192,176196,1,0,0:0:0:0:
320,192,176403,1,0,0:0:0:0:
448,192,176403,1,0,0:0:0:0:
64,192,176507,1,0,0:0:0:0:
320,192,176610,128,0,176714:0:0:0:0:
448,192,176714,1,0,0:0:0:0:
64,192,176817,128,0,177438:0:0:0:0:
192,192,176817,128,0,177024:0:0:0:0:
320,192,176817,1,0,0:0:0:0:
448,192,177024,1,0,0:0:0:0:
192,192,177127,1,0,0:0:0:0:
320,192,177231,1,0,0:0:0:0:
448,192,177231,1,0,0:0:0:0:
192,192,177334,1,0,0:0:0:0:
320,192,177438,1,0,0:0:0:0:
64,192,177541,1,0,0:0:0:0:
192,192,177645,128,0,177852:0:0:0:0:
448,192,177645,128,0,178059:0:0:0:0:
320,192,177852,1,0,0:0:0:0:
64,192,177955,1,0,0:0:0:0:
320,192,178059,128,0,178472:0:0:0:0:
192,192,178059,128,0,178265:0:0:0:0:
448,192,178162,1,0,0:0:0:0:
64,192,178265,1,0,0:0:0:0:
192,192,178369,128,0,178472:0:0:0:0:
448,192,178472,128,0,178679:0:0:0:0:
64,192,178472,128,0,179093:0:0:0:0:
192,192,178679,1,0,0:0:0:0:
448,192,178783,1,0,0:0:0:0:
320,192,178886,1,0,0:0:0:0:
192,192,178886,1,0,0:0:0:0:
448,192,178990,1,0,0:0:0:0:
192,192,179093,128,0,179300:0:0:0:0:
64,192,179196,128,0,179300:0:0:0:0:
320,192,179300,128,0,179507:0:0:0:0:
448,192,179300,128,0,179921:0:0:0:0:
192,192,179507,1,0,0:0:0:0:
320,192,179610,1,0,0:0:0:0:
192,192,179714,1,0,0:0:0:0:
64,192,179714,1,0,0:0:0:0:
320,192,179817,1,0,0:0:0:0:
64,192,179921,1,0,0:0:0:0:
192,192,180024,1,0,0:0:0:0:
448,192,180127,1,0,0:0:0:0:
320,192,180127,1,0,0:0:0:0:
192,192,180334,1,0,0:0:0:0:
320,192,180438,1,0,0:0:0:0:
64,192,180541,1,0,0:0:0:0:
448,192,180541,1,0,0:0:0:0:
192,192,180645,1,0,0:0:0:0:
320,192,180748,1,0,0:0:0:0:
192,192,180852,1,0,0:0:0:0:
64,192,180955,1,0,0:0:0:0:
448,192,180955,1,0,0:0:0:0:
320,192,181059,1,0,0:0:0:0:
192,192,181162,1,0,0:0:0:0:
64,192,181162,1,0,0:0:0:0:
64,192,181265,1,0,0:0:0:0:
192,192,181265,1,0,0:0:0:0:
320,192,181369,1,0,0:0:0:0:
448,192,181369,1,0,0:0:0:0:
320,192,181472,1,0,0:0:0:0:
448,192,181472,1,0,0:0:0:0:
64,192,181576,1,0,0:0:0:0:
192,192,181576,1,0,0:0:0:0:
64,192,181679,1,0,0:0:0:0:
192,192,181679,1,0,0:0:0:0:
64,192,181783,1,0,0:0:0:0:
320,192,181783,128,0,181990:0:0:0:0:
448,192,181783,128,0,181990:0:0:0:0:
64,192,181990,1,0,0:0:0:0:
192,192,181990,1,0,0:0:0:0:
64,192,182093,128,0,182300:0:0:0:0:
192,192,182093,128,0,182300:0:0:0:0:
448,192,182093,1,0,0:0:0:0:
320,192,182300,1,0,0:0:0:0:
448,192,182300,1,0,0:0:0:0:
192,192,182403,128,0,182507:0:0:0:0:
64,192,182403,128,0,182507:0:0:0:0:
448,192,182507,1,0,0:0:0:0:
320,192,182507,1,0,0:0:0:0:
64,192,182610,1,0,0:0:0:0:
448,192,182610,128,0,182714:0:0:0:0:
320,192,182610,128,0,182714:0:0:0:0:
192,192,182714,1,0,0:0:0:0:
448,192,182817,1,0,0:0:0:0:
320,192,182817,1,0,0:0:0:0:
192,192,182921,128,0,183127:0:0:0:0:
64,192,182921,128,0,183127:0:0:0:0:
448,192,182921,1,0,0:0:0:0:
448,192,183127,1,0,0:0:0:0:
320,192,183127,1,0,0:0:0:0:
64,192,183231,128,0,183334:0:0:0:0:
192,192,183231,128,0,183334:0:0:0:0:
320,192,183231,1,0,0:0:0:0:
448,192,183438,128,0,183645:0:0:0:0:
192,192,183438,128,0,183541:0:0:0:0:
64,192,183438,1,0,0:0:0:0:
320,192,183541,128,0,183645:0:0:0:0:
192,192,183645,128,0,183955:0:0:0:0:
64,192,183645,128,0,183748:0:0:0:0:
320,192,183748,128,0,183852:0:0:0:0:
448,192,183748,1,0,0:0:0:0:
64,192,183852,128,0,183955:0:0:0:0:
320,192,183955,128,0,184059:0:0:0:0:
448,192,183955,128,0,184059:0:0:0:0:
192,192,184059,128,0,184162:0:0:0:0:
64,192,184059,1,0,0:0:0:0:
320,192,184162,128,0,184369:0:0:0:0:
448,192,184162,128,0,184265:0:0:0:0:
192,192,184265,128,0,184369:0:0:0:0:
64,192,184265,1,0,0:0:0:0:
448,192,184369,128,0,184472:0:0:0:0:
192,192,184472,128,0,184576:0:0:0:0:
64,192,184472,128,0,184576:0:0:0:0:
320,192,184576,128,0,184679:0:0:0:0:
448,192,184576,1,0,0:0:0:0:
64,192,184679,128,0,184783:0:0:0:0:
320,192,184783,128,0,184990:0:0:0:0:
192,192,184783,128,0,184886:0:0:0:0:
448,192,184886,128,0,184990:0:0:0:0:
64,192,184886,1,0,0:0:0:0:
192,192,184990,128,0,185093:0:0:0:0:
64,192,185093,128,0,185300:0:0:0:0:
320,192,185093,128,0,185196:0:0:0:0:
448,192,185093,1,0,0:0:0:0:
192,192,185196,128,0,185300:0:0:0:0:
320,192,185300,128,0,185610:0:0:0:0:
448,192,185300,128,0,185403:0:0:0:0:
192,192,185403,128,0,185507:0:0:0:0:
64,192,185403,1,0,0:0:0:0:
448,192,185507,128,0,185610:0:0:0:0:
192,192,185610,128,0,185714:0:0:0:0:
64,192,185610,128,0,185714:0:0:0:0:
320,192,185714,128,0,185817:0:0:0:0:
448,192,185714,1,0,0:0:0:0:
192,192,185817,128,0,186024:0:0:0:0:
64,192,185921,128,0,186024:0:0:0:0:
448,192,185921,1,0,0:0:0:0:
320,192,186024,128,0,186231:0:0:0:0:
448,192,186127,128,0,186231:0:0:0:0:
64,192,186127,1,0,0:0:0:0:
192,192,186231,128,0,186334:0:0:0:0:
64,192,186334,128,0,186438:0:0:0:0:
448,192,186334,1,0,0:0:0:0:
320,192,186438,128,0,186645:0:0:0:0:
192,192,186438,128,0,186541:0:0:0:0:
64,192,186541,128,0,186645:0:0:0:0:
448,192,186541,1,0,0:0:0:0:
192,192,186645,128,0,186748:0:0:0:0:
64,192,186748,128,0,186955:0:0:0:0:
320,192,186748,128,0,186852:0:0:0:0:
448,192,186748,1,0,0:0:0:0:
192,192,186852,128,0,186955:0:0:0:0:
320,192,186955,128,0,187265:0:0:0:0:
448,192,186955,128,0,187059:0:0:0:0:
192,192,187059,128,0,187162:0:0:0:0:
64,192,187059,1,0,0:0:0:0:
448,192,187162,128,0,187265:0:0:0:0:
192,192,187265,128,0,187369:0:0:0:0:
64,192,187265,128,0,187369:0:0:0:0:
320,192,187369,128,0,187472:0:0:0:0:
448,192,187369,1,0,0:0:0:0:
192,192,187472,128,0,187679:0:0:0:0:
64,192,187472,128,0,187576:0:0:0:0:
320,192,187576,128,0,187679:0:0:0:0:
448,192,187576,1,0,0:0:0:0:
64,192,187679,128,0,187783:0:0:0:0:
320,192,187783,128,0,187886:0:0:0:0:
448,192,187783,128,0,187886:0:0:0:0:
192,192,187886,128,0,187990:0:0:0:0:
64,192,187886,1,0,0:0:0:0:
448,192,187990,128,0,188093:0:0:0:0:
192,192,188093,128,0,188300:0:0:0:0:
320,192,188093,128,0,188196:0:0:0:0:
64,192,188196,128,0,188300:0:0:0:0:
448,192,188196,1,0,0:0:0:0:
320,192,188300,128,0,188403:0:0:0:0:
448,192,188403,128,0,188610:0:0:0:0:
192,192,188403,128,0,188507:0:0:0:0:
64,192,188403,1,0,0:0:0:0:
320,192,188507,128,0,188610:0:0:0:0:
192,192,188610,128,0,188921:0:0:0:0:
64,192,188610,128,0,188714:0:0:0:0:
320,192,188714,128,0,188817:0:0:0:0:
448,192,188714,1,0,0:0:0:0:
64,192,188817,128,0,188921:0:0:0:0:
320,192,188921,128,0,189024:0:0:0:0:
448,192,188921,128,0,189024:0:0:0:0:
192,192,189024,128,0,189127:0:0:0:0:
64,192,189024,1,0,0:0:0:0:
320,192,189127,128,0,189334:0:0:0:0:
448,192,189231,128,0,189334:0:0:0:0:
64,192,189231,1,0,0:0:0:0:
192,192,189334,128,0,189541:0:0:0:0:
64,192,189438,128,0,189541:0:0:0:0:
448,192,189438,1,0,0:0:0:0:
320,192,189541,128,0,189645:0:0:0:0:
192,192,189645,128,0,189748:0:0:0:0:
64,192,189645,1,0,0:0:0:0:
320,192,189748,128,0,189955:0:0:0:0:
448,192,189748,128,0,189852:0:0:0:0:
192,192,189852,128,0,189955:0:0:0:0:
64,192,189852,1,0,0:0:0:0:
448,192,189955,128,0,190059:0:0:0:0:
320,192,190059,128,0,190265:0:0:0:0:
192,192,190059,128,0,190162:0:0:0:0:
64,192,190059,1,0,0:0:0:0:
448,192,190162,128,0,190265:0:0:0:0:
192,192,190265,128,0,190576:0:0:0:0:
64,192,190265,128,0,190369:0:0:0:0:
320,192,190369,128,0,190472:0:0:0:0:
448,192,190369,1,0,0:0:0:0:
64,192,190472,128,0,190576:0:0:0:0:
320,192,190576,128,0,190679:0:0:0:0:
448,192,190576,128,0,190679:0:0:0:0:
192,192,190679,128,0,190783:0:0:0:0:
64,192,190679,1,0,0:0:0:0:
320,192,190783,128,0,190990:0:0:0:0:
448,192,190783,128,0,190886:0:0:0:0:
192,192,190886,128,0,190990:0:0:0:0:
64,192,190886,1,0,0:0:0:0:
448,192,190990,128,0,191093:0:0:0:0:
192,192,191093,128,0,191196:0:0:0:0:
64,192,191093,128,0,191196:0:0:0:0:
320,192,191196,128,0,191300:0:0:0:0:
448,192,191196,1,0,0:0:0:0:
64,192,191300,128,0,191403:0:0:0:0:
320,192,191403,128,0,191610:0:0:0:0:
192,192,191403,128,0,191507:0:0:0:0:
448,192,191507,128,0,191610:0:0:0:0:
64,192,191507,1,0,0:0:0:0:
192,192,191610,128,0,191714:0:0:0:0:
64,192,191714,128,0,191921:0:0:0:0:
320,192,191714,128,0,191817:0:0:0:0:
448,192,191714,1,0,0:0:0:0:
192,192,191817,128,0,191921:0:0:0:0:
320,192,191921,128,0,192231:0:0:0:0:
448,192,191921,128,0,192024:0:0:0:0:
192,192,192024,128,0,192127:0:0:0:0:
64,192,192024,1,0,0:0:0:0:
448,192,192127,128,0,192231:0:0:0:0:
192,192,192231,128,0,192334:0:0:0:0:
64,192,192231,128,0,192334:0:0:0:0:
320,192,192334,128,0,192438:0:0:0:0:
448,192,192334,1,0,0:0:0:0:
64,192,192438,128,0,192645:0:0:0:0:
192,192,192541,128,0,192645:0:0:0:0:
320,192,192541,1,0,0:0:0:0:
448,192,192645,128,0,192852:0:0:0:0:
320,192,192748,128,0,192852:0:0:0:0:
192,192,192748,1,0,0:0:0:0:
64,192,192852,128,0,192955:0:0:0:0:
192,192,192955,128,0,193059:0:0:0:0:
320,192,192955,1,0,0:0:0:0:
448,192,193059,128,0,193265:0:0:0:0:
64,192,193059,128,0,193162:0:0:0:0:
320,192,193162,128,0,193265:0:0:0:0:
192,192,193162,1,0,0:0:0:0:
64,192,193265,128,0,193369:0:0:0:0:
448,192,193369,1,0,0:0:0:0:
320,192,193369,128,0,193472:0:0:0:0:
192,192,193369,128,0,193576:0:0:0:0:
64,192,193472,128,0,193576:0:0:0:0:
320,192,193576,128,0,193886:0:0:0:0:
448,192,193576,128,0,193679:0:0:0:0:
192,192,193679,128,0,193783:0:0:0:0:
64,192,193679,1,0,0:0:0:0:
448,192,193783,128,0,193886:0:0:0:0:
192,192,193886,128,0,193990:0:0:0:0:
64,192,193886,128,0,193990:0:0:0:0:
320,192,193990,128,0,194093:0:0:0:0:
448,192,193990,1,0,0:0:0:0:
192,192,194093,128,0,194300:0:0:0:0:
64,192,194093,128,0,194196:0:0:0:0:
320,192,194196,128,0,194300:0:0:0:0:
448,192,194196,1,0,0:0:0:0:
64,192,194300,128,0,194403:0:0:0:0:
320,192,194403,128,0,194507:0:0:0:0:
448,192,194403,128,0,194507:0:0:0:0:
192,192,194507,128,0,194610:0:0:0:0:
64,192,194507,1,0,0:0:0:0:
448,192,194610,128,0,194714:0:0:0:0:
192,192,194714,128,0,194921:0:0:0:0:
320,192,194714,128,0,194817:0:0:0:0:
64,192,194817,128,0,194921:0:0:0:0:
448,192,194817,1,0,0:0:0:0:
320,192,194921,128,0,195024:0:0:0:0:
448,192,195024,128,0,195231:0:0:0:0:
192,192,195024,128,0,195127:0:0:0:0:
64,192,195024,1,0,0:0:0:0:
320,192,195127,128,0,195231:0:0:0:0:
192,192,195231,128,0,195541:0:0:0:0:
64,192,195231,128,0,195334:0:0:0:0:
320,192,195334,128,0,195438:0:0:0:0:
448,192,195334,1,0,0:0:0:0:
64,192,195438,128,0,195541:0:0:0:0:
320,192,195541,128,0,195645:0:0:0:0:
448,192,195541,128,0,195852:0:0:0:0:
192,192,195645,128,0,195748:0:0:0:0:
64,192,195645,1,0,0:0:0:0:
320,192,195748,128,0,195852:0:0:0:0:
192,192,195852,128,0,195955:0:0:0:0:
64,192,195852,128,0,195955:0:0:0:0:
448,192,195955,1,0,0:0:0:0:
320,192,195955,1,0,0:0:0:0:
192,192,196059,128,0,196162:0:0:0:0:
64,192,196059,128,0,196162:0:0:0:0:
448,192,196162,1,0,0:0:0:0:
320,192,196162,1,0,0:0:0:0:
192,192,196265,1,0,0:0:0:0:
64,192,196265,1,0,0:0:0:0:
64,192,196369,1,0,0:0:0:0:
192,192,196369,1,0,0:0:0:0:
448,192,196472,1,0,0:0:0:0:
320,192,196472,1,0,0:0:0:0:
320,192,196576,1,0,0:0:0:0:
448,192,196576,1,0,0:0:0:0:
448,192,196679,128,0,196886:0:0:0:0:
192,192,196679,128,0,196783:0:0:0:0:
64,192,196679,1,0,0:0:0:0:
64,192,196886,128,0,197093:0:0:0:0:
192,192,196886,128,0,197196:0:0:0:0:
320,192,196990,128,0,197196:0:0:0:0:
448,192,196990,1,0,0:0:0:0:
64,192,197196,128,0,197300:0:0:0:0:
448,192,197196,128,0,197300:0:0:0:0:
192,192,197300,128,0,197610:0:0:0:0:
320,192,197300,1,0,0:0:0:0:
64,192,197403,128,0,197507:0:0:0:0:
448,192,197507,128,0,197714:0:0:0:0:
320,192,197507,1,0,0:0:0:0:
64,192,197610,128,0,197817:0:0:0:0:
320,192,197714,128,0,197921:0:0:0:0:
448,192,197817,1,0,0:0:0:0:
192,192,197817,128,0,198024:0:0:0:0:
64,192,197921,128,0,198024:0:0:0:0:
448,192,198024,128,0,198127:0:0:0:0:
320,192,198024,128,0,198127:0:0:0:0:
64,192,198127,128,0,198541:0:0:0:0:
192,192,198127,1,0,0:0:0:0:
320,192,198231,128,0,198334:0:0:0:0:
192,192,198334,128,0,198541:0:0:0:0:
448,192,198334,1,0,0:0:0:0:
448,192,198541,128,0,198748:0:0:0:0:
320,192,198541,128,0,198852:0:0:0:0:
192,192,198645,128,0,198852:0:0:0:0:
64,192,198645,1,0,0:0:0:0:
448,192,198852,128,0,198955:0:0:0:0:
64,192,198852,128,0,198955:0:0:0:0:
320,192,198955,128,0,199265:0:0:0:0:
192,192,198955,1,0,0:0:0:0:
448,192,199059,128,0,199162:0:0:0:0:
64,192,199162,128,0,199265:0:0:0:0:
192,192,199162,128,0,199265:0:0:0:0:
448,192,199265,128,0,199472:0:0:0:0:
64,192,199369,128,0,199472:0:0:0:0:
192,192,199369,128,0,199472:0:0:0:0:
320,192,199472,128,0,199783:0:0:0:0:
448,192,199576,128,0,199783:0:0:0:0:
64,192,199576,128,0,199679:0:0:0:0:
192,192,199576,128,0,199679:0:0:0:0:
64,192,199783,128,0,199886:0:0:0:0:
192,192,199783,128,0,199886:0:0:0:0:
320,192,199886,128,0,199990:0:0:0:0:
64,192,199990,128,0,200196:0:0:0:0:
192,192,199990,128,0,200093:0:0:0:0:
448,192,199990,1,0,0:0:0:0:
448,192,200196,128,0,200403:0:0:0:0:
320,192,200196,128,0,200507:0:0:0:0:
192,192,200300,128,0,200507:0:0:0:0:
64,192,200300,1,0,0:0:0:0:
448,192,200507,128,0,200610:0:0:0:0:
64,192,200507,128,0,200610:0:0:0:0:
320,192,200610,128,0,200921:0:0:0:0:
192,192,200610,1,0,0:0:0:0:
448,192,200714,128,0,200817:0:0:0:0:
64,192,200817,128,0,201024:0:0:0:0:
192,192,200817,1,0,0:0:0:0:
448,192,200921,128,0,201127:0:0:0:0:
192,192,201024,128,0,201231:0:0:0:0:
64,192,201127,1,0,0:0:0:0:
320,192,201127,128,0,201334:0:0:0:0:
448,192,201231,128,0,201334:0:0:0:0:
64,192,201334,128,0,201438:0:0:0:0:
192,192,201334,128,0,201438:0:0:0:0:
448,192,201438,128,0,201852:0:0:0:0:
320,192,201438,1,0,0:0:0:0:
192,192,201541,128,0,201645:0:0:0:0:
320,192,201645,128,0,201852:0:0:0:0:
64,192,201645,1,0,0:0:0:0:
64,192,201852,128,0,202059:0:0:0:0:
192,192,201852,128,0,202162:0:0:0:0:
320,192,201955,128,0,202162:0:0:0:0:
448,192,201955,1,0,0:0:0:0:
64,192,202162,128,0,202265:0:0:0:0:
448,192,202162,128,0,202265:0:0:0:0:
192,192,202265,128,0,202576:0:0:0:0:
320,192,202265,1,0,0:0:0:0:
64,192,202369,128,0,202472:0:0:0:0:
448,192,202472,128,0,202576:0:0:0:0:
320,192,202472,128,0,202576:0:0:0:0:
64,192,202576,128,0,202783:0:0:0:0:
448,192,202679,128,0,202783:0:0:0:0:
320,192,202679,128,0,202783:0:0:0:0:
192,192,202783,128,0,203093:0:0:0:0:
64,192,202886,128,0,203093:0:0:0:0:
448,192,202886,128,0,202990:0:0:0:0:
320,192,202886,128,0,202990:0:0:0:0:
448,192,203093,128,0,203196:0:0:0:0:
320,192,203093,128,0,203196:0:0:0:0:
192,192,203196,128,0,203300:0:0:0:0:
448,192,203300,128,0,203507:0:0:0:0:
320,192,203300,128,0,203403:0:0:0:0:
64,192,203300,1,0,0:0:0:0:
64,192,203507,128,0,203714:0:0:0:0:
192,192,203507,128,0,203817:0:0:0:0:
320,192,203610,128,0,203817:0:0:0:0:
448,192,203610,1,0,0:0:0:0:
64,192,203817,128,0,203921:0:0:0:0:
448,192,203817,128,0,203921:0:0:0:0:
192,192,203921,128,0,204231:0:0:0:0:
320,192,203921,1,0,0:0:0:0:
64,192,204024,128,0,204127:0:0:0:0:
448,192,204127,128,0,204334:0:0:0:0:
320,192,204127,1,0,0:0:0:0:
64,192,204231,128,0,204438:0:0:0:0:
320,192,204334,128,0,204541:0:0:0:0:
448,192,204438,1,0,0:0:0:0:
192,192,204438,128,0,204645:0:0:0:0:
64,192,204541,128,0,204645:0:0:0:0:
448,192,204645,128,0,204748:0:0:0:0:
320,192,204645,128,0,204748:0:0:0:0:
64,192,204748,128,0,205162:0:0:0:0:
192,192,204748,1,0,0:0:0:0:
320,192,204852,128,0,204955:0:0:0:0:
192,192,204955,128,0,205162:0:0:0:0:
448,192,204955,1,0,0:0:0:0:
448,192,205162,128,0,205369:0:0:0:0:
320,192,205162,128,0,205472:0:0:0:0:
192,192,205265,128,0,205472:0:0:0:0:
64,192,205265,1,0,0:0:0:0:
448,192,205472,128,0,205576:0:0:0:0:
64,192,205472,128,0,205576:0:0:0:0:
320,192,205576,128,0,205886:0:0:0:0:
192,192,205576,1,0,0:0:0:0:
448,192,205679,128,0,205783:0:0:0:0:
64,192,205783,128,0,205886:0:0:0:0:
192,192,205783,128,0,205886:0:0:0:0:
448,192,205886,128,0,206093:0:0:0:0:
64,192,205990,128,0,206093:0:0:0:0:
192,192,205990,128,0,206093:0:0:0:0:
320,192,206093,128,0,206403:0:0:0:0:
448,192,206196,128,0,206403:0:0:0:0:
64,192,206196,128,0,206300:0:0:0:0:
192,192,206196,128,0,206300:0:0:0:0:
64,192,206403,128,0,206507:0:0:0:0:
192,192,206403,128,0,206507:0:0:0:0:
320,192,206507,128,0,206610:0:0:0:0:
64,192,206610,128,0,206817:0:0:0:0:
192,192,206610,128,0,206714:0:0:0:0:
448,192,206610,1,0,0:0:0:0:
448,192,206817,128,0,207024:0:0:0:0:
320,192,206817,128,0,207127:0:0:0:0:
192,192,206921,128,0,207127:0:0:0:0:
64,192,206921,1,0,0:0:0:0:
448,192,207127,128,0,207231:0:0:0:0:
64,192,207127,128,0,207231:0:0:0:0:
320,192,207231,128,0,207541:0:0:0:0:
192,192,207231,1,0,0:0:0:0:
448,192,207334,128,0,207438:0:0:0:0:
64,192,207438,128,0,207645:0:0:0:0:
192,192,207438,1,0,0:0:0:0:
448,192,207541,128,0,207748:0:0:0:0:
192,192,207645,128,0,207852:0:0:0:0:
64,192,207748,1,0,0:0:0:0:
320,192,207748,128,0,207955:0:0:0:0:
448,192,207852,128,0,207955:0:0:0:0:
64,192,207955,128,0,208059:0:0:0:0:
192,192,207955,128,0,208059:0:0:0:0:
448,192,208059,128,0,208472:0:0:0:0:
320,192,208059,1,0,0:0:0:0:
192,192,208162,128,0,208265:0:0:0:0:
320,192,208265,128,0,208472:0:0:0:0:
64,192,208265,1,0,0:0:0:0:
64,192,208472,128,0,208679:0:0:0:0:
192,192,208472,128,0,208783:0:0:0:0:
320,192,208576,128,0,208783:0:0:0:0:
448,192,208576,1,0,0:0:0:0:
64,192,208783,128,0,208886:0:0:0:0:
448,192,208783,128,0,208886:0:0:0:0:
192,192,208886,128,0,209093:0:0:0:0:
320,192,208886,1,0,0:0:0:0:
64,192,208990,128,0,209093:0:0:0:0:
320,192,209093,1,0,0:0:0:0:
448,192,209093,1,0,0:0:0:0:
64,192,209196,1,0,0:0:0:0:
192,192,209196,1,0,0:0:0:0:
320,192,209300,1,0,0:0:0:0:
448,192,209300,1,0,0:0:0:0:
64,192,209403,1,0,0:0:0:0:
192,192,209403,1,0,0:0:0:0:
320,192,209507,1,0,0:0:0:0:
448,192,209507,1,0,0:0:0:0:
64,192,209610,1,0,0:0:0:0:
192,192,209610,1,0,0:0:0:0:
448,192,209714,1,0,0:0:0:0:
192,192,209817,1,0,0:0:0:0:
320,192,209921,128,0,210024:0:0:0:0:
448,192,209921,128,0,210127:0:0:0:0:
64,192,209921,128,0,210024:0:0:0:0:
192,192,210024,128,0,210127:0:0:0:0:
320,192,210127,128,0,210231:0:0:0:0:
64,192,210127,128,0,210334:0:0:0:0:
192,192,210231,128,0,210334:0:0:0:0:
448,192,210231,128,0,210438:0:0:0:0:
320,192,210334,128,0,210438:0:0:0:0:
192,192,210438,128,0,210541:0:0:0:0:
64,192,210438,128,0,210645:0:0:0:0:
320,192,210541,128,0,210645:0:0:0:0:
448,192,210541,128,0,210645:0:0:0:0:
192,192,210645,128,0,210748:0:0:0:0:
64,192,210748,128,0,210852:0:0:0:0:
320,192,210748,128,0,210955:0:0:0:0:
448,192,210748,128,0,210852:0:0:0:0:
192,192,210852,128,0,210955:0:0:0:0:
64,192,210955,128,0,211059:0:0:0:0:
448,192,210955,128,0,211162:0:0:0:0:
192,192,211059,128,0,211265:0:0:0:0:
320,192,211059,128,0,211162:0:0:0:0:
64,192,211162,128,0,211265:0:0:0:0:
320,192,211265,128,0,211369:0:0:0:0:
448,192,211265,128,0,211472:0:0:0:0:
64,192,211369,128,0,211472:0:0:0:0:
192,192,211369,128,0,211472:0:0:0:0:
320,192,211472,128,0,211576:0:0:0:0:
64,192,211576,128,0,211679:0:0:0:0:
192,192,211576,128,0,211679:0:0:0:0:
448,192,211576,128,0,211783:0:0:0:0:
320,192,211679,128,0,211783:0:0:0:0:
64,192,211783,128,0,211990:0:0:0:0:
192,192,211783,128,0,211886:0:0:0:0:
320,192,211886,128,0,212093:0:0:0:0:
448,192,211886,128,0,211990:0:0:0:0:
192,192,211990,128,0,212093:0:0:0:0:
64,192,212093,128,0,212196:0:0:0:0:
448,192,212093,128,0,212300:0:0:0:0:
192,192,212196,128,0,212300:0:0:0:0:
320,192,212196,128,0,212300:0:0:0:0:
64,192,212300,128,0,212403:0:0:0:0:
192,192,212403,128,0,212507:0:0:0:0:
320,192,212403,128,0,212507:0:0:0:0:
448,192,212403,128,0,212610:0:0:0:0:
64,192,212507,128,0,212714:0:0:0:0:
192,192,212610,128,0,212714:0:0:0:0:
320,192,212610,128,0,212714:0:0:0:0:
448,192,212714,128,0,212817:0:0:0:0:
192,192,212817,128,0,212921:0:0:0:0:
320,192,212817,128,0,212921:0:0:0:0:
64,192,212817,128,0,213024:0:0:0:0:
448,192,212921,128,0,213127:0:0:0:0:
192,192,213024,128,0,213127:0:0:0:0:
320,192,213024,128,0,213127:0:0:0:0:
64,192,213127,128,0,213231:0:0:0:0:
192,192,213231,128,0,213438:0:0:0:0:
320,192,213231,128,0,213334:0:0:0:0:
448,192,213231,128,0,213334:0:0:0:0:
64,192,213334,128,0,213438:0:0:0:0:
320,192,213438,128,0,213541:0:0:0:0:
448,192,213438,128,0,213645:0:0:0:0:
64,192,213541,128,0,213748:0:0:0:0:
192,192,213541,128,0,213645:0:0:0:0:
320,192,213645,128,0,213748:0:0:0:0:
192,192,213748,128,0,213852:0:0:0:0:
448,192,213748,128,0,213955:0:0:0:0:
64,192,213852,128,0,213955:0:0:0:0:
320,192,213852,128,0,213955:0:0:0:0:
192,192,213955,128,0,214059:0:0:0:0:
64,192,214059,128,0,214162:0:0:0:0:
320,192,214059,128,0,214265:0:0:0:0:
448,192,214059,128,0,214162:0:0:0:0:
192,192,214162,128,0,214265:0:0:0:0:
64,192,214265,128,0,214369:0:0:0:0:
448,192,214265,128,0,214472:0:0:0:0:
192,192,214369,128,0,214576:0:0:0:0:
320,192,214369,128,0,214472:0:0:0:0:
64,192,214472,128,0,214576:0:0:0:0:
320,192,214576,128,0,214783:0:0:0:0:
448,192,214576,128,0,214679:0:0:0:0:
192,192,214679,128,0,214783:0:0:0:0:
64,192,214679,128,0,214783:0:0:0:0:
448,192,214783,128,0,214886:0:0:0:0:
320,192,214886,128,0,215093:0:0:0:0:
192,192,214886,128,0,214990:0:0:0:0:
64,192,214886,128,0,214990:0:0:0:0:
448,192,214990,128,0,215093:0:0:0:0:
192,192,215093,128,0,215196:0:0:0:0:
64,192,215093,128,0,215300:0:0:0:0:
448,192,215196,128,0,215403:0:0:0:0:
320,192,215196,128,0,215300:0:0:0:0:
192,192,215300,128,0,215403:0:0:0:0:
320,192,215403,128,0,215507:0:0:0:0:
64,192,215403,128,0,215610:0:0:0:0:
448,192,215507,128,0,215610:0:0:0:0:
192,192,215507,128,0,215610:0:0:0:0:
320,192,215610,128,0,215714:0:0:0:0:
448,192,215714,128,0,215817:0:0:0:0:
192,192,215714,128,0,215921:0:0:0:0:
64,192,215714,128,0,215817:0:0:0:0:
320,192,215817,128,0,216024:0:0:0:0:
448,192,215921,128,0,216024:0:0:0:0:
64,192,215921,128,0,216024:0:0:0:0:
192,192,216024,128,0,216127:0:0:0:0:
448,192,216127,128,0,216231:0:0:0:0:
320,192,216127,128,0,216334:0:0:0:0:
64,192,216127,128,0,216231:0:0:0:0:
192,192,216231,128,0,216438:0:0:0:0:
448,192,216334,128,0,216438:0:0:0:0:
64,192,216334,128,0,216438:0:0:0:0:
320,192,216438,128,0,216541:0:0:0:0:
192,192,216541,128,0,216645:0:0:0:0:
64,192,216541,128,0,216748:0:0:0:0:
448,192,216541,128,0,216645:0:0:0:0:
320,192,216645,128,0,216748:0:0:0:0:
192,192,216748,128,0,216852:0:0:0:0:
448,192,216748,128,0,216955:0:0:0:0:
320,192,216852,128,0,216955:0:0:0:0:
64,192,216852,128,0,217059:0:0:0:0:
192,192,216955,128,0,217059:0:0:0:0:
320,192,217059,128,0,217162:0:0:0:0:
448,192,217059,128,0,217265:0:0:0:0:
192,192,217162,128,0,217265:0:0:0:0:
64,192,217162,128,0,217265:0:0:0:0:
320,192,217265,128,0,217369:0:0:0:0:
448,192,217369,128,0,217472:0:0:0:0:
192,192,217369,128,0,217576:0:0:0:0:
64,192,217369,128,0,217472:0:0:0:0:
320,192,217472,128,0,217576:0:0:0:0:
448,192,217576,128,0,217679:0:0:0:0:
64,192,217576,128,0,217783:0:0:0:0:
320,192,217679,128,0,217886:0:0:0:0:
192,192,217679,128,0,217783:0:0:0:0:
448,192,217783,128,0,217886:0:0:0:0:
192,192,217886,128,0,217990:0:0:0:0:
64,192,217886,128,0,218093:0:0:0:0:
448,192,217990,128,0,218093:0:0:0:0:
320,192,217990,128,0,218093:0:0:0:0:
192,192,218093,128,0,218196:0:0:0:0:
448,192,218196,128,0,218300:0:0:0:0:
320,192,218196,128,0,218300:0:0:0:0:
64,192,218196,128,0,218403:0:0:0:0:
192,192,218300,128,0,218403:0:0:0:0:
448,192,218403,128,0,218610:0:0:0:0:
320,192,218403,128,0,218507:0:0:0:0:
192,192,218507,128,0,218714:0:0:0:0:
64,192,218507,128,0,218610:0:0:0:0:
320,192,218610,128,0,218714:0:0:0:0:
448,192,218714,128,0,218817:0:0:0:0:
64,192,218714,128,0,218921:0:0:0:0:
320,192,218817,128,0,218921:0:0:0:0:
192,192,218817,128,0,218921:0:0:0:0:
448,192,218921,128,0,219024:0:0:0:0:
320,192,219024,128,0,219127:0:0:0:0:
192,192,219024,128,0,219127:0:0:0:0:
64,192,219024,128,0,219231:0:0:0:0:
448,192,219127,128,0,219334:0:0:0:0:
320,192,219231,128,0,219334:0:0:0:0:
192,192,219231,128,0,219334:0:0:0:0:
64,192,219334,128,0,219438:0:0:0:0:
320,192,219438,128,0,219541:0:0:0:0:
192,192,219438,128,0,219541:0:0:0:0:
448,192,219438,128,0,219645:0:0:0:0:
64,192,219541,128,0,219748:0:0:0:0:
320,192,219645,128,0,219748:0:0:0:0:
192,192,219645,128,0,219748:0:0:0:0:
448,192,219748,128,0,219852:0:0:0:0:
320,192,219852,128,0,220059:0:0:0:0:
192,192,219852,128,0,219955:0:0:0:0:
64,192,219852,128,0,219955:0:0:0:0:
448,192,219955,128,0,220059:0:0:0:0:
192,192,220059,128,0,220162:0:0:0:0:
64,192,220059,128,0,220265:0:0:0:0:
448,192,220162,128,0,220369:0:0:0:0:
320,192,220162,128,0,220265:0:0:0:0:
192,192,220265,128,0,220369:0:0:0:0:
320,192,220369,128,0,220472:0:0:0:0:
64,192,220369,128,0,220576:0:0:0:0:
448,192,220472,128,0,220576:0:0:0:0:
192,192,220472,128,0,220576:0:0:0:0:
320,192,220576,128,0,220679:0:0:0:0:
448,192,220679,128,0,220783:0:0:0:0:
192,192,220679,128,0,220886:0:0:0:0:
64,192,220679,128,0,220783:0:0:0:0:
320,192,220783,128,0,220886:0:0:0:0:
448,192,220886,128,0,220990:0:0:0:0:
64,192,220886,128,0,221093:0:0:0:0:
320,192,220990,128,0,221196:0:0:0:0:
192,192,220990,128,0,221093:0:0:0:0:
448,192,221093,128,0,221196:0:0:0:0:
192,192,221196,128,0,221403:0:0:0:0:
64,192,221196,128,0,221300:0:0:0:0:
320,192,221300,128,0,221403:0:0:0:0:
448,192,221300,128,0,221403:0:0:0:0:
64,192,221403,128,0,221507:0:0:0:0:
192,192,221507,128,0,221714:0:0:0:0:
320,192,221507,128,0,221610:0:0:0:0:
448,192,221507,128,0,221610:0:0:0:0:
64,192,221610,128,0,221714:0:0:0:0:
320,192,221714,128,0,221817:0:0:0:0:
448,192,221714,128,0,221921:0:0:0:0:
64,192,221817,128,0,222024:0:0:0:0:
192,192,221817,128,0,221921:0:0:0:0:
320,192,221921,128,0,222024:0:0:0:0:
192,192,222024,128,0,222127:0:0:0:0:
448,192,222024,128,0,222231:0:0:0:0:
64,192,222127,128,0,222231:0:0:0:0:
320,192,222127,128,0,222231:0:0:0:0:
192,192,222231,128,0,222334:0:0:0:0:
64,192,222334,128,0,222438:0:0:0:0:
320,192,222334,128,0,222541:0:0:0:0:
448,192,222334,128,0,222438:0:0:0:0:
192,192,222438,128,0,222645:0:0:0:0:
64,192,222541,128,0,222645:0:0:0:0:
448,192,222541,128,0,222645:0:0:0:0:
320,192,222645,128,0,222748:0:0:0:0:
64,192,222748,128,0,222852:0:0:0:0:
192,192,222748,128,0,222955:0:0:0:0:
448,192,222748,128,0,222852:0:0:0:0:
320,192,222852,128,0,223059:0:0:0:0:
64,192,222955,128,0,223059:0:0:0:0:
448,192,222955,128,0,223059:0:0:0:0:
192,192,223059,128,0,223162:0:0:0:0:
448,192,223162,128,0,223369:0:0:0:0:
320,192,223162,128,0,223265:0:0:0:0:
64,192,223162,1,0,0:0:0:0:
192,192,223265,128,0,223369:0:0:0:0:
320,192,223369,128,0,223472:0:0:0:0:
448,192,223472,128,0,223783:0:0:0:0:
64,192,223472,1,0,0:0:0:0:
192,192,223576,128,0,223679:0:0:0:0:
320,192,223679,128,0,223783:0:0:0:0:
192,192,223783,128,0,223990:0:0:0:0:
64,192,223783,1,0,0:0:0:0:
448,192,223886,128,0,223990:0:0:0:0:
64,192,223990,128,0,224196:0:0:0:0:
320,192,223990,1,0,0:0:0:0:
192,192,224093,128,0,224196:0:0:0:0:
320,192,224196,128,0,224300:0:0:0:0:
64,192,224300,128,0,224507:0:0:0:0:
448,192,224300,1,0,0:0:0:0:
192,192,224403,128,0,224507:0:0:0:0:
320,192,224507,128,0,224610:0:0:0:0:
448,192,224507,128,0,224610:0:0:0:0:
192,192,224610,128,0,224817:0:0:0:0:
64,192,224610,1,0,0:0:0:0:
320,192,224714,128,0,224817:0:0:0:0:
448,192,224817,128,0,225024:0:0:0:0:
64,192,224817,1,0,0:0:0:0:
320,192,224921,128,0,225024:0:0:0:0:
192,192,225024,128,0,225127:0:0:0:0:
448,192,225127,128,0,225438:0:0:0:0:
64,192,225127,1,0,0:0:0:0:
192,192,225231,128,0,225334:0:0:0:0:
320,192,225334,128,0,225438:0:0:0:0:
64,192,225438,128,0,225541:0:0:0:0:
192,192,225438,1,0,0:0:0:0:
448,192,225541,128,0,225645:0:0:0:0:
192,192,225645,128,0,225748:0:0:0:0:
64,192,225645,128,0,225852:0:0:0:0:
320,192,225645,1,0,0:0:0:0:
448,192,225748,128,0,225955:0:0:0:0:
320,192,225852,128,0,225955:0:0:0:0:
192,192,225852,128,0,225955:0:0:0:0:
64,192,225955,128,0,226059:0:0:0:0:
192,192,226059,128,0,226265:0:0:0:0:
320,192,226059,128,0,226162:0:0:0:0:
448,192,226059,1,0,0:0:0:0:
64,192,226162,128,0,226265:0:0:0:0:
320,192,226265,128,0,226369:0:0:0:0:
448,192,226265,128,0,226369:0:0:0:0:
192,192,226369,128,0,226472:0:0:0:0:
320,192,226472,128,0,226576:0:0:0:0:
448,192,226472,128,0,226679:0:0:0:0:
64,192,226472,1,0,0:0:0:0:
192,192,226576,128,0,226679:0:0:0:0:
320,192,226679,128,0,226783:0:0:0:0:
448,192,226783,128,0,227093:0:0:0:0:
64,192,226783,1,0,0:0:0:0:
192,192,226886,128,0,226990:0:0:0:0:
320,192,226990,128,0,227093:0:0:0:0:
192,192,227093,128,0,227300:0:0:0:0:
64,192,227093,1,0,0:0:0:0:
448,192,227196,128,0,227300:0:0:0:0:
64,192,227300,128,0,227507:0:0:0:0:
320,192,227300,1,0,0:0:0:0:
192,192,227403,128,0,227507:0:0:0:0:
320,192,227507,128,0,227610:0:0:0:0:
64,192,227610,128,0,227817:0:0:0:0:
448,192,227610,1,0,0:0:0:0:
192,192,227714,128,0,227817:0:0:0:0:
320,192,227817,128,0,227921:0:0:0:0:
64,192,227921,128,0,228024:0:0:0:0:
192,192,227921,128,0,228127:0:0:0:0:
320,192,228024,128,0,228127:0:0:0:0:
448,192,228127,128,0,228334:0:0:0:0:
64,192,228127,1,0,0:0:0:0:
320,192,228231,128,0,228334:0:0:0:0:
192,192,228334,128,0,228438:0:0:0:0:
448,192,228438,128,0,228541:0:0:0:0:
64,192,228438,1,0,0:0:0:0:
192,192,228541,128,0,228645:0:0:0:0:
320,192,228645,128,0,228852:0:0:0:0:
448,192,228645,128,0,228748:0:0:0:0:
64,192,228748,128,0,228852:0:0:0:0:
192,192,228748,128,0,228852:0:0:0:0:
448,192,228852,128,0,228955:0:0:0:0:
64,192,228955,128,0,229162:0:0:0:0:
192,192,228955,128,0,229162:0:0:0:0:
320,192,229059,1,0,0:0:0:0:
448,192,229059,1,0,0:0:0:0:
320,192,229162,1,0,0:0:0:0:
448,192,229162,1,0,0:0:0:0:
64,192,229265,128,0,229472:0:0:0:0:
192,192,229265,128,0,229472:0:0:0:0:
320,192,229369,1,0,0:0:0:0:
448,192,229369,1,0,0:0:0:0:
320,192,229472,1,0,0:0:0:0:
448,192,229472,1,0,0:0:0:0:
64,192,229576,128,0,229679:0:0:0:0:
192,192,229576,128,0,229679:0:0:0:0:
320,192,229679,128,0,229783:0:0:0:0:
448,192,229783,1,0,0:0:0:0:
192,192,229783,128,0,229886:0:0:0:0:
64,192,229783,128,0,229990:0:0:0:0:
320,192,229886,128,0,229990:0:0:0:0:
192,192,229990,128,0,230093:0:0:0:0:
64,192,230093,128,0,230403:0:0:0:0:
448,192,230093,1,0,0:0:0:0:
320,192,230196,128,0,230300:0:0:0:0:
192,192,230300,128,0,230403:0:0:0:0:
320,192,230403,128,0,230610:0:0:0:0:
448,192,230403,1,0,0:0:0:0:
64,192,230507,128,0,230610:0:0:0:0:
448,192,230610,128,0,230817:0:0:0:0:
192,192,230610,1,0,0:0:0:0:
320,192,230714,128,0,230817:0:0:0:0:
192,192,230817,128,0,230921:0:0:0:0:
448,192,230921,128,0,231127:0:0:0:0:
64,192,230921,1,0,0:0:0:0:
320,192,231024,128,0,231127:0:0:0:0:
64,192,231127,128,0,231231:0:0:0:0:
192,192,231127,128,0,231231:0:0:0:0:
320,192,231231,128,0,231438:0:0:0:0:
448,192,231231,1,0,0:0:0:0:
192,192,231334,128,0,231438:0:0:0:0:
64,192,231438,128,0,231645:0:0:0:0:
448,192,231438,1,0,0:0:0:0:
192,192,231541,128,0,231645:0:0:0:0:
320,192,231645,128,0,231748:0:0:0:0:
64,192,231748,128,0,231852:0:0:0:0:
448,192,231748,1,0,0:0:0:0:
320,192,231852,128,0,231955:0:0:0:0:
192,192,231955,128,0,232059:0:0:0:0:
64,192,231955,128,0,232059:0:0:0:0:
320,192,232059,1,0,0:0:0:0:
448,192,232059,128,0,232162:0:0:0:0:
64,192,232162,128,0,232265:0:0:0:0:
448,192,232265,128,0,232576:0:0:0:0:
320,192,232265,1,0,0:0:0:0:
64,192,232369,128,0,232576:0:0:0:0:
192,192,232369,128,0,232472:0:0:0:0:
320,192,232472,128,0,232576:0:0:0:0:
192,192,232576,128,0,232679:0:0:0:0:
320,192,232679,128,0,232886:0:0:0:0:
64,192,232679,1,0,0:0:0:0:
448,192,232679,128,0,232886:0:0:0:0:
192,192,232783,128,0,232990:0:0:0:0:
64,192,232886,128,0,232990:0:0:0:0:
320,192,232990,128,0,233093:0:0:0:0:
64,192,233093,128,0,233300:0:0:0:0:
448,192,233093,1,0,0:0:0:0:
192,192,233093,128,0,233196:0:0:0:0:
320,192,233196,128,0,233300:0:0:0:0:
192,192,233300,128,0,233403:0:0:0:0:
64,192,233403,128,0,233507:0:0:0:0:
448,192,233403,1,0,0:0:0:0:
320,192,233507,128,0,233610:0:0:0:0:
192,192,233610,128,0,233714:0:0:0:0:
64,192,233610,128,0,233714:0:0:0:0:
320,192,233714,128,0,233921:0:0:0:0:
448,192,233714,1,0,0:0:0:0:
192,192,233817,128,0,233921:0:0:0:0:
64,192,233921,1,0,0:0:0:0:
448,192,233921,128,0,234127:0:0:0:0:
320,192,234024,128,0,234127:0:0:0:0:
192,192,234127,128,0,234231:0:0:0:0:
448,192,234231,128,0,234438:0:0:0:0:
64,192,234231,1,0,0:0:0:0:
320,192,234334,128,0,234438:0:0:0:0:
192,192,234438,128,0,234541:0:0:0:0:
64,192,234438,128,0,234541:0:0:0:0:
320,192,234541,128,0,234748:0:0:0:0:
448,192,234541,128,0,234645:0:0:0:0:
192,192,234645,128,0,234748:0:0:0:0:
448,192,234748,1,0,0:0:0:0:
64,192,234748,128,0,234955:0:0:0:0:
192,192,234852,128,0,234955:0:0:0:0:
320,192,234955,128,0,235059:0:0:0:0:
64,192,235059,128,0,235265:0:0:0:0:
448,192,235059,1,0,0:0:0:0:
192,192,235162,128,0,235265:0:0:0:0:
320,192,235265,128,0,235472:0:0:0:0:
192,192,235369,128,0,235472:0:0:0:0:
64,192,235369,128,0,235472:0:0:0:0:
448,192,235472,128,0,235576:0:0:0:0:
320,192,235576,1,0,0:0:0:0:
64,192,235576,128,0,235783:0:0:0:0:
192,192,235576,128,0,235679:0:0:0:0:
448,192,235679,128,0,235886:0:0:0:0:
320,192,235783,128,0,235886:0:0:0:0:
192,192,235783,128,0,235886:0:0:0:0:
64,192,235886,128,0,235990:0:0:0:0:
320,192,235990,128,0,236093:0:0:0:0:
192,192,235990,128,0,236196:0:0:0:0:
448,192,235990,1,0,0:0:0:0:
64,192,236093,128,0,236196:0:0:0:0:
320,192,236196,128,0,236300:0:0:0:0:
448,192,236196,128,0,236300:0:0:0:0:
192,192,236300,128,0,236403:0:0:0:0:
64,192,236403,1,0,0:0:0:0:
448,192,236403,1,0,0:0:0:0:
320,192,236403,1,0,0:0:0:0:
