osu file format v14

[General]
AudioFilename: audio.mp3
AudioLeadIn: 0
PreviewTime: 209716
Countdown: 0
SampleSet: Drum
StackLeniency: 0.7
Mode: 0
LetterboxInBreaks: 0
WidescreenStoryboard: 1

[Editor]
Bookmarks: 3232,19928,43511,53111,62711,72311,81911,91511,101111,110711,120311,129911,139511,158711,171311,180911,190511,200111,209711,219311,228911,238511,269711,281711,301061,310361,319961,398762,405962,422162,429362,436562,443762,450962,458162,472633,480656,495051,509451,519051,528651,538251,547851,557451,569451,579051,588658,598254,607930,617530,627730,637560
DistanceSpacing: 1
BeatDivisor: 6
GridSize: 16
TimelineZoom: 3.150002

[Metadata]
Title:Dancing so madly, I'm reaching for the scarlet moon.
TitleUnicode:Dancing so madly, I'm reaching for the scarlet moon.
Artist:Stratiotes
ArtistUnicode:Stratiotes
Creator:kerupt
Version:Fatal Contamination Collab
Source:東方紅魔郷 ~ the Embodiment of Scarlet Devil.
Tags:iamtickrate english japanese en jp Fatal Contamination ケンカワ Kenkawa とむ Lynri よしお アルベルト・オブ・ジョイトイ Mr Sweden Reitaisai 8 MrSweden touhou 亡き王女の為のセプテット Naki Oujo no Tame no Septette for the Dead Princess ツェペシュの幼き末裔 A Young Descendant of Tepes no Osanaki Matsuei ZUN Team Shanghai Alice 上海アリス幻樂団 Remilia Scarlet レミリア・スカーレット Albert of Joy Toy Yoshio Tomu metal melodeath death melodic mr.sweden 東方Project Touhou Astral Cosmic Progressive Deathrash U.N.オーエンは彼女なのか? U.N. Owen wa Kanojo Nanoka? was her? 竹取飛翔 ~ Lunatic Princess Flight of the Bamboo Cutter Taketori Hishou 上海紅茶館 ~ Chinese Tea Shanghai Kouchakan Scarlet Teahouse 東方永夜抄 ~ Imperishable Night th06 th08 Reisen
BeatmapID:3158090
BeatmapSetID:1545058

[Difficulty]
HPDrainRate:4.5
CircleSize:4
OverallDifficulty:9.3
ApproachRate:9.6
SliderMultiplier:1.9
SliderTickRate:1

[Events]
//Background and Video events
0,0,"bg.jpg",0,0
//Break Periods
2,149461,150991
2,151861,153091
2,339366,340257
2,342571,378662
2,566651,568342
//Storyboard Layer 0 (Background)
//Storyboard Layer 1 (Fail)
//Storyboard Layer 2 (Pass)
//Storyboard Layer 3 (Foreground)
//Storyboard Layer 4 (Overlay)
//Storyboard Sound Samples

[TimingPoints]
1146,521.739130434783,4,2,1,50,1,0
3232,-133.333333333333,4,3,1,80,0,0
7146,-133.333333333333,4,3,1,50,0,0
7406,-133.333333333333,4,3,1,80,0,0
10015,-133.333333333333,4,3,1,50,0,0
10537,-133.333333333333,4,3,1,60,0,0
11580,-133.333333333333,4,3,1,80,0,0
15232,-133.333333333333,4,3,1,60,0,0
15754,-133.333333333333,4,3,1,80,0,0
18363,-133.333333333333,4,3,1,60,0,0
18885,-133.333333333333,4,3,1,70,0,0
19928,-133.333333333333,4,3,1,80,0,0
23580,-133.333333333333,4,3,1,60,0,0
24102,-133.333333333333,4,3,1,80,0,0
26711,-133.333333333333,4,3,1,60,0,0
27232,-133.333333333333,4,3,1,70,0,0
28276,-133.333333333333,4,3,1,80,0,0
31928,-133.333333333333,4,3,1,60,0,0
32450,-133.333333333333,4,3,1,80,0,0
35059,-133.333333333333,4,3,1,60,0,0
35580,-133.333333333333,4,3,1,70,0,0
36624,-133.333333333333,4,3,1,80,0,0
38711,300,4,3,1,50,1,0
39911,-100,4,1,1,60,0,0
42311,-333.333333333333,4,3,1,70,0,0
43211,-333.333333333333,4,2,2,50,0,0
43511,-100,4,3,1,70,0,1
49511,-90.9090909090909,4,3,1,70,0,1
50711,-83.3333333333333,4,3,1,70,0,1
52211,-100,4,3,1,70,0,1
52811,-111.111111111111,4,3,1,70,0,0
53111,-100,4,3,1,70,0,1
62711,-100,4,3,1,70,0,0
62786,-100,4,3,1,60,0,0
67511,-117.647058823529,4,3,1,70,0,0
69911,-133.333333333333,4,3,1,70,0,0
71261,-100,4,3,1,70,0,0
81836,-100,4,3,1,5,0,0
81911,-100,4,3,1,70,0,0
85511,-100,4,3,2,70,0,0
86111,-125,4,3,1,70,0,0
87011,-83.3333333333333,4,3,1,70,0,0
89111,-100,4,3,1,70,0,0
89561,-71.4285714285714,4,3,1,70,0,0
89936,-90.9090909090909,4,3,1,70,0,0
98711,-90.9090909090909,4,3,1,80,0,0
100661,-90.9090909090909,4,3,1,70,0,0
109211,-83.3333333333333,4,3,1,70,0,0
109661,-76.9230769230769,4,3,1,70,0,0
110711,-100,4,3,1,70,0,0
113111,-83.3333333333333,4,3,1,70,0,0
115511,-90.9090909090909,4,3,1,70,0,0
121061,-90.9090909090909,4,3,2,70,0,0
121136,-90.9090909090909,4,3,1,70,0,0
121361,-90.9090909090909,4,3,2,70,0,0
121511,-90.9090909090909,4,3,1,70,0,0
122261,-90.9090909090909,4,3,2,70,0,0
122336,-90.9090909090909,4,3,1,70,0,0
122561,-90.9090909090909,4,3,2,70,0,0
122711,-90.9090909090909,4,3,2,70,0,0
127061,-80,4,3,1,70,0,0
127511,-90.9090909090909,4,3,1,70,0,0
129911,-86.9565217391304,4,3,1,80,0,1
139436,-86.9565217391304,4,3,1,80,0,0
139511,-80,4,3,1,80,0,1
139811,-86.9565217391304,4,3,1,80,0,1
144311,-80,4,3,1,80,0,1
144611,-86.9565217391304,4,3,1,80,0,1
149111,-86.9565217391304,4,3,1,80,0,0
149261,-86.9565217391304,4,3,1,70,0,0
153911,-133.333333333333,4,3,1,70,0,0
154961,-133.333333333333,4,2,1,60,0,0
155111,-133.333333333333,4,3,1,70,0,0
156161,-133.333333333333,4,2,1,60,0,0
156311,-133.333333333333,4,3,1,70,0,0
157361,-133.333333333333,4,3,1,60,0,0
157511,-133.333333333333,4,3,1,70,0,0
159011,-90.9090909090909,4,3,1,60,0,0
160661,-90.9090909090909,4,3,2,60,0,0
160811,-90.9090909090909,4,3,1,60,0,0
162611,-90.9090909090909,4,3,2,60,0,0
162761,-90.9090909090909,4,3,1,60,0,0
163211,-90.9090909090909,4,3,2,60,0,0
163361,-90.9090909090909,4,3,1,60,0,0
167111,-76.9230769230769,4,3,1,60,0,0
168311,-76.9230769230769,4,3,1,50,0,0
169511,-100,4,3,1,60,0,0
169961,-100,4,3,2,60,0,0
170111,-100,4,3,1,60,0,0
170711,-100,4,3,1,60,0,0
171311,300,4,3,1,70,1,0
171311,-90.9090909090909,4,3,1,70,0,0
174911,-76.9230769230769,4,3,1,70,0,0
180911,-90.9090909090909,4,3,1,70,0,0
184511,-76.9230769230769,4,3,1,70,0,0
190511,-83.3333333333333,4,3,1,70,0,0
195011,-100,4,3,1,70,0,0
196061,-83.3333333333333,4,3,1,70,0,0
199511,-83.3333333333333,4,3,1,70,0,0
200111,-76.9230769230769,4,3,1,70,0,0
203711,-133.333333333333,4,3,1,70,0,0
204911,-76.9230769230769,4,3,1,70,0,0
209711,-86.9565217391304,4,3,1,80,0,1
219311,-76.9230769230769,4,3,1,80,0,1
228911,-90.9090909090909,4,3,1,70,0,0
237611,-90.9090909090909,4,3,2,70,0,0
237761,-90.9090909090909,4,3,1,70,0,0
246911,-76.9230769230769,4,3,1,70,0,0
247811,-133.333333333333,4,3,1,70,0,0
253211,-133.333333333333,4,3,1,5,0,0
254111,-133.333333333333,4,3,1,60,0,0
257711,-133.333333333333,4,3,1,70,0,0
258161,-83.3333333333333,4,3,1,70,0,0
258761,-90.9090909090909,4,3,1,70,0,0
259361,-100,4,3,1,70,0,0
259961,-111.111111111111,4,3,1,70,0,0
260561,-125,4,3,1,70,0,0
261161,-142.857142857143,4,3,1,70,0,0
261761,-166.666666666667,4,3,1,70,0,0
262361,-125,4,3,1,70,0,0
262661,-111.111111111111,4,3,1,70,0,0
262961,-100,4,3,1,70,0,0
269711,-83.3333333333333,4,3,1,70,0,0
270761,-76.9230769230769,4,3,1,70,0,0
271511,-66.6666666666667,4,3,1,70,0,0
271811,-83.3333333333333,4,3,1,70,0,0
274511,-66.6666666666667,4,3,1,70,0,0
274961,-90.9090909090909,4,3,1,70,0,0
275561,-83.3333333333333,4,3,1,70,0,0
276761,-83.3333333333333,4,3,2,70,0,0
276836,-83.3333333333333,4,3,1,70,0,0
282311,-100,4,3,1,40,0,0
282461,-100,4,3,1,60,0,0
285311,-111.111111111111,4,3,1,60,0,0
286511,-166.666666666667,4,3,1,50,0,0
287111,-200,4,3,1,50,0,0
287711,-111.111111111111,4,3,1,50,0,0
289811,-111.111111111111,4,3,1,40,0,0
289961,-111.111111111111,4,3,1,50,0,0
290111,-111.111111111111,4,3,1,60,0,0
290261,-111.111111111111,4,3,1,50,0,0
290711,-142.857142857143,4,3,1,50,0,0
291011,-166.666666666667,4,3,1,50,0,0
291311,300,7,3,1,70,1,0
291311,-100,7,3,1,70,0,0
294761,-100,7,3,2,70,0,0
294911,-100,7,3,1,70,0,0
296111,-86.9565217391304,7,3,1,70,0,0
297611,300,6,3,1,70,1,0
298811,-125,6,3,1,70,0,0
299561,-125,6,3,2,70,0,0
299861,-125,6,3,1,70,0,0
300011,-125,6,3,2,70,0,0
300311,-125,6,3,1,70,0,0
300461,-125,6,3,2,70,0,0
300761,-125,6,3,1,70,0,0
301061,300,4,3,1,70,1,0
301061,-83.3333333333333,4,3,1,70,0,0
305861,300,7,3,1,70,1,0
305861,-83.3333333333333,7,3,1,70,0,0
307961,300,4,3,1,70,1,0
307961,-83.3333333333333,4,3,1,70,0,0
310361,-100,4,3,1,70,0,1
310461,-100,4,3,1,70,0,1
315161,-90.9090909090909,4,3,1,70,0,1
317561,-83.3333333333333,4,3,1,70,0,1
319061,-76.9230769230769,4,3,1,70,0,1
319661,-83.3333333333333,4,3,1,70,0,1
319961,-100,4,3,1,70,0,1
324761,-90.9090909090909,4,3,1,70,0,1
327161,-83.3333333333333,4,3,1,70,0,1
328661,-76.9230769230769,4,3,1,70,0,1
329261,-76.9230769230769,4,3,1,60,0,1
329566,800,4,3,1,70,1,0
339166,-100,4,3,1,5,0,0
340766,-100,4,3,1,45,0,0
341566,-50,4,3,1,50,0,0
341966,-55.5555555555556,4,3,1,50,0,0
342266,-50,4,3,1,5,0,0
342371,800,4,3,1,50,1,0
379171,-100,4,2,2,60,0,0
380771,441.176470588235,4,3,1,60,1,0
380771,-153.846153846154,4,3,1,60,0,0
380918,-153.846153846154,4,3,1,50,0,0
381653,454.545454545455,4,3,1,50,1,0
381956,-153.846153846154,4,3,1,50,0,0
384380,447.761194029851,4,3,1,50,1,0
384380,-142.857142857143,4,3,1,50,0,0
386171,-142.857142857143,4,3,1,40,0,0
386320,-142.857142857143,4,3,1,60,0,0
386469,-142.857142857143,4,3,1,40,0,0
386618,-142.857142857143,4,3,1,60,0,0
386768,-142.857142857143,4,3,1,50,0,0
387066,-125,4,3,1,50,0,0
387962,450.001125002813,4,3,1,50,1,0
388862,-100,4,3,2,50,0,0
389012,-100,4,3,1,50,0,0
389312,-100,4,3,2,50,0,0
389462,-100,4,3,1,50,0,0
391562,-66.6666666666667,4,3,1,60,0,0
392162,-66.6666666666667,4,3,2,60,0,0
392462,-66.6666666666667,4,3,1,60,0,0
395762,-66.6666666666667,4,3,2,60,0,0
396062,-66.6666666666667,4,3,1,60,0,0
398762,-66.6666666666667,4,3,1,60,0,0
413162,-66.6666666666667,4,3,1,60,0,0
422162,-66.6666666666667,4,3,1,60,0,0
437162,-100,4,3,1,60,0,0
450962,300,3,3,2,60,1,0
450962,-100,4,3,1,70,0,0
451262,-111.111111111111,4,3,2,60,0,0
451862,-111.111111111111,4,3,1,60,0,0
453362,-111.111111111111,4,3,2,60,0,0
453512,-111.111111111111,4,3,1,60,0,0
457262,-133.333333333333,4,3,1,60,0,0
457862,-166.666666666667,4,3,1,60,0,0
458162,-117.647058823529,4,3,1,70,0,0
458462,-76.9230769230769,4,3,2,60,0,0
458912,-111.111111111111,4,3,1,60,0,0
464762,-166.666666666666,4,3,1,60,0,0
465512,-100,4,3,1,60,0,0
470762,297.029702970297,3,3,1,60,1,0
471653,300,3,3,1,60,1,0
471803,-90.9090909090909,3,3,1,60,0,0
472103,-100,3,3,1,60,0,0
472553,-100,3,3,2,60,0,0
477953,300,4,3,1,60,1,0
479153,300,5,3,1,60,1,0
480353,-90.9090909090909,5,3,1,60,0,1
480503,-90.9090909090909,5,3,1,60,0,0
480656,300,3,3,1,70,1,1
493256,299.25187032419,3,3,1,70,1,0
495051,300,3,3,1,70,1,0
495051,-90.9090909090909,3,3,1,70,0,1
509451,300,4,3,1,70,1,0
509451,-125,4,3,1,70,0,0
514251,-90.9090909090909,4,3,1,70,0,0
528651,-90.9090909090909,4,3,3,70,0,1
533451,-111.111111111111,4,3,1,70,0,1
534651,-90.9090909090908,4,3,1,70,0,1
537651,-90.9090909090908,4,3,1,70,0,0
538251,-90.9090909090908,4,3,1,70,0,1
556251,-83.3333333333333,4,3,1,70,0,1
557451,-90.9090909090908,4,3,1,70,0,1
566451,-90.9090909090909,4,3,1,70,0,0
569451,-76.9230769230769,4,3,1,70,0,1
579051,-76.9230769230769,4,3,1,70,0,1
579651,-76.9230769230769,4,3,2,70,0,1
579726,-76.9230769230769,4,3,1,70,0,1
580251,-76.9230769230769,4,3,2,70,0,1
580326,-76.9230769230769,4,3,1,70,0,1
580851,-76.9230769230769,4,3,2,70,0,1
580926,-76.9230769230769,4,3,1,70,0,1
581451,-76.9230769230769,4,3,2,70,0,1
581526,-76.9230769230769,4,3,1,70,0,1
582051,-76.9230769230769,4,3,2,70,0,1
582126,-76.9230769230769,4,3,1,70,0,1
582651,-76.9230769230769,4,3,2,70,0,1
582726,-76.9230769230769,4,3,1,70,0,1
583251,-76.9230769230769,4,3,2,70,0,1
583326,-76.9230769230769,4,3,1,70,0,1
583851,-76.9230769230769,4,3,2,70,0,1
583926,-76.9230769230769,4,3,1,70,0,1
584451,-76.9230769230769,4,3,2,70,0,1
584526,-76.9230769230769,4,3,1,70,0,1
585051,-76.9230769230769,4,3,2,70,0,1
585126,-76.9230769230769,4,3,1,70,0,1
585651,-76.9230769230769,4,3,2,70,0,1
585726,-76.9230769230769,4,3,1,70,0,1
586251,-76.9230769230769,4,3,2,70,0,1
586326,-76.9230769230769,4,3,1,70,0,1
586851,-76.9230769230769,4,3,2,70,0,1
586926,-76.9230769230769,4,3,1,70,0,1
587451,-76.9230769230769,4,3,2,70,0,1
587526,-76.9230769230769,4,3,1,70,0,1
588351,-76.9230769230769,4,3,2,70,0,1
588426,-76.9230769230769,4,3,1,70,0,1
588658,300,4,3,1,70,1,0
589258,-100,4,3,1,60,0,0
589858,-83.3333333333333,4,3,1,70,0,0
590158,-83.3333333333333,4,3,1,60,0,0
590458,-100,4,3,1,60,0,0
590658,-117.647058823529,4,3,1,50,0,0
590858,-166.666666666667,4,3,1,70,0,0
591058,-100,4,3,1,70,0,0
591508,-100,4,3,1,60,0,0
593458,-100,4,3,1,70,0,0
593908,-100,4,3,1,60,0,0
594058,-125,4,3,1,60,0,0
594658,-125,4,3,2,60,0,0
594808,-125,4,3,1,60,0,0
594958,-125,4,3,2,60,0,0
595108,-125,4,3,1,60,0,0
595633,-125,4,3,1,5,0,0
595708,-125,4,3,1,60,0,0
595858,-100,4,3,1,60,0,0
597058,-100,4,3,1,70,0,0
597208,-100,4,3,1,60,0,0
597658,-133.333333333333,4,3,1,70,0,0
598183,-133.333333333333,4,3,1,5,0,0
598254,300,4,3,1,70,1,1
607850,300,4,3,1,70,1,0
615800,-100,4,3,2,70,0,0
615875,-100,4,3,1,70,0,0
627650,300,4,3,1,70,1,0
627650,-133.333333333333,4,3,1,70,0,0
628100,-100,4,3,1,70,0,0
628550,-133.333333333333,4,3,1,70,0,0
629000,-86.9565217391303,4,3,1,70,0,0
630950,-86.9565217391303,4,3,2,70,0,0
631100,-86.9565217391303,4,3,1,70,0,0
631400,-86.9565217391303,4,3,2,70,0,0
631550,-86.9565217391303,4,3,1,70,0,0
632450,300,5,3,1,70,1,0
632600,-100,5,3,1,70,0,0
633950,300,4,3,1,70,1,0
637560,300,4,3,1,70,1,0
675960,594.059405940594,4,3,1,70,1,0

[Colours]
Combo1 : 255,83,83
Combo2 : 245,158,239

[HitObjects]
308,241,1146,5,2,0:1:0:0:
308,241,1667,1,2,0:1:0:0:
308,241,2189,1,2,0:1:0:0:
308,241,2711,1,2,0:1:0:0:
230,111,3232,6,0,B|208:128|208:128|255:172|313:145|313:145|296:88|367:20|367:20|434:76|447:164|398:224|398:224|438:218|520:203|567:354|468:431|367:383|347:324|347:324|269:336|269:336|261:357|261:357|164:347,1,1068.75004076958,6|0,3:1|2:0,0:0:0:0:
26,225,7406,6,0,B|18:300|84:351|84:351|80:331|90:271|155:234|223:271|223:271|294:170|212:60|212:60|185:154|98:145,1,712.500027179719,6|2,3:1|2:1,0:0:0:0:
107,43,10537,5,8,3:1:0:0:
140,195,10885,1,4,0:0:0:0:
174,348,11232,1,4,0:0:0:0:
483,123,11580,6,0,B|401:41|242:151|335:213|194:285|88:284|28:189|28:189|91:104|231:76|382:244|323:348,1,997.500038051607,6|0,3:1|2:0,0:0:0:0:
108,26,15754,6,0,B|12:218|188:373|188:373|357:204|252:53,1,712.500027179719,6|2,3:1|2:1,0:0:0:0:
108,26,18885,5,8,0:0:0:0:
261,59,19232,1,4,0:0:0:0:
414,93,19580,1,4,0:0:0:0:
487,362,19928,6,0,B|533:316|459:252|396:323|396:323|348:376|269:352|218:323|238:241|238:241|256:168|181:101|125:119|77:164|69:234|113:290|178:287|238:241|238:241|287:197|346:207|346:207|311:214|291:263,1,997.500038051607,6|0,3:1|2:0,0:0:0:0:
78,377,24102,6,0,B|51:332|64:269|64:269|58:266|58:266|0:205|11:146|11:146|6:145|6:145|11:81|84:31|84:31|86:20|86:20|69:123|91:168|91:168|99:166|99:166|144:257|221:256,1,712.500027179719,6|2,3:1|2:1,0:0:0:0:
239,34,27232,5,8,3:1:0:0:
261,189,27580,1,4,3:2:0:0:
289,343,27928,1,6,3:0:0:0:
483,141,28276,6,0,B|499:194|499:194|449:158|380:168|380:168|414:77|338:22|338:22|231:90|282:230|353:278|353:278|274:225|163:276|200:327|110:376|27:343,1,997.500038051607,6|0,3:1|2:0,0:0:0:0:
181,42,32450,6,0,B|140:98|168:164|254:171|296:143|296:36|231:22|181:36|181:36|43:74|43:74|88:175|88:175|95:183|95:183|154:321,1,712.500027179719,6|2,3:1|2:1,0:0:0:0:
238,361,35580,5,8,3:1:0:0:
260,207,35928,1,4,3:0:0:0:
288,52,36276,1,4,3:0:0:0:
43,172,36624,6,0,B|108:209|195:155|195:155|260:207|260:207|312:136|410:123|491:177|481:278|414:299,1,570.000021743775,6|2,3:1|2:0,0:0:0:0:
418,283,39011,1,2,2:0:0:0:
404,270,39311,1,2,2:0:0:0:
390,257,39611,1,2,2:0:0:0:
320,85,39911,5,8,3:1:0:0:
342,42,39986,1,8,3:1:0:0:
384,21,40061,1,8,3:1:0:0:
431,25,40136,1,8,3:1:0:0:
466,56,40211,1,6,3:1:0:0:
310,202,40361,5,8,3:1:0:0:
279,202,40436,1,8,3:1:0:0:
249,202,40511,1,8,3:1:0:0:
218,202,40586,1,8,3:1:0:0:
189,200,40661,2,0,P|131:189|81:155,1,95,6|0,3:1|3:0,0:0:0:0:
82,151,40886,1,0,3:0:0:0:
82,151,40961,1,0,3:0:0:0:
201,343,41111,5,8,3:0:0:0:
42,281,41261,1,4,3:0:0:0:
45,304,41336,1,4,3:0:0:0:
48,327,41411,1,4,3:0:0:0:
189,200,41561,1,4,3:0:0:0:
187,223,41636,1,4,3:0:0:0:
186,246,41711,5,10,3:1:0:0:
151,230,41786,1,10,3:1:0:0:
138,194,41861,1,0,3:0:0:0:
143,161,41936,1,8,3:0:0:0:
160,138,42011,1,4,3:0:0:0:
172,117,42086,1,4,3:0:0:0:
174,98,42161,2,0,P|176:75|154:41,1,47.5,4|4,3:0|3:0,3:0:0:0:
67,50,42311,6,2,P|36:105|89:71,1,170.999994781494,2|2,0:0|2:0,0:0:0:0:
13,272,43511,5,6,0:1:0:0:
34,240,43586,1,0,0:0:0:0:
68,220,43661,1,0,0:0:0:0:
108,217,43736,1,0,0:0:0:0:
144,230,43811,1,10,0:1:0:0:
167,260,43886,1,0,0:0:0:0:
199,282,43961,1,0,0:0:0:0:
238,292,44036,1,0,0:0:0:0:
278,279,44111,1,2,0:1:0:0:
299,242,44186,1,0,0:0:0:0:
292,200,44261,1,0,0:0:0:0:
260,170,44336,1,0,0:0:0:0:
218,166,44411,1,10,0:1:0:0:
183,191,44486,1,0,0:0:0:0:
169,231,44561,1,0,0:0:0:0:
184,270,44636,1,0,0:0:0:0:
213,300,44711,5,2,0:1:0:0:
244,296,44786,1,0,0:0:0:0:
276,292,44861,1,0,0:0:0:0:
306,288,44936,1,0,0:0:0:0:
333,285,45011,2,0,P|346:267|345:239,1,47.5,10|0,0:1|0:0,0:0:0:0:
421,203,45161,2,0,P|411:182|387:169,1,47.5,0|0,0:1|0:0,0:0:0:0:
260,170,45311,2,0,L|266:122,3,47.5,2|0|0|0,0:1|0:0|0:0|0:0,0:0:0:0:
348,42,45611,2,0,L|354:89,3,47.5,10|0|0|0,0:1|0:0|0:0|0:0,0:0:0:0:
66,174,45911,5,2,0:0:0:0:
34,139,45986,1,0,0:0:0:0:
34,92,46061,1,0,0:0:0:0:
66,57,46136,1,0,0:0:0:0:
111,54,46211,1,10,0:1:0:0:
148,81,46286,1,0,0:0:0:0:
158,127,46361,1,0,0:0:0:0:
136,166,46436,1,0,0:0:0:0:
98,192,46511,1,2,0:0:0:0:
69,223,46586,1,0,0:0:0:0:
53,262,46661,1,0,0:0:0:0:
55,304,46736,1,0,0:0:0:0:
80,338,46811,2,0,L|127:332,1,47.5,10|0,0:1|0:0,0:0:0:0:
167,262,46961,2,0,L|214:268,1,47.5,0|0,0:1|0:0,0:0:0:0:
300,362,47111,5,2,0:0:0:0:
261,339,47186,1,0,0:0:0:0:
243,303,47261,1,0,0:0:0:0:
243,262,47336,1,0,0:0:0:0:
259,226,47411,1,10,0:1:0:0:
291,199,47486,1,0,0:0:0:0:
333,192,47561,1,0,0:0:0:0:
372,208,47636,1,0,0:0:0:0:
384,239,47711,5,2,0:0:0:0:
352,277,47786,1,0,0:0:0:0:
310,296,47861,1,0,0:0:0:0:
264,301,47936,1,0,0:0:0:0:
224,280,48011,1,10,0:1:0:0:
199,248,48086,1,0,0:0:0:0:
192,215,48161,1,0,0:0:0:0:
197,182,48236,1,0,0:0:0:0:
215,154,48311,6,0,P|222:129|221:102,1,47.5,6|0,0:1|0:0,0:0:0:0:
82,87,48461,2,0,P|100:105|124:118,1,47.5,0|0,0:1|0:0,0:0:0:0:
207,5,48611,2,0,P|181:11|158:25,1,47.5,10|0,0:1|0:0,0:0:0:0:
232,139,48761,6,0,P|232:113|224:87,1,47.5,0|0,0:1|0:0,0:0:0:0:
86,109,48911,2,0,P|108:122|134:128,1,47.5,2|0,0:1|0:0,0:0:0:0:
185,0,49061,2,0,P|161:12|142:32,1,47.5,0|0,0:1|0:0,0:0:0:0:
199,248,49211,5,10,0:1:0:0:
216,246,49286,1,0,0:0:0:0:
233,244,49361,1,0,0:0:0:0:
249,242,49436,1,0,0:0:0:0:
266,240,49511,6,0,L|318:233,1,52.2500015945435,2|0,0:0|0:0,0:0:0:0:
408,154,49661,2,0,L|356:148,1,52.2500015945435
246,160,49811,1,8,0:1:0:0:
246,160,49886,1,0,0:0:0:0:
246,160,49961,6,0,L|253:108,1,52.2500015945435
346,79,50111,2,0,L|352:131,1,52.2500015945435,2|0,0:0|0:0,0:0:0:0:
434,218,50261,1,0,0:0:0:0:
434,218,50336,1,0,0:0:0:0:
434,218,50411,2,0,L|440:166,1,52.2500015945435,10|0,0:1|0:0,0:0:0:0:
512,29,50561,1,0,0:0:0:0:
512,57,50636,1,0,0:0:0:0:
495,83,50711,6,0,P|458:81|428:64,1,56.9999982604981,2|0,0:0|0:0,0:0:0:0:
364,131,50861,2,0,P|347:97|348:61,1,56.9999982604981
262,7,51011,1,10,0:1:0:0:
262,7,51086,1,0,0:0:0:0:
262,7,51161,6,0,L|319:1,1,56.9999982604981
364,131,51311,2,0,L|306:124,1,56.9999982604981,2|0,0:0|0:0,0:0:0:0:
262,255,51461,1,0,0:0:0:0:
262,255,51536,1,0,0:0:0:0:
262,255,51611,2,0,L|324:247,1,56.9999982604981,10|0,0:1|0:0,0:0:0:0:
192,143,51761,1,0,0:0:0:0:
194,129,51836,1,0,0:0:0:0:
194,113,51911,5,10,0:1:0:0:
137,78,51986,1,8,0:1:0:0:
73,96,52061,1,8,0:1:0:0:
44,156,52136,1,8,0:1:0:0:
69,218,52211,1,0,0:0:0:0:
108,243,52286,1,0,0:0:0:0:
134,282,52361,1,0,0:0:0:0:
135,329,52436,1,0,0:0:0:0:
110,364,52511,2,8,L|62:371,3,47.5,0|0|0|0,0:0|0:0|0:0|0:0,0:0:0:0:
0,284,52811,2,4,L|41:291,3,42.7499986953736,0|0|0|0,0:0|0:0|0:0|0:0,0:0:0:0:
84,129,53111,5,6,0:1:0:0:
120,159,53186,1,0,0:1:0:0:
166,168,53261,1,0,0:1:0:0:
212,157,53336,1,0,0:1:0:0:
246,124,53411,1,10,0:1:0:0:
259,78,53486,1,0,0:1:0:0:
253,30,53561,2,0,P|247:12|209:-15,1,47.5
65,42,53711,5,2,0:1:0:0:
79,64,53786,2,0,L|85:144,1,47.5
149,157,53936,1,0,0:1:0:0:
142,166,54011,2,0,L|136:246,1,47.5,10|0,0:1|0:1,0:1:0:0:
33,261,54161,2,0,L|39:308,1,47.5
129,374,54311,5,2,0:1:0:0:
154,339,54386,1,0,0:1:0:0:
193,322,54461,1,0,0:1:0:0:
235,323,54536,1,0,0:1:0:0:
271,345,54611,1,10,0:1:0:0:
307,361,54686,1,0,0:1:0:0:
344,356,54761,1,0,0:1:0:0:
371,337,54836,1,0,0:1:0:0:
385,312,54911,5,2,0:1:0:0:
364,285,54986,1,0,0:1:0:0:
327,274,55061,1,0,0:1:0:0:
285,285,55136,1,0,0:1:0:0:
254,321,55211,2,0,L|308:333,1,47.5,10|0,0:1|0:1,0:1:0:0:
375,217,55361,2,0,L|328:227,1,47.5
459,384,55511,5,2,0:1:0:0:
462,336,55586,1,0,0:1:0:0:
467,288,55661,1,0,0:1:0:0:
471,240,55736,1,0,0:1:0:0:
476,192,55811,1,10,0:1:0:0:
480,144,55886,1,0,0:1:0:0:
486,97,55961,2,0,L|492:34,1,47.5
362,0,56111,5,2,0:1:0:0:
373,14,56186,2,0,L|379:76,1,47.5
257,175,56336,1,0,0:1:0:0:
277,149,56411,2,0,L|283:86,1,47.5,10|0,0:1|0:1,0:1:0:0:
167,3,56561,2,0,L|173:65,1,47.5
56,168,56711,5,2,0:1:0:0:
24,209,56786,1,0,0:1:0:0:
27,261,56861,1,0,0:1:0:0:
56,304,56936,1,0,0:1:0:0:
106,318,57011,1,10,0:1:0:0:
152,308,57086,1,0,0:1:0:0:
183,278,57161,1,0,0:1:0:0:
193,246,57236,1,0,0:1:0:0:
187,222,57311,5,2,0:1:0:0:
153,224,57386,1,0,0:1:0:0:
125,250,57461,1,0,0:1:0:0:
114,291,57536,1,0,0:1:0:0:
133,334,57611,2,0,L|209:324,1,47.5,10|0,0:1|0:1,0:1:0:0:
55,236,57761,2,0,L|-21:226,1,47.5
227,12,57911,5,6,0:1:0:0:
261,44,57986,1,0,0:1:0:0:
264,91,58061,1,0,0:1:0:0:
237,130,58136,1,0,0:1:0:0:
202,162,58211,1,10,0:1:0:0:
191,208,58286,1,0,0:1:0:0:
208,252,58361,2,0,P|226:274|268:287,1,47.5
360,200,58511,5,2,0:1:0:0:
337,183,58586,2,0,P|308:187|276:217,1,47.5
312,338,58736,1,0,0:1:0:0:
324,331,58811,2,0,P|334:304|324:261,1,47.5,10|0,0:1|0:1,0:1:0:0:
192,336,58961,2,0,P|192:359|201:381,1,47.5
292,196,59111,5,2,0:1:0:0:
267,231,59186,1,0,0:1:0:0:
228,248,59261,1,0,0:1:0:0:
186,247,59336,1,0,0:1:0:0:
150,225,59411,1,10,0:1:0:0:
114,209,59486,1,0,0:1:0:0:
77,214,59561,1,0,0:1:0:0:
50,233,59636,1,0,0:1:0:0:
36,258,59711,5,2,0:1:0:0:
57,285,59786,1,0,0:1:0:0:
94,296,59861,1,0,0:1:0:0:
136,285,59936,1,0,0:1:0:0:
173,255,60011,2,0,B|181:248|181:248|239:262,1,47.5,10|0,0:1|0:1,0:1:0:0:
126,155,60161,2,0,B|118:148|118:148|60:162,1,47.5
240,6,60311,6,0,B|233:14|233:14|247:72,1,47.5,2|0,0:1|0:1,0:1:0:0:
166,116,60461,2,0,B|159:108|159:108|173:50,1,47.5
90,11,60611,2,0,B|83:19|83:19|97:77,1,47.5,10|0,0:1|0:1,0:1:0:0:
1,189,60761,5,0,0:0:0:0:
34,161,60836,1,0,0:0:0:0:
76,154,60911,1,2,0:1:0:0:
113,173,60986,1,0,0:0:0:0:
140,206,61061,1,0,0:0:0:0:
180,220,61136,1,0,0:0:0:0:
221,211,61211,1,10,0:1:0:0:
246,182,61286,1,0,0:0:0:0:
251,149,61361,1,0,0:0:0:0:
239,123,61436,1,0,0:0:0:0:
223,105,61511,5,10,0:1:0:0:
201,167,61586,1,8,0:1:0:0:
225,223,61661,1,8,0:1:0:0:
276,246,61736,1,8,0:1:0:0:
327,238,61811,1,0,0:0:0:0:
360,204,61886,1,0,0:0:0:0:
364,161,61961,1,8,0:0:0:0:
350,125,62036,1,8,0:0:0:0:
319,112,62111,2,4,L|272:123,3,47.5,0|0|0|0,0:0|0:0|0:0|0:0,0:0:0:0:
432,16,62411,5,10,3:1:0:0:
442,81,62486,1,8,3:1:0:0:
452,146,62561,1,8,3:1:0:0:
462,211,62636,1,8,3:1:0:0:
469,277,62711,6,0,B|430:308|430:308|325:281,2,142.5,6|0|0,1:1|0:0|0:0,0:0:0:0:
139,102,63311,2,0,L|146:149,2,47.5,4|0|0,0:1|0:0|0:0,0:0:0:0:
146,81,63911,5,12,0:1:0:0:
31,265,64061,2,0,P|78:215|146:228,1,142.5
160,246,64361,2,0,L|154:293,1,47.5
94,350,64511,1,4,0:1:0:0:
96,359,64586,1,0,0:0:0:0:
98,369,64661,1,0,0:0:0:0:
396,259,65111,5,4,0:1:0:0:
234,170,65336,1,0,0:0:0:0:
442,75,65561,1,0,0:0:0:0:
334,169,65711,2,0,L|327:121,2,47.5,4|0|0,0:1|0:0|0:0,0:0:0:0:
327,188,66311,5,12,0:1:0:0:
259,44,66461,2,0,B|295:15|295:15|391:39,1,142.5,0|0,0:1|0:0,0:0:0:0:
395,64,66761,2,0,L|345:52,1,47.5
205,103,66911,1,4,0:1:0:0:
195,101,66986,1,0,0:0:0:0:
186,98,67061,1,0,0:0:0:0:
42,248,67511,6,0,P|78:207|142:216,2,121.125002310276,6|0|0,1:1|0:0|0:0,0:0:0:0:
197,338,68111,1,4,0:1:0:0:
195,324,68186,1,0,0:0:0:0:
193,310,68261,1,0,0:0:0:0:
236,201,68711,5,12,0:1:0:0:
193,310,68861,2,0,B|254:300|245:354|303:359,1,121.125002310276
311,378,69161,2,0,L|350:372,1,40.375000770092,0|0,0:1|0:0,0:0:0:0:
438,306,69311,2,0,L|398:300,2,40.375000770092,4|0|0,0:1|0:0|0:0,0:0:0:0:
240,101,69911,6,0,B|219:169|219:169|236:201,2,106.875004076958,4|0|0,0:1|0:0|0:0,0:0:0:0:
298,24,70511,1,4,0:1:0:0:
299,32,70586,1,0,0:0:0:0:
301,41,70661,1,0,0:0:0:0:
240,101,71111,5,8,0:1:0:0:
337,213,71261,2,0,B|347:167|347:167|186:232,1,190,6|8,3:1|0:1,0:0:0:0:
30,89,71711,5,0,0:0:0:0:
64,81,71786,1,0,0:0:0:0:
95,97,71861,1,0,0:0:0:0:
110,129,71936,1,0,0:0:0:0:
101,163,72011,1,8,0:1:0:0:
0,212,72161,1,8,0:1:0:0:
79,375,72311,5,6,0:2:0:0:
8,234,72536,1,0,0:1:0:0:
105,284,72761,1,0,0:1:0:0:
5,373,72911,2,0,L|18:307,1,47.5,4|0,0:1|0:1,0:1:0:0:
41,152,73061,1,0,0:1:0:0:
288,296,73511,5,12,0:1:0:0:
134,367,73661,1,0,0:1:0:0:
220,193,73961,1,0,0:1:0:0:
324,340,74111,2,0,L|252:319,1,47.5,4|0,0:1|0:1,0:1:0:0:
128,273,74261,1,0,0:1:0:0:
414,149,74711,5,4,0:1:0:0:
512,137,74936,1,0,0:1:0:0:
371,268,75161,1,0,0:1:0:0:
489,210,75311,2,0,L|476:276,1,47.5,4|0,0:1|0:1,0:1:0:0:
452,372,75461,1,0,0:1:0:0:
424,40,75911,5,12,0:1:0:0:
394,203,76061,1,0,0:1:0:0:
382,227,76361,1,0,0:1:0:0:
278,80,76511,2,0,L|350:101,1,47.5,6|0,0:1|0:1,0:1:0:0:
474,147,76661,1,0,0:1:0:0:
155,25,77111,5,6,1:1:0:0:
206,104,77336,1,0,0:1:0:0:
136,0,77561,1,0,0:1:0:0:
68,129,77711,1,4,0:1:0:0:
77,128,77786,1,0,0:1:0:0:
86,127,77861,1,0,0:1:0:0:
214,186,78311,5,12,0:1:0:0:
60,257,78461,1,0,0:1:0:0:
83,108,78761,1,0,0:1:0:0:
177,248,78911,1,4,0:1:0:0:
176,257,78986,1,0,0:1:0:0:
175,266,79061,1,0,0:1:0:0:
280,351,79511,5,4,0:1:0:0:
351,210,79736,1,0,0:1:0:0:
458,284,79961,1,0,0:1:0:0:
374,349,80111,1,4,0:1:0:0:
373,340,80186,1,0,0:1:0:0:
372,331,80261,1,0,0:1:0:0:
413,128,80711,5,12,0:1:0:0:
292,229,80861,2,0,P|363:253|410:148,1,190,0|0,0:1|0:1,0:1:0:0:
302,85,81311,1,8,0:1:0:0:
303,94,81386,1,0,0:1:0:0:
304,103,81461,1,0,0:1:0:0:
206,186,81611,2,0,L|47:162,1,142.5,8|0,0:0|0:1,0:1:0:0:
24,91,81911,5,6,0:1:0:0:
31,89,82211,1,0,0:0:0:0:
40,88,82511,1,0,0:0:0:0:
49,87,82811,1,0,0:0:0:0:
58,86,83111,1,0,0:0:0:0:
67,85,83411,1,0,0:0:0:0:
75,84,83711,1,0,0:0:0:0:
84,83,84011,1,0,0:0:0:0:
294,138,84311,5,4,0:1:0:0:
287,136,84611,1,0,0:0:0:0:
278,135,84911,1,0,0:0:0:0:
269,134,85211,1,0,0:0:0:0:
395,32,85511,1,2,0:2:0:0:
500,207,85811,1,2,0:2:0:0:
269,134,86111,2,0,L|278:58,1,76,2|0,0:0|0:0,0:0:0:0:
500,207,86411,2,0,L|490:131,1,76
156,361,86711,5,14,0:1:0:0:
361,254,86861,1,0,0:1:0:0:
144,174,87011,2,0,B|122:211|122:211|138:280,1,113.999996520996,8|0,0:1|0:0,0:0:0:0:
243,372,87236,1,0,0:0:0:0:
252,360,87311,2,0,B|274:323|274:323|257:253,1,113.999996520996,8|0,0:1|0:0,0:0:0:0:
223,87,87611,1,8,0:1:0:0:
17,175,87761,1,0,0:0:0:0:
17,175,87836,1,0,0:0:0:0:
17,175,87911,5,12,0:1:0:0:
257,253,88061,1,0,0:0:0:0:
257,253,88136,1,0,0:0:0:0:
257,253,88211,1,8,0:1:0:0:
108,384,88361,1,0,0:0:0:0:
108,384,88511,6,0,P|69:333|104:226,1,170.999994781494,14|0,0:2|0:1,0:1:0:0:
129,101,88811,1,10,0:1:0:0:
151,98,88886,1,0,0:1:0:0:
171,94,88961,1,0,0:1:0:0:
191,92,89036,1,0,0:1:0:0:
223,87,89111,6,0,L|287:75,3,47.5,4|8|8|8,3:1|0:1|0:1|0:1,0:1:0:0:
395,17,89411,5,8,0:1:0:0:
395,17,89486,1,8,0:1:0:0:
395,17,89561,6,0,B|436:53|436:53|423:112|423:112|426:116|426:116|408:196,1,199.499993911743,6|0,0:1|0:0,0:0:0:0:
357,322,89861,1,0,0:0:0:0:
357,322,89936,1,0,0:0:0:0:
357,322,90011,6,0,P|339:302|330:278,1,52.2500015945435,8|8,0:0|0:0,0:0:0:0:
240,258,90161,2,0,P|247:233|264:213,1,52.2500015945435,4|4,0:0|0:0,0:0:0:0:
396,180,90311,1,8,0:1:0:0:
276,80,90461,6,0,B|219:60|168:96|195:109|136:151|75:135,1,209.000006378174,6|0,0:2|0:0,0:0:0:0:
16,97,90911,2,0,L|20:57,1,26.1250007972718,8|8,0:1|0:1,0:0:0:0:
16,97,91211,1,8,0:1:0:0:
171,201,91361,1,8,0:1:0:0:
41,382,91511,6,0,B|31:344|1:326|1:326|37:247|46:190,1,209.000006378174,6|2,0:1|0:1,0:1:0:0:
160,301,91961,2,0,P|122:292|109:260,1,52.2500015945435,8|0,0:1|0:1,0:1:0:0:
205,124,92111,2,0,B|288:169|241:248|241:248|224:206|163:206,1,209.000006378174,2|2,0:1|0:1,0:1:0:0:
83,99,92561,2,0,P|65:89|21:86,1,52.2500015945435,8|0,0:1|0:1,0:1:0:0:
142,22,92711,2,0,P|209:31|373:0,1,209.000006378174,2|2,0:1|0:1,0:1:0:0:
489,43,93161,1,8,0:1:0:0:
356,154,93311,5,2,0:1:0:0:
356,154,93386,1,0,0:1:0:0:
356,154,93461,2,0,B|345:143|345:143|357:91,1,52.2500015945435,8|0,0:1|0:1,0:1:0:0:
486,179,93611,1,2,0:1:0:0:
314,258,93761,1,8,0:1:0:0:
435,97,93911,6,0,P|454:163|465:311,1,209.000006378174,2|2,0:1|0:1,0:1:0:0:
417,370,94361,2,0,P|432:339|437:293,1,52.2500015945435,8|0,0:1|0:1,0:1:0:0:
338,180,94511,2,0,B|382:174|382:174|391:178|391:178|465:167,1,104.500003189087,2|8,0:1|0:1,0:1:0:0:
327,308,94811,2,0,B|277:300|277:300|268:304|268:304|224:298,1,104.500003189087,2|8,0:1|0:1,0:1:0:0:
82,211,95111,5,2,0:1:0:0:
86,231,95186,1,0,0:1:0:0:
89,251,95261,1,8,0:1:0:0:
141,133,95411,1,2,0:1:0:0:
0,215,95561,1,8,0:1:0:0:
148,318,95711,1,2,0:1:0:0:
52,137,95861,1,8,0:1:0:0:
0,366,96011,2,0,P|55:387|102:340,1,104.500003189087,2|8,0:1|0:1,0:1:0:0:
211,154,96311,6,0,B|195:135|139:114|139:114|143:112|143:112|68:131|29:201,1,209.000006378174,6|2,0:1|0:1,0:1:0:0:
226,58,96761,1,8,0:1:0:0:
116,290,96911,1,2,0:1:0:0:
72,89,97061,1,8,0:1:0:0:
228,275,97211,2,0,P|225:333|173:351,1,104.500003189087,2|8,0:1|0:1,0:1:0:0:
44,204,97511,6,0,B|95:194|95:194|97:189|97:189|177:175,1,104.500003189087,2|8,0:1|0:1,0:1:0:0:
313,235,97811,1,2,0:1:0:0:
237,49,97961,1,8,0:1:0:0:
149,262,98111,1,2,0:1:0:0:
168,265,98186,1,0,0:1:0:0:
188,269,98261,1,8,0:1:0:0:
329,131,98411,1,2,0:1:0:0:
150,190,98561,1,8,0:1:0:0:
276,381,98711,6,1,B|231:337|265:278|278:283|284:289|325:228|272:180,1,209.000006378174,6|2,0:1|0:1,0:1:0:0:
253,161,99086,1,0,0:1:0:0:
253,161,99161,1,8,0:1:0:0:
71,282,99311,5,6,0:2:0:0:
111,315,99386,1,0,0:1:0:0:
163,319,99461,1,8,0:1:0:0:
211,298,99536,1,0,0:1:0:0:
240,254,99611,5,6,0:2:0:0:
284,226,99686,1,0,0:1:0:0:
336,222,99761,1,8,0:1:0:0:
383,243,99836,1,0,0:1:0:0:
410,287,99911,5,8,0:1:0:0:
294,374,100061,2,0,L|279:258,1,104.500003189087,12|0,0:2|0:1,0:1:0:0:
454,128,100361,1,12,0:1:0:0:
416,303,100511,1,2,0:1:0:0:
228,76,100661,5,10,0:1:0:0:
251,65,100736,1,8,0:1:0:0:
276,70,100811,2,0,P|293:104|270:143,1,52.2500015945435,8|8,0:1|0:0,0:1:0:0:
365,167,100961,2,0,P|344:198|298:198,1,52.2500015945435,4|4,0:0|0:0,0:1:0:0:
274,269,101111,6,0,B|223:229|152:287|182:310|121:352|44:324,1,209.000006378174,6|2,0:1|0:0,0:0:0:0:
16,384,101561,2,0,P|2:362|0:327,1,52.2500015945435,8|0,0:1|0:1,0:1:0:0:
59,221,101711,2,0,P|86:281|72:332,2,104.500003189087,2|8|2,0:1|0:1|0:1,0:1:0:0:
21,86,102161,1,8,0:1:0:0:
21,86,102236,1,0,0:0:0:0:
21,86,102311,2,0,B|58:116|58:116|186:83,1,156.750004783631,2|0,0:0|0:0,0:0:0:0:
231,150,102611,5,2,0:1:0:0:
260,22,102761,1,8,0:1:0:0:
352,198,102911,2,0,L|301:212,2,52.2500015945435,2|0|8,0:1|0:1|0:1,0:1:0:0:
163,88,103211,5,2,0:1:0:0:
356,32,103361,1,8,0:1:0:0:
293,294,103511,2,0,P|252:200|289:105,1,209.000006378174,2|2,0:1|0:1,0:1:0:0:
463,66,103961,2,0,P|476:87|478:122,1,52.2500015945435,8|0,0:1|0:1,0:1:0:0:
454,207,104111,2,0,B|410:201|410:201|401:205|401:205|351:197,1,104.500003189087,2|8,0:1|0:1,0:1:0:0:
240,27,104411,2,0,B|290:19|290:19|299:23|299:23|343:17,1,104.500003189087,2|8,0:1|0:1,0:1:0:0:
147,224,104711,5,2,0:1:0:0:
143,210,104786,1,0,0:1:0:0:
141,198,104861,1,8,0:1:0:0:
229,266,105011,1,2,0:1:0:0:
86,300,105161,1,8,0:1:0:0:
51,157,105311,1,2,0:1:0:0:
196,123,105461,1,8,0:1:0:0:
78,313,105611,6,0,P|64:291|61:265,1,52.2500015945435,6|0,0:1|0:1,0:1:0:0:
204,110,105761,2,0,P|217:131|220:157,1,52.2500015945435,8|0,0:1|0:1,0:1:0:0:
141,198,105911,6,0,B|88:191|88:191|85:193|85:193|35:187,1,104.500003189087,6|8,0:1|0:1,0:0:0:0:
179,370,106211,2,0,B|231:363|231:363|235:365|235:365|285:359,1,104.500003189087,2|8,0:1|0:1,0:0:0:0:
432,186,106511,1,2,0:1:0:0:
275,257,106661,5,8,0:1:0:0:
388,310,106811,2,0,P|397:286|396:260,1,52.2500015945435,2|0,0:1|0:1,0:1:0:0:
339,147,106961,2,0,P|329:170|330:196,1,52.2500015945435,8|0,0:1|0:1,0:1:0:0:
485,384,107111,6,0,B|503:335|503:335|484:277,1,104.500003189087,2|8,0:1|0:1,0:1:0:0:
204,110,107411,2,0,B|186:159|186:159|206:221,1,104.500003189087,2|8,0:1|0:1,0:1:0:0:
432,186,107711,6,0,B|391:153|334:200|358:218|309:252|248:229,1,156.750004783631,2|0,0:1|0:1,0:1:0:0:
168,362,108011,1,2,0:1:0:0:
67,327,108161,1,8,0:1:0:0:
176,61,108311,5,10,0:1:0:0:
208,88,108386,1,0,0:1:0:0:
226,128,108461,1,8,0:1:0:0:
225,170,108536,1,0,0:1:0:0:
202,208,108611,1,10,0:1:0:0:
168,236,108686,1,0,0:1:0:0:
126,241,108761,1,8,0:1:0:0:
87,225,108836,1,0,0:1:0:0:
67,194,108911,5,10,0:1:0:0:
70,162,108986,1,0,0:1:0:0:
90,138,109061,1,8,0:1:0:0:
115,131,109136,1,0,0:1:0:0:
141,140,109211,1,10,0:1:0:0:
156,156,109286,1,0,0:1:0:0:
156,178,109361,1,8,0:1:0:0:
147,192,109436,1,0,0:1:0:0:
136,188,109511,5,10,0:1:0:0:
273,45,109661,2,0,B|310:10|310:10|298:99|298:99|300:102|300:102|287:215,1,246.999988693238,14|14,0:1|0:1,0:0:0:0:
38,384,110111,1,8,0:0:0:0:
34,353,110186,1,8,0:0:0:0:
30,322,110261,1,4,0:0:0:0:
26,292,110336,1,4,0:0:0:0:
22,261,110411,1,14,0:2:0:0:
21,254,110711,5,8,0:1:0:0:
80,238,110786,1,8,0:1:0:0:
139,222,110861,1,8,0:1:0:0:
308,382,111011,5,8,0:1:0:0:
249,366,111086,1,8,0:1:0:0:
190,350,111161,1,8,0:1:0:0:
313,156,111311,5,2,2:0:0:0:
333,245,111461,1,0,2:0:0:0:
322,161,111611,1,0,2:0:0:0:
342,250,111761,1,0,2:0:0:0:
125,79,111911,6,0,B|133:69|133:69|192:80,1,47.5
235,155,112061,2,0,B|227:163|227:163|173:153,1,47.5
291,53,112211,1,0,0:0:0:0:
381,146,112361,1,0,0:0:0:0:
377,170,112436,1,0,0:0:0:0:
373,194,112511,5,10,0:1:0:0:
307,70,112661,2,0,L|470:47,1,142.5,4|0,0:2|0:0,0:0:0:0:
492,58,112961,2,0,L|415:69,1,47.5,4|0,0:2|0:0,0:0:0:0:
224,201,113111,5,10,0:1:0:0:
243,246,113186,1,0,0:1:0:0:
288,265,113261,1,0,0:1:0:0:
336,257,113336,1,0,0:1:0:0:
367,218,113411,1,10,0:1:0:0:
408,191,113486,1,0,0:1:0:0:
456,198,113561,1,0,0:1:0:0:
489,233,113636,1,0,0:1:0:0:
494,282,113711,6,0,B|475:288|475:288|409:269,1,56.9999982604981,10|0,0:1|0:1,0:1:0:0:
286,182,113861,2,0,B|305:176|305:176|371:195,1,56.9999982604981,8|0,0:1|0:1,0:1:0:0:
349,331,114011,2,0,B|343:312|343:312|362:246,1,56.9999982604981,10|0,0:1|0:1,0:1:0:0:
443,128,114161,2,0,B|449:147|449:147|430:213,1,56.9999982604981,8|0,0:1|0:1,0:1:0:0:
124,351,114311,5,14,0:2:0:0:
91,310,114386,1,0,0:1:0:0:
76,260,114461,1,8,0:1:0:0:
87,209,114536,1,0,0:1:0:0:
121,171,114611,2,0,P|146:162|178:161,1,56.9999982604981,14|0,0:2|0:1,0:1:0:0:
299,231,114761,2,0,P|271:234|245:224,1,56.9999982604981,8|0,0:1|0:1,0:1:0:0:
299,136,114911,5,8,3:0:0:0:
288,139,114986,1,8,3:0:0:0:
278,141,115061,1,4,3:0:0:0:
267,137,115136,1,4,3:0:0:0:
255,122,115211,5,10,0:1:0:0:
285,81,115286,1,8,0:1:0:0:
334,71,115361,1,8,0:1:0:0:
378,94,115436,1,8,0:1:0:0:
398,131,115511,6,0,L|382:222,1,52.2500015945435,6|0,0:1|0:1,0:1:0:0:
299,231,115661,1,8,0:1:0:0:
431,291,115811,1,2,0:1:0:0:
404,313,115886,1,0,0:1:0:0:
370,313,115961,1,8,0:1:0:0:
171,112,116111,2,0,P|231:95|252:159,1,104.500003189087,2|8,0:1|0:1,0:1:0:0:
260,148,116336,1,0,0:1:0:0:
260,148,116411,1,2,0:1:0:0:
133,375,116561,1,8,0:1:0:0:
133,375,116636,1,0,0:1:0:0:
133,375,116711,6,0,B|139:367|139:367|125:285,1,52.2500015945435,2|0,0:1|0:1,0:1:0:0:
68,173,116861,2,0,B|59:188|59:188|76:263,1,52.2500015945435,8|0,0:1|0:1,0:1:0:0:
201,236,117011,2,0,B|193:230|193:230|111:244,1,52.2500015945435,2|0,0:1|0:1,0:1:0:0:
0,308,117161,2,0,B|8:314|8:314|90:300,1,52.2500015945435,8|0,0:1|0:1,0:1:0:0:
223,128,117311,2,0,B|171:117|171:117|165:113|165:113|111:101,1,104.500003189087,2|8,0:1|0:1,0:1:0:0:
98,97,117536,1,0,0:1:0:0:
98,97,117611,1,2,0:1:0:0:
203,0,117761,2,0,P|195:25|220:52,1,52.2500015945435,10|0,0:1|0:1,0:1:0:0:
325,114,117911,6,0,B|336:139|336:139|307:236,1,104.500003189087,6|8,0:1|0:1,0:1:0:0:
306,246,118136,1,0,0:1:0:0:
306,246,118211,1,2,0:1:0:0:
163,347,118361,2,0,P|155:315|167:282,1,52.2500015945435,10|0,0:1|0:1,0:1:0:0:
95,171,118511,2,0,P|130:135|194:142,1,104.500003189087,2|8,0:1|0:1,0:1:0:0:
215,155,118736,1,0,0:1:0:0:
215,155,118811,1,2,0:1:0:0:
37,254,118961,2,0,P|9:239|-3:206,1,52.2500015945435,10|0,0:1|0:1,0:1:0:0:
163,347,119111,5,2,0:1:0:0:
186,341,119186,1,0,0:1:0:0:
209,335,119261,1,8,0:1:0:0:
331,174,119411,1,2,0:1:0:0:
156,249,119561,1,10,0:1:0:0:
316,361,119711,5,2,0:1:0:0:
309,340,119786,1,0,0:1:0:0:
303,317,119861,1,8,0:1:0:0:
179,217,120011,2,0,L|96:201,1,52.2500015945435,2|0,0:1|0:1,0:1:0:0:
326,143,120161,2,0,L|409:127,1,52.2500015945435,10|0,0:1|0:1,0:1:0:0:
244,72,120311,5,6,0:1:0:0:
244,72,120386,1,0,0:0:0:0:
244,72,120461,1,8,0:1:0:0:
205,192,120611,1,2,0:2:0:0:
205,192,120686,1,0,0:0:0:0:
205,192,120761,1,8,0:1:0:0:
112,30,120911,1,2,0:0:0:0:
40,139,121061,2,0,B|78:172|78:172|183:158,1,156.750004783631,10|0,0:2|0:0,0:0:0:0:
326,143,121361,1,10,0:2:0:0:
254,21,121511,6,0,P|244:46|243:71,2,52.2500015945435,2|0|8,0:1|0:1|0:1,0:1:0:0:
421,228,121811,2,0,P|431:203|432:178,2,52.2500015945435,2|0|8,0:1|0:1|0:1,0:1:0:0:
326,143,122111,1,2,0:0:0:0:
486,17,122261,2,0,B|438:-13|392:20|416:34|360:68|316:49,1,156.750004783631,10|0,0:2|0:0,0:0:0:0:
254,21,122561,1,10,0:2:0:0:
121,191,122711,6,0,L|108:87,1,104.500003189087,6|8,0:1|0:1,0:1:0:0:
107,61,122936,1,0,0:0:0:0:
107,61,123011,1,2,0:0:0:0:
313,246,123161,1,8,0:1:0:0:
313,246,123236,1,0,0:0:0:0:
313,246,123311,2,0,L|325:142,1,104.500003189087,2|8,0:1|0:1,0:1:0:0:
179,276,123611,1,2,3:0:0:0:
434,174,123761,1,8,3:1:0:0:
282,384,123911,5,0,0:0:0:0:
265,355,123986,1,0,0:0:0:0:
266,323,124061,1,8,0:0:0:0:
281,299,124136,1,8,0:0:0:0:
311,291,124211,1,4,0:0:0:0:
333,301,124286,1,4,0:0:0:0:
345,318,124361,1,4,0:0:0:0:
346,336,124436,1,4,0:0:0:0:
338,346,124511,5,8,0:1:0:0:
304,317,124586,1,0,0:0:0:0:
293,273,124661,1,0,0:0:0:0:
296,230,124736,1,0,0:0:0:0:
319,192,124811,2,0,B|363:168|396:203|384:217|421:259|462:241,1,156.750004783631,14|0,0:1|0:1,0:1:0:0:
512,190,125111,6,0,L|505:138,2,52.2500015945435,6|0|8,0:1|0:0|0:1,0:0:0:0:
392,109,125411,2,0,L|398:57,2,52.2500015945435,2|0|8,0:1|0:0|0:1,0:0:0:0:
510,36,125711,5,0,0:0:0:0:
319,192,125861,2,0,B|256:185|256:185|243:194|243:194|144:182,1,156.750004783631,12|0,0:2|0:0,0:0:0:0:
77,118,126161,2,0,L|132:111,1,52.2500015945435,12|0,0:2|0:0,0:0:0:0:
13,277,126311,5,2,0:1:0:0:
3,255,126386,1,0,0:1:0:0:
6,234,126461,1,8,0:1:0:0:
143,291,126611,1,2,0:1:0:0:
152,312,126686,1,0,0:1:0:0:
149,333,126761,1,8,0:1:0:0:
5,87,126911,1,2,0:1:0:0:
5,87,127061,6,0,B|44:42|44:42|169:81,1,178.125,14|0,0:2|0:0,0:0:0:0:
166,184,127361,2,0,L|223:167,1,59.375,12|0,0:2|0:0,0:0:0:0:
415,112,127511,6,0,P|442:165|432:221,1,104.500003189087,6|8,0:1|0:1,0:1:0:0:
430,236,127736,1,0,0:0:0:0:
430,236,127811,1,2,0:0:0:0:
289,96,127961,1,8,0:1:0:0:
289,96,128036,1,0,0:0:0:0:
289,96,128111,2,0,P|286:44|312:0,1,104.500003189087,2|8,0:1|0:1,0:1:0:0:
466,118,128411,2,0,L|404:110,2,52.2500015945435,2|0|8,0:2|0:0|0:1,0:0:0:0:
318,331,128711,5,8,0:0:0:0:
348,274,128786,1,8,0:0:0:0:
322,217,128861,1,4,0:0:0:0:
262,201,128936,1,4,0:0:0:0:
223,236,129011,5,8,0:0:0:0:
227,262,129086,1,8,0:0:0:0:
230,288,129161,1,4,0:0:0:0:
233,314,129236,1,4,0:0:0:0:
239,355,129311,5,8,0:1:0:0:
440,148,129911,5,6,0:1:0:0:
465,195,129986,1,0,0:1:0:0:
459,249,130061,1,0,0:1:0:0:
426,291,130136,1,0,0:1:0:0:
375,308,130211,1,10,0:1:0:0:
321,296,130286,1,0,0:1:0:0:
287,253,130361,2,0,P|278:213|289:182,1,54.6250010418892,0|0,0:1|0:1,0:1:0:0:
368,74,130511,5,2,0:1:0:0:
391,88,130586,1,0,0:1:0:0:
399,113,130661,2,0,P|393:151|369:171,1,54.6250010418892,0|0,0:1|0:1,0:1:0:0:
114,61,130811,5,10,0:1:0:0:
151,21,130886,1,0,0:1:0:0:
204,9,130961,1,0,0:1:0:0:
254,30,131036,1,0,0:1:0:0:
275,80,131111,1,2,0:1:0:0:
271,129,131186,1,0,0:1:0:0:
246,165,131261,1,0,0:1:0:0:
219,192,131336,1,0,0:1:0:0:
212,224,131411,1,10,0:1:0:0:
217,250,131486,1,0,0:1:0:0:
227,269,131561,1,0,0:1:0:0:
239,279,131636,1,0,0:1:0:0:
249,280,131711,6,0,P|288:266|301:232,3,54.6250010418892,2|0|0|0,0:1|0:1|0:1|0:1,0:1:0:0:
149,374,132011,1,10,0:1:0:0:
129,355,132086,1,0,0:1:0:0:
123,329,132161,2,0,P|128:292|151:266,1,54.6250010418892,0|0,0:1|0:1,0:1:0:0:
257,149,132311,5,2,0:1:0:0:
218,187,132386,1,0,0:1:0:0:
165,201,132461,1,0,0:1:0:0:
112,186,132536,1,0,0:1:0:0:
74,145,132611,1,10,0:1:0:0:
65,91,132686,1,0,0:1:0:0:
83,39,132761,6,0,P|104:18|151:11,1,54.6250010418892,0|0,0:1|0:1,0:1:0:0:
213,127,132911,2,0,P|185:128|160:119,1,54.6250010418892,2|0,0:1|0:1,0:1:0:0:
330,0,133061,1,0,0:0:0:0:
326,26,133136,1,0,0:0:0:0:
322,53,133211,1,10,0:1:0:0:
318,80,133286,1,0,0:0:0:0:
313,107,133361,2,0,L|302:170,1,54.6250010418892
379,219,133511,5,2,0:1:0:0:
369,283,133586,1,0,0:1:0:0:
314,319,133661,1,0,0:1:0:0:
248,311,133736,1,0,0:1:0:0:
204,262,133811,1,10,0:1:0:0:
169,212,133886,1,0,0:1:0:0:
116,196,133961,1,0,0:1:0:0:
68,206,134036,1,0,0:1:0:0:
39,239,134111,6,0,L|45:310,3,54.6250010418892,2|0|0|0,0:1|0:1|0:1|0:1,0:1:0:0:
165,182,134411,2,0,B|156:172|156:172|87:189,1,54.6250010418892,10|0,0:1|0:1,0:1:0:0:
46,93,134561,2,0,B|55:83|55:83|124:100,1,54.6250010418892,0|0,0:1|0:1,0:1:0:0:
260,4,134711,5,6,0:1:0:0:
293,47,134786,1,0,0:1:0:0:
296,101,134861,1,0,0:1:0:0:
273,150,134936,1,0,0:1:0:0:
231,185,135011,1,10,0:1:0:0:
210,235,135086,1,0,0:1:0:0:
216,289,135161,2,0,P|233:320|265:340,1,54.6250010418892,0|0,0:1|0:1,0:1:0:0:
388,223,135311,5,2,0:1:0:0:
363,211,135386,1,0,0:1:0:0:
335,213,135461,2,0,P|311:233|309:272,1,54.6250010418892,0|0,0:1|0:1,0:1:0:0:
417,373,135611,5,10,0:1:0:0:
453,331,135686,1,0,0:1:0:0:
453,276,135761,1,0,0:1:0:0:
428,226,135836,1,0,0:1:0:0:
383,195,135911,1,2,0:1:0:0:
352,156,135986,1,0,0:1:0:0:
343,113,136061,1,0,0:1:0:0:
354,76,136136,1,0,0:1:0:0:
376,52,136211,1,10,0:1:0:0:
402,46,136286,1,0,0:1:0:0:
423,51,136361,6,0,P|449:68|454:106,1,54.6250010418892,0|0,0:1|0:1,0:1:0:0:
368,183,136511,2,0,L|380:121,3,54.6250010418892,2|0|0|0,0:1|0:1|0:1|0:1,0:1:0:0:
472,243,136811,2,0,P|449:254|403:240,1,54.6250010418892,10|0,0:1|0:1,0:1:0:0:
290,178,136961,2,0,P|316:175|341:186,1,54.6250010418892,0|0,0:1|0:1,0:1:0:0:
372,368,137111,6,0,B|361:356|361:356|367:311,1,54.6250010418892,2|0,0:1|0:1,0:1:0:0:
295,253,137261,2,0,B|284:265|284:265|290:310,1,54.6250010418892,0|0,0:1|0:1,0:1:0:0:
221,376,137411,2,0,B|210:364|210:364|216:319,1,54.6250010418892,10|0,0:1|0:1,0:1:0:0:
63,179,137561,5,0,0:1:0:0:
35,212,137636,1,0,0:1:0:0:
34,255,137711,1,2,0:1:0:0:
58,290,137786,1,0,0:1:0:0:
98,307,137861,1,0,0:1:0:0:
141,300,137936,1,0,0:1:0:0:
168,266,138011,2,0,P|178:237|169:197,3,54.6250010418892,10|0|0|0,0:1|0:1|0:1|0:1,0:1:0:0:
221,67,138311,5,6,0:1:0:0:
276,22,138386,1,0,0:0:0:0:
341,23,138461,1,0,0:0:0:0:
384,64,138536,1,0,0:0:0:0:
393,123,138611,1,8,0:0:0:0:
371,173,138686,1,8,0:0:0:0:
335,206,138761,1,8,0:0:0:0:
325,248,138836,1,8,0:0:0:0:
336,284,138911,5,6,0:0:0:0:
353,305,138986,1,4,0:0:0:0:
373,311,139061,1,4,0:0:0:0:
389,310,139136,1,4,0:0:0:0:
399,305,139211,6,0,P|425:281|430:242,1,54.6250010418892
508,220,139361,2,0,P|493:187|457:171,1,54.6250010418892
409,99,139511,6,0,B|350:73|301:117|339:137|269:185|205:145,1,178.125,14|0,0:1|0:0,0:0:0:0:
142,41,139811,2,0,L|135:95,1,54.6250010418892,10|0,0:1|0:1,0:1:0:0:
36,158,139961,1,0,0:1:0:0:
35,145,140036,1,0,0:1:0:0:
33,131,140111,2,0,L|25:69,1,54.6250010418892,10|0,0:1|0:1,0:1:0:0:
145,14,140261,1,0,0:1:0:0:
144,27,140336,1,0,0:1:0:0:
142,41,140411,2,0,L|134:102,1,54.6250010418892,10|0,0:1|0:1,0:1:0:0:
254,158,140561,1,0,0:1:0:0:
253,145,140636,1,0,0:1:0:0:
251,131,140711,2,0,L|243:69,1,54.6250010418892,10|0,0:1|0:1,0:1:0:0:
363,14,140861,1,0,0:1:0:0:
362,27,140936,1,0,0:1:0:0:
360,41,141011,6,0,L|352:102,3,54.6250010418892,10|0|0|0,0:1|0:1|0:1|0:1,0:1:0:0:
469,131,141311,2,0,L|461:69,3,54.6250010418892,10|0|0|0,0:1|0:1|0:1|0:1,0:1:0:0:
341,211,141611,1,10,0:1:0:0:
328,249,141686,1,0,0:1:0:0:
344,287,141761,1,0,0:1:0:0:
380,304,141836,1,0,0:1:0:0:
418,294,141911,6,0,P|422:256|407:225,1,54.6250010418892,10|0,0:1|0:1,0:1:0:0:
266,328,142061,1,0,0:0:0:0:
266,328,142136,1,0,0:0:0:0:
266,328,142211,2,0,P|261:365|276:396,1,54.6250010418892,10|0,0:1|0:1,0:1:0:0:
341,211,142361,1,0,0:0:0:0:
312,194,142436,1,0,0:0:0:0:
279,194,142511,2,0,P|244:208|225:237,1,54.6250010418892,10|0,0:1|0:1,0:1:0:0:
139,169,142661,1,0,0:0:0:0:
123,184,142736,1,0,0:0:0:0:
116,204,142811,2,0,P|111:241|126:272,1,54.6250010418892,10|0,0:1|0:1,0:1:0:0:
30,305,142961,1,0,0:0:0:0:
29,329,143036,1,0,0:0:0:0:
47,358,143111,6,0,B|69:368|69:368|120:358,3,54.6250010418892,10|0|0|0,0:1|0:1|0:1|0:1,0:1:0:0:
175,289,143411,2,0,B|153:279|153:279|102:289,3,54.6250010418892,10|0|0|0,0:1|0:1|0:1|0:1,0:1:0:0:
256,376,143711,1,10,0:1:0:0:
283,346,143786,1,0,0:0:0:0:
296,307,143861,1,0,0:0:0:0:
292,267,143936,1,0,0:0:0:0:
272,231,144011,1,10,0:1:0:0:
245,201,144086,1,0,0:0:0:0:
232,162,144161,1,0,0:0:0:0:
236,122,144236,1,0,0:0:0:0:
256,86,144311,6,0,B|281:59|281:59|346:78|346:78|347:83|347:83|412:104,1,178.125,14|0,0:1|0:0,0:0:0:0:
511,181,144611,2,0,L|459:198,1,54.6250010418892,10|0,0:1|0:1,0:1:0:0:
441,294,144761,1,0,0:0:0:0:
441,294,144836,1,0,0:0:0:0:
441,294,144911,2,0,L|390:277,1,54.6250010418892,10|0,0:1|0:1,0:1:0:0:
371,181,145061,1,0,0:0:0:0:
371,181,145136,1,0,0:0:0:0:
371,181,145211,2,0,L|320:198,1,54.6250010418892,10|0,0:1|0:1,0:1:0:0:
301,294,145361,1,0,0:0:0:0:
301,294,145436,1,0,0:0:0:0:
301,294,145511,2,0,L|250:277,1,54.6250010418892,10|0,0:1|0:1,0:1:0:0:
231,181,145661,1,0,0:0:0:0:
231,181,145736,1,0,0:0:0:0:
231,181,145811,2,0,L|180:198,1,54.6250010418892,10|0,0:1|0:1,0:1:0:0:
161,294,145961,1,0,0:0:0:0:
161,294,146036,1,0,0:0:0:0:
161,294,146111,6,0,L|110:277,3,54.6250010418892,10|0|0|0,0:1|0:1|0:1|0:1,0:1:0:0:
29,349,146411,1,10,0:1:0:0:
24,321,146486,1,0,0:0:0:0:
20,295,146561,1,0,0:0:0:0:
16,268,146636,1,0,0:0:0:0:
15,241,146711,6,0,P|19:211|32:187,1,54.6250010418892,10|0,0:1|0:0,0:0:0:0:
107,126,146861,1,0,0:0:0:0:
107,126,146936,1,0,0:0:0:0:
107,126,147011,2,0,P|118:150|122:177,1,54.6250010418892,10|0,0:1|0:0,0:0:0:0:
29,61,147161,1,0,0:1:0:0:
48,34,147236,1,0,0:1:0:0:
79,21,147311,1,10,0:1:0:0:
111,22,147386,1,0,0:1:0:0:
141,34,147461,1,0,0:1:0:0:
166,55,147536,1,0,0:1:0:0:
189,77,147611,1,10,0:1:0:0:
210,93,147686,1,0,0:1:0:0:
237,96,147761,1,0,0:1:0:0:
262,87,147836,1,0,0:1:0:0:
278,58,147911,5,6,0:1:0:0:
324,223,148061,2,0,L|269:216,1,54.6250010418892,8|0,0:1|0:0,0:0:0:0:
400,123,148211,6,0,P|417:143|425:176,1,54.6250010418892,0|0,0:1|0:0,0:0:0:0:
489,243,148361,2,0,P|479:268|455:291,1,54.6250010418892,8|8,0:0|0:0,0:0:0:0:
129,270,148511,6,0,P|144:247|173:232,1,54.6250010418892,4|0,0:1|0:0,0:0:0:0:
204,116,148661,2,0,P|231:118|259:135,1,54.6250010418892,8|8,0:0|0:0,0:0:0:0:
324,223,148811,1,8,0:0:0:0:
319,260,148886,1,8,0:0:0:0:
315,293,148961,1,4,0:0:0:0:
311,320,149036,1,4,0:0:0:0:
305,362,149111,5,8,0:1:0:0:
182,250,149261,1,8,0:1:0:0:
91,145,151511,5,8,0:1:0:0:
236,106,151661,1,8,0:1:0:0:
418,248,153611,5,2,2:1:0:0:
418,248,153911,6,0,B|425:213|455:180|455:180|383:227|293:190|321:154|200:96|113:210|135:299|204:325,1,498.750019025803,6|0,3:1|0:0,0:0:0:0:
256,384,155111,6,0,B|292:338|292:338|244:178|244:178|246:173|246:173|240:165|240:165|190:2|190:2|162:89,1,498.750019025803,6|0,3:1|0:0,0:0:0:0:
8,220,156311,6,0,B|113:143|268:224|160:300|328:444|446:344,1,498.750019025803,6|0,3:1|0:0,0:0:0:0:
499,310,157511,6,0,L|494:275,1,35.625001358986,8|0,0:1|0:1,0:1:0:0:
405,238,157661,2,0,L|409:273,1,35.625001358986,8|0,0:1|0:0,0:0:0:0:
505,172,157811,1,0,0:0:0:0:
496,162,157886,1,0,0:0:0:0:
484,156,157961,2,0,P|463:147|432:152,1,35.625001358986,8|0,0:1|0:0,0:0:0:0:
429,55,158111,1,8,0:1:0:0:
415,57,158186,1,8,0:1:0:0:
404,65,158261,2,0,P|385:78|374:108,1,35.625001358986,0|0,0:1|0:0,0:0:0:0:
299,131,158411,1,8,0:1:0:0:
311,215,158561,1,8,0:1:0:0:
133,106,158711,5,6,0:1:0:0:
136,93,158861,1,0,0:1:0:0:
192,196,159011,2,0,B|142:205|142:205|137:200|137:200|88:209,1,104.500003189087,2|0,0:1|0:1,0:1:0:0:
64,52,159311,2,0,P|121:66|129:118,1,104.500003189087,10|0,0:1|0:1,0:1:0:0:
0,252,159611,1,2,0:1:0:0:
35,142,159761,1,0,0:1:0:0:
121,275,159911,5,2,0:1:0:0:
121,289,160061,1,0,0:1:0:0:
28,357,160211,2,0,P|76:370|156:378,1,104.500003189087,2|0,0:1|0:1,0:1:0:0:
251,227,160511,1,10,0:1:0:0:
309,380,160661,1,2,0:2:0:0:
131,301,160811,1,2,0:1:0:0:
331,257,160961,1,0,0:1:0:0:
177,177,161111,5,4,0:1:0:0:
175,192,161261,1,0,0:1:0:0:
249,99,161411,2,0,B|202:91|202:91|194:84|194:84|123:72,1,104.500003189087,2|0,0:1|0:1,0:1:0:0:
45,189,161711,2,0,B|79:208|79:208|179:183,1,104.500003189087,10|0,0:1|0:1,0:1:0:0:
119,0,162011,1,2,0:1:0:0:
18,107,162161,1,0,0:1:0:0:
165,175,162311,5,2,0:1:0:0:
160,158,162461,1,4,0:2:0:0:
51,248,162611,2,0,L|75:384,1,104.500003189087,2|0,0:2|0:1,0:1:0:0:
243,254,162911,1,8,0:1:0:0:
116,179,163061,1,4,0:2:0:0:
279,156,163211,1,2,3:2:0:0:
138,281,163361,1,2,0:1:0:0:
315,355,163511,6,0,P|319:307|310:247,2,104.500003189087,4|0|2,0:2|0:1|0:1,0:1:0:0:
203,180,163961,1,0,0:1:0:0:
203,180,164036,1,0,0:1:0:0:
203,180,164111,1,10,0:1:0:0:
183,350,164261,1,0,0:1:0:0:
293,141,164411,1,2,0:1:0:0:
394,328,164561,1,0,0:1:0:0:
186,205,164711,6,0,B|248:231|248:231|308:220,2,104.500003189087,2|0|2,0:1|0:1|0:1,0:1:0:0:
123,73,165161,1,0,0:1:0:0:
123,73,165236,1,0,0:1:0:0:
123,73,165311,1,10,0:1:0:0:
268,128,165461,1,0,0:1:0:0:
95,66,165611,1,2,0:1:0:0:
258,27,165761,1,0,0:1:0:0:
128,215,165911,6,0,P|115:154|121:104,2,104.500003189087,2|0|2,0:1|0:1|0:1,0:1:0:0:
191,310,166361,1,0,0:1:0:0:
191,310,166436,1,0,0:1:0:0:
191,310,166511,1,10,0:1:0:0:
39,192,166661,1,0,0:1:0:0:
231,246,166811,1,2,0:1:0:0:
35,324,166961,1,0,0:1:0:0:
219,75,167111,6,0,B|229:141|229:141|232:147|232:147|244:250,1,123.499994346619,12|0,0:1|0:1,0:1:0:0:
315,235,167336,1,0,0:1:0:0:
303,242,167411,2,0,B|293:308|293:308|290:314|290:314|278:417,1,123.499994346619,12|0,0:2|0:1,0:1:0:0:
153,117,167711,1,10,0:1:0:0:
153,117,168311,5,2,3:2:0:0:
225,73,168461,1,0,2:2:0:0:
327,111,168611,1,0,2:2:0:0:
225,161,168761,5,0,3:2:0:0:
153,117,168911,1,0,2:2:0:0:
51,155,169061,1,2,3:2:0:0:
56,157,169511,5,2,3:2:0:0:
0,245,169661,1,0,2:2:0:0:
47,370,169811,1,0,3:2:0:0:
111,245,169961,5,2,3:2:0:0:
56,157,170111,1,0,2:2:0:0:
103,30,170261,1,2,3:2:0:0:
111,245,170711,5,0,0:1:0:0:
68,376,171011,5,8,0:1:0:0:
221,232,171161,1,8,0:1:0:0:
57,157,171311,6,0,B|18:198|18:198|57:345,1,209.000006378174,6|2,0:1|0:0,0:0:0:0:
239,221,171761,2,0,P|218:204|193:201,1,52.2500015945435,8|0,0:1|0:0,0:0:0:0:
295,305,171911,2,0,P|332:210|299:113,1,209.000006378174,2|2,0:0|0:0,0:0:0:0:
192,350,172361,2,0,P|213:368|238:371,1,52.2500015945435,8|0,0:1|0:0,0:0:0:0:
277,299,172511,2,0,B|327:267|371:303|371:303|409:378|485:358,1,209.000006378174,2|2,0:0|0:0,0:0:0:0:
512,285,172961,1,8,0:1:0:0:
306,120,173111,5,2,0:1:0:0:
306,120,173186,1,0,0:1:0:0:
306,120,173261,2,0,L|378:108,1,52.2500015945435,8|0,0:1|0:0,0:0:0:0:
478,67,173411,1,2,0:1:0:0:
432,213,173561,1,8,0:1:0:0:
298,5,173711,6,0,P|387:66|350:153,1,209.000006378174,2|2,0:0|0:0,0:0:0:0:
62,279,174161,1,8,0:1:0:0:
62,279,174236,1,0,0:0:0:0:
62,279,174311,2,0,B|36:245|36:245|52:176,1,104.500003189087,2|8,0:1|0:1,0:1:0:0:
277,228,174611,2,0,B|303:262|303:262|287:331,1,104.500003189087,2|8,0:1|0:1,0:1:0:0:
18,72,174911,5,2,0:1:0:0:
47,63,174986,1,0,0:1:0:0:
78,65,175061,1,8,0:1:0:0:
106,77,175136,1,0,0:1:0:0:
129,97,175211,1,2,0:1:0:0:
152,117,175286,1,0,0:1:0:0:
181,129,175361,1,8,0:1:0:0:
211,131,175436,1,0,0:1:0:0:
241,122,175511,2,0,P|252:92|244:43,1,61.7499971733095,2|0,3:0|0:1,0:0:0:0:
176,0,175661,5,8,0:1:0:0:
49,184,175811,1,2,0:0:0:0:
1,42,175961,1,8,0:1:0:0:
56,201,176111,6,0,B|98:178|134:207|134:207|170:281|258:270,1,185.249991519928,6|0,0:1|0:0,0:0:0:0:
389,250,176411,2,0,P|330:262|295:312,1,123.499994346619,2|8,0:0|0:1,0:0:0:0:
442,384,176711,1,2,0:0:0:0:
482,223,176861,1,8,0:1:0:0:
270,198,177011,5,2,0:0:0:0:
301,328,177161,1,8,0:1:0:0:
484,119,177311,6,0,B|412:110|412:110|394:124|394:124|291:111,1,185.249991519928,2|0,0:1|0:0,0:0:0:0:
51,28,177611,1,2,0:1:0:0:
82,31,177686,1,0,0:1:0:0:
110,57,177761,1,8,0:1:0:0:
117,99,177836,1,0,0:1:0:0:
94,136,177911,1,2,0:1:0:0:
59,167,177986,1,0,0:1:0:0:
33,216,178061,1,8,0:1:0:0:
36,271,178136,1,0,0:1:0:0:
63,311,178211,1,2,0:1:0:0:
104,321,178286,1,0,0:1:0:0:
138,308,178361,1,8,0:1:0:0:
152,280,178436,1,0,0:1:0:0:
146,256,178511,6,0,P|132:228|132:197,3,61.7499971733095,6|0|8|0,0:1|0:1|0:1|0:1,0:1:0:0:
230,208,178811,2,0,P|247:182|273:166,3,61.7499971733095,2|0|8|0,0:1|0:1|0:1|0:1,0:1:0:0:
374,263,179111,6,0,L|313:256,3,61.7499971733095,2|0|8|0,0:1|0:1|0:1|0:1,0:1:0:0:
274,370,179411,2,0,L|335:362,3,61.7499971733095,2|0|8|0,0:1|0:1|0:1|0:1,0:1:0:0:
232,291,179711,5,10,0:2:0:0:
457,384,179861,2,0,B|493:334|493:334|450:147,1,246.999988693238,6|6,0:1|0:1,0:0:0:0:
493,79,180311,5,0,0:1:0:0:
283,19,180461,1,8,0:1:0:0:
258,57,180536,1,8,0:1:0:0:
266,96,180611,1,8,0:0:0:0:
289,116,180686,1,8,0:0:0:0:
317,117,180761,1,4,0:0:0:0:
337,103,180836,1,4,0:0:0:0:
337,86,180911,6,0,B|257:99|257:99|236:147|236:147|151:169,1,209.000006378174,6|2,0:1|0:1,0:1:0:0:
125,26,181361,2,0,P|151:37|162:80,1,52.2500015945435,8|0,0:1|0:1,0:1:0:0:
61,216,181511,2,0,L|94:76,2,104.500003189087,2|8|2,0:1|0:1|0:1,0:1:0:0:
191,292,181961,1,8,0:1:0:0:
191,292,182036,1,0,0:1:0:0:
191,292,182110,2,0,B|166:262|174:229|174:229|166:214|166:214|164:169|194:137,1,156.750004783631,2|0,0:1|0:1,0:1:0:0:
288,321,182411,5,2,0:1:0:0:
100,327,182561,1,8,0:1:0:0:
272,209,182711,2,0,L|326:181,2,52.2500015945435,2|0|8,0:1|0:1|0:1,0:1:0:0:
291,350,183011,5,2,0:1:0:0:
133,230,183161,1,8,0:1:0:0:
327,69,183311,2,0,P|308:137|323:294,1,209.000006378174,2|2,0:1|0:1,0:1:0:0:
221,147,183761,2,0,P|258:167|290:161,1,52.2500015945435,8|0,0:1|0:1,0:1:0:0:
432,81,183911,2,0,B|376:89|376:89|373:87|373:87|318:96,1,104.500003189087,2|8,0:1|0:1,0:1:0:0:
410,203,184211,2,0,B|465:211|465:211|468:209|468:209|523:218,1,104.500003189087,2|8,0:1|0:1,0:1:0:0:
261,312,184511,5,2,0:1:0:0:
232,299,184586,1,0,0:1:0:0:
216,271,184661,1,8,0:1:0:0:
215,239,184736,1,0,0:1:0:0:
230,211,184811,1,2,0:1:0:0:
256,193,184886,1,0,0:1:0:0:
278,170,184961,1,8,0:1:0:0:
282,139,185036,1,0,0:1:0:0:
272,109,185111,6,0,P|259:94|208:85,1,61.7499971733095,2|0,0:1|0:1,0:1:0:0:
152,122,185261,1,8,0:1:0:0:
223,232,185411,1,2,0:1:0:0:
289,24,185561,1,8,0:1:0:0:
336,209,185711,6,0,B|316:228|289:231|289:231|186:199,1,123.499994346619,6|8,0:1|0:1,0:1:0:0:
277,30,186011,2,0,P|337:35|350:94,1,123.499994346619,2|8,0:1|0:1,0:1:0:0:
113,193,186311,1,2,0:1:0:0:
238,95,186461,1,8,0:1:0:0:
218,248,186611,5,2,0:1:0:0:
159,58,186761,1,8,0:1:0:0:
300,153,186911,2,0,P|216:135|77:146,1,185.249991519928,2|0,0:2|0:1,0:1:0:0:
112,155,187211,2,0,B|118:211|118:211|116:220|116:220|127:305,1,123.499994346619,6|8,0:2|0:1,0:1:0:0:
286,238,187511,6,0,B|271:228|271:228|198:235,1,61.7499971733095,2|0,0:1|0:1,0:1:0:0:
120,357,187661,2,0,B|135:367|135:367|208:360,1,61.7499971733095,8|0,0:1|0:1,0:1:0:0:
139,222,187811,2,0,B|129:237|129:237|136:310,1,61.7499971733095,6|0,0:2|0:1,0:1:0:0:
252,381,187961,2,0,B|262:366|262:366|255:293,1,61.7499971733095,8|0,0:1|0:1,0:1:0:0:
328,135,188111,5,2,0:1:0:0:
382,105,188186,1,0,0:1:0:0:
442,115,188261,1,0,0:1:0:0:
491,151,188336,1,0,0:1:0:0:
498,212,188411,2,0,P|497:249|468:291,1,61.7499971733095,14|0,0:1|0:1,0:1:0:0:
339,194,188561,2,0,P|327:165|327:134,1,61.7499971733095,0|0,0:1|0:1,0:1:0:0:
211,317,188711,5,10,0:1:0:0:
170,344,188786,1,0,0:1:0:0:
120,343,188861,1,0,0:1:0:0:
75,321,188936,1,0,0:1:0:0:
52,277,189011,2,0,P|89:250|127:242,1,61.7499971733095,2|0,0:1|0:1,0:1:0:0:
221,339,189161,2,0,P|190:334|162:321,1,61.7499971733095,0|0,0:1|0:1,0:1:0:0:
264,200,189311,5,0,0:1:0:0:
322,303,189461,2,0,B|307:356|253:360|253:360|192:283|253:181,1,246.999988693238,14|12,0:1|0:1,0:1:0:0:
428,250,189911,1,8,0:0:0:0:
447,275,189986,1,8,0:0:0:0:
450,306,190061,1,4,0:0:0:0:
444,337,190136,1,4,0:0:0:0:
411,364,190211,5,14,0:1:0:0:
322,170,190511,6,0,L|378:163,2,56.9999982604981,6|0|0,0:1|0:0|0:0,0:0:0:0:
236,66,190811,2,0,L|179:59,2,56.9999982604981,4|0|0,0:2|0:0|0:0,0:0:0:0:
353,33,191111,5,2,0:0:0:0:
235,279,191261,2,0,P|201:241|222:162,1,113.999996520996,0|12,0:0|0:1,0:0:0:0:
224,169,191486,1,0,0:0:0:0:
224,169,191561,1,0,0:0:0:0:
82,131,191711,5,8,0:1:0:0:
97,129,191786,1,0,0:0:0:0:
111,127,191861,1,0,0:0:0:0:
236,66,192011,1,12,0:2:0:0:
221,64,192086,1,0,0:0:0:0:
207,62,192161,1,0,0:0:0:0:
184,205,192311,5,0,0:0:0:0:
60,137,192461,2,0,L|73:23,1,113.999996520996,4|0,0:1|0:0,0:0:0:0:
82,0,192686,1,0,0:0:0:0:
82,0,192761,1,6,0:2:0:0:
217,46,192911,5,8,0:1:0:0:
244,39,192986,1,0,0:1:0:0:
272,43,193061,1,8,0:1:0:0:
297,55,193136,1,0,0:1:0:0:
315,76,193211,1,8,0:1:0:0:
328,100,193286,1,0,0:1:0:0:
353,122,193361,1,8,0:1:0:0:
383,136,193436,1,0,0:1:0:0:
412,129,193511,1,8,0:1:0:0:
437,107,193586,1,0,0:1:0:0:
442,72,193661,1,8,0:1:0:0:
427,41,193736,1,0,0:1:0:0:
397,23,193811,1,8,0:1:0:0:
362,26,193886,1,0,0:1:0:0:
335,48,193961,1,8,0:1:0:0:
326,81,194036,1,0,0:1:0:0:
353,122,194111,5,14,0:2:0:0:
381,168,194186,1,0,0:1:0:0:
387,222,194261,1,8,0:1:0:0:
375,275,194336,1,0,0:1:0:0:
343,321,194411,1,12,0:1:0:0:
298,350,194486,1,0,0:1:0:0:
245,361,194561,1,8,0:1:0:0:
191,351,194636,1,0,0:1:0:0:
157,319,194711,1,8,0:0:0:0:
145,280,194786,1,8,0:0:0:0:
151,246,194861,1,4,0:0:0:0:
171,225,194936,1,4,0:0:0:0:
198,217,195011,6,0,L|253:223,1,47.5,14|8,0:1|0:1,0:1:0:0:
169,358,195161,2,0,L|113:364,1,47.5,8|8,0:1|0:1,0:1:0:0:
61,216,195311,5,6,0:1:0:0:
59,201,195386,1,0,0:0:0:0:
57,186,195461,1,0,0:0:0:0:
242,240,195611,1,2,0:1:0:0:
240,255,195686,1,0,0:0:0:0:
238,270,195761,1,0,0:0:0:0:
195,147,195911,5,14,0:1:0:0:
110,326,196061,2,0,B|146:311|189:334|166:350|209:379|258:359,1,113.999996520996
249,360,196286,1,0,0:0:0:0:
249,359,196361,1,0,0:0:0:0:
352,99,196511,6,0,L|296:93,1,56.9999982604981,6|0,0:1|0:0,0:0:0:0:
195,147,196661,1,0,0:0:0:0:
366,256,196811,2,0,L|421:250,1,56.9999982604981,2|0,0:0|0:0,0:0:0:0:
277,206,196961,1,0,0:0:0:0:
465,54,197111,5,14,0:1:0:0:
465,54,197261,2,0,P|497:99|495:155,1,113.999996520996
480,188,197486,1,0,0:0:0:0:
480,188,197561,1,8,0:1:0:0:
223,86,197711,5,4,0:1:0:0:
366,256,197861,1,0,0:0:0:0:
261,325,198011,2,0,B|234:289|234:289|267:156,1,170.999994781494,12|0,0:2|0:0,0:0:0:0:
296,31,198311,5,14,0:1:0:0:
350,235,198461,1,8,0:1:0:0:
156,140,198611,1,6,0:2:0:0:
402,84,198761,1,8,0:1:0:0:
261,325,198911,5,6,0:1:0:0:
228,296,198986,1,0,0:0:0:0:
219,260,199061,1,2,0:0:0:0:
227,225,199136,1,0,0:0:0:0:
256,198,199211,1,2,0:0:0:0:
292,190,199286,1,0,0:0:0:0:
326,203,199361,1,2,0:0:0:0:
349,232,199436,1,0,0:0:0:0:
357,261,199511,2,0,L|349:317,3,56.9999982604981,6|0|2|0,0:1|0:0|0:0|0:0,0:0:0:0:
261,325,199811,5,8,0:1:0:0:
452,241,199961,1,8,0:1:0:0:
264,144,200111,5,4,0:1:0:0:
270,180,200186,1,0,0:1:0:0:
276,216,200261,1,0,0:1:0:0:
415,65,200411,1,8,0:1:0:0:
409,101,200486,1,0,0:1:0:0:
403,137,200561,1,0,0:1:0:0:
201,71,200711,5,2,0:1:0:0:
321,2,200861,2,0,P|298:64|294:147,1,123.499994346619,0|10,0:1|0:1,0:1:0:0:
311,168,201086,1,0,0:1:0:0:
311,168,201161,1,0,0:1:0:0:
156,249,201311,5,2,0:1:0:0:
160,211,201386,1,0,0:1:0:0:
164,175,201461,1,0,0:1:0:0:
311,307,201611,1,10,0:1:0:0:
307,269,201686,1,0,0:1:0:0:
302,232,201761,1,0,0:1:0:0:
138,358,201911,5,2,0:1:0:0:
55,269,202061,2,0,B|91:285|91:285|205:260,1,123.499994346619,0|10,0:1|0:1,0:1:0:0:
213,243,202286,1,0,0:1:0:0:
213,243,202361,1,0,0:1:0:0:
133,84,202511,6,0,P|82:94|98:173,1,123.499994346619,2|0,0:1|0:1,0:1:0:0:
256,313,202811,1,10,0:1:0:0:
226,90,202961,1,0,0:1:0:0:
106,298,203111,5,10,0:1:0:0:
323,250,203261,1,0,0:1:0:0:
323,250,203336,1,0,0:1:0:0:
323,250,203411,1,10,0:1:0:0:
130,150,203561,1,0,0:1:0:0:
218,366,203711,6,0,L|226:310,2,35.625001358986,2|0|0,0:1|0:1|0:1,0:1:0:0:
302,270,204011,2,0,L|312:340,1,71.2500027179719,8|8,0:0|0:0,0:1:0:0:
410,194,204311,1,8,0:1:0:0:
392,180,204386,1,8,0:1:0:0:
360,179,204461,1,8,0:1:0:0:
430,325,204611,1,4,0:3:0:0:
503,150,204761,1,4,0:3:0:0:
281,271,204911,5,6,0:1:0:0:
317,275,204986,1,0,0:1:0:0:
353,279,205061,1,0,0:1:0:0:
411,129,205211,1,10,0:1:0:0:
375,133,205286,1,0,0:1:0:0:
339,137,205361,1,0,0:1:0:0:
468,332,205511,5,2,0:1:0:0:
468,332,205661,2,0,B|455:302|443:288|443:288|457:199,1,123.499994346619,0|10,0:1|0:1,0:1:0:0:
494,188,205886,1,0,0:1:0:0:
494,188,205961,1,0,0:1:0:0:
376,0,206111,5,2,0:1:0:0:
380,36,206186,1,0,0:1:0:0:
384,72,206261,1,0,0:1:0:0:
234,130,206411,1,10,0:1:0:0:
238,94,206486,1,0,0:1:0:0:
242,58,206561,1,0,0:1:0:0:
415,159,206711,5,6,0:2:0:0:
415,159,206861,2,0,B|371:137|332:142|332:142|291:166,1,123.499994346619,0|10,0:1|0:1,0:1:0:0:
282,203,207086,1,0,0:1:0:0:
282,203,207161,1,0,0:1:0:0:
396,348,207311,5,14,0:1:0:0:
197,302,207461,1,0,0:1:0:0:
390,242,207611,1,6,0:2:0:0:
390,242,207686,1,0,0:1:0:0:
390,242,207761,1,0,0:1:0:0:
152,177,207911,5,14,0:2:0:0:
280,384,208061,1,8,0:1:0:0:
311,146,208211,1,2,0:1:0:0:
311,146,208286,1,2,0:1:0:0:
311,146,208361,1,2,0:1:0:0:
90,307,208511,5,10,3:3:0:0:
143,338,208586,1,8,3:3:0:0:
204,335,208661,1,4,3:3:0:0:
253,298,208736,1,4,3:3:0:0:
286,246,208811,1,8,3:3:0:0:
339,215,208886,1,8,3:3:0:0:
400,218,208961,1,4,3:3:0:0:
452,249,209036,1,4,3:3:0:0:
455,267,209111,5,10,3:1:0:0:
97,41,209711,5,6,0:1:0:0:
60,81,209786,1,0,0:1:0:0:
53,135,209861,1,0,0:1:0:0:
71,185,209936,1,0,0:1:0:0:
114,217,210011,1,8,0:1:0:0:
168,220,210086,1,0,0:1:0:0:
217,197,210161,2,0,P|227:171|226:143,1,54.6250010418892,0|0,0:1|0:1,0:1:0:0:
317,103,210311,5,8,0:1:0:0:
317,92,210386,1,0,0:1:0:0:
312,82,210461,2,0,P|294:60|269:47,1,54.6250010418892,0|0,0:1|0:1,0:1:0:0:
130,75,210611,6,0,P|120:101|121:129,1,54.6250010418892,8|0,0:1|0:1,0:1:0:0:
71,185,210761,2,0,P|88:206|113:219,1,54.6250010418892,0|0,0:1|0:1,0:1:0:0:
132,334,210911,1,8,0:1:0:0:
166,299,210986,1,0,0:1:0:0:
212,282,211061,1,0,0:1:0:0:
260,292,211136,1,0,0:1:0:0:
294,327,211211,1,8,0:1:0:0:
328,353,211286,1,0,0:1:0:0:
366,354,211361,1,0,0:1:0:0:
398,334,211436,1,0,0:1:0:0:
410,303,211511,5,8,0:1:0:0:
404,254,211586,1,0,0:1:0:0:
400,204,211661,1,0,0:1:0:0:
394,155,211736,1,0,0:1:0:0:
388,106,211811,2,0,L|382:47,3,54.6250010418892,8|0|0|0,0:1|0:1|0:1|0:1,0:1:0:0:
498,150,212111,5,8,0:1:0:0:
488,196,212186,1,0,0:1:0:0:
456,234,212261,1,0,0:1:0:0:
404,254,212336,1,0,0:1:0:0:
355,248,212411,1,8,0:1:0:0:
314,219,212486,1,0,0:1:0:0:
289,176,212561,2,0,L|297:108,1,54.6250010418892,0|0,0:1|0:1,0:1:0:0:
434,51,212711,5,8,0:1:0:0:
434,62,212786,1,0,0:1:0:0:
429,72,212861,2,0,P|411:93|386:106,1,54.6250010418892,0|0,0:1|0:1,0:1:0:0:
154,171,213011,1,8,0:1:0:0:
150,143,213086,1,0,0:1:0:0:
147,116,213161,1,0,0:1:0:0:
144,89,213236,1,0,0:1:0:0:
140,62,213311,5,8,0:1:0:0:
174,21,213386,1,0,0:1:0:0:
227,15,213461,1,0,0:1:0:0:
269,48,213536,1,0,0:1:0:0:
277,100,213611,1,8,0:1:0:0:
246,144,213686,1,0,0:1:0:0:
207,174,213761,1,0,0:0:0:0:
178,213,213836,1,0,0:0:0:0:
171,256,213911,1,8,0:1:0:0:
184,297,213986,1,0,0:0:0:0:
220,320,214061,1,0,0:0:0:0:
262,311,214136,1,0,0:0:0:0:
284,279,214211,6,0,L|273:224,1,54.6250010418892,8|0,0:1|0:0,0:0:0:0:
153,303,214361,2,0,L|163:361,1,54.6250010418892,0|0,0:1|0:0,0:0:0:0:
412,381,214511,5,12,0:1:0:0:
449,341,214586,1,0,0:1:0:0:
456,287,214661,1,0,0:1:0:0:
438,237,214736,1,0,0:1:0:0:
395,205,214811,1,8,0:1:0:0:
341,202,214886,1,0,0:1:0:0:
293,226,214961,6,0,P|283:252|284:280,1,54.6250010418892,0|0,0:1|0:1,0:1:0:0:
246,347,215111,2,0,P|263:368|288:381,1,54.6250010418892,8|0,0:1|0:1,0:1:0:0:
453,346,215261,1,0,0:1:0:0:
448,309,215336,1,0,0:1:0:0:
443,273,215411,1,8,0:1:0:0:
438,237,215486,1,0,0:1:0:0:
431,199,215561,2,0,L|424:144,1,54.6250010418892
341,39,215711,5,8,0:1:0:0:
331,73,215786,1,0,0:1:0:0:
311,104,215861,1,0,0:1:0:0:
283,127,215936,1,0,0:1:0:0:
249,140,216011,1,8,0:1:0:0:
213,142,216086,1,0,0:1:0:0:
178,133,216161,1,0,0:1:0:0:
148,109,216236,1,0,0:1:0:0:
147,65,216311,5,8,0:1:0:0:
188,29,216386,1,0,0:1:0:0:
242,36,216461,1,0,0:1:0:0:
273,80,216536,1,0,0:1:0:0:
261,133,216611,1,8,0:1:0:0:
214,161,216686,1,0,0:1:0:0:
160,149,216761,1,0,0:1:0:0:
137,99,216836,1,0,0:1:0:0:
143,55,216911,5,12,0:1:0:0:
56,194,217061,2,0,L|49:137,2,54.6250010418892,0|8|4,0:0|0:0|0:0,0:0:0:0:
125,303,217361,5,12,0:1:0:0:
125,303,217436,1,8,0:1:0:0:
125,303,217511,2,0,P|153:268|176:262,1,54.6250010418892,0|0,0:1|0:1,0:1:0:0:
189,186,217661,2,0,P|233:192|250:209,1,54.6250010418892,0|0,0:0|0:0,0:1:0:0:
325,237,217811,1,8,0:0:0:0:
321,264,217886,1,8,0:0:0:0:
318,291,217961,1,4,0:0:0:0:
315,318,218036,1,4,0:0:0:0:
311,345,218111,5,14,0:1:0:0:
247,377,218186,1,0,0:0:0:0:
179,353,218261,1,2,0:0:0:0:
145,290,218336,1,0,0:0:0:0:
163,221,218411,1,14,0:1:0:0:
219,178,218486,1,0,0:0:0:0:
264,123,218561,1,2,0:0:0:0:
260,52,218636,1,0,0:0:0:0:
207,4,218711,6,8,L|143:11,2,54.6250010418892,14|8|8,0:1|0:1|0:1,0:1:0:0:
238,280,219011,1,8,0:1:0:0:
56,194,219161,1,8,0:1:0:0:
346,33,219311,6,1,B|381:90|351:163|341:156|336:144|313:220|355:286,1,246.999988693238,6|2,0:1|0:1,0:1:0:0:
451,85,219761,1,8,0:1:0:0:
451,85,219836,1,0,0:1:0:0:
451,85,219911,1,2,0:1:0:0:
247,196,220061,2,0,L|270:341,1,123.499994346619,8|2,0:1|0:1,0:1:0:0:
298,350,220286,1,0,0:1:0:0:
298,350,220361,1,8,0:1:0:0:
378,169,220511,5,2,0:1:0:0:
191,284,220661,1,8,0:1:0:0:
400,310,220811,1,2,0:1:0:0:
400,310,220886,1,0,0:1:0:0:
400,310,220961,1,8,0:1:0:0:
256,173,221111,2,0,P|168:157|53:150,1,185.249991519928,2|0,0:1|0:1,0:1:0:0:
0,191,221411,5,2,0:1:0:0:
171,55,221561,1,8,0:1:0:0:
39,0,221711,2,0,P|53:91|105:257,1,246.999988693238,2|2,0:1|0:1,0:1:0:0:
129,267,222086,1,0,0:1:0:0:
129,267,222161,1,8,0:1:0:0:
244,151,222311,2,0,B|230:140|230:140|142:149,1,61.7499971733095,2|0,0:1|0:1,0:1:0:0:
254,334,222461,2,0,P|289:294|251:228,1,123.499994346619,8|2,0:1|0:1,0:1:0:0:
221,235,222686,1,0,0:1:0:0:
221,235,222761,1,8,0:1:0:0:
100,377,222911,6,0,B|228:357|228:357|236:360|236:360|367:344,1,246.999988693238,2|2,0:1|0:1,0:1:0:0:
377,331,223286,1,0,0:1:0:0:
377,331,223361,1,8,0:1:0:0:
312,168,223511,1,6,0:2:0:0:
257,384,223661,1,8,0:1:0:0:
426,152,223811,1,6,0:2:0:0:
504,384,223961,1,8,0:1:0:0:
285,196,224111,6,0,B|224:146|289:70|383:100|439:166,1,246.999988693238,6|2,0:1|0:1,0:1:0:0:
234,275,224561,1,8,0:1:0:0:
401,354,224711,1,2,0:1:0:0:
401,354,224786,1,0,0:1:0:0:
401,354,224861,2,0,B|377:320|377:320|395:229,1,123.499994346619,8|2,0:1|0:1,0:1:0:0:
501,103,225161,2,0,B|447:128|407:97|407:97|374:108|374:108|317:74|267:110,1,246.999988693238,8|8,0:1|0:1,0:1:0:0:
466,20,225611,5,2,0:1:0:0:
340,136,225761,1,8,0:1:0:0:
404,353,225911,2,0,L|425:232,1,123.499994346619,2|8,0:1|0:1,0:1:0:0:
276,199,226211,1,2,0:1:0:0:
438,126,226361,1,8,0:1:0:0:
286,319,226511,5,8,0:1:0:0:
240,337,226586,1,0,0:1:0:0:
191,329,226661,2,0,P|163:318|145:278,1,61.7499971733095,2|0,0:1|0:1,0:1:0:0:
91,113,226811,5,0,0:1:0:0:
143,60,226886,1,0,0:1:0:0:
210,56,226961,1,2,0:1:0:0:
260,91,227036,1,0,0:1:0:0:
279,143,227111,1,0,0:1:0:0:
316,175,227186,1,0,0:1:0:0:
358,182,227261,1,2,0:1:0:0:
393,172,227336,1,0,0:1:0:0:
414,149,227411,1,0,0:1:0:0:
419,124,227486,1,0,0:1:0:0:
414,106,227561,1,2,0:1:0:0:
405,97,227636,1,0,0:1:0:0:
399,94,227711,5,8,0:1:0:0:
256,290,227861,2,0,B|213:358|213:358|407:326,1,246.999988693238,6|2,0:1|0:1,0:1:0:0:
239,60,228311,5,0,0:1:0:0:
424,126,228461,1,8,0:1:0:0:
417,181,228536,1,8,0:1:0:0:
386,218,228611,1,8,0:0:0:0:
345,227,228686,1,8,0:0:0:0:
312,211,228761,1,4,0:0:0:0:
297,185,228836,1,4,0:0:0:0:
301,160,228911,6,0,B|350:153|350:153|357:157|357:157|418:147,1,104.500003189087,14|0,0:1|0:0,0:0:0:0:
239,60,229211,2,0,B|189:54|189:54|184:58|184:58|121:52,1,104.500003189087,2|0,0:1|0:0,0:0:0:0:
174,281,229511,2,0,P|182:189|90:193,1,209.000006378174,10|2,0:1|0:0,0:0:0:0:
34,298,229961,1,0,0:0:0:0:
297,384,230111,6,0,B|319:343|319:343|289:260,1,104.500003189087,10|0,0:1|0:0,0:0:0:0:
177,186,230411,2,0,B|154:226|154:226|174:281,1,104.500003189087,2|0,0:1|0:0,0:0:0:0:
412,222,230711,1,10,0:1:0:0:
297,160,230861,1,0,0:0:0:0:
395,88,231011,2,0,L|498:100,1,104.500003189087,2|0,0:0|0:0,0:0:0:0:
223,239,231311,6,0,B|183:195|183:195|198:119|198:119|205:114|205:114|218:51,1,209.000006378174,10|2,0:1|0:0,0:0:0:0:
309,178,231761,1,0,0:0:0:0:
137,311,231911,2,0,L|33:298,1,104.500003189087,10|0,0:1|0:0,0:0:0:0:
81,126,232211,2,0,L|184:113,1,104.500003189087,2|0,0:1|0:0,0:0:0:0:
422,201,232511,6,0,B|367:166|320:203|320:203|282:274|226:268,1,209.000006378174,10|2,0:1|0:1,0:0:0:0:
164,216,232961,1,0,0:0:0:0:
378,284,233111,2,0,P|396:332|392:384,1,104.500003189087,10|0,0:1|0:0,0:0:0:0:
66,226,233411,2,0,P|62:174|80:125,1,104.500003189087,2|0,0:1|0:0,0:0:0:0:
309,24,233711,6,0,L|294:140,1,104.500003189087,14|0,0:1|0:0,0:0:0:0:
216,289,234011,2,0,L|201:171,1,104.500003189087,2|0,0:1|0:0,0:0:0:0:
150,55,234311,2,0,B|227:64|227:64|234:73|234:73|369:89,1,209.000006378174,10|2,0:1|0:0,0:0:0:0:
459,148,234761,1,0,0:0:0:0:
331,339,234911,6,0,B|309:298|309:298|339:215,1,104.500003189087,10|0,0:1|0:0,0:0:0:0:
472,139,235211,2,0,B|495:179|495:179|475:233,1,104.500003189087,2|0,0:1|0:0,0:0:0:0:
246,151,235511,1,10,0:1:0:0:
353,88,235661,1,0,0:0:0:0:
328,243,235811,2,0,L|225:255,1,104.500003189087,2|0,0:0|0:0,0:0:0:0:
53,122,236111,6,0,P|108:167|90:308,1,209.000006378174,10|2,0:1|0:0,0:0:0:0:
45,367,236561,1,0,0:0:0:0:
1,205,236711,2,0,L|105:218,1,104.500003189087,10|0,0:1|0:0,0:0:0:0:
267,371,237011,2,0,L|164:384,1,104.500003189087,2|0,0:1|0:0,0:0:0:0:
205,82,237311,6,0,B|260:52|294:76|294:76|308:75|308:75|336:124|405:127,1,209.000006378174,10|2,0:1|0:2,0:0:0:0:
461,48,237761,1,0,0:0:0:0:
250,156,237911,2,0,P|232:204|236:256,1,104.500003189087,10|0,0:1|0:0,0:0:0:0:
502,136,238211,2,0,P|506:84|487:37,1,104.500003189087,8|4,0:0|0:0,0:0:0:0:
322,341,238511,6,0,L|503:303,1,156.750004783631,6|0,0:1|0:1,0:1:0:0:
488,297,238811,2,0,P|491:226|444:190,1,104.500003189087,2|0,0:1|0:1,0:1:0:0:
512,74,239111,2,0,B|421:53|421:53|389:55|353:93,1,156.750004783631,10|0,0:1|0:1,0:1:0:0:
352,105,239411,2,0,L|369:218,1,104.500003189087,2|0,0:1|0:1,0:1:0:0:
261,352,239711,6,0,P|201:344|53:337,1,209.000006378174,10|2,0:1|0:1,0:1:0:0:
195,297,240161,1,0,0:1:0:0:
95,209,240311,1,10,0:1:0:0:
252,170,240461,1,0,0:1:0:0:
130,384,240611,2,0,B|124:347|106:330|106:330|120:284|129:210,1,156.750004783631,2|0,0:1|0:1,0:1:0:0:
247,138,240911,6,0,P|185:168|156:81,1,156.750004783631,10|0,0:1|0:1,0:1:0:0:
137,72,241211,2,0,B|84:48|84:48|12:80,1,104.500003189087,2|0,0:1|0:1,0:1:0:0:
287,1,241511,2,0,B|276:35|276:35|317:183,1,156.750004783631,10|0,0:1|0:1,0:1:0:0:
316,169,241811,2,0,P|373:185|424:152,1,104.500003189087,2|0,0:1|0:1,0:1:0:0:
205,356,242111,6,0,P|224:278|224:131,1,209.000006378174,10|6,0:1|0:2,0:1:0:0:
90,283,242561,1,0,0:1:0:0:
264,286,242711,1,10,0:1:0:0:
115,169,242861,1,0,0:1:0:0:
191,338,243011,2,0,B|219:368|248:376|248:376|256:374|256:374|298:377|343:333,1,156.750004783631,6|0,0:1|0:1,0:1:0:0:
413,184,243311,6,0,B|404:309|404:309|436:366,1,156.750004783631,10|0,0:1|0:1,0:1:0:0:
442,355,243611,2,0,P|488:324|481:262,1,104.500003189087,2|0,0:1|0:1,0:1:0:0:
237,205,243911,2,0,B|218:187|218:158|218:158|259:109|322:149,1,156.750004783631,10|0,0:1|0:1,0:1:0:0:
317,172,244211,2,0,L|332:298,1,104.500003189087,2|0,0:1|0:1,0:1:0:0:
137,262,244511,5,10,0:1:0:0:
227,382,244661,1,0,0:1:0:0:
227,382,244736,1,0,0:1:0:0:
227,382,244811,2,0,P|230:326|245:252,1,104.500003189087,2|0,0:1|0:1,0:1:0:0:
53,159,245111,1,10,0:1:0:0:
137,262,245261,1,0,0:1:0:0:
258,80,245411,2,0,B|232:35|165:34|165:34|158:43|158:43|110:68,1,156.750004783631,2|0,0:1|0:1,0:1:0:0:
35,113,245711,5,14,0:1:0:0:
39,144,245786,1,0,0:1:0:0:
45,177,245861,1,0,0:1:0:0:
50,210,245936,1,0,0:1:0:0:
54,244,246011,1,8,0:1:0:0:
108,339,246161,1,8,0:1:0:0:
216,189,246311,5,2,0:0:0:0:
216,189,246386,1,0,0:0:0:0:
216,189,246461,1,0,0:0:0:0:
376,357,246611,2,0,P|338:342|315:309,1,52.2500015945435,8|8,0:0|0:0,0:0:0:0:
243,327,246761,2,0,P|237:287|254:250,1,52.2500015945435,4|4,0:0|0:0,0:0:0:0:
216,189,246911,6,0,B|267:172|295:202|295:202|300:198|300:198|339:244|382:234,1,185.249991519928,14|0,0:1|0:0,0:0:0:0:
446,290,247211,1,2,0:0:0:0:
494,261,247286,1,0,0:0:0:0:
512,210,247361,1,0,0:0:0:0:
499,158,247436,1,0,0:0:0:0:
457,124,247511,5,10,0:1:0:0:
330,334,247661,1,8,0:1:0:0:
240,64,247811,1,8,0:0:0:0:
96,368,248111,5,6,0:1:0:0:
206,326,249911,5,6,0:2:0:0:
220,323,249986,1,2,0:0:0:0:
234,320,250061,1,2,0:0:0:0:
248,318,250136,1,2,0:0:0:0:
267,338,250211,5,12,0:1:0:0:
302,343,250286,1,8,0:2:0:0:
337,344,250361,1,8,0:2:0:0:
372,348,250436,1,8,0:2:0:0:
417,324,250511,5,4,0:1:0:0:
228,154,250661,1,0,0:0:0:0:
228,154,251711,5,8,0:1:0:0:
247,124,251786,1,0,0:0:0:0:
251,88,251861,2,0,P|235:59|206:45,1,35.625001358986,8|4,0:0|0:0,0:0:0:0:
85,177,252011,5,8,0:1:0:0:
102,209,252086,1,0,0:0:0:0:
131,230,252161,2,0,P|164:230|190:212,1,35.625001358986,8|4,0:0|0:0,0:0:0:0:
79,9,252311,5,2,0:0:0:0:
63,23,252461,6,0,P|77:41|103:45,1,35.625001358986,4|0,0:2|0:0,0:0:0:0:
137,145,252611,2,0,P|145:123|136:99,1,35.625001358986,4|0,0:2|0:0,0:0:0:0:
205,19,252761,2,0,P|182:22|165:42,1,35.625001358986,4|0,0:2|0:0,0:0:0:0:
0,288,252911,6,0,P|79:273|157:278,1,142.500005435944,6|0,0:1|0:0,0:0:0:0:
152,296,254111,5,2,0:0:0:0:
151,310,254411,1,2,0:0:0:0:
149,324,254711,5,0,0:0:0:0:
136,316,254786,1,2,0:0:0:0:
132,302,254861,1,0,0:0:0:0:
132,287,254936,1,2,0:0:0:0:
140,275,255011,5,8,0:1:0:0:
286,384,255161,1,8,0:1:0:0:
374,195,255311,5,0,0:0:0:0:
355,184,255386,1,0,0:0:0:0:
333,184,255461,1,0,0:0:0:0:
313,193,255536,1,0,0:0:0:0:
300,210,255611,2,0,P|295:233|307:264,1,35.625001358986,8|8,0:0|0:0,0:0:0:0:
231,59,255761,5,0,0:0:0:0:
207,71,255836,1,0,0:0:0:0:
194,95,255911,1,0,0:0:0:0:
192,120,255986,1,0,0:0:0:0:
201,144,256061,2,0,P|221:162|261:169,1,35.625001358986,8|8,0:0|0:0,0:0:0:0:
34,146,256211,5,0,0:0:0:0:
29,181,256286,1,0,0:0:0:0:
46,212,256361,1,0,0:0:0:0:
76,229,256436,1,0,0:0:0:0:
111,227,256511,2,0,P|139:212|151:188,1,35.625001358986,8|8,0:0|0:0,0:0:0:0:
249,384,256661,5,10,0:1:0:0:
242,334,256736,1,8,0:1:0:0:
236,284,256811,1,8,0:1:0:0:
230,234,256886,1,8,0:1:0:0:
224,184,256961,5,8,0:0:0:0:
229,166,257036,1,8,0:0:0:0:
234,148,257111,5,10,3:1:0:0:
280,165,257186,1,8,3:1:0:0:
304,208,257261,1,8,3:1:0:0:
295,257,257336,1,8,3:1:0:0:
265,293,257411,1,8,3:1:0:0:
223,304,257486,1,8,0:0:0:0:
185,293,257561,1,4,0:0:0:0:
159,268,257636,1,4,0:0:0:0:
152,240,257711,5,6,0:1:0:0:
256,227,258011,5,2,0:0:0:0:
87,185,258161,2,0,P|55:234|59:295,2,113.999996520996,0|10|0,0:0|0:1|0:0,0:0:0:0:
256,227,258611,5,2,0:0:0:0:
159,255,258761,2,0,P|184:303|235:327,2,104.500003189087,0|2|8,0:0|0:0|0:1,0:0:0:0:
281,129,259211,5,2,0:0:0:0:
256,227,259361,2,0,P|306:229|348:201,2,95,0|2|8,0:0|0:0|0:1,0:0:0:0:
210,60,259811,5,2,0:0:0:0:
281,129,259961,2,0,P|308:88|305:36,2,85.4999973907472,0|2|8,0:0|0:0|0:1,0:0:0:0:
112,88,260411,5,2,0:0:0:0:
210,59,260561,2,0,P|196:24|167:0,2,76,0|2|0,0:0|0:0|0:0,0:0:0:0:
88,183,261011,5,10,0:1:0:0:
113,88,261161,2,0,P|81:84|51:97,2,66.4999979705811,0|2|0,0:0|0:0|0:0,0:0:0:0:
163,253,261611,5,2,0:0:0:0:
88,183,261761,2,0,P|70:204|60:230,2,56.9999982604981,8|2|0,0:1|0:0|0:0,0:0:0:0:
247,224,262211,5,2,0:0:0:0:
153,328,262361,2,0,L|164:239,1,76,8|2,0:1|0:0,0:0:0:0:
331,121,262661,2,0,L|343:206,1,85.4999973907472,0|2,0:0|0:0,0:0:0:0:
160,359,262961,2,0,L|172:261,1,95,10|2,0:1|0:0,0:0:0:0:
435,316,263261,5,8,0:1:0:0:
247,224,263411,1,8,0:1:0:0:
450,153,263561,1,8,0:1:0:0:
315,67,263711,6,0,B|258:43|211:77|211:77|186:64|186:64|118:117|48:75|48:75|104:49,1,332.5,6|0,0:1|0:0,0:0:0:0:
106,50,264311,6,0,L|91:167,1,95,10|0,0:1|0:0,0:0:0:0:
24,186,264536,2,0,L|38:303,1,95
77,357,264761,2,0,B|108:313|152:320|152:320|167:334|183:340|183:340|214:397|295:376,1,237.5,2|0,0:0|0:0,0:0:0:0:
326,295,265211,6,0,P|308:350|327:398,2,95,2|0|2,0:0|0:0|0:0,0:0:0:0:
365,146,265661,5,8,0:1:0:0:
439,294,265811,1,2,0:0:0:0:
240,209,265961,1,0,0:0:0:0:
240,209,266036,1,0,0:0:0:0:
240,209,266111,2,0,L|322:198,2,47.5,2|0|0,0:0|0:0|0:0,0:0:0:0:
170,103,266411,5,6,0:1:0:0:
144,255,266561,1,0,0:0:0:0:
0,200,266711,1,2,0:0:0:0:
100,174,266861,1,0,0:0:0:0:
65,347,267011,6,0,P|46:293|56:257,1,95,10|0,0:1|0:0,0:0:0:0:
90,85,267311,2,0,P|109:139|99:175,1,95,2|0,0:0|0:0,0:0:0:0:
0,200,267611,5,2,0:0:0:0:
144,255,267761,1,8,0:1:0:0:
184,74,267911,2,0,L|80:86,1,95,2|0,0:0|0:0,0:0:0:0:
217,343,268211,2,0,L|320:330,1,95,2|8,0:0|0:1,0:0:0:0:
461,98,268511,1,2,0:0:0:0:
461,98,268661,6,0,B|417:73|372:122|401:142|353:203|287:170,1,190,0|8,0:0|0:1,0:0:0:0:
261,107,269111,1,2,0:0:0:0:
434,236,269261,1,8,0:1:0:0:
240,384,269411,1,10,0:0:0:0:
224,366,269486,1,8,0:0:0:0:
217,343,269561,1,4,0:0:0:0:
220,319,269636,1,4,0:0:0:0:
229,297,269711,6,0,B|244:353|182:384|137:367|83:302|113:238|177:187|262:221|262:221|347:260|347:260|416:283|468:250|472:223,1,569.999982604981,6|2,0:1|0:0,0:0:0:0:
333,384,270611,6,0,P|318:357|321:320,1,56.9999982604981
396,54,270761,2,0,P|367:107|378:167,2,123.499994346619,2|0|8,0:1|0:1|0:1,0:1:0:0:
471,122,271211,1,0,0:1:0:0:
236,23,271361,5,2,0:1:0:0:
236,23,271436,1,2,0:1:0:0:
236,23,271511,2,0,P|265:81|193:95,1,142.500005435944,2|8,0:1|0:1,0:1:0:0:
53,76,271736,1,0,0:1:0:0:
62,61,271811,2,0,P|123:81|90:137,1,113.999996520996,2|0,0:1|0:1,0:1:0:0:
49,202,272036,1,0,0:1:0:0:
46,187,272111,5,2,0:1:0:0:
91,151,272186,1,0,0:1:0:0:
147,148,272261,1,8,0:1:0:0:
191,175,272336,1,0,0:1:0:0:
209,222,272411,1,4,0:1:0:0:
205,267,272486,1,0,0:1:0:0:
180,305,272561,1,0,0:1:0:0:
148,318,272636,1,0,0:1:0:0:
119,314,272711,1,2,0:1:0:0:
100,300,272786,1,0,0:1:0:0:
96,283,272861,1,0,0:1:0:0:
102,273,272936,1,0,0:1:0:0:
113,272,273011,1,10,0:1:0:0:
159,152,273161,5,4,0:1:0:0:
168,147,273236,1,0,0:1:0:0:
179,134,273311,1,0,0:1:0:0:
185,112,273386,1,0,0:1:0:0:
185,83,273461,1,4,0:1:0:0:
174,50,273536,1,0,0:1:0:0:
144,21,273611,1,0,0:1:0:0:
95,11,273686,1,0,0:1:0:0:
45,28,273761,1,8,0:1:0:0:
14,75,273836,1,0,0:1:0:0:
10,131,273911,1,2,0:1:0:0:
35,181,273986,1,0,0:1:0:0:
86,205,274061,1,0,0:1:0:0:
141,193,274136,1,0,0:1:0:0:
164,140,274211,6,0,P|187:125|218:121,1,56.9999982604981,2|0,0:1|0:1,0:1:0:0:
270,45,274361,2,0,P|295:57|314:78,1,56.9999982604981,8|0,0:1|0:1,0:1:0:0:
387,202,274511,6,0,B|354:231|354:231|230:209,1,142.500005435944,2|4,0:1|0:1,0:1:0:0:
239,215,274736,1,2,0:1:0:0:
239,215,274811,1,2,0:1:0:0:
414,44,274961,6,0,L|407:96,3,52.2500015945435,8|0|2|0,0:1|0:1|0:1|0:1,0:1:0:0:
504,171,275261,2,0,L|497:118,3,52.2500015945435,8|0|8|8,0:1|0:1|0:0|0:0,0:1:0:0:
397,182,275561,2,0,L|389:239,1,56.9999982604981,8|0,0:1|0:1,0:1:0:0:
479,315,275711,5,4,0:1:0:0:
479,315,275786,1,0,0:0:0:0:
479,315,275861,2,0,P|475:285|480:243,1,56.9999982604981
378,325,276011,2,0,P|389:346|396:384,3,56.9999982604981
301,231,276311,6,0,L|369:225,1,56.9999982604981,8|0,0:1|0:0,0:0:0:0:
290,336,276461,1,2,0:0:0:0:
290,336,276536,1,0,0:0:0:0:
290,336,276611,2,0,L|214:326,3,56.9999982604981,0|0|2|0,0:0|0:0|0:2|0:0,0:0:0:0:
212,186,276911,6,0,B|224:196|224:196|218:274,1,56.9999982604981
142,340,277061,1,8,0:1:0:0:
142,340,277136,1,0,0:0:0:0:
142,340,277211,2,0,B|154:330|154:330|148:252,1,56.9999982604981,2|0,0:0|0:0,0:0:0:0:
118,199,277361,2,0,B|108:211|108:211|30:205,3,56.9999982604981,0|0|2|0,0:0|0:0|0:0|0:0,0:0:0:0:
10,280,277661,5,8,0:1:0:0:
10,280,277736,1,0,0:0:0:0:
10,280,277811,2,0,B|97:289,1,56.9999982604981,2|0,0:0|0:0,0:0:0:0:
171,331,277961,1,0,0:0:0:0:
171,331,278036,1,0,0:0:0:0:
171,331,278111,2,0,L|252:316,1,56.9999982604981,2|0,0:0|0:0,0:0:0:0:
253,227,278261,2,0,L|334:242,1,56.9999982604981,8|0,0:1|0:0,0:0:0:0:
384,326,278411,5,12,0:1:0:0:
420,298,278486,1,0,0:0:0:0:
431,253,278561,2,0,P|428:231|398:196,1,56.9999982604981
286,324,278711,1,8,0:1:0:0:
248,350,278786,1,0,0:0:0:0:
202,352,278861,1,0,0:0:0:0:
158,339,278936,1,0,0:0:0:0:
127,305,279011,2,0,P|118:282|120:239,1,56.9999982604981,2|0,0:0|0:0,0:0:0:0:
224,131,279161,5,12,0:1:0:0:
251,167,279236,1,0,0:0:0:0:
250,213,279311,2,0,P|241:233|203:259,1,56.9999982604981
35,225,279461,1,10,0:1:0:0:
43,179,279536,1,0,0:0:0:0:
74,145,279611,1,0,0:0:0:0:
115,126,279686,1,0,0:0:0:0:
160,126,279761,2,0,P|182:135|211:167,1,56.9999982604981
158,339,279911,5,8,0:1:0:0:
122,311,279986,1,0,0:0:0:0:
112,267,280061,2,0,P|115:245|145:210,1,56.9999982604981
284,107,280211,1,8,0:1:0:0:
310,145,280286,1,0,0:0:0:0:
312,191,280361,1,0,0:0:0:0:
297,233,280436,1,0,0:0:0:0:
265,265,280511,2,0,P|242:274|199:272,1,56.9999982604981,4|0,0:2|0:0,0:0:0:0:
176,131,280661,5,8,0:1:0:0:
176,131,280736,1,8,0:1:0:0:
176,131,280811,1,10,0:1:0:0:
375,295,280961,1,10,0:1:0:0:
284,107,281111,1,10,0:1:0:0:
210,274,281261,1,10,0:1:0:0:
267,381,281411,5,8,3:0:0:0:
267,381,281561,2,0,L|211:368,1,56.9999982604981,4|4,0:0|3:0,0:1:0:0:
76,334,281711,1,6,0:3:0:0:
59,98,282311,5,8,0:1:0:0:
59,98,282386,1,8,0:1:0:0:
59,98,282461,1,10,0:1:0:0:
202,68,282761,5,8,0:1:0:0:
72,117,282911,1,10,3:0:0:0:
158,202,283061,2,0,P|166:176|163:148,2,47.5,2|0|2,0:0|0:0|0:0,0:0:0:0:
86,272,283361,1,10,3:0:0:0:
66,267,283511,1,2,0:0:0:0:
153,373,283661,2,0,P|206:305|303:314,1,190,4|8,3:0|3:0,0:0:0:0:
450,240,284111,6,0,L|455:286,2,47.5,10|8|8,0:0|0:0|0:0,0:0:0:0:
331,384,284411,2,0,L|342:289,1,95,8|2,0:1|0:0,0:0:0:0:
464,222,284711,2,0,L|476:317,1,95,2|8,0:0|0:1,0:0:0:0:
245,211,285011,6,8,L|292:205,1,47.5,0|0,0:0|0:0,0:0:0:0:
355,130,285161,1,8,0:0:0:0:
355,130,285236,1,8,0:0:0:0:
355,130,285311,6,0,P|313:120|283:90,1,85.4999973907472,4|0,0:2|0:0,0:0:0:0:
180,54,285611,2,0,P|192:94|181:136,1,85.4999973907472,4|8,0:2|0:2,0:0:0:0:
165,153,285836,1,8,0:2:0:0:
165,153,285911,5,8,0:0:0:0:
78,129,286061,1,8,0:0:0:0:
100,216,286211,1,8,0:0:0:0:
15,195,286361,1,8,0:0:0:0:
185,328,286511,6,0,L|178:271,3,56.9999982604981,2|0|2|0,0:0|0:0|0:0|0:0,0:0:0:0:
83,384,287111,2,0,L|88:336,1,47.5,4|0,0:2|0:0,0:0:0:0:
200,248,287411,2,0,L|194:295,1,47.5
4,75,287711,5,8,0:0:0:0:
4,75,287786,1,0,0:0:0:0:
4,75,287861,2,0,P|28:68|50:56,3,42.7499986953736,8|0|0|0,0:0|0:0|0:0|0:0,0:0:0:0:
112,170,288161,1,4,0:0:0:0:
112,170,288236,1,0,0:0:0:0:
112,170,288311,2,0,P|93:152|72:139,3,42.7499986953736,4|0|0|0,0:0|0:0|0:0|0:0,0:0:0:0:
140,28,288611,1,8,0:1:0:0:
140,28,288686,1,0,0:0:0:0:
140,28,288761,2,0,P|134:52|133:77,1,42.7499986953736,8|0,0:1|0:0,0:0:0:0:
213,139,288911,6,0,P|239:135|272:121,3,42.7499986953736,4|0|10|8,0:1|0:0|0:1|0:0,0:0:0:0:
334,155,289211,2,0,P|344:130|347:94,3,42.7499986953736,8|8|4|4,0:1|0:0|0:0|0:0,0:0:0:0:
408,58,289511,2,0,P|391:36|362:15,3,42.7499986953736,8|0|0|0,0:1|0:0|0:0|0:0,0:0:0:0:
467,251,289811,5,8,0:1:0:0:
450,249,289886,1,8,0:1:0:0:
434,247,289961,1,8,0:1:0:0:
417,245,290036,1,8,0:1:0:0:
401,243,290111,1,8,0:1:0:0:
320,313,290261,6,0,B|281:286|229:316|254:340|216:373|165:354,1,170.999994781494,6|0,0:2|0:0,0:0:0:0:
71,316,290636,1,0,0:0:0:0:
71,316,290711,6,0,L|79:382,1,66.4999979705811,4|2,0:2|0:0,0:0:0:0:
181,265,291011,2,0,L|173:321,1,56.9999982604981,2|2,0:2|0:0,0:0:0:0:
32,128,291311,5,6,0:1:0:0:
198,79,291461,1,0,0:1:0:0:
96,192,291611,1,0,0:1:0:0:
124,22,291761,1,0,0:1:0:0:
237,175,291911,1,14,0:1:0:0:
32,128,292061,1,0,0:1:0:0:
107,203,292211,1,0,0:1:0:0:
41,292,292361,1,0,0:1:0:0:
1,211,292511,5,6,0:1:0:0:
183,90,292661,1,0,0:1:0:0:
226,296,292811,1,0,0:1:0:0:
49,118,292961,1,0,0:1:0:0:
237,175,293111,1,14,0:1:0:0:
127,221,293261,1,0,0:1:0:0:
350,371,293411,5,0,0:1:0:0:
251,384,293561,1,0,0:1:0:0:
238,284,293711,1,6,0:1:0:0:
337,271,293861,1,0,0:1:0:0:
168,343,294011,1,0,0:1:0:0:
318,247,294161,1,0,0:1:0:0:
190,183,294311,1,14,0:1:0:0:
295,96,294461,1,0,0:1:0:0:
238,284,294611,5,0,0:1:0:0:
188,60,294761,1,2,0:2:0:0:
379,160,294911,1,6,0:1:0:0:
132,267,295061,1,0,0:1:0:0:
295,96,295211,1,2,0:1:0:0:
318,247,295361,1,0,0:1:0:0:
69,188,295511,5,14,0:1:0:0:
180,164,295661,1,0,0:1:0:0:
132,267,295811,1,0,0:1:0:0:
188,60,295961,1,0,0:1:0:0:
318,247,296111,1,6,0:1:0:0:
165,158,296261,1,0,0:1:0:0:
267,137,296411,1,0,0:1:0:0:
236,236,296561,1,0,0:1:0:0:
410,286,296711,5,14,0:1:0:0:
180,164,296861,1,0,0:1:0:0:
403,103,297011,1,0,0:1:0:0:
285,337,297161,1,0,0:1:0:0:
286,46,297311,1,6,0:1:0:0:
386,192,297461,1,0,0:1:0:0:
318,247,297611,5,0,0:1:0:0:
403,103,297761,1,0,0:1:0:0:
264,156,297911,1,14,0:1:0:0:
410,286,298061,1,0,0:1:0:0:
264,356,298211,1,0,0:1:0:0:
386,192,298361,1,4,0:2:0:0:
417,305,298511,1,0,0:1:0:0:
175,76,298661,5,0,0:0:0:0:
175,76,298736,1,0,0:0:0:0:
175,76,298811,2,0,L|170:113,3,38
303,0,299111,2,0,L|312:75,1,76,8|0,0:1|0:1,0:1:0:0:
264,156,299411,5,4,0:1:0:0:
436,197,299561,1,2,0:2:0:0:
138,337,299861,5,2,0:1:0:0:
310,296,300011,1,2,0:2:0:0:
58,107,300311,5,10,0:1:0:0:
264,156,300461,1,2,0:2:0:0:
118,309,300761,1,6,0:2:0:0:
36,89,301061,6,1,B|73:67|118:89|113:97|113:107|134:149|196:128,1,170.999994781494,6|0,0:1|0:0,0:0:0:0:
214,104,301361,1,8,0:1:0:0:
99,299,301511,2,0,P|145:236|281:267,1,227.999993041992,2|0,0:1|0:1,0:1:0:0:
374,377,301961,6,0,B|364:315|364:315|367:307|367:307|358:248,1,113.999996520996,10|0,0:1|0:1,0:1:0:0:
421,220,302186,1,0,0:1:0:0:
429,227,302261,2,0,B|438:165|438:165|435:157|435:157|444:98,1,113.999996520996,6|0,0:1|0:1,0:1:0:0:
327,44,302486,1,0,0:1:0:0:
335,37,302561,2,0,B|344:98|344:98|341:106|341:106|350:165,1,113.999996520996,10|0,0:1|0:1,0:1:0:0:
279,189,302786,1,0,0:1:0:0:
271,182,302861,2,0,B|261:243|261:243|264:251|264:251|255:310,1,113.999996520996,2|0,0:1|0:1,0:1:0:0:
285,359,303086,1,0,0:1:0:0:
291,368,303161,5,10,0:1:0:0:
400,257,303311,2,0,P|390:241|353:222,1,56.9999982604981,0|0,0:1|0:1,0:1:0:0:
70,331,303461,6,0,L|270:292,1,170.999994781494,6|0,0:2|0:1,0:1:0:0:
257,294,303761,1,10,0:1:0:0:
406,156,303911,2,0,B|349:115|291:162|291:162|243:138|232:76,1,227.999993041992,2|0,0:1|0:1,0:1:0:0:
351,249,304361,1,10,0:1:0:0:
380,56,304511,2,0,L|387:-19,1,56.9999982604981,0|0,0:1|0:1,0:1:0:0:
225,214,304661,5,10,0:1:0:0:
187,238,304761,2,0,L|70:212,1,75.9999976806641,8|8,0:1|0:1,0:1:0:0:
33,170,304961,2,0,P|21:206|25:244,1,75.9999976806641,4|0,0:2|0:1,0:1:0:0:
110,203,305161,1,0,0:0:0:0:
82,100,305261,5,10,0:1:0:0:
103,115,305361,2,0,L|220:89,1,75.9999976806641,8|8,0:1|0:1,0:1:0:0:
242,22,305561,2,0,P|265:56|271:99,1,75.9999976806641,8|8,0:0|0:3,0:3:0:0:
178,81,305761,1,4,0:0:0:0:
242,171,305861,6,0,B|270:131|336:100|336:100|409:114,1,170.999994781494,6|0,0:1|0:1,0:1:0:0:
415,125,306161,1,10,0:1:0:0:
296,269,306311,2,0,P|207:245|60:230,1,227.999993041992,2|0,0:1|0:1,0:1:0:0:
162,363,306761,6,0,B|218:357|218:357|224:353|224:353|285:349,1,113.999996520996,10|0,0:1|0:1,0:1:0:0:
337,293,306986,1,0,0:1:0:0:
328,280,307061,2,0,B|384:286|384:286|390:290|390:290|451:294,1,113.999996520996,2|0,0:1|0:1,0:1:0:0:
488,369,307286,1,0,0:1:0:0:
475,378,307361,2,0,B|481:322|481:322|485:316|485:316|489:255,1,113.999996520996,10|0,0:1|0:1,0:1:0:0:
430,215,307586,1,0,0:1:0:0:
423,198,307661,1,2,0:1:0:0:
498,30,307811,1,0,0:1:0:0:
328,118,307961,6,0,B|357:86|424:84|424:84|452:124|519:124,1,170.999994781494,6|0,0:1|0:1,0:1:0:0:
497,112,308261,1,10,0:1:0:0:
332,241,308411,2,0,L|304:10,1,227.999993041992,2|0,0:1|0:1,0:1:0:0:
204,139,308861,1,10,0:1:0:0:
401,49,309011,2,0,P|426:66|439:102,1,56.9999982604981,0|0,0:1|0:1,0:1:0:0:
106,119,309161,5,10,0:1:0:0:
127,66,309236,1,8,0:1:0:0:
176,38,309311,1,8,0:1:0:0:
232,41,309386,1,8,0:1:0:0:
275,78,309461,1,10,0:1:0:0:
293,126,309536,1,8,0:1:0:0:
287,171,309611,1,8,0:1:0:0:
265,204,309686,1,8,0:1:0:0:
235,221,309761,5,10,0:0:0:0:
206,185,309836,1,8,0:0:0:0:
204,139,309911,1,8,0:0:0:0:
230,101,309986,1,8,0:0:0:0:
272,83,310061,1,12,0:0:0:0:
313,94,310136,1,12,0:0:0:0:
337,117,310211,1,12,0:0:0:0:
341,139,310286,1,12,0:0:0:0:
337,154,310361,6,0,P|311:173|281:175,2,63.3333333333333,6|0|0,0:1|0:1|0:1,0:1:0:0:
216,63,310661,6,0,P|247:65|272:83,2,63.3333333333333,2|0|0,0:1|0:1|0:1,0:1:0:0:
166,157,310961,5,8,0:1:0:0:
155,178,311061,2,0,L|162:240,1,63.3333333333333,0|0,0:1|0:1,0:1:0:0:
229,345,311261,5,2,0:1:0:0:
244,327,311361,2,0,L|251:264,1,63.3333333333333,0|0,0:1|0:1,0:1:0:0:
280,174,311561,5,8,0:1:0:0:
328,185,311661,1,0,0:1:0:0:
348,225,311761,1,0,0:1:0:0:
436,255,311861,5,2,0:1:0:0:
450,302,311961,1,0,0:1:0:0:
425,339,312061,1,0,0:1:0:0:
357,384,312161,6,0,L|277:374,2,63.3333333333333,8|0|0,0:1|0:1|0:1,0:1:0:0:
237,289,312461,6,0,L|316:279,2,63.3333333333333,2|0|0,0:1|0:1|0:1,0:1:0:0:
167,365,312761,5,8,0:1:0:0:
143,357,312861,2,0,P|129:328|129:297,1,63.3333333333333,0|0,0:1|0:1,0:1:0:0:
199,180,313061,5,2,0:1:0:0:
213,192,313161,2,0,P|226:220|226:251,1,63.3333333333333,0|0,0:1|0:1,0:1:0:0:
139,280,313361,5,8,0:1:0:0:
100,273,313461,1,0,0:1:0:0:
64,266,313561,1,0,0:1:0:0:
23,188,313661,5,2,0:1:0:0:
62,181,313761,1,0,0:1:0:0:
98,174,313861,1,0,0:1:0:0:
165,130,313961,6,0,L|85:120,2,63.3333333333333,8|0|0,0:1|0:1|0:1,0:1:0:0:
223,51,314261,6,0,L|143:41,2,63.3333333333333,2|0|0,0:1|0:1|0:1,0:1:0:0:
290,213,314561,5,8,0:1:0:0:
271,204,314661,2,0,P|260:177|272:130,1,63.3333333333333,0|0,0:1|0:1,0:1:0:0:
367,42,314861,5,2,0:1:0:0:
386,51,314961,2,0,P|397:78|385:125,1,63.3333333333333,0|0,0:1|0:1,0:1:0:0:
501,210,315161,6,0,B|465:192|422:220|446:237|385:283|331:258,1,139.333337585449,14|0,0:1|0:1,0:1:0:0:
303,341,315461,6,0,L|372:349,2,69.6666687927247,2|0|0,0:1|0:1|0:1,0:1:0:0:
205,384,315761,5,8,0:1:0:0:
176,370,315861,2,0,P|162:338|168:302,1,69.6666687927247,0|0,0:1|0:1,0:1:0:0:
249,166,316061,5,2,0:1:0:0:
277,184,316161,2,0,P|290:215|285:252,1,69.6666687927247,0|0,0:1|0:1,0:1:0:0:
77,288,316361,5,8,0:1:0:0:
82,239,316461,1,0,0:1:0:0:
88,191,316561,1,0,0:1:0:0:
180,218,316661,5,2,0:1:0:0:
175,169,316761,1,0,0:1:0:0:
169,121,316861,1,0,0:1:0:0:
99,47,316961,6,0,P|80:76|49:91,2,69.6666687927247,8|0|0,0:1|0:1|0:1,0:1:0:0:
247,79,317261,6,0,P|228:49|197:34,2,69.6666687927247,2|0|0,0:1|0:1|0:1,0:1:0:0:
169,121,317561,6,0,B|344:95,1,151.999995361328,10|0,0:1|0:1,0:1:0:0:
424,138,317861,6,0,L|433:62,2,75.9999976806641,2|0|0,0:1|0:1|0:1,0:1:0:0:
378,272,318161,5,8,0:1:0:0:
381,248,318261,2,0,P|363:218|322:200,1,75.9999976806641,0|0,0:1|0:1,0:1:0:0:
252,286,318461,5,2,0:1:0:0:
248,311,318561,2,0,P|265:340|307:359,1,75.9999976806641,0|0,0:1|0:1,0:1:0:0:
474,347,318761,5,10,0:1:0:0:
508,278,318861,1,0,0:1:0:0:
477,209,318961,1,0,0:1:0:0:
426,136,319061,6,0,B|385:118|353:144|353:144|322:198|256:192,1,164.666659128825,14|0,0:1|0:1,0:1:0:0:
54,169,319361,5,10,0:1:0:0:
39,93,319461,1,0,0:1:0:0:
86,34,319561,1,0,0:1:0:0:
164,76,319661,6,0,B|191:116|191:116|151:246,1,151.999995361328,14|0,0:2|0:1,0:1:0:0:
53,328,319961,5,6,0:1:0:0:
41,307,320061,2,0,L|135:301,1,63.3333333333333,0|0,0:1|0:1,0:1:0:0:
188,358,320261,5,2,0:1:0:0:
176,379,320361,2,0,L|270:385,1,63.3333333333333,0|0,0:1|0:1,0:1:0:0:
261,230,320561,6,0,P|249:254|256:297,2,63.3333333333333,8|0|0,0:1|0:1|0:1,0:1:0:0:
362,345,320861,6,0,P|350:321|357:278,2,63.3333333333333,2|0|0,0:1|0:1|0:1,0:1:0:0:
501,269,321161,5,8,0:1:0:0:
453,258,321261,1,0,0:1:0:0:
433,218,321361,1,0,0:1:0:0:
345,188,321461,5,2,0:1:0:0:
331,141,321561,1,0,0:1:0:0:
356,104,321661,1,0,0:1:0:0:
435,90,321761,6,0,P|463:102|506:94,2,63.3333333333333,8|0|0,0:1|0:1|0:1,0:1:0:0:
355,22,322061,6,0,P|326:9|283:17,2,63.3333333333333,2|0|0,0:1|0:1|0:1,0:1:0:0:
259,116,322361,5,8,0:1:0:0:
247,130,322461,2,0,L|236:48,1,63.3333333333333,0|0,0:1|0:1,0:1:0:0:
162,14,322661,5,2,0:1:0:0:
150,0,322761,2,0,L|139:82,1,63.3333333333333,0|0,0:1|0:1,0:1:0:0:
49,155,322961,6,0,L|118:137,2,63.3333333333333,8|0|0,0:1|0:1|0:1,0:1:0:0:
183,246,323261,6,0,L|114:228,2,63.3333333333333,2|0|0,0:1|0:1|0:1,0:1:0:0:
35,332,323561,5,8,0:1:0:0:
84,321,323661,1,0,0:1:0:0:
133,311,323761,1,0,0:1:0:0:
211,363,323861,5,2,0:1:0:0:
260,374,323961,1,0,0:1:0:0:
309,384,324061,1,0,0:1:0:0:
378,322,324161,6,0,P|379:283|359:241,2,63.3333333333333,8|0|0,0:1|0:1|0:1,0:1:0:0:
477,305,324461,6,0,P|478:344|458:386,2,63.3333333333333,2|0|0,0:1|0:1|0:1,0:1:0:0:
381,178,324761,6,0,B|413:186|435:210|435:210|527:191,1,139.333337585449,12|0,0:1|0:1,0:1:0:0:
454,115,325061,5,2,0:1:0:0:
443,91,325161,2,0,L|459:8,1,69.6666687927247,0|0,0:1|0:1,0:1:0:0:
303,28,325361,6,0,L|378:41,2,69.6666687927247,8|0|0,0:1|0:1|0:1,0:1:0:0:
264,120,325661,6,0,L|189:133,2,69.6666687927247,2|0|0,0:1|0:1|0:1,0:1:0:0:
139,2,325961,5,8,0:1:0:0:
162,52,326061,1,0,0:1:0:0:
147,105,326161,1,0,0:1:0:0:
55,150,326261,5,2,0:1:0:0:
32,200,326361,1,0,0:1:0:0:
47,253,326461,1,0,0:1:0:0:
128,315,326561,6,0,L|205:297,2,69.6666687927247,8|0|0,0:1|0:1|0:1,0:1:0:0:
215,209,326861,6,0,L|292:227,2,69.6666687927247,2|0|0,0:1|0:1|0:1,0:1:0:0:
270,349,327161,6,0,B|265:298|365:289|316:339|428:342,1,151.999995361328,12|0,0:1|0:1,0:1:0:0:
465,284,327461,5,2,0:1:0:0:
442,265,327561,2,0,P|430:227|439:189,1,75.9999976806641,0|0,0:1|0:1,0:1:0:0:
341,97,327761,6,0,P|340:136|356:184,2,75.9999976806641,8|0|0,0:1|0:1|0:1,0:1:0:0:
442,87,328061,6,0,P|443:48|427:0,2,75.9999976806641,2|0|0,0:1|0:1|0:1,0:1:0:0:
317,12,328361,5,8,0:1:0:0:
241,20,328461,1,0,0:1:0:0:
165,28,328561,1,0,0:1:0:0:
84,88,328661,6,0,B|114:109|122:135|122:135|91:264,1,164.666659128825,6|0,0:2|0:1,0:1:0:0:
96,343,328961,5,8,0:1:0:0:
173,329,329061,1,8,0:0:0:0:
250,316,329161,1,8,0:0:0:0:
311,249,329261,5,0,0:1:0:0:
383,261,329361,1,4,0:3:0:0:
454,273,329461,1,4,0:3:0:0:
503,351,329566,5,6,0:1:0:0:
256,192,329666,12,0,339166,2:1:0:0:
84,21,340766,5,0,2:2:0:0:
84,31,340966,1,0,2:2:0:0:
166,113,341166,2,0,P|180:94|183:64,1,47.5,0|0,2:2|2:2,2:2:0:0:
65,38,341566,6,0,L|75:164,1,95,4|0,2:2|2:2,2:2:0:0:
177,132,341966,2,0,L|166:259,1,128.249996086121,2|0,2:2|2:2,2:2:0:0:
159,337,342371,1,4,2:1:0:0:
288,73,379171,5,2,0:0:0:0:
265,216,379571,1,2,0:0:0:0:
408,239,379971,1,2,0:0:0:0:
431,96,380371,1,2,0:0:0:0:
502,296,380771,6,0,B|441:236|338:287|407:335|315:364|282:347,1,246.999988693238,4|2,3:1|3:2,0:0:0:0:
182,310,381956,2,0,L|188:356,2,41.1666647822063,0|2|2,2:0|2:0|2:0,2:0:0:0:
72,336,382562,5,0,0:0:0:0:
101,214,383016,1,0,0:0:0:0:
133,71,383471,6,8,L|97:76,2,20.5833323911032,8|8|8,2:0|2:0|2:0,2:0:0:0:
208,152,383774,1,8,3:3:0:0:
297,129,383925,1,4,3:3:0:0:
386,106,384077,1,4,3:3:0:0:
396,98,384380,6,0,B|370:61|370:61|339:113|378:170|405:149|419:219|384:267,1,265.999991882324,4|8,0:1|0:0,0:0:0:0:
318,318,385574,1,0,0:0:0:0:
238,271,385872,1,4,0:0:0:0:
187,376,386171,6,0,L|218:371,2,22.1666659901937,0|0|8,0:0|0:0|0:1,0:0:0:0:
212,286,386469,2,0,L|243:281,2,22.1666659901937,0|0|8,0:0|0:0|0:1,0:0:0:0:
243,190,386768,1,2,0:0:0:0:
320,367,387066,6,0,P|323:342|317:317,2,50.6666666666667,2|2|2,0:0|0:0|0:0,0:0:0:0:
172,331,387514,2,0,P|156:283|170:233,1,101.333333333333,2|0,0:0|0:0,0:0:0:0:
258,143,387962,5,8,0:1:0:0:
258,143,388037,1,8,0:1:0:0:
258,143,388112,1,8,0:1:0:0:
124,75,388262,1,8,0:1:0:0:
290,23,388412,1,8,0:1:0:0:
286,11,388862,5,2,0:2:0:0:
236,120,389012,2,8,L|240:151,2,31.6666666666667,8|8|8,0:1|0:1|0:1,0:1:0:0:
290,23,389312,5,2,0:2:0:0:
348,92,389462,1,8,0:1:0:0:
420,31,389612,1,8,0:1:0:0:
398,172,389762,5,2,0:0:0:0:
236,120,389912,1,0,0:0:0:0:
420,31,390062,1,0,0:0:0:0:
219,126,390212,1,0,0:0:0:0:
335,180,390662,5,8,0:1:0:0:
350,179,390737,1,0,0:0:0:0:
366,177,390812,2,0,L|397:172,1,31.6666666666667,8|8,0:0|0:0,3:3:0:0:
485,260,390962,1,8,0:1:0:0:
485,260,391037,1,0,0:0:0:0:
485,260,391112,2,0,L|454:256,2,31.6666666666667,8|8|8,0:0|0:0|3:3,3:3:0:0:
382,324,391337,1,8,0:0:0:0:
378,345,391412,1,4,0:0:0:0:
389,362,391487,1,4,0:0:0:0:
399,369,391562,6,0,B|436:320|436:320|395:177,1,190.000007247925,14|2,3:1|0:0,0:0:0:0:
329,25,392012,1,0,0:0:0:0:
303,146,392162,1,2,0:2:0:0:
429,95,392312,1,2,0:2:0:0:
240,65,392462,6,0,B|196:39|139:79|171:96|120:139|70:113,1,190.000007247925,10|2,0:1|0:0,0:0:0:0:
17,58,392912,1,0,0:0:0:0:
92,240,393062,1,2,0:0:0:0:
160,135,393212,1,0,0:0:0:0:
98,357,393362,6,0,B|175:346|175:346|182:349|182:349|291:334,1,190.000007247925,14|2,0:1|0:0,0:0:0:0:
432,338,393812,1,0,0:0:0:0:
310,235,393962,1,2,0:0:0:0:
462,183,394112,1,0,0:0:0:0:
274,5,394262,6,0,P|221:81|240:172,1,190.000007247925,14|2,0:1|0:0,0:0:0:0:
359,125,394712,2,0,P|369:139|376:173,2,47.5000018119813,8|0|2,0:1|0:0|0:0,3:3:0:0:
310,235,395012,1,2,0:0:0:0:
223,323,395162,6,0,L|120:308,1,95.0000036239625,14|0,0:1|0:0,0:0:0:0:
71,207,395462,2,0,L|173:192,1,95.0000036239625,2|0,0:1|0:0,0:0:0:0:
310,235,395762,1,2,0:2:0:0:
264,128,395912,1,2,0:2:0:0:
210,315,396062,5,10,0:1:0:0:
210,315,396137,1,0,0:0:0:0:
210,315,396212,1,0,0:0:0:0:
295,242,396362,1,2,0:0:0:0:
143,172,396512,2,0,P|119:213|125:264,2,95.0000036239625,0|2|0,0:0|0:0|0:0,0:0:0:0:
353,50,396962,6,0,B|401:43|401:43|405:46|405:46|465:38,1,95.0000036239625,14|0,0:1|0:0,0:0:0:0:
274,152,397262,2,0,B|225:145|225:145|221:148|221:148|161:140,1,95.0000036239625,2|0,0:1|0:0,0:0:0:0:
400,242,397562,2,0,B|448:235|448:235|452:238|452:238|512:230,1,95.0000036239625,2|0,0:1|0:0,0:0:0:0:
310,373,397862,6,0,P|296:315|318:267,2,95.0000036239625,14|0|0,0:1|0:0|0:0,0:0:0:0:
408,232,398312,2,0,P|406:208|396:186,2,47.5000018119813,10|0|0,0:1|0:0|0:0,3:3:0:0:
326,291,398612,1,2,0:0:0:0:
216,198,398762,6,0,P|305:187|425:163,1,190.000007247925,6|0,0:1|0:1,0:1:0:0:
328,23,399212,1,10,0:1:0:0:
297,166,399362,1,0,0:1:0:0:
206,61,399512,1,0,0:1:0:0:
74,193,399662,6,0,P|91:234|101:291,1,95.0000036239625,2|8,0:1|0:1,0:1:0:0:
91,329,399887,1,0,0:1:0:0:
91,329,399962,1,0,0:1:0:0:
199,222,400112,1,10,0:1:0:0:
253,327,400262,2,0,L|247:378,2,47.5000018119813,0|0|0,0:1|0:1|0:1,0:1:0:0:
314,174,400562,6,0,B|355:188|370:219|370:219|513:191,1,190.000007247925,2|0,0:1|0:1,0:1:0:0:
512,192,400937,1,0,0:1:0:0:
512,192,401012,1,10,0:1:0:0:
421,125,401162,1,0,0:1:0:0:
370,260,401312,1,0,0:1:0:0:
283,187,401462,6,0,P|299:113|303:-13,1,190.000007247925,2|0,0:1|0:1,0:1:0:0:
204,110,401912,1,10,0:1:0:0:
406,50,402062,1,8,0:1:0:0:
219,106,402212,1,0,0:0:0:0:
431,241,402362,6,0,B|407:268|406:302|406:302|382:162,1,190.000007247925,2|0,0:1|0:1,0:1:0:0:
487,332,402812,1,10,0:1:0:0:
363,290,402962,1,0,0:1:0:0:
312,366,403112,1,0,0:1:0:0:
256,258,403262,6,0,B|215:252|215:252|201:240|201:240|149:233,1,95.0000036239625,2|8,0:1|0:1,0:1:0:0:
144,243,403487,1,0,0:1:0:0:
144,243,403562,1,0,0:1:0:0:
52,285,403712,1,10,0:1:0:0:
137,355,403862,2,0,L|208:346,2,47.5000018119813,0|0|8,0:1|0:1|0:1,0:1:0:0:
17,257,404162,5,2,0:1:0:0:
59,372,404312,1,6,0:2:0:0:
129,206,404462,1,8,0:1:0:0:
129,206,404537,1,8,0:1:0:0:
129,206,404612,2,0,P|120:158|120:98,2,95.0000036239625,8|0|0,0:1|0:1|0:1,0:1:0:0:
221,262,405062,5,2,0:1:0:0:
106,223,405212,1,0,0:1:0:0:
220,171,405362,1,0,0:1:0:0:
134,334,405512,5,10,0:1:0:0:
118,111,405662,1,8,0:1:0:0:
311,214,405812,1,8,0:1:0:0:
250,25,405962,6,0,P|204:106|218:198,1,190.000007247925,6|0,0:1|0:0,0:0:0:0:
269,319,406412,2,0,L|326:304,1,47.5000018119813,10|0,0:1|0:0,0:0:0:0:
400,341,406562,1,0,0:0:0:0:
311,214,406712,1,0,0:0:0:0:
193,343,406862,6,0,L|303:358,2,95.0000036239625,2|8|0,0:0|0:1|0:0,0:0:0:0:
230,227,407312,2,0,L|119:242,1,95.0000036239625,10|0,0:1|0:1,0:0:0:0:
110,248,407537,1,0,0:0:0:0:
110,248,407612,1,8,0:1:0:0:
31,376,407762,6,0,P|-5:289|14:198,1,190.000007247925,2|8,0:1|0:1,0:1:0:0:
37,180,408137,1,8,0:1:0:0:
37,180,408212,1,10,0:1:0:0:
109,248,408362,1,0,0:0:0:0:
135,150,408512,1,0,0:0:0:0:
223,283,408662,6,0,B|256:257|289:267|289:267|348:332|405:316,1,190.000007247925,2|0,0:0|0:0,0:0:0:0:
504,267,409112,1,10,0:1:0:0:
464,384,409262,1,8,0:1:0:0:
382,216,409412,1,0,0:0:0:0:
438,95,409562,6,0,P|473:168|392:179,1,190.000007247925,2|0,0:0|0:0,0:0:0:0:
223,50,410012,1,10,0:1:0:0:
335,21,410162,1,0,0:0:0:0:
297,130,410312,1,0,0:0:0:0:
76,51,410462,6,0,B|56:90|56:90|67:145,1,95.0000036239625,2|8,0:0|0:1,0:0:0:0:
76,168,410687,1,0,0:0:0:0:
76,168,410762,1,0,0:0:0:0:
178,139,410912,1,10,0:1:0:0:
121,270,411062,2,8,L|73:263,2,47.5000018119813,8|8|8,0:1|0:1|0:1,0:1:0:0:
198,331,411362,6,0,B|239:305|288:334|267:356|327:393|378:373,1,190.000007247925,2|8,0:0|0:1,0:0:0:0:
393,359,411737,1,8,0:1:0:0:
393,359,411812,1,10,0:1:0:0:
408,274,411962,1,0,0:0:0:0:
423,194,412112,1,0,0:0:0:0:
334,134,412262,5,2,0:0:0:0:
464,85,412412,1,0,0:0:0:0:
423,194,412562,1,0,0:0:0:0:
362,47,412712,2,8,L|367:0,1,47.5000018119813,10|8,0:1|0:1,0:1:0:0:
276,209,412862,1,8,0:1:0:0:
241,99,413012,1,8,0:1:0:0:
87,295,413162,5,6,0:1:0:0:
112,323,413237,1,0,0:1:0:0:
147,335,413312,1,0,0:1:0:0:
184,331,413387,1,0,0:1:0:0:
216,311,413462,1,0,0:1:0:0:
236,278,413537,1,0,0:1:0:0:
267,257,413612,1,10,0:1:0:0:
304,249,413687,1,0,0:1:0:0:
341,256,413762,1,0,0:1:0:0:
369,280,413837,1,0,0:1:0:0:
383,314,413912,1,0,0:1:0:0:
379,351,413987,1,0,0:1:0:0:
358,382,414062,5,2,0:1:0:0:
333,367,414137,1,0,0:1:0:0:
318,342,414212,1,0,0:1:0:0:
316,313,414287,1,0,0:1:0:0:
328,287,414362,1,0,0:1:0:0:
350,269,414437,1,0,0:1:0:0:
378,265,414512,5,10,0:1:0:0:
375,283,414587,1,0,0:1:0:0:
361,296,414662,1,0,0:1:0:0:
342,301,414737,1,0,0:1:0:0:
322,299,414812,1,0,0:1:0:0:
305,289,414887,1,0,0:1:0:0:
292,274,414962,5,2,0:1:0:0:
302,247,415037,1,0,0:1:0:0:
301,218,415112,1,0,0:1:0:0:
287,193,415187,1,0,0:1:0:0:
262,178,415262,1,0,0:1:0:0:
233,175,415337,1,0,0:1:0:0:
209,191,415412,5,10,0:1:0:0:
220,206,415487,1,0,0:1:0:0:
221,224,415562,1,0,0:1:0:0:
213,241,415637,1,0,0:1:0:0:
199,254,415712,1,0,0:1:0:0:
180,258,415787,1,0,0:1:0:0:
162,251,415862,5,2,0:1:0:0:
183,232,415937,1,0,0:1:0:0:
210,226,416012,1,0,0:1:0:0:
238,230,416087,1,0,0:1:0:0:
261,246,416162,1,0,0:1:0:0:
274,270,416237,1,0,0:1:0:0:
293,291,416312,1,10,0:1:0:0:
314,301,416386,1,0,0:1:0:0:
332,301,416462,1,0,0:1:0:0:
344,294,416537,1,0,0:1:0:0:
349,286,416612,1,0,0:1:0:0:
349,281,416687,1,0,0:1:0:0:
346,277,416762,5,6,0:1:0:0:
312,280,416837,1,0,0:1:0:0:
294,308,416912,1,0,0:1:0:0:
299,340,416987,1,0,0:1:0:0:
324,361,417062,1,0,0:1:0:0:
357,363,417137,1,0,0:1:0:0:
382,342,417212,5,10,0:1:0:0:
366,324,417287,1,0,0:1:0:0:
343,316,417362,1,0,0:1:0:0:
319,315,417437,1,0,0:1:0:0:
295,320,417512,1,0,0:1:0:0:
275,332,417587,1,0,0:1:0:0:
261,351,417662,5,2,0:1:0:0:
272,359,417737,1,0,0:1:0:0:
286,359,417812,1,0,0:1:0:0:
299,354,417887,1,0,0:1:0:0:
309,343,417962,1,0,0:1:0:0:
312,329,418037,1,0,0:1:0:0:
309,315,418112,6,0,P|277:303|242:310,5,47.5000018119813,10|0|0|0|0|0,0:1|0:1|0:1|0:1|0:1|0:1,0:1:0:0:
409,245,418562,6,0,B|402:254|402:254|410:314,1,47.5000018119813,2|0,0:1|0:1,0:1:0:0:
310,177,418712,2,0,B|317:186|317:186|309:246,1,47.5000018119813,0|0,0:1|0:1,0:1:0:0:
397,110,418862,2,0,B|390:119|390:119|398:179,1,47.5000018119813,0|0,0:1|0:1,0:1:0:0:
310,299,419012,6,0,B|300:296|300:296|238:307,1,47.5000018119813,10|0,0:1|0:1,0:1:0:0:
411,228,419162,2,0,B|421:231|421:231|483:220,1,47.5000018119813,0|0,0:1|0:1,0:1:0:0:
299,163,419312,2,0,B|289:160|289:160|227:171,1,47.5000018119813,0|0,0:1|0:1,0:1:0:0:
371,378,419462,5,2,0:1:0:0:
401,355,419537,1,0,0:1:0:0:
414,319,419612,1,0,0:1:0:0:
414,282,419687,1,0,0:1:0:0:
399,248,419762,1,0,0:1:0:0:
371,224,419837,1,0,0:1:0:0:
337,208,419912,1,10,0:1:0:0:
316,183,419987,1,0,0:1:0:0:
310,156,420062,1,0,0:1:0:0:
314,133,420137,1,0,0:1:0:0:
324,117,420212,1,0,0:1:0:0:
337,111,420287,1,0,0:1:0:0:
347,110,420362,5,2,0:1:0:0:
227,203,420512,1,8,0:1:0:0:
395,5,420662,1,8,0:1:0:0:
431,276,420812,1,8,0:1:0:0:
431,276,420887,1,8,0:1:0:0:
431,276,420962,1,8,0:1:0:0:
271,121,421112,6,0,P|321:131|387:126,2,95.0000036239625,8|4|8,0:1|0:0|0:1,0:1:0:0:
140,214,421562,1,4,0:0:0:0:
107,37,421712,5,8,0:1:0:0:
25,138,422162,6,0,P|87:67|178:79,1,190.000007247925,6|0,0:1|0:1,0:1:0:0:
271,191,422612,1,10,0:1:0:0:
146,261,422762,2,0,L|139:213,1,47.5000018119813,0|0,0:1|0:1,0:1:0:0:
170,100,422912,1,0,0:1:0:0:
323,290,423062,6,0,L|307:400,2,95.0000036239625,2|8|0,0:0|0:1|0:0,0:0:0:0:
271,191,423512,1,10,3:1:0:0:
381,141,423662,1,0,0:0:0:0:
382,152,423737,1,0,0:0:0:0:
384,164,423812,1,8,0:1:0:0:
465,58,423962,6,0,B|426:34|370:73|404:97|348:136|296:118,1,190.000007247925,2|8,0:1|0:1,0:1:0:0:
231,50,424412,1,10,0:1:0:0:
131,121,424562,2,0,L|117:25,1,95.0000036239625
10,198,424862,2,0,P|77:203|87:274,1,142.500005435944,2|0,0:0|0:0,0:0:0:0:
68,277,425162,5,0,0:0:0:0:
125,384,425312,1,8,0:1:0:0:
0,336,425462,1,8,0:1:0:0:
167,238,425612,1,0,0:1:0:0:
38,173,425762,6,0,L|51:267,2,95.0000036239625,2|0|0,0:0|0:0|0:0,0:0:0:0:
98,81,426212,1,10,0:1:0:0:
179,220,426362,1,0,0:0:0:0:
223,113,426512,1,0,0:0:0:0:
306,224,426662,6,0,L|292:318,1,95.0000036239625,2|8,0:0|0:1,0:0:0:0:
294,346,426887,1,0,0:0:0:0:
294,346,426962,1,0,0:0:0:0:
179,220,427112,1,8,0:1:0:0:
344,120,427262,2,8,L|407:127,2,47.5000018119813,8|8|8,0:1|0:1|0:1,0:1:0:0:
291,25,427562,6,0,B|210:36|210:36|198:49|198:49|103:62,1,190.000007247925,2|0,0:1|0:1,0:1:0:0:
85,69,427937,1,0,0:1:0:0:
85,69,428012,1,10,0:1:0:0:
20,148,428162,1,0,0:0:0:0:
99,213,428312,1,0,0:0:0:0:
164,134,428462,2,0,P|186:80|160:-5,1,142.500005435944,2|0,0:0|0:0,0:0:0:0:
85,69,428762,1,0,0:0:0:0:
286,170,428912,5,8,0:1:0:0:
119,228,429062,1,8,0:1:0:0:
326,300,429212,1,8,0:1:0:0:
194,379,429362,6,0,P|209:312|214:152,1,190.000007247925,6|0,0:1|0:1,0:1:0:0:
315,324,429812,1,8,0:1:0:0:
206,275,429962,1,0,0:1:0:0:
113,345,430112,1,0,0:1:0:0:
57,292,430262,2,0,P|117:258|153:274,1,95.0000036239625,0|8,0:1|0:1,0:1:0:0:
163,281,430487,1,8,0:1:0:0:
163,281,430562,1,0,0:1:0:0:
25,197,430712,5,10,0:1:0:0:
169,147,430862,1,8,0:1:0:0:
169,147,430937,1,8,0:1:0:0:
169,147,431012,1,0,0:1:0:0:
24,81,431162,6,0,B|75:114|121:73|99:71|166:23|210:73,1,190.000007247925,6|8,0:1|0:1,0:1:0:0:
230,97,431537,1,8,0:1:0:0:
230,97,431612,1,10,0:1:0:0:
146,180,431762,1,0,0:1:0:0:
206,255,431912,1,0,0:1:0:0:
175,324,432062,2,0,P|223:345|268:313,2,95.0000036239625,0|0|0,0:1|0:1|0:1,0:1:0:0:
349,181,432512,6,0,P|336:240|333:302,1,95.0000036239625,10|8,0:1|0:0,0:1:0:0:
383,376,432812,1,4,0:0:0:0:
405,240,432962,6,0,P|362:281|268:215,1,190.000007247925,2|0,0:1|0:1,0:1:0:0:
332,45,433412,1,8,0:1:0:0:
395,111,433562,1,2,0:1:0:0:
348,173,433712,1,0,0:1:0:0:
225,69,433862,6,0,B|184:63|184:63|178:66|178:66|108:58,1,95.0000036239625,2|8,0:1|0:1,0:1:0:0:
99,65,434087,1,8,0:1:0:0:
99,65,434162,1,0,0:1:0:0:
137,251,434312,5,8,0:1:0:0:
215,107,434462,1,8,0:1:0:0:
215,107,434537,1,8,0:1:0:0:
215,107,434612,1,0,0:1:0:0:
21,179,434762,5,0,0:1:0:0:
9,168,434912,2,0,P|22:150|57:147,1,47.5000018119813,6|0,0:2|0:1,0:1:0:0:
172,243,435062,1,8,0:1:0:0:
172,243,435137,1,8,0:1:0:0:
172,243,435212,5,8,0:1:0:0:
48,276,435362,1,0,0:1:0:0:
98,197,435512,1,0,0:1:0:0:
147,348,435662,5,2,0:1:0:0:
133,356,435812,2,0,P|118:338|125:304,1,47.5000018119813,4|0,0:2|0:1,0:1:0:0:
199,222,435962,1,0,0:1:0:0:
199,222,436037,1,0,0:1:0:0:
199,222,436112,5,8,0:1:0:0:
284,308,436262,1,8,0:1:0:0:
373,175,436412,1,8,0:1:0:0:
480,367,436562,5,6,0:1:0:0:
453,384,436637,1,0,0:0:0:0:
421,383,436712,1,0,0:0:0:0:
391,370,436787,1,0,0:0:0:0:
374,343,436862,1,0,0:0:0:0:
373,311,436937,1,0,0:0:0:0:
389,282,437012,1,10,0:1:0:0:
418,266,437087,1,0,0:0:0:0:
449,268,437162,2,0,L|493:277,1,31.6666666666667
512,182,437312,2,0,L|465:189,1,31.6666666666667
400,90,437462,5,2,0:0:0:0:
408,113,437537,1,0,0:0:0:0:
405,138,437612,1,0,0:0:0:0:
393,160,437687,1,0,0:0:0:0:
373,175,437762,1,0,0:0:0:0:
349,183,437837,1,0,0:0:0:0:
324,177,437912,1,10,0:1:0:0:
305,159,437987,1,0,0:0:0:0:
299,135,438062,2,0,L|292:89,1,31.6666666666667
203,62,438212,2,0,L|196:107,1,31.6666666666667
51,223,438362,5,2,0:0:0:0:
57,205,438437,1,0,0:0:0:0:
69,189,438512,1,0,0:0:0:0:
84,178,438587,1,0,0:0:0:0:
102,174,438662,1,0,0:0:0:0:
121,174,438737,1,0,0:0:0:0:
138,182,438812,1,10,0:1:0:0:
153,194,438887,1,0,0:0:0:0:
162,211,438962,1,0,0:0:0:0:
166,230,439037,1,0,0:0:0:0:
164,248,439112,1,0,0:0:0:0:
155,265,439187,1,0,0:0:0:0:
141,278,439262,1,2,0:0:0:0:
124,287,439337,1,0,0:0:0:0:
105,288,439412,1,0,0:0:0:0:
87,285,439487,1,0,0:0:0:0:
71,275,439562,1,0,0:0:0:0:
58,260,439637,1,0,0:0:0:0:
51,242,439712,6,0,L|57:199,3,31.6666666666667,10|0|0|0,0:1|0:1|0:1|0:1,0:1:0:0:
133,150,440012,2,0,L|137:181,1,31.6666666666667,2|0,0:1|0:1,0:1:0:0:
99,364,440162,5,6,0:1:0:0:
105,333,440237,1,0,0:1:0:0:
119,304,440312,1,0,0:1:0:0:
140,281,440387,1,0,0:1:0:0:
167,264,440462,1,0,0:1:0:0:
197,255,440537,1,0,0:1:0:0:
229,254,440612,1,10,0:1:0:0:
260,262,440687,1,0,0:1:0:0:
286,276,440762,2,0,P|296:289|303:303,1,31.6666666666667
362,350,440912,2,0,P|356:364|347:377,1,31.6666666666667
211,379,441062,5,2,0:1:0:0:
215,354,441137,1,0,0:1:0:0:
218,329,441212,1,0,0:1:0:0:
222,304,441287,1,0,0:1:0:0:
225,279,441362,1,0,0:1:0:0:
229,254,441437,1,0,0:1:0:0:
233,228,441512,1,10,0:1:0:0:
236,203,441587,1,0,0:1:0:0:
240,178,441662,2,0,L|246:130,1,31.6666666666667
332,87,441812,2,0,L|338:134,1,31.6666666666667
441,225,441962,5,2,0:0:0:0:
417,250,442037,1,0,0:0:0:0:
385,265,442112,1,0,0:0:0:0:
351,271,442187,1,0,0:0:0:0:
317,265,442262,1,0,0:0:0:0:
286,250,442337,1,0,0:0:0:0:
261,226,442412,1,10,0:1:0:0:
236,203,442487,1,0,0:0:0:0:
205,188,442562,1,0,0:0:0:0:
170,183,442637,1,0,0:0:0:0:
135,187,442712,1,0,0:0:0:0:
105,204,442787,1,0,0:0:0:0:
79,228,442862,6,0,P|74:248|73:266,1,31.6666666666667,2|0,0:0|0:0,0:0:0:0:
182,293,443012,2,0,P|167:278|151:268,1,31.6666666666667,2|0,0:0|0:0,0:0:0:0:
75,350,443162,2,0,P|94:344|111:335,1,31.6666666666667,2|0,0:0|0:0,0:0:0:0:
236,203,443312,6,0,L|229:155,1,31.6666666666667,10|0,0:1|0:0,0:0:0:0:
68,227,443462,2,0,L|74:274,1,31.6666666666667,2|0,0:1|0:0,0:0:0:0:
215,323,443612,2,0,L|208:275,1,31.6666666666667,2|0,0:1|0:0,0:0:0:0:
151,63,443762,5,6,0:1:0:0:
121,42,443837,1,0,0:1:0:0:
85,42,443912,1,0,0:1:0:0:
54,60,443987,1,0,0:1:0:0:
40,93,444062,2,0,P|41:107|58:124,1,31.6666666666667,0|0,0:1|0:1,0:1:0:0:
104,231,444212,5,10,0:1:0:0:
117,255,444287,1,0,0:1:0:0:
118,283,444362,1,0,0:1:0:0:
105,304,444437,1,0,0:1:0:0:
88,317,444512,1,0,0:1:0:0:
70,320,444587,1,0,0:1:0:0:
56,315,444662,5,2,0:1:0:0:
61,301,444737,1,0,0:1:0:0:
73,294,444812,1,0,0:1:0:0:
86,291,444887,1,0,0:1:0:0:
100,291,444962,1,0,0:1:0:0:
113,295,445037,1,0,0:1:0:0:
122,305,445112,5,10,0:1:0:0:
146,321,445187,1,0,0:1:0:0:
173,324,445262,1,0,0:1:0:0:
200,315,445337,1,0,0:1:0:0:
217,291,445412,2,0,P|222:276|217:252,1,31.6666666666667,0|0,0:1|0:1,0:1:0:0:
191,91,445562,5,2,0:1:0:0:
178,108,445637,1,0,0:1:0:0:
175,129,445712,1,0,0:1:0:0:
181,149,445787,1,0,0:1:0:0:
193,166,445862,1,0,0:1:0:0:
212,175,445937,1,0,0:1:0:0:
233,176,446012,5,10,0:1:0:0:
226,148,446087,1,0,0:1:0:0:
208,125,446162,1,0,0:1:0:0:
181,115,446237,1,0,0:1:0:0:
152,117,446312,1,0,0:1:0:0:
128,133,446387,1,0,0:1:0:0:
112,156,446462,5,2,0:1:0:0:
134,183,446537,1,0,0:1:0:0:
167,195,446612,1,0,0:1:0:0:
201,187,446687,1,0,0:1:0:0:
225,161,446762,1,0,0:1:0:0:
258,149,446837,1,0,0:1:0:0:
293,154,446912,5,10,0:1:0:0:
281,179,446987,1,0,0:1:0:0:
287,206,447062,1,0,0:1:0:0:
305,227,447137,1,0,0:1:0:0:
332,234,447212,2,0,P|349:230|364:211,1,31.6666666666667,0|0,0:1|0:1,0:1:0:0:
448,109,447362,5,6,0:1:0:0:
412,110,447437,1,0,0:1:0:0:
376,111,447512,1,0,0:1:0:0:
340,114,447587,1,0,0:1:0:0:
304,116,447662,1,0,0:1:0:0:
268,118,447737,1,0,0:1:0:0:
232,121,447812,1,10,0:1:0:0:
203,123,447887,1,0,0:1:0:0:
184,144,447962,2,0,L|187:175,1,31.6666666666667,0|0,0:1|0:1,0:1:0:0:
272,261,448112,2,0,L|270:293,1,31.6666666666667,0|0,0:1|0:1,0:1:0:0:
161,365,448262,5,2,0:1:0:0:
125,373,448337,1,0,0:1:0:0:
91,362,448412,1,0,0:1:0:0:
71,332,448487,1,0,0:1:0:0:
71,296,448562,1,0,0:1:0:0:
88,264,448637,1,0,0:1:0:0:
119,246,448712,1,10,0:1:0:0:
142,228,448787,1,0,0:1:0:0:
149,209,448862,2,0,P|152:193|146:178,1,31.6666666666667,0|0,0:1|0:1,0:1:0:0:
195,108,449012,2,0,P|182:97|167:95,1,31.6666666666667,0|0,0:1|0:1,0:1:0:0:
13,110,449162,5,10,0:1:0:0:
13,110,449237,1,8,0:1:0:0:
13,110,449312,1,2,0:1:0:0:
59,182,449462,2,0,P|62:198|61:222,1,31.6666666666667,2|0,0:1|0:1,0:1:0:0:
209,93,449612,5,10,0:1:0:0:
146,178,449762,1,0,0:1:0:0:
91,66,449912,1,0,0:1:0:0:
268,208,450062,5,8,0:0:0:0:
262,243,450137,1,8,0:0:0:0:
239,270,450212,1,8,0:0:0:0:
204,277,450287,1,8,0:0:0:0:
173,266,450362,1,8,0:0:0:0:
153,245,450437,1,8,0:0:0:0:
147,220,450512,5,4,0:0:0:0:
167,214,450587,1,4,0:0:0:0:
183,221,450662,1,4,0:0:0:0:
191,232,450737,2,4,P|197:258|193:273,2,31.6666666666667
145,115,450962,6,0,B|187:91|231:114|231:114|264:163|317:159,1,190,6|2,0:1|0:2,0:0:0:0:
462,55,451562,2,0,P|431:80|420:123,1,85.4999973907472,2|2,0:2|0:2,0:0:0:0:
486,186,451862,1,8,0:1:0:0:
452,274,452012,1,6,0:2:0:0:
419,357,452162,2,0,L|334:344,1,85.4999973907472,0|6,0:0|0:2,0:0:0:0:
357,227,452462,2,0,L|273:238,1,85.4999973907472
171,188,452762,6,0,P|128:258|150:345,2,170.999994781494,2|0|2,0:0|0:0|0:2,0:0:0:0:
260,91,453512,1,8,0:0:0:0:
260,91,453587,1,8,0:0:0:0:
260,91,453662,2,0,L|176:78,1,85.4999973907472,8|6,0:1|0:2,0:0:0:0:
274,214,453962,1,8,0:1:0:0:
274,214,454037,1,8,0:1:0:0:
274,214,454112,2,0,L|391:196,2,85.4999973907472,8|0|0,0:1|0:1|0:1,0:1:0:0:
418,28,454562,5,14,0:1:0:0:
418,28,454712,1,0,0:0:0:0:
480,105,454862,2,0,P|489:145|478:186,1,85.4999973907472,2|0,0:0|0:0,0:0:0:0:
276,85,455162,2,0,P|265:44|276:3,1,85.4999973907472,2|0,0:0|0:0,0:0:0:0:
355,202,455462,5,10,0:1:0:0:
355,202,455537,1,0,0:0:0:0:
355,202,455612,1,0,0:0:0:0:
197,247,455762,1,2,0:0:0:0:
292,359,455912,2,0,L|305:263,2,85.4999973907472,0|2|0,0:0|0:0|0:0,0:0:0:0:
34,134,456362,6,0,B|15:165|15:165|158:145,1,170.999994781494,6|0,0:2|0:0,0:0:0:0:
189,71,456812,2,0,B|232:53|276:87|250:98|297:136|340:122,1,170.999994781494,10|0,0:1|0:0,0:0:0:0:
452,48,457262,6,0,L|445:95,2,35.625001358986
356,131,457562,2,0,L|365:203,1,71.2500027179719,8|8,0:0|0:0,0:0:0:0:
491,234,457862,2,0,L|483:290,1,56.9999982604981,4|4,0:0|0:0,0:0:0:0:
379,348,458162,6,0,P|322:328|186:317,1,161.500003080368,6|2,0:1|0:2,0:1:0:0:
297,216,458762,1,2,0:2:0:0:
306,376,458912,1,0,0:1:0:0:
154,263,459062,6,0,P|175:227|226:243,1,85.4999973907472,8|6,0:1|0:2,0:1:0:0:
190,359,459362,2,0,P|150:349|94:343,1,85.4999973907472,0|6,0:1|0:2,0:1:0:0:
80,225,459662,2,0,P|40:235|-16:241,1,85.4999973907472,0|0,0:1|0:1,0:1:0:0:
183,94,459962,6,0,B|204:127|204:127|197:232,1,128.249996086121,2|0,0:1|0:1,0:1:0:0:
199,233,460262,2,0,P|241:264|281:247,1,85.4999973907472,2|0,0:1|0:1,0:1:0:0:
107,142,460562,1,10,0:1:0:0:
107,142,460637,1,8,0:1:0:0:
107,142,460712,1,8,0:1:0:0:
269,80,460862,5,8,0:1:0:0:
189,43,461012,1,4,0:2:0:0:
236,157,461162,1,8,0:1:0:0:
236,157,461237,1,8,0:1:0:0:
236,157,461312,1,8,0:1:0:0:
361,42,461462,2,0,P|350:87|348:127,1,85.4999973907472,2|0,0:1|0:1,0:1:0:0:
432,280,461762,5,12,0:1:0:0:
469,198,461912,1,0,0:1:0:0:
346,256,462062,2,0,P|355:306|357:363,1,85.4999973907472,2|0,0:1|0:1,0:1:0:0:
252,237,462362,2,0,P|261:187|263:130,1,85.4999973907472,2|0,0:1|0:1,0:1:0:0:
186,323,462662,5,8,0:1:0:0:
208,333,462737,1,0,0:1:0:0:
231,325,462812,1,0,0:1:0:0:
177,206,462962,2,0,P|135:208|93:200,1,85.4999973907472,2|0,0:1|0:1,0:1:0:0:
265,127,463262,2,0,P|306:129|348:121,1,85.4999973907472,2|0,0:1|0:1,0:1:0:0:
150,11,463562,6,0,P|162:75|169:196,1,170.999994781494,6|0,0:2|0:1,0:1:0:0:
198,96,464012,1,8,0:1:0:0:
90,218,464162,2,0,P|106:270|116:324,1,85.4999973907472,2|0,0:1|0:1,0:1:0:0:
254,291,464462,5,8,0:0:0:0:
250,327,464537,1,8,0:0:0:0:
247,363,464612,1,8,0:0:0:0:
370,246,464762,2,8,P|345:231|300:251,1,56.9999982604981
405,372,465062,5,4,0:0:0:0:
323,253,465212,1,4,0:0:0:0:
432,153,465362,5,6,0:2:0:0:
435,162,465512,2,0,L|342:149,1,95,0|2,0:1|0:2,0:1:0:0:
256,42,465812,2,0,L|350:28,1,95,0|2,0:1|0:2,0:1:0:0:
232,216,466112,1,0,0:1:0:0:
75,165,466262,5,10,0:2:0:0:
92,75,466412,1,2,0:1:0:0:
212,210,466562,5,2,0:2:0:0:
195,120,466712,1,2,0:1:0:0:
80,272,466862,5,2,0:2:0:0:
97,182,467012,1,2,0:1:0:0:
207,317,467162,5,10,0:2:0:0:
212,306,467312,2,0,L|116:319,1,95,0|2,0:1|0:2,0:1:0:0:
235,196,467612,2,0,L|330:209,1,95,0|2,0:1|0:2,0:1:0:0:
343,337,467912,1,0,0:0:0:0:
221,95,468062,5,10,0:2:0:0:
205,97,468362,1,2,0:2:0:0:
189,99,468662,1,2,0:2:0:0:
343,337,468962,5,6,0:1:0:0:
354,342,469112,2,0,L|341:246,1,95,0|2,0:1|0:2,0:1:0:0:
189,99,469412,2,0,L|176:195,1,95,0|2,0:1|0:2,0:1:0:0:
411,60,469712,2,0,L|404:12,1,47.5
299,105,469862,5,10,0:2:0:0:
496,149,470012,1,10,0:1:0:0:
307,205,470162,5,10,0:2:0:0:
411,60,470312,1,10,0:1:0:0:
189,99,470462,5,10,0:2:0:0:
441,222,470612,1,10,0:1:0:0:
133,340,470762,5,14,0:2:0:0:
203,207,470910,1,0,0:0:0:0:
225,304,471059,1,0,0:0:0:0:
79,140,471207,5,12,0:2:0:0:
133,340,471356,2,0,L|139:292,2,47.5
203,207,471653,5,8,0:1:0:0:
12,262,471803,2,0,B|43:244|72:254|72:254|83:260|83:260|124:308|163:306,1,156.750004783631,2|0,3:0|0:0,0:0:0:0:
223,352,472103,6,0,P|240:330|244:308,1,47.5
326,270,472253,2,8,P|315:244|298:229,1,47.5
203,207,472403,1,4,0:0:0:0:
203,207,472478,1,4,0:0:0:0:
203,207,472553,5,6,0:1:0:0:
291,112,472703,2,0,P|345:104|500:113,1,190,0|0,0:2|0:2,0:2:0:0:
360,64,473153,1,2,0:2:0:0:
409,225,473303,1,0,0:2:0:0:
409,225,473378,1,0,0:2:0:0:
409,225,473453,5,10,0:2:0:0:
291,112,473603,1,2,0:1:0:0:
309,294,473753,5,2,0:2:0:0:
367,150,473903,1,2,0:1:0:0:
394,329,474053,5,2,0:2:0:0:
289,196,474203,1,2,0:1:0:0:
227,377,474353,5,10,0:2:0:0:
441,265,474503,2,0,P|340:284|241:289,2,190,0|0|0,0:2|0:2|0:2,0:2:0:0:
210,180,475253,5,10,0:2:0:0:
191,183,475328,1,0,0:2:0:0:
176,195,475403,1,0,0:2:0:0:
167,211,475478,1,0,0:2:0:0:
164,229,475553,1,4,0:2:0:0:
168,252,475628,1,0,0:2:0:0:
184,275,475703,1,0,0:2:0:0:
193,306,475778,1,0,0:2:0:0:
183,342,475853,1,4,0:2:0:0:
148,367,475928,1,0,0:2:0:0:
101,358,476003,1,0,0:2:0:0:
76,312,476078,1,0,0:2:0:0:
94,258,476153,5,2,0:2:0:0:
228,145,476303,2,0,P|215:223|212:378,1,190,0|0,0:2|0:2,0:2:0:0:
136,171,476753,1,2,0:2:0:0:
317,242,476903,1,0,0:2:0:0:
317,242,476978,1,0,0:2:0:0:
317,242,477053,5,10,0:2:0:0:
165,261,477203,1,2,0:1:0:0:
381,181,477353,5,2,0:2:0:0:
229,162,477503,1,2,0:1:0:0:
444,235,477653,5,2,0:2:0:0:
292,254,477803,1,2,0:1:0:0:
376,94,477953,5,0,0:1:0:0:
438,17,478103,1,8,0:1:0:0:
512,171,478253,1,8,0:1:0:0:
372,252,478403,5,0,0:1:0:0:
298,144,478553,1,8,0:1:0:0:
171,94,478703,1,8,0:1:0:0:
171,94,479153,5,0,0:1:0:0:
297,76,479303,1,8,0:1:0:0:
463,142,479453,1,8,0:1:0:0:
466,300,479603,5,0,0:1:0:0:
495,158,479753,1,8,0:1:0:0:
377,8,479903,1,8,0:1:0:0:
315,148,480353,6,0,P|357:92|457:112,1,156.750004783631,12|0,0:2|0:0,0:0:0:0:
495,158,480656,6,0,L|488:205,1,47.5,6|0,0:1|0:1,0:1:0:0:
455,331,480806,2,0,L|448:283,1,47.5,10|0,0:1|0:1,0:1:0:0:
396,166,480956,2,0,L|389:214,1,47.5,2|0,0:1|0:1,0:1:0:0:
337,331,481106,2,0,L|330:283,1,47.5,10|0,0:1|0:1,0:1:0:0:
278,166,481256,2,0,L|271:214,1,47.5,2|0,0:1|0:1,0:1:0:0:
219,331,481406,2,0,L|212:283,1,47.5,10|0,0:1|0:1,0:1:0:0:
181,79,481556,6,0,L|228:85,3,47.5,2|0|8|0,0:1|0:1|0:1|0:1,0:1:0:0:
278,166,481856,1,2,0:1:0:0:
278,166,481931,1,0,0:1:0:0:
278,166,482006,2,0,P|284:188|283:212,1,47.5,8|0,0:1|0:1,0:1:0:0:
192,194,482156,1,2,0:1:0:0:
192,194,482231,1,0,0:1:0:0:
192,194,482306,2,0,P|175:211|154:222,1,47.5,8|0,0:1|0:1,0:1:0:0:
83,182,482456,1,2,0:1:0:0:
83,182,482531,1,0,0:1:0:0:
83,182,482606,2,0,P|59:176|39:163,1,47.5,8|0,0:1|0:1,0:1:0:0:
93,95,482756,1,2,0:1:0:0:
93,95,482831,1,0,0:1:0:0:
93,95,482906,2,0,P|86:72|87:48,1,47.5,8|0,0:1|0:1,0:1:0:0:
156,0,483056,6,0,L|269:14,1,95,2|8,0:1|0:1,0:1:0:0:
296,129,483356,1,2,0:1:0:0:
279,131,483431,1,0,0:1:0:0:
263,133,483506,1,8,0:1:0:0:
427,41,483656,2,0,L|412:154,1,95,2|8,0:1|0:1,0:1:0:0:
362,260,483956,1,2,0:1:0:0:
360,243,484031,1,0,0:1:0:0:
358,227,484106,1,8,0:1:0:0:
443,336,484256,6,0,B|462:303|496:287|496:287|433:223|328:293|366:324|293:382|210:339,1,380,6|2,0:1|0:0,0:0:0:0:
52,241,485006,1,8,0:1:0:0:
141,179,485156,2,0,P|164:226|155:271,1,95,2|8,0:0|0:1,0:0:0:0:
4,351,485456,1,2,0:1:0:0:
2,334,485531,1,0,0:1:0:0:
0,318,485606,1,8,0:1:0:0:
59,118,485756,5,2,0:0:0:0:
52,241,485906,1,8,0:1:0:0:
253,204,486056,1,2,0:0:0:0:
141,179,486206,1,8,0:1:0:0:
223,344,486356,5,2,0:1:0:0:
240,342,486431,1,0,0:1:0:0:
256,340,486506,1,8,0:1:0:0:
431,133,486656,2,0,L|335:119,1,95,2|8,0:0|0:1,0:0:0:0:
220,9,486956,5,2,0:1:0:0:
210,21,487031,1,0,0:1:0:0:
202,40,487106,1,8,0:1:0:0:
201,66,487181,1,0,0:1:0:0:
210,95,487256,1,2,0:1:0:0:
233,122,487331,1,0,0:1:0:0:
253,158,487406,1,8,0:1:0:0:
253,204,487481,1,0,0:1:0:0:
233,241,487556,2,0,L|128:226,1,95,2|8,0:1|0:1,0:1:0:0:
0,83,487856,5,6,0:2:0:0:
5,71,487931,1,0,0:0:0:0:
23,79,488006,1,8,0:1:0:0:
29,68,488081,1,0,0:0:0:0:
47,76,488156,1,2,0:0:0:0:
52,64,488231,1,0,0:0:0:0:
70,73,488306,1,8,0:1:0:0:
76,61,488381,1,0,0:0:0:0:
105,68,488456,6,0,L|152:61,3,47.5,2|0|8|0,0:0|0:0|0:1|0:0,0:0:0:0:
256,6,488756,2,0,L|208:0,3,47.5,2|0|8|0,0:0|0:0|0:1|0:0,0:0:0:0:
235,118,489056,5,2,0:1:0:0:
248,103,489131,1,0,0:1:0:0:
270,96,489206,1,8,0:1:0:0:
297,102,489281,1,0,0:1:0:0:
322,123,489356,1,2,0:1:0:0:
337,161,489431,1,0,0:1:0:0:
335,205,489506,1,8,0:1:0:0:
312,251,489581,1,0,0:1:0:0:
269,281,489656,5,2,0:1:0:0:
225,244,489731,1,0,0:1:0:0:
168,230,489806,1,8,0:1:0:0:
115,251,489881,1,0,0:1:0:0:
83,299,489956,5,2,0:1:0:0:
123,351,490031,1,0,0:1:0:0:
186,370,490106,1,8,0:1:0:0:
245,340,490181,1,0,0:1:0:0:
269,281,490256,6,0,L|260:217,3,47.5,2|0|8|0,0:1|0:1|0:1|0:1,0:1:0:0:
105,68,490556,2,0,L|98:115,3,47.5,2|0|8|0,0:1|0:1|0:1|0:1,0:1:0:0:
280,12,490856,6,0,L|327:5,1,47.5,2|0,0:1|0:1,0:1:0:0:
150,194,491006,1,8,0:1:0:0:
434,141,491156,2,0,L|386:134,2,47.5,2|0|8,0:1|0:1|0:1,0:1:0:0:
453,38,491456,5,2,3:0:0:0:
379,244,491606,1,8,0:1:0:0:
244,103,491756,5,2,0:0:0:0:
434,141,491906,1,8,0:1:0:0:
273,336,492056,5,2,0:0:0:0:
258,212,492206,1,8,0:1:0:0:
383,332,492356,5,2,0:0:0:0:
157,246,492506,1,8,0:1:0:0:
434,141,492656,2,0,L|386:134,2,47.5,2|0|8,0:1|0:1|0:1,0:1:0:0:
273,336,492956,5,10,0:1:0:0:
244,103,493106,1,8,0:1:0:0:
509,251,493256,5,8,0:1:0:0:
491,282,493330,1,8,0:0:0:0:
463,304,493405,1,8,0:1:0:0:
429,310,493480,1,8,0:0:0:0:
395,300,493555,2,4,L|388:252,1,47.5,4|4,3:0|3:0,0:0:0:0:
434,141,493704,6,0,B|395:121|362:145|362:145|328:195|292:185,1,142.5,10|0,0:1|0:0,0:0:0:0:
228,233,494004,1,8,0:1:0:0:
189,2,494153,5,8,0:1:0:0:
231,22,494228,1,8,0:1:0:0:
251,60,494303,1,0,0:0:0:0:
244,103,494378,1,0,0:0:0:0:
221,136,494453,1,8,0:0:0:0:
186,143,494527,1,8,0:0:0:0:
160,131,494602,1,4,0:0:0:0:
151,109,494677,1,4,0:0:0:0:
160,93,494752,5,8,0:1:0:0:
311,185,494901,1,8,0:1:0:0:
63,282,495051,6,0,P|116:292|169:312,1,104.500003189087,6|8,0:1|0:1,0:1:0:0:
159,185,495351,1,2,0:1:0:0:
278,362,495501,2,0,B|243:308|268:266|268:266|262:257|262:257|295:213|266:156,1,209.000006378174,8|8,0:1|0:1,0:1:0:0:
386,66,495951,6,0,P|372:99|374:156,2,69.6666687927247,2|2|2,0:1|2:2|2:1,0:1:0:0:
500,188,496251,5,2,0:1:0:0:
459,178,496351,1,2,2:1:0:0:
422,198,496451,1,2,2:1:0:0:
471,262,496551,5,2,0:1:0:0:
442,292,496651,1,2,2:1:0:0:
441,334,496751,1,2,2:1:0:0:
501,381,496851,6,0,P|457:363|426:364,2,69.6666687927247,2|2|2,0:1|2:1|2:1,0:1:0:0:
375,300,497151,2,0,P|331:318|309:341,2,69.6666687927247,2|2|2,0:1|2:1|2:1,0:1:0:0:
188,226,497451,5,2,0:1:0:0:
231,293,497551,2,0,P|236:326|240:387,1,69.6666687927247,2|2,2:1|2:1,0:1:0:0:
109,223,497751,5,2,0:1:0:0:
85,249,497851,2,0,P|80:282|76:343,1,69.6666687927247,2|2,2:1|2:1,0:1:0:0:
18,153,498051,6,0,P|56:131|112:144,2,69.6666687927247,2|2|2,0:1|2:1|2:1,0:1:0:0:
145,73,498351,2,0,P|183:94|199:149,2,69.6666687927247,2|2|2,0:1|2:1|2:1,0:1:0:0:
291,13,498651,5,2,0:1:0:0:
223,197,498801,1,8,0:1:0:0:
342,117,498951,1,2,0:1:0:0:
227,78,499101,5,10,0:1:0:0:
313,232,499251,1,2,0:1:0:0:
313,232,499326,1,0,0:1:0:0:
313,232,499401,1,8,0:1:0:0:
112,256,499551,6,0,P|140:241|171:243,1,52.2500015945435,2|0,0:1|0:1,0:0:0:0:
151,149,499701,2,0,P|181:158|201:181,1,52.2500015945435,8|0,0:1|0:1,0:0:0:0:
268,142,499851,2,0,P|283:170|281:201,1,52.2500015945435,2|0,0:1|0:1,0:0:0:0:
261,332,500001,6,0,L|308:341,2,26.1250007972718,8|0|0,0:1|0:1|0:1,0:1:0:0:
242,297,500151,2,0,P|305:304|378:291,1,104.500003189087,2|8,0:0|0:1,0:0:0:0:
451,362,500451,1,2,0:1:0:0:
451,362,500526,1,0,0:1:0:0:
451,362,500601,1,8,0:1:0:0:
509,235,500751,2,0,P|462:224|406:224,1,104.500003189087,0|8,0:1|0:1,0:1:0:0:
286,336,501051,6,0,L|279:277,2,52.2500015945435,2|0|8,0:1|0:1|0:1,0:1:0:0:
174,384,501351,2,0,L|187:272,1,104.500003189087,0|8,0:1|0:1,0:1:0:0:
284,193,501651,1,2,0:1:0:0:
284,193,501726,1,0,0:1:0:0:
284,193,501801,1,8,0:1:0:0:
26,136,501951,5,0,0:1:0:0:
32,156,502026,1,0,0:1:0:0:
52,172,502101,1,8,0:1:0:0:
94,173,502176,1,0,0:1:0:0:
131,138,502251,6,0,B|100:93|100:93|63:361,1,313.500009567261,6|8,0:1|0:1,0:1:0:0:
175,240,502851,1,2,0:1:0:0:
6,174,503001,1,8,0:1:0:0:
156,334,503151,6,0,B|211:363|274:329|244:313|299:272|364:298,1,209.000006378174,2|0,0:1|0:1,0:1:0:0:
326,384,503601,1,8,0:1:0:0:
194,262,503751,1,2,0:1:0:0:
374,163,503901,1,8,0:1:0:0:
374,163,504051,6,0,P|316:178|243:177,1,104.500003189087,2|8,0:1|0:1,0:1:0:0:
127,87,504351,1,2,0:1:0:0:
127,87,504426,1,0,0:1:0:0:
127,87,504501,1,8,0:1:0:0:
239,1,504651,6,0,P|231:40|231:126,1,104.500003189087,2|8,0:1|0:1,0:1:0:0:
163,191,504951,1,2,0:1:0:0:
163,191,505026,1,0,0:1:0:0:
163,191,505101,1,8,0:1:0:0:
41,165,505251,6,0,P|52:190|57:227,1,52.2500015945435,2|0,0:1|0:1,0:1:0:0:
54,162,505401,2,0,P|58:188|53:226,1,52.2500015945435,8|0,0:1|0:1,0:1:0:0:
67,162,505551,2,0,P|64:189|49:223,1,52.2500015945435,2|0,0:1|0:1,0:1:0:0:
22,322,505701,1,8,0:1:0:0:
22,322,505776,1,0,0:1:0:0:
22,322,505851,5,2,0:1:0:0:
74,240,506001,1,8,0:1:0:0:
136,362,506151,5,2,0:1:0:0:
160,186,506301,1,8,0:1:0:0:
241,354,506451,5,2,0:1:0:0:
264,133,506601,1,8,0:1:0:0:
350,362,506751,5,2,0:1:0:0:
380,81,506901,1,8,0:1:0:0:
475,289,507051,5,2,0:1:0:0:
475,289,507126,1,0,0:1:0:0:
475,289,507201,1,8,0:1:0:0:
318,196,507351,1,2,0:1:0:0:
483,125,507501,1,8,0:1:0:0:
361,293,507651,5,8,0:0:0:0:
338,305,507726,1,8,0:0:0:0:
312,307,507801,1,8,0:0:0:0:
285,304,507876,1,8,0:0:0:0:
260,294,507951,1,12,0:0:0:0:
240,276,508026,1,12,0:0:0:0:
226,253,508101,1,4,0:0:0:0:
219,227,508176,1,4,0:0:0:0:
221,200,508251,5,4,0:0:0:0:
261,208,508326,1,4,0:0:0:0:
289,238,508401,1,4,0:0:0:0:
300,278,508476,1,4,0:0:0:0:
290,317,508551,5,8,0:1:0:0:
257,301,508626,1,8,0:1:0:0:
220,301,508701,1,0,0:0:0:0:
187,318,508776,1,0,0:0:0:0:
161,344,508851,1,8,0:0:0:0:
128,360,508926,1,8,0:0:0:0:
91,359,509001,1,4,0:0:0:0:
57,345,509076,1,4,0:0:0:0:
35,315,509151,5,4,0:0:0:0:
26,274,509226,1,4,0:0:0:0:
44,230,509301,1,4,0:0:0:0:
89,204,509376,1,4,0:0:0:0:
145,216,509451,6,0,B|148:266|148:266|144:286|144:286|151:305|151:305|156:372,1,152,6|0,0:1|0:0,0:0:0:0:
424,287,510051,6,0,B|456:238|456:238|421:135,1,152,0|0,0:1|0:0,0:0:0:0:
112,74,510651,5,2,0:0:0:0:
342,173,510951,1,2,0:0:0:0:
155,321,511251,1,2,0:0:0:0:
133,192,511551,1,2,0:0:0:0:
441,282,511851,5,8,0:1:0:0:
422,261,511926,1,0,0:0:0:0:
400,250,512001,1,8,0:1:0:0:
373,245,512076,1,0,0:0:0:0:
349,252,512151,1,10,0:1:0:0:
331,268,512226,1,0,0:0:0:0:
316,290,512301,1,8,0:1:0:0:
312,315,512376,1,0,0:0:0:0:
317,338,512451,1,10,0:1:0:0:
331,360,512526,1,0,0:0:0:0:
350,376,512601,1,8,0:1:0:0:
373,384,512676,1,0,0:0:0:0:
398,382,512751,1,10,0:1:0:0:
421,368,512826,1,0,0:0:0:0:
437,352,512901,1,8,0:1:0:0:
447,327,512976,1,0,0:0:0:0:
448,304,513051,1,10,0:1:0:0:
442,278,513126,1,0,0:0:0:0:
424,254,513201,1,8,0:1:0:0:
400,236,513276,1,0,0:0:0:0:
366,231,513351,5,12,0:2:0:0:
343,265,513426,1,0,0:0:0:0:
307,287,513501,1,8,0:1:0:0:
266,290,513576,1,0,0:0:0:0:
227,276,513651,1,12,0:2:0:0:
198,246,513726,1,0,0:0:0:0:
185,207,513801,1,8,0:1:0:0:
192,165,513876,1,0,0:0:0:0:
215,121,513951,5,8,0:1:0:0:
264,114,514026,1,8,0:1:0:0:
314,108,514101,1,8,0:1:0:0:
365,102,514176,1,8,0:1:0:0:
417,98,514251,6,0,B|441:130|441:130|423:211,1,104.500003189087,6|8,0:1|0:1,0:0:0:0:
328,377,514551,1,2,3:0:0:0:
198,181,514701,2,0,B|247:174|247:174|253:177|253:177|309:168,1,104.500003189087,8|2,0:1|0:0,0:0:0:0:
436,222,515001,1,8,0:1:0:0:
145,364,515151,2,0,B|121:332|121:332|139:251,1,104.500003189087,2|8,0:0|0:1,0:0:0:0:
170,68,515451,5,2,0:0:0:0:
210,199,515601,1,8,0:1:0:0:
45,110,515751,1,2,0:0:0:0:
254,0,515901,2,0,P|281:43|274:95,1,104.500003189087,8|2,0:1|0:0,0:0:0:0:
134,269,516201,2,0,P|106:225|113:173,1,104.500003189087,8|2,0:1|0:0,0:0:0:0:
158,57,516501,1,8,0:1:0:0:
233,204,516651,6,0,B|282:181|319:209|319:209|332:209|332:209|362:263|419:266,1,209.000006378174,6|0,0:1|0:0,0:0:0:0:
497,179,517101,1,8,0:1:0:0:
420,34,517251,2,0,B|372:40|372:40|366:44|366:44|309:52,1,104.500003189087,2|8,0:0|0:1,0:0:0:0:
129,143,517551,1,2,3:0:0:0:
318,286,517701,1,8,0:1:0:0:
233,204,517851,6,0,P|194:264|209:357,1,156.750004783631,2|0,0:0|0:0,0:0:0:0:
230,384,518151,2,0,B|277:377|277:377|283:379|283:379|341:371,1,104.500003189087,2|8,0:0|0:1,0:0:0:0:
477,241,518451,1,2,0:1:0:0:
460,239,518526,1,0,0:1:0:0:
444,237,518601,2,0,L|380:228,1,52.2500015945435,8|0,0:1|0:0,0:0:0:0:
424,343,518751,2,0,L|487:334,1,52.2500015945435,2|0,0:1|0:0,0:0:0:0:
512,138,518901,2,0,L|448:146,1,52.2500015945435,8|0,0:1|0:0,0:0:0:0:
318,286,519051,6,0,B|250:276|250:276|220:233|220:233|119:219,1,209.000006378174,6|2,0:1|0:0,0:0:0:0:
314,201,519501,1,8,0:1:0:0:
164,318,519651,2,0,P|82:297|31:301,1,104.500003189087,2|8,0:1|0:1,0:1:0:0:
29,316,519876,1,0,0:1:0:0:
29,316,519951,1,2,0:1:0:0:
226,140,520101,6,0,B|230:188|230:188|226:192|226:192|231:263,1,104.500003189087,8|2,0:1|0:1,0:1:0:0:
86,384,520401,2,0,B|90:336|90:336|86:332|86:332|91:261,1,104.500003189087,8|2,0:1|0:1,0:1:0:0:
148,63,520701,1,8,0:1:0:0:
6,196,520851,5,2,0:1:0:0:
204,171,521001,1,8,0:1:0:0:
16,78,521151,1,2,0:1:0:0:
219,180,521301,1,8,0:1:0:0:
85,310,521451,6,0,P|103:246|107:93,1,209.000006378174,6|2,0:1|0:1,0:1:0:0:
218,69,521901,2,0,P|167:23|96:11,1,104.500003189087,8|2,0:1|0:1,0:1:0:0:
234,183,522201,1,8,0:1:0:0:
234,183,522276,1,0,0:1:0:0:
234,183,522351,1,2,0:1:0:0:
432,80,522501,5,8,0:1:0:0:
303,102,522651,1,2,0:1:0:0:
477,183,522801,2,0,B|544:121|524:45|441:31|411:89|428:126,1,209.000006378174,8|8,0:1|0:1,0:1:0:0:
357,273,523251,1,2,0:1:0:0:
374,275,523326,1,0,0:1:0:0:
390,277,523401,2,0,L|454:286,1,52.2500015945435,8|0,0:1|0:1,0:1:0:0:
410,171,523551,2,0,L|347:180,1,52.2500015945435,2|0,0:1|0:1,0:1:0:0:
322,376,523701,2,0,L|386:368,1,52.2500015945435,8|0,0:1|0:1,0:1:0:0:
281,259,523851,6,0,B|250:214|185:241|185:241|151:301|74:277,1,209.000006378174,6|2,0:1|0:1,0:1:0:0:
227,321,524301,1,8,0:1:0:0:
116,201,524451,2,0,P|55:216|-3:209,1,104.500003189087,2|8,0:1|0:1,0:1:0:0:
1,183,524676,1,0,0:1:0:0:
1,183,524751,1,2,0:1:0:0:
182,111,524901,6,0,B|216:122|216:122|311:93,1,104.500003189087,8|2,0:1|0:1,0:1:0:0:
100,7,525201,2,0,B|72:28|72:28|52:79|86:126,1,104.500003189087,8|2,0:1|0:1,0:1:0:0:
151,212,525501,1,8,0:1:0:0:
204,25,525651,5,2,0:1:0:0:
31,192,525801,1,12,0:2:0:0:
249,180,525951,1,2,0:1:0:0:
53,82,526101,1,12,0:2:0:0:
141,292,526251,5,10,0:1:0:0:
186,316,526326,1,8,0:1:0:0:
237,321,526401,1,8,0:1:0:0:
284,299,526476,1,8,0:1:0:0:
313,256,526551,1,2,0:1:0:0:
347,223,526626,1,2,0:1:0:0:
388,214,526701,1,2,0:1:0:0:
423,223,526776,1,2,0:1:0:0:
438,250,526851,5,8,0:1:0:0:
403,289,526926,1,0,0:1:0:0:
351,302,527001,1,0,0:1:0:0:
304,280,527076,1,0,0:1:0:0:
274,236,527151,1,8,0:0:0:0:
269,189,527226,1,8,0:0:0:0:
289,152,527301,1,8,0:0:0:0:
321,136,527376,1,8,0:0:0:0:
352,141,527451,5,6,0:1:0:0:
346,192,527526,1,0,0:0:0:0:
305,225,527601,1,0,0:0:0:0:
252,235,527676,1,0,0:0:0:0:
204,213,527751,2,0,P|191:191|193:150,1,52.2500015945435,10|0,0:1|0:0,0:0:0:0:
126,115,527901,2,0,P|138:93|175:74,1,52.2500015945435,10|0,0:1|0:0,0:0:0:0:
227,17,528051,5,8,0:0:0:0:
246,19,528126,1,8,0:0:0:0:
266,22,528201,1,4,0:0:0:0:
286,25,528276,1,4,0:0:0:0:
306,28,528351,1,14,0:1:0:0:
176,287,528501,1,10,0:1:0:0:
90,81,528651,5,6,0:1:0:0:
84,65,528951,1,8,3:1:0:0:
62,80,529026,1,8,3:1:0:0:
47,101,529101,1,8,3:1:0:0:
35,130,529176,1,8,3:1:0:0:
32,166,529251,1,8,3:1:0:0:
36,200,529326,1,8,3:1:0:0:
54,238,529401,1,8,3:1:0:0:
88,268,529476,1,8,3:1:0:0:
130,289,529551,1,8,3:1:0:0:
176,287,529626,1,8,3:1:0:0:
222,264,529701,1,8,3:1:0:0:
241,215,529776,1,8,3:1:0:0:
233,167,529851,5,14,3:1:0:0:
225,143,530151,1,8,0:1:0:0:
182,171,530226,1,8,0:1:0:0:
156,216,530301,1,8,0:1:0:0:
144,260,530376,1,8,0:1:0:0:
146,306,530451,1,8,0:1:0:0:
163,344,530526,1,8,0:1:0:0:
193,371,530601,1,8,0:1:0:0:
228,382,530676,1,8,0:1:0:0:
263,376,530751,1,8,0:1:0:0:
286,353,530826,1,8,0:1:0:0:
293,323,530901,1,8,0:1:0:0:
286,297,530976,1,8,0:1:0:0:
265,280,531051,5,14,0:1:0:0:
264,294,531351,1,8,0:1:0:0:
285,311,531426,1,8,0:1:0:0:
312,315,531501,1,8,0:1:0:0:
340,308,531576,1,8,0:1:0:0:
359,287,531651,1,8,0:1:0:0:
367,259,531726,1,8,0:1:0:0:
363,230,531801,1,8,0:1:0:0:
349,205,531876,1,8,0:1:0:0:
328,183,531951,1,8,0:1:0:0:
313,158,532026,1,8,0:1:0:0:
307,128,532101,1,8,0:1:0:0:
310,99,532176,1,8,0:1:0:0:
328,67,532251,5,14,0:1:0:0:
362,85,532326,1,8,0:1:0:0:
383,117,532401,1,8,0:1:0:0:
386,156,532476,1,8,0:1:0:0:
370,191,532551,1,8,0:1:0:0:
339,215,532626,1,8,0:1:0:0:
300,220,532701,1,8,0:1:0:0:
264,206,532776,1,8,0:1:0:0:
241,185,532851,5,8,0:1:0:0:
215,203,532926,1,8,0:1:0:0:
198,229,533001,1,8,0:1:0:0:
194,254,533076,1,8,0:1:0:0:
200,279,533151,1,8,0:1:0:0:
214,300,533226,1,8,0:1:0:0:
231,310,533301,1,8,0:1:0:0:
251,309,533376,1,8,0:1:0:0:
269,298,533451,6,0,P|273:278|272:257,1,42.7499986953736
333,199,533601,2,0,P|317:184|298:175,1,42.7499986953736
278,93,533751,2,8,P|257:99|240:111,1,42.7499986953736
159,87,533901,2,8,P|154:107|155:128,1,42.7499986953736
95,188,534051,2,4,P|110:202|129:211,1,42.7499986953736
149,293,534201,2,4,P|169:286|186:274,1,42.7499986953736
269,298,534351,2,8,P|273:277|272:256,1,42.7499986953736
333,199,534501,2,8,P|317:184|298:175,1,42.7499986953736
0,192,534651,5,8,0:1:0:0:
6,236,534726,1,8,0:1:0:0:
13,283,534801,1,8,0:1:0:0:
20,331,534876,1,8,0:1:0:0:
29,377,534951,2,0,L|92:385,3,52.2500015945435,4|0|0|0,0:2|0:0|0:0|0:0,0:0:0:0:
133,276,535251,5,8,0:1:0:0:
176,269,535326,1,8,0:1:0:0:
224,263,535401,1,8,0:1:0:0:
272,256,535476,1,8,0:1:0:0:
318,252,535551,2,0,P|337:268|349:295,1,52.2500015945435
428,326,535701,2,0,P|418:349|396:368,1,52.2500015945435
247,384,535851,6,0,B|215:352|215:352|247:208,1,156.750004783631,14|0,0:2|0:0,0:0:0:0:
294,103,536151,2,0,L|302:166,1,52.2500015945435,12|0,0:1|0:0,0:0:0:0:
415,219,536301,2,0,L|422:167,1,52.2500015945435,8|0,0:1|0:0,0:0:0:0:
468,36,536451,1,0,0:0:0:0:
468,36,536526,1,0,0:0:0:0:
468,36,536601,6,0,L|410:47,1,52.2500015945435,12|0,0:2|0:0,0:0:0:0:
345,112,536751,2,0,L|293:102,3,52.2500015945435,12|0|0|0,0:2|0:0|0:0|0:0,0:0:0:0:
130,18,537051,5,4,0:2:0:0:
87,49,537126,1,0,0:1:0:0:
69,95,537201,1,0,0:1:0:0:
71,143,537276,1,0,0:1:0:0:
91,181,537351,1,4,0:2:0:0:
122,198,537426,1,0,0:1:0:0:
158,200,537501,1,0,0:1:0:0:
185,183,537576,1,0,0:1:0:0:
198,154,537651,1,6,0:1:0:0:
198,154,538251,5,12,0:1:0:0:
189,147,538326,1,0,0:0:0:0:
178,145,538401,1,8,0:1:0:0:
167,146,538476,1,0,0:0:0:0:
152,153,538551,1,8,0:1:0:0:
143,166,538626,1,0,0:0:0:0:
138,181,538701,1,8,0:1:0:0:
138,196,538776,1,0,0:0:0:0:
142,210,538851,1,8,0:1:0:0:
152,222,538926,1,0,0:0:0:0:
170,231,539001,1,8,0:1:0:0:
190,231,539076,1,0,0:0:0:0:
209,223,539151,1,8,0:1:0:0:
222,207,539226,1,0,0:0:0:0:
236,192,539301,1,8,0:1:0:0:
255,184,539376,1,0,0:0:0:0:
281,183,539451,5,8,0:1:0:0:
304,194,539526,1,0,0:0:0:0:
319,215,539601,1,8,0:1:0:0:
323,240,539676,1,0,0:0:0:0:
314,264,539751,1,8,0:1:0:0:
295,282,539826,1,0,0:0:0:0:
269,289,539901,1,8,0:1:0:0:
243,282,539976,1,0,0:0:0:0:
223,264,540051,1,8,0:1:0:0:
209,236,540126,1,0,0:0:0:0:
214,206,540201,1,8,0:1:0:0:
231,180,540276,1,0,0:0:0:0:
245,147,540351,1,8,0:1:0:0:
248,110,540426,1,0,0:0:0:0:
237,74,540501,1,8,0:1:0:0:
209,50,540576,1,0,0:0:0:0:
173,43,540651,5,8,0:1:0:0:
132,54,540726,1,0,0:0:0:0:
106,87,540801,1,8,0:1:0:0:
100,128,540876,1,0,0:0:0:0:
119,165,540951,1,8,0:1:0:0:
155,186,541026,1,0,0:0:0:0:
196,186,541101,1,8,0:1:0:0:
228,168,541176,1,0,0:0:0:0:
260,134,541251,1,8,0:1:0:0:
302,112,541326,1,0,0:0:0:0:
350,118,541401,1,8,0:1:0:0:
387,146,541476,1,0,0:0:0:0:
402,190,541551,1,8,0:1:0:0:
395,236,541626,1,0,0:0:0:0:
362,276,541701,1,8,0:1:0:0:
310,285,541776,1,0,0:0:0:0:
263,262,541851,5,8,0:1:0:0:
244,213,541926,1,0,0:0:0:0:
202,176,542001,1,8,0:1:0:0:
146,171,542076,1,0,0:0:0:0:
91,192,542151,1,8,0:1:0:0:
60,242,542226,1,0,0:0:0:0:
57,299,542301,1,8,0:1:0:0:
89,347,542376,1,0,0:0:0:0:
141,363,542451,1,8,0:1:0:0:
196,358,542526,1,0,0:0:0:0:
238,319,542601,1,8,0:1:0:0:
255,263,542676,1,0,0:0:0:0:
279,209,542751,1,8,0:1:0:0:
330,173,542826,1,0,0:0:0:0:
392,175,542901,1,8,0:1:0:0:
441,213,542976,1,0,0:0:0:0:
456,280,543051,5,12,0:1:0:0:
403,323,543126,1,0,0:0:0:0:
335,318,543201,1,8,0:1:0:0:
288,268,543276,1,0,0:0:0:0:
284,200,543351,1,8,0:1:0:0:
276,132,543426,1,0,0:0:0:0:
225,87,543501,1,8,0:1:0:0:
156,89,543576,1,0,0:0:0:0:
105,134,543651,1,8,0:1:0:0:
95,201,543726,1,0,0:0:0:0:
129,259,543801,1,8,0:1:0:0:
194,278,543876,1,0,0:0:0:0:
259,258,543951,1,8,0:1:0:0:
298,202,544026,1,0,0:0:0:0:
359,174,544101,1,8,0:1:0:0:
426,184,544176,1,0,0:0:0:0:
472,233,544251,5,8,0:1:0:0:
477,299,544326,1,0,0:0:0:0:
440,355,544401,1,8,0:1:0:0:
377,376,544476,1,0,0:0:0:0:
314,353,544551,1,8,0:1:0:0:
279,297,544626,1,0,0:0:0:0:
286,230,544701,1,8,0:1:0:0:
325,175,544776,1,0,0:0:0:0:
338,108,544851,1,8,0:1:0:0:
322,41,544926,1,0,0:0:0:0:
265,3,545001,1,8,0:1:0:0:
197,7,545076,1,0,0:0:0:0:
151,57,545151,1,8,0:1:0:0:
141,124,545226,1,0,0:0:0:0:
174,183,545301,1,8,0:1:0:0:
237,207,545376,1,0,0:0:0:0:
276,260,545451,5,8,0:1:0:0:
269,326,545526,1,0,0:0:0:0:
220,371,545601,1,8,0:1:0:0:
154,371,545676,1,0,0:0:0:0:
104,327,545751,1,8,0:1:0:0:
97,262,545826,1,0,0:0:0:0:
130,202,545901,1,8,0:1:0:0:
192,175,545976,1,0,0:0:0:0:
259,177,546051,1,8,0:1:0:0:
313,216,546126,1,0,0:0:0:0:
377,236,546201,1,8,0:1:0:0:
443,223,546276,1,0,0:0:0:0:
484,169,546351,1,8,0:1:0:0:
492,101,546426,1,0,0:0:0:0:
462,40,546501,1,8,0:1:0:0:
398,17,546576,1,0,0:0:0:0:
330,25,546651,5,8,0:1:0:0:
283,74,546726,1,0,0:0:0:0:
269,140,546801,1,8,0:1:0:0:
290,204,546876,1,0,0:0:0:0:
340,249,546951,1,8,0:1:0:0:
402,256,547026,1,0,0:0:0:0:
454,232,547101,1,8,0:1:0:0:
479,186,547176,1,0,0:0:0:0:
474,139,547251,5,8,0:1:0:0:
443,131,547326,1,0,0:0:0:0:
411,134,547401,1,8,0:1:0:0:
382,147,547476,1,0,0:0:0:0:
364,172,547551,1,8,0:1:0:0:
355,202,547626,1,0,0:0:0:0:
359,233,547701,2,0,P|375:262|431:282,1,52.2500015945435,8|0,0:1|0:0,0:0:0:0:
481,348,547851,6,0,L|429:355,2,52.2500015945435,10|8|8,0:1|0:1|0:1,0:0:0:0:
283,74,548151,2,0,L|334:79,2,52.2500015945435,10|8|8,0:1|0:1|0:1,0:0:0:0:
134,330,548451,1,6,0:1:0:0:
147,328,548526,1,0,0:0:0:0:
160,326,548601,1,0,0:0:0:0:
173,324,548676,1,0,0:0:0:0:
186,322,548751,1,0,0:0:0:0:
199,320,548826,1,0,0:0:0:0:
212,319,548901,1,0,0:0:0:0:
224,317,548976,1,0,0:0:0:0:
238,314,549051,6,0,P|247:287|241:250,2,52.2500015945435,2|0|0,0:0|0:0|0:0,0:0:0:0:
31,319,549351,2,0,P|29:344|38:369,2,52.2500015945435,2|0|0,0:0|0:0|0:0,0:0:0:0:
115,160,549651,1,4,0:2:0:0:
124,162,549726,1,0,0:0:0:0:
130,172,549801,1,0,0:0:0:0:
130,182,549876,1,0,0:0:0:0:
122,190,549951,1,2,0:0:0:0:
112,192,550026,1,0,0:0:0:0:
102,185,550101,1,4,0:2:0:0:
100,174,550176,1,0,0:0:0:0:
104,164,550251,5,6,0:1:0:0:
218,67,550401,2,0,B|248:52|283:77|283:77|331:134|370:125,1,156.750004783631
418,63,550701,1,0,0:0:0:0:
250,271,550851,2,0,P|232:222|247:161,2,104.500003189087,10|0|2,0:1|0:0|0:0,0:0:0:0:
391,349,551301,1,0,0:0:0:0:
464,255,551451,5,10,0:1:0:0:
422,223,551526,1,0,0:0:0:0:
369,218,551601,1,0,0:0:0:0:
323,244,551676,1,0,0:0:0:0:
298,290,551751,1,2,0:0:0:0:
266,331,551826,1,0,0:0:0:0:
217,350,551901,1,8,0:1:0:0:
165,344,551976,1,0,0:0:0:0:
125,310,552051,2,0,L|117:258,1,52.2500015945435,2|0,0:0|0:0,0:0:0:0:
23,257,552201,2,8,L|35:197,1,52.2500015945435,10|0,0:1|0:1,0:0:0:0:
137,35,552351,5,8,0:1:0:0:
193,30,552426,1,8,0:1:0:0:
241,63,552501,1,8,0:1:0:0:
249,120,552576,1,8,0:1:0:0:
214,166,552651,5,6,3:1:0:0:
186,161,552726,1,0,3:0:0:0:
158,155,552801,1,8,3:1:0:0:
235,337,552951,1,2,3:1:0:0:
266,331,553026,1,0,3:0:0:0:
297,325,553101,1,8,3:1:0:0:
407,384,553251,1,2,0:0:0:0:
495,230,553401,2,0,P|517:281|510:330,1,104.500003189087,8|2,0:1|0:0,0:0:0:0:
320,190,553701,1,8,0:1:0:0:
424,290,553851,6,0,L|372:282,2,52.2500015945435,2|0|8,0:0|0:0|0:1,0:0:0:0:
211,111,554151,2,0,L|262:103,2,52.2500015945435,2|0|8,0:0|0:0|0:1,0:0:0:0:
320,190,554451,1,2,0:0:0:0:
108,53,554601,2,0,P|86:104|92:153,1,104.500003189087,8|2,0:1|0:0,0:0:0:0:
187,340,554901,1,8,0:1:0:0:
320,190,555051,6,0,B|369:183|369:183|373:186|373:186|431:178,1,104.500003189087,6|8,0:2|3:1,0:0:0:0:
176,354,555351,2,0,B|126:347|126:347|122:350|122:350|64:342,1,104.500003189087,2|8,3:2|3:1,0:0:0:0:
91,151,555651,1,2,0:1:0:0:
232,239,555801,1,8,0:1:0:0:
19,254,555951,1,2,0:1:0:0:
247,122,556101,1,8,0:1:0:0:
129,384,556251,6,0,B|94:343|94:343|107:263|107:263|110:262|110:262|125:167,1,227.999993041992,2|2,0:1|0:0,0:0:0:0:
152,23,556701,1,8,0:1:0:0:
401,187,556851,1,2,0:0:0:0:
232,239,557001,1,8,0:1:0:0:
355,85,557151,5,2,0:0:0:0:
309,349,557301,1,8,0:1:0:0:
121,191,557451,6,0,L|187:179,1,52.2500015945435,6|0,0:1|0:1,0:1:0:0:
302,160,557601,1,8,0:1:0:0:
256,266,557751,2,0,L|322:278,1,52.2500015945435,2|0,0:1|0:1,0:1:0:0:
437,297,557901,1,8,0:1:0:0:
439,119,558051,1,2,0:1:0:0:
300,185,558201,2,0,P|234:163|179:163,2,104.500003189087,8|2|8,0:1|0:1|0:1,0:1:0:0:
55,359,558651,6,0,L|67:293,1,52.2500015945435,2|0,0:1|0:1,0:1:0:0:
86,178,558801,1,8,0:1:0:0:
208,341,558951,2,0,L|196:275,1,52.2500015945435,2|0,0:1|0:1,0:1:0:0:
177,160,559101,1,8,0:1:0:0:
137,375,559251,1,2,0:1:0:0:
281,263,559401,2,0,P|305:260|392:275,1,104.500003189087,8|2,0:1|0:1,0:1:0:0:
407,291,559626,1,0,0:1:0:0:
407,291,559701,1,8,0:1:0:0:
143,229,559851,5,4,0:1:0:0:
251,363,560001,2,0,B|222:330|222:330|260:219|260:219|222:179,1,209.000006378174,8|8,0:1|0:1,0:1:0:0:
355,105,560451,1,2,0:1:0:0:
325,310,560601,1,8,0:1:0:0:
213,152,560751,1,2,0:1:0:0:
419,229,560901,1,8,0:1:0:0:
189,288,561051,6,0,B|165:247|143:223|143:223|168:160|176:89,1,209.000006378174,2|2,0:1|0:1,0:1:0:0:
61,173,561501,1,8,0:1:0:0:
247,216,561651,1,2,0:1:0:0:
74,93,561801,1,8,0:1:0:0:
277,0,561951,2,0,B|287:43|287:43|282:64|282:64|295:114,1,104.500003189087,2|8,0:1|0:1,0:1:0:0:
173,259,562251,6,0,L|108:248,1,52.2500015945435,6|0,0:1|0:1,0:1:0:0:
304,284,562401,1,8,0:1:0:0:
236,164,562551,2,0,L|171:175,1,52.2500015945435,2|0,0:1|0:1,0:1:0:0:
367,139,562701,1,8,0:1:0:0:
272,79,562851,1,2,0:1:0:0:
369,227,563001,2,0,P|430:213|499:223,2,104.500003189087,8|2|8,0:1|0:1|0:1,0:1:0:0:
277,330,563451,6,0,L|288:395,1,52.2500015945435,2|0,0:1|0:1,0:1:0:0:
252,199,563601,1,8,0:1:0:0:
131,287,563751,2,0,L|120:352,1,52.2500015945435,2|0,0:1|0:1,0:1:0:0:
156,156,563901,1,8,0:1:0:0:
32,263,564051,1,2,0:1:0:0:
75,136,564201,2,0,P|68:93|66:17,1,104.500003189087,8|2,0:1|0:1,0:1:0:0:
77,14,564426,1,0,0:1:0:0:
77,14,564501,1,8,0:1:0:0:
190,163,564651,5,6,0:1:0:0:
253,28,564801,2,0,B|276:56|311:45|311:45|241:120|155:60,1,209.000006378174,8|8,0:1|0:1,0:1:0:0:
286,175,565251,2,0,P|306:146|338:128,1,52.2500015945435,10|8,0:1|0:1,0:1:0:0:
343,65,565401,2,0,P|378:67|409:86,1,52.2500015945435,8|8,0:1|0:1,0:1:0:0:
465,130,565551,1,4,0:2:0:0:
462,150,565626,1,0,0:1:0:0:
459,170,565701,1,0,0:1:0:0:
456,190,565776,1,0,0:1:0:0:
453,210,565851,5,10,3:3:0:0:
410,185,565926,1,8,3:3:0:0:
361,187,566001,1,4,3:3:0:0:
322,217,566076,1,4,3:3:0:0:
296,258,566151,1,8,3:3:0:0:
253,283,566226,1,8,3:3:0:0:
205,281,566301,1,4,3:3:0:0:
163,256,566376,1,4,3:3:0:0:
160,242,566451,5,10,3:1:0:0:
426,360,568851,5,4,2:2:0:0:
426,360,569151,1,4,2:2:0:0:
28,150,569451,5,6,3:1:0:0:
235,100,569601,1,8,0:1:0:0:
133,311,569751,2,0,P|110:269|128:180,1,123.499994346619,2|8,0:0|0:1,0:0:0:0:
181,12,570051,1,2,0:0:0:0:
278,198,570201,1,8,0:1:0:0:
102,73,570351,1,2,0:0:0:0:
313,10,570501,2,0,P|329:48|324:82,1,61.7499971733095,8|0,0:1|0:0,0:0:0:0:
272,185,570651,6,0,B|215:178|215:178|208:183|208:183|141:174,1,123.499994346619,2|8,0:1|0:1,0:1:0:0:
391,265,570951,2,0,B|447:258|447:258|454:263|454:263|521:254,1,123.499994346619,2|8,0:1|0:1,0:1:0:0:
328,353,571251,1,2,0:0:0:0:
381,143,571401,1,8,0:1:0:0:
150,176,571551,2,0,P|164:193|163:238,1,61.7499971733095,2|0,0:0|0:0,0:0:0:0:
251,271,571701,2,0,P|243:291|203:313,1,61.7499971733095,8|0,0:1|0:0,0:0:0:0:
84,333,571851,6,0,B|36:295|36:295|58:167,1,185.249991519928,2|0,0:0|0:0,0:0:0:0:
111,47,572151,1,2,0:0:0:0:
349,161,572301,2,0,L|282:168,1,61.7499971733095,8|0,0:1|0:0,0:0:0:0:
165,231,572451,1,2,0:0:0:0:
234,73,572601,1,8,0:1:0:0:
328,353,572751,1,2,0:1:0:0:
224,319,572901,1,8,0:1:0:0:
417,218,573051,6,0,P|430:244|427:299,1,61.7499971733095,2|0,0:1|0:1,0:1:0:0:
338,343,573201,1,8,0:1:0:0:
277,144,573351,2,0,P|264:170|267:225,1,61.7499971733095,2|0,0:1|0:1,0:1:0:0:
328,353,573501,1,8,0:1:0:0:
417,218,573651,2,0,B|343:228|343:228|334:243|334:243|216:258,1,185.249991519928,2|0,0:1|0:1,0:1:0:0:
187,207,573951,2,0,L|314:222,1,123.499994346619,2|8,0:1|0:1,0:1:0:0:
95,321,574251,6,0,B|54:372|54:372|32:155,1,246.999988693238,6|2,0:1|0:1,0:1:0:0:
95,36,574701,1,8,0:1:0:0:
187,207,574851,1,2,0:1:0:0:
233,64,575001,1,8,0:1:0:0:
143,122,575151,1,2,0:1:0:0:
59,175,575301,1,8,0:1:0:0:
200,228,575451,6,0,L|263:220,1,61.7499971733095,2|0,0:0|0:0,0:0:0:0:
143,122,575601,1,8,0:1:0:0:
161,331,575751,2,0,L|97:323,1,61.7499971733095,2|0,0:0|0:0,0:0:0:0:
203,211,575901,1,8,0:1:0:0:
289,373,576051,1,2,0:0:0:0:
367,159,576201,1,8,0:1:0:0:
457,302,576351,1,2,0:0:0:0:
310,279,576501,1,8,3:1:0:0:
421,51,576651,5,10,0:1:0:0:
461,71,576726,1,0,0:0:0:0:
488,109,576801,1,8,0:1:0:0:
494,154,576876,1,0,0:0:0:0:
479,198,576951,1,8,0:1:0:0:
447,235,577026,1,0,0:0:0:0:
399,248,577101,1,8,0:1:0:0:
350,239,577176,1,0,0:0:0:0:
315,203,577251,5,10,0:1:0:0:
286,155,577326,1,0,0:0:0:0:
235,132,577401,1,8,0:1:0:0:
179,134,577476,1,0,0:0:0:0:
130,161,577551,1,8,0:1:0:0:
99,214,577626,1,0,0:0:0:0:
94,275,577701,1,8,0:1:0:0:
117,331,577776,1,0,0:0:0:0:
167,365,577851,6,0,L|230:356,1,61.7499971733095,10|0,0:1|0:0,0:0:0:0:
482,321,578001,1,4,0:2:0:0:
286,155,578151,1,0,0:0:0:0:
375,384,578301,1,4,0:2:0:0:
458,225,578451,2,0,L|394:216,1,61.7499971733095,2|0,0:0|0:0,0:0:0:0:
131,91,578601,5,8,0:1:0:0:
73,128,578676,1,8,0:1:0:0:
50,187,578751,1,8,0:3:0:0:
59,242,578826,1,8,0:3:0:0:
98,274,578901,1,4,0:3:0:0:
141,275,578976,1,4,0:3:0:0:
163,247,579051,5,6,0:1:0:0:
199,189,579126,1,8,0:1:0:0:
266,177,579201,1,0,0:1:0:0:
319,218,579276,1,8,0:1:0:0:
375,255,579351,1,2,0:1:0:0:
436,251,579426,1,8,0:1:0:0:
483,222,579501,2,0,P|501:187|496:139,1,61.7499971733095,0|8,0:1|0:1,0:1:0:0:
388,19,579651,5,2,0:2:0:0:
350,50,579726,1,8,0:1:0:0:
340,98,579801,1,0,0:1:0:0:
356,144,579876,1,8,0:1:0:0:
398,169,579951,5,2,0:1:0:0:
419,139,580026,1,8,0:1:0:0:
454,129,580101,2,0,P|472:125|528:151,1,61.7499971733095,0|8,0:1|0:1,0:1:0:0:
484,332,580251,5,2,0:2:0:0:
430,373,580326,1,8,0:1:0:0:
362,377,580401,1,0,0:1:0:0:
305,339,580476,1,8,0:1:0:0:
276,277,580551,1,2,0:1:0:0:
228,237,580626,1,8,0:1:0:0:
172,233,580701,1,0,0:1:0:0:
126,253,580776,1,8,0:1:0:0:
107,292,580851,5,2,0:2:0:0:
143,324,580926,1,8,0:1:0:0:
191,332,581001,1,0,0:1:0:0:
236,313,581076,1,8,0:1:0:0:
260,269,581151,2,0,L|186:255,1,61.7499971733095,6|8,0:2|0:1,0:1:0:0:
358,360,581301,2,0,L|418:348,1,61.7499971733095,0|8,0:1|0:1,0:1:0:0:
491,163,581451,5,6,0:1:0:0:
441,116,581526,1,8,0:1:0:0:
373,122,581601,1,0,0:1:0:0:
332,175,581676,1,8,0:1:0:0:
288,225,581751,1,2,0:1:0:0:
228,237,581826,1,8,0:1:0:0:
175,221,581901,2,0,P|148:191|140:144,1,61.7499971733095,0|8,0:1|0:1,0:1:0:0:
241,9,582051,5,2,0:2:0:0:
274,45,582126,1,8,0:1:0:0:
279,94,582201,1,0,0:1:0:0:
252,135,582276,1,8,0:1:0:0:
204,147,582351,2,0,L|115:132,1,61.7499971733095,6|8,0:1|0:1,0:1:0:0:
13,266,582501,5,0,0:1:0:0:
60,322,582576,1,8,0:1:0:0:
133,329,582651,1,2,0:2:0:0:
197,291,582726,1,8,0:1:0:0:
233,226,582801,1,0,0:1:0:0:
297,188,582876,1,8,0:1:0:0:
371,185,582951,1,6,0:1:0:0:
427,222,583026,1,8,0:1:0:0:
446,280,583101,1,0,0:1:0:0:
429,333,583176,1,8,0:1:0:0:
387,359,583251,5,6,0:2:0:0:
348,327,583326,1,8,0:1:0:0:
340,278,583401,1,0,0:1:0:0:
365,235,583476,1,8,0:1:0:0:
406,208,583551,2,0,L|482:220,1,61.7499971733095,6|8,0:1|0:1,0:1:0:0:
328,121,583701,2,0,L|252:133,1,61.7499971733095,0|8,0:1|0:1,0:1:0:0:
435,8,583851,5,6,0:1:0:0:
425,68,583926,1,8,0:1:0:0:
417,129,584001,1,0,0:1:0:0:
409,190,584076,1,8,0:1:0:0:
401,251,584151,1,2,0:1:0:0:
408,306,584226,1,8,0:1:0:0:
440,342,584301,2,0,P|475:356|522:336,1,61.7499971733095,0|8,0:1|0:1,0:1:0:0:
451,201,584451,5,2,0:2:0:0:
420,163,584526,1,8,0:1:0:0:
372,153,584601,1,0,0:1:0:0:
326,169,584676,1,8,0:1:0:0:
301,211,584751,5,0,0:1:0:0:
331,232,584826,1,8,0:1:0:0:
341,267,584901,2,0,P|345:285|319:341,1,61.7499971733095,0|8,0:1|0:1,0:1:0:0:
185,379,585051,5,2,0:2:0:0:
146,347,585126,1,8,0:1:0:0:
136,298,585201,1,0,0:1:0:0:
156,253,585276,1,8,0:1:0:0:
194,222,585351,1,0,0:1:0:0:
232,202,585426,1,8,0:1:0:0:
252,171,585501,1,0,0:1:0:0:
256,140,585576,1,8,0:1:0:0:
252,115,585651,5,2,0:2:0:0:
238,126,585726,1,8,0:1:0:0:
219,129,585801,1,0,0:1:0:0:
200,124,585876,1,8,0:1:0:0:
186,111,585951,2,0,B|199:97|199:97|265:101,1,61.7499971733095,4|8,0:2|0:1,0:1:0:0:
356,35,586101,2,0,B|343:21|343:21|277:25,1,61.7499971733095,0|8,0:2|0:1,0:1:0:0:
337,200,586251,5,6,0:1:0:0:
390,230,586326,1,8,0:1:0:0:
445,225,586401,1,0,0:1:0:0:
484,194,586476,1,8,0:1:0:0:
497,152,586551,2,0,P|498:117|470:78,1,61.7499971733095,2|8,0:1|0:1,0:1:0:0:
350,3,586701,5,0,0:1:0:0:
307,48,586776,1,8,0:1:0:0:
303,103,586851,1,2,0:2:0:0:
325,147,586926,1,8,0:1:0:0:
357,175,587001,1,0,0:1:0:0:
372,208,587076,1,8,0:1:0:0:
372,238,587151,1,0,0:1:0:0:
361,260,587226,1,8,0:1:0:0:
346,272,587301,2,0,L|259:250,1,61.7499971733095,0|8,0:1|0:1,0:1:0:0:
97,104,587451,5,6,0:1:0:0:
29,148,587526,1,8,0:1:0:0:
4,225,587601,1,0,0:1:0:0:
24,303,587676,1,8,0:1:0:0:
90,347,587751,1,6,0:2:0:0:
170,347,587826,1,8,0:1:0:0:
233,297,587901,1,0,0:1:0:0:
254,219,587976,1,8,0:1:0:0:
286,145,588051,1,6,0:1:0:0:
359,110,588126,1,8,0:1:0:0:
439,120,588201,1,0,0:1:0:0:
496,177,588276,1,8,0:1:0:0:
509,257,588351,6,0,L|431:270,1,61.7499971733095,6|8,0:2|0:1,0:1:0:0:
304,66,588501,2,0,L|364:76,1,61.7499971733095,0|8,0:1|0:1,0:1:0:0:
177,314,588658,1,6,0:1:0:0:
97,104,589258,5,0,0:0:0:0:
177,314,589458,1,0,0:0:0:0:
304,66,589658,1,8,0:1:0:0:
56,209,589858,6,0,B|44:241|44:241|161:214,1,151.999995361328,6|0,0:2|2:2,0:0:0:0:
229,158,590158,5,8,0:1:0:0:
312,181,590258,5,8,0:1:0:0:
395,204,590358,5,8,0:1:0:0:
479,231,590458,6,0,P|491:265|488:299,1,63.3333333333333,0|0,0:3|0:3,0:3:0:0:
485,382,590658,2,0,P|454:376|431:359,1,53.8333343601227,8|8,0:3|0:3,0:3:0:0:
362,313,590858,2,0,P|378:293|401:282,1,37.9999988403321,4|4,0:3|0:3,0:3:0:0:
422,155,591058,6,0,B|455:134|512:168|502:233|447:269|374:262|309:198,2,285,4|0|0,0:1|0:0|0:0,0:0:0:0:
302,2,592258,5,10,0:1:0:0:
250,138,592408,1,0,0:0:0:0:
245,125,592558,2,0,B|310:105|277:133|339:118,1,95,0|0,0:0|2:0,0:0:0:0:
460,70,592858,2,0,P|433:108|422:169,1,95,0|2,0:0|2:2,0:0:0:0:
269,224,593158,2,0,P|297:262|308:308,1,95,0|2,0:0|2:0,0:0:0:0:
476,279,593458,6,0,B|405:232|320:291|378:314|287:387|217:355,1,285,6|0,0:1|0:0,0:0:0:0:
59,296,594058,6,0,L|141:276,1,50.6666666666667
166,180,594258,2,0,L|116:167,1,50.6666666666667
32,144,594458,1,8,0:1:0:0:
308,308,594658,5,2,0:2:0:0:
269,224,594808,1,0,0:0:0:0:
229,359,594958,5,2,0:2:0:0:
272,211,595108,1,0,0:0:0:0:
389,384,595258,5,8,0:1:0:0:
501,245,595408,2,0,L|358:265,1,114,2|0,0:0|0:0,0:0:0:0:
308,308,595708,1,2,0:0:0:0:
476,51,595858,6,0,P|456:69|433:76,1,47.5,8|8,0:1|0:1,0:0:0:0:
385,151,596008,2,0,P|359:143|341:127,1,47.5
240,144,596158,1,0,0:0:0:0:
241,128,596233,1,0,0:0:0:0:
243,112,596308,1,8,0:0:0:0:
245,96,596383,1,8,0:0:0:0:
247,81,596458,1,4,0:0:0:0:
249,65,596533,1,4,0:0:0:0:
255,27,596608,5,8,0:0:0:0:
292,56,596683,1,0,0:0:0:0:
308,105,596758,1,8,0:0:0:0:
291,159,596833,1,8,0:0:0:0:
237,190,596908,1,4,0:0:0:0:
174,168,596983,1,4,0:0:0:0:
131,111,597058,6,0,B|235:101,2,95,12|0|0,0:1|0:0|0:0,0:0:0:0:
478,250,597658,2,0,P|380:215|393:318,1,249.375009512902,6|0,0:1|0:0,0:0:0:0:
492,360,598254,5,6,0:2:0:0:
499,330,598329,1,0,0:1:0:0:
492,300,598404,1,0,0:1:0:0:
468,280,598479,1,0,0:1:0:0:
438,272,598554,1,0,0:1:0:0:
409,279,598629,1,0,0:1:0:0:
387,300,598704,1,0,0:1:0:0:
377,328,598779,1,0,0:1:0:0:
358,352,598854,1,4,0:1:0:0:
331,363,598929,1,0,0:1:0:0:
300,362,599004,1,0,0:1:0:0:
273,348,599079,1,0,0:1:0:0:
260,320,599154,1,0,0:1:0:0:
256,290,599229,1,0,0:1:0:0:
265,260,599304,1,0,0:1:0:0:
287,240,599379,1,0,0:1:0:0:
315,230,599454,5,12,0:1:0:0:
341,235,599529,1,0,0:1:0:0:
357,251,599604,1,0,0:1:0:0:
361,269,599679,1,0,0:1:0:0:
359,283,599754,1,0,0:1:0:0:
350,295,599829,1,0,0:1:0:0:
339,301,599904,1,0,0:1:0:0:
327,299,599979,1,0,0:1:0:0:
320,295,600054,6,0,L|327:232,3,47.5,4|0|0|0,0:1|0:1|0:1|0:1,0:1:0:0:
210,337,600354,2,0,L|217:390,3,47.5,0|0|0|0,0:1|0:1|0:1|0:1,0:1:0:0:
99,273,600654,5,4,0:1:0:0:
76,254,600729,1,0,0:1:0:0:
71,225,600804,1,0,0:1:0:0:
79,197,600879,1,0,0:1:0:0:
103,181,600954,1,0,0:1:0:0:
131,179,601029,1,0,0:1:0:0:
157,190,601104,1,0,0:1:0:0:
172,214,601179,1,0,0:1:0:0:
196,230,601254,1,4,0:1:0:0:
221,233,601329,1,0,0:1:0:0:
240,224,601404,1,0,0:1:0:0:
250,208,601479,1,0,0:1:0:0:
251,194,601554,2,0,L|241:142,3,47.5,0|0|0|0,0:1|0:1|0:1|0:1,0:1:0:0:
136,52,601854,5,12,0:1:0:0:
111,75,601929,1,0,0:1:0:0:
105,107,602004,1,0,0:1:0:0:
111,140,602079,1,0,0:1:0:0:
133,164,602154,1,0,0:1:0:0:
155,188,602229,1,0,0:1:0:0:
163,220,602304,1,0,0:1:0:0:
156,252,602379,1,0,0:1:0:0:
135,277,602454,2,0,L|85:268,3,47.5,4|0|0|0,0:1|0:1|0:1|0:1,0:1:0:0:
254,218,602754,2,0,L|318:207,3,47.5,0|0|0|0,0:1|0:1|0:1|0:1,0:1:0:0:
358,352,603054,5,6,0:2:0:0:
384,362,603129,1,0,0:1:0:0:
416,356,603204,1,0,0:1:0:0:
449,338,603279,1,0,0:1:0:0:
460,301,603354,1,0,0:1:0:0:
455,263,603429,1,0,0:1:0:0:
427,236,603504,1,0,0:1:0:0:
390,225,603579,1,0,0:1:0:0:
356,207,603654,1,4,0:1:0:0:
339,173,603729,1,0,0:1:0:0:
340,135,603804,1,0,0:1:0:0:
363,105,603879,1,0,0:1:0:0:
399,95,603954,1,0,0:1:0:0:
435,106,604029,1,0,0:1:0:0:
456,137,604104,1,0,0:1:0:0:
457,174,604179,1,0,0:1:0:0:
441,208,604254,5,12,0:1:0:0:
409,228,604329,1,0,0:1:0:0:
371,228,604404,1,0,0:1:0:0:
336,211,604479,1,0,0:1:0:0:
312,181,604554,1,0,0:1:0:0:
276,167,604629,1,0,0:1:0:0:
238,167,604704,1,0,0:1:0:0:
204,184,604779,1,0,0:1:0:0:
186,217,604854,1,4,0:1:0:0:
185,254,604929,1,0,0:1:0:0:
199,288,605004,1,0,0:1:0:0:
230,308,605079,1,0,0:1:0:0:
267,313,605154,1,0,0:1:0:0:
301,297,605229,1,0,0:1:0:0:
322,265,605304,1,0,0:1:0:0:
328,227,605379,1,0,0:1:0:0:
316,190,605454,5,4,0:1:0:0:
286,165,605529,1,0,0:1:0:0:
248,159,605604,1,0,0:1:0:0:
211,168,605679,1,0,0:1:0:0:
179,189,605754,1,0,0:1:0:0:
143,203,605829,1,0,0:1:0:0:
105,201,605904,1,0,0:1:0:0:
72,181,605979,1,0,0:1:0:0:
55,146,606054,1,4,0:1:0:0:
55,108,606129,1,0,0:1:0:0:
72,74,606204,1,0,0:1:0:0:
104,55,606279,1,0,0:1:0:0:
143,50,606354,1,0,0:1:0:0:
179,60,606429,1,0,0:1:0:0:
201,90,606504,1,0,0:1:0:0:
206,127,606579,1,0,0:1:0:0:
195,163,606654,5,12,0:1:0:0:
193,200,606729,1,0,0:1:0:0:
213,231,606804,1,0,0:1:0:0:
246,249,606879,1,0,0:1:0:0:
283,251,606954,1,0,0:1:0:0:
316,232,607029,1,0,0:1:0:0:
337,200,607104,1,0,0:1:0:0:
343,162,607179,1,0,0:1:0:0:
329,126,607254,5,8,0:1:0:0:
289,160,607329,1,8,0:1:0:0:
283,211,607404,1,8,0:1:0:0:
308,256,607479,1,8,0:1:0:0:
354,279,607554,5,0,0:1:0:0:
376,261,607629,1,0,0:1:0:0:
380,232,607704,1,0,0:1:0:0:
370,205,607779,1,0,0:1:0:0:
345,191,607850,6,0,B|296:171|260:198|260:198|262:190|262:190|219:245|161:236,1,190,6|2,0:1|0:0,0:0:0:0:
93,196,608300,1,0,0:0:0:0:
299,375,608450,2,0,B|298:380|327:331|327:331|313:277,1,95,10|0,0:1|0:0,0:1:0:0:
68,119,608750,2,0,B|69:114|40:163|40:163|54:217,1,95,2|0,0:1|0:0,0:1:0:0:
131,351,609050,5,10,0:1:0:0:
154,346,609200,1,0,0:1:0:0:
279,250,609350,2,0,L|168:234,1,95,2|0,0:0|0:0,0:0:0:0:
68,119,609650,2,0,L|178:103,1,95,10|0,0:1|0:1,0:1:0:0:
411,113,609950,1,2,0:0:0:0:
307,162,610100,1,0,0:0:0:0:
288,44,610250,5,10,0:1:0:0:
307,49,610400,1,0,0:1:0:0:
420,1,610550,2,0,P|447:48|433:94,1,95,2|0,0:0|0:0,0:0:0:0:
180,190,610850,2,0,P|153:143|167:97,1,95,10|0,0:1|0:0,0:0:0:0:
395,225,611150,1,2,0:0:0:0:
377,339,611300,1,0,0:0:0:0:
279,266,611450,5,10,0:1:0:0:
297,264,611600,1,0,0:1:0:0:
238,372,611750,2,0,B|198:366|198:366|194:368|194:368|108:356,1,95,2|0,0:0|0:0,0:0:0:0:
368,154,612050,2,0,B|407:158|407:158|411:161|411:161|496:170,1,95,10|0,0:1|0:0,0:0:0:0:
279,266,612350,1,2,0:0:0:0:
240,151,612500,1,0,0:0:0:0:
125,219,612650,6,0,P|111:258|122:316,2,95,4|0|2,0:1|0:0|0:0,0:0:0:0:
178,69,613100,1,0,0:0:0:0:
178,69,613175,1,0,0:0:0:0:
178,69,613250,1,10,0:1:0:0:
240,151,613400,2,0,B|322:140|322:140|337:154|337:154|465:138,1,190
500,364,613850,6,0,P|514:325|503:267,2,95,10|0|2,0:1|0:0|0:0,0:0:0:0:
428,162,614300,1,0,0:0:0:0:
428,162,614375,1,0,0:0:0:0:
428,162,614450,1,10,0:1:0:0:
372,242,614600,2,0,B|326:219|271:258|301:270|252:311|199:290,1,190
51,246,615050,6,0,L|62:341,2,95,10|0|2,0:1|0:0|0:1,0:0:0:0:
119,50,615500,1,4,0:2:0:0:
119,50,615575,1,0,0:0:0:0:
119,50,615650,1,10,0:1:0:0:
195,111,615800,2,0,B|222:147|222:147|199:305,1,190,2|0,0:2|0:0,0:0:0:0:
61,225,616250,5,8,0:1:0:0:
61,225,616400,2,0,P|81:243|105:248,1,47.5,8|0,0:0|0:0,0:0:0:0:
348,339,616550,2,0,P|302:351|268:384,1,95,4|0,0:0|0:0,0:0:0:0:
201,290,616850,6,0,L|207:242,1,47.5,8|0,0:1|0:0,0:0:0:0:
318,235,617000,2,0,L|311:187,1,47.5,8|8,0:0|0:0,0:0:0:0:
215,153,617150,1,8,0:0:0:0:
267,91,617300,1,4,0:0:0:0:
207,29,617450,6,0,L|142:37,1,47.5,6|0,0:1|0:1,0:1:0:0:
201,18,617600,2,0,L|136:26,1,47.5,0|0,0:1|0:1,0:1:0:0:
242,120,617750,5,2,0:1:0:0:
270,116,617825,1,0,0:1:0:0:
298,112,617900,1,0,0:1:0:0:
326,108,617975,1,0,0:1:0:0:
338,87,618050,1,10,0:1:0:0:
375,88,618125,1,0,0:1:0:0:
412,89,618200,1,0,0:1:0:0:
449,92,618275,1,0,0:1:0:0:
466,110,618350,2,0,L|520:100,3,47.5,2|0|0|0,0:1|0:1|0:1|0:1,0:1:0:0:
392,219,618650,6,0,L|400:154,1,47.5,10|0,0:1|0:1,0:1:0:0:
381,213,618800,2,0,L|389:148,1,47.5,0|0,0:1|0:1,0:1:0:0:
512,328,618950,5,2,0:1:0:0:
484,324,619025,1,0,0:1:0:0:
456,320,619100,1,0,0:1:0:0:
428,316,619175,1,0,0:1:0:0:
416,295,619250,1,10,0:1:0:0:
379,296,619325,1,0,0:1:0:0:
342,297,619400,1,0,0:1:0:0:
305,300,619475,1,0,0:1:0:0:
288,318,619550,2,0,L|234:308,3,47.5,2|0|0|0,0:1|0:1|0:1|0:1,0:1:0:0:
233,179,619850,6,0,L|223:243,1,47.5,10|0,0:1|0:1,0:1:0:0:
220,181,620000,2,0,L|210:245,1,47.5,0|0,0:1|0:1,0:1:0:0:
104,359,620150,5,2,0:1:0:0:
108,331,620225,1,0,0:1:0:0:
112,303,620300,1,0,0:1:0:0:
116,275,620375,1,0,0:1:0:0:
137,263,620450,1,10,0:1:0:0:
136,226,620525,1,0,0:1:0:0:
135,189,620600,1,0,0:1:0:0:
132,152,620675,1,0,0:1:0:0:
114,134,620750,2,0,L|119:81,3,47.5,2|0|0|0,0:1|0:1|0:1|0:1,0:1:0:0:
232,189,621050,6,0,L|229:123,1,47.5,10|0,0:1|0:1,0:1:0:0:
244,184,621200,2,0,L|241:118,1,47.5,0|0,0:1|0:1,0:1:0:0:
351,20,621350,5,2,0:1:0:0:
347,48,621425,1,0,0:1:0:0:
343,76,621500,1,0,0:1:0:0:
339,104,621575,1,0,0:1:0:0:
318,116,621650,1,10,0:1:0:0:
319,153,621725,1,0,0:1:0:0:
320,190,621800,1,0,0:1:0:0:
323,227,621875,1,0,0:1:0:0:
341,244,621950,2,0,L|336:297,3,47.5,2|0|0|0,0:1|0:1|0:1|0:1,0:1:0:0:
495,154,622250,6,0,B|485:145|485:145|431:152,1,47.5,14|0,0:1|0:1,0:1:0:0:
361,222,622400,2,0,B|371:213|371:213|425:220,1,47.5,0|0,0:1|0:1,0:1:0:0:
512,281,622550,2,0,B|502:272|502:272|448:279,1,47.5,2|0,0:1|0:1,0:1:0:0:
378,349,622700,2,0,B|388:340|388:340|442:347,1,47.5,0|0,0:1|0:1,0:1:0:0:
276,239,622850,5,10,0:1:0:0:
294,272,622925,1,0,0:1:0:0:
285,309,623000,1,0,0:1:0:0:
255,333,623075,1,0,0:1:0:0:
217,338,623150,1,2,0:1:0:0:
181,323,623225,1,0,0:1:0:0:
144,314,623300,1,0,0:1:0:0:
107,324,623375,1,0,0:1:0:0:
82,352,623450,6,0,P|106:363|139:361,1,47.5,10|0,0:1|0:1,0:1:0:0:
184,265,623600,2,0,P|160:276|127:274,1,47.5,0|0,0:1|0:1,0:1:0:0:
14,260,623750,2,0,P|38:271|71:269,1,47.5,2|0,0:1|0:1,0:1:0:0:
116,173,623900,2,0,P|92:184|59:182,1,47.5,0|0,0:1|0:1,0:1:0:0:
13,69,624050,5,10,0:1:0:0:
50,73,624125,1,0,0:1:0:0:
87,77,624200,1,0,0:1:0:0:
124,81,624275,1,0,0:1:0:0:
161,85,624350,1,2,0:1:0:0:
198,89,624425,1,0,0:1:0:0:
235,94,624500,1,0,0:1:0:0:
272,99,624575,1,0,0:1:0:0:
309,104,624650,6,0,L|376:117,1,47.5,10|0,0:1|0:1,0:1:0:0:
291,21,624800,2,0,L|224:34,1,47.5,0|0,0:1|0:1,0:1:0:0:
291,187,624950,2,0,L|224:174,1,47.5,2|0,0:1|0:1,0:1:0:0:
376,65,625100,2,0,L|422:55,1,47.5,0|0,0:1|0:1,0:1:0:0:
468,175,625250,5,10,0:1:0:0:
435,194,625325,1,0,0:1:0:0:
419,228,625400,1,0,0:1:0:0:
424,265,625475,1,0,0:1:0:0:
446,295,625550,1,2,0:1:0:0:
453,332,625625,1,0,0:1:0:0:
440,367,625700,1,0,0:1:0:0:
405,383,625775,1,0,0:1:0:0:
367,374,625850,6,0,P|411:350|472:369,1,95,10|0,0:1|0:0,0:0:0:0:
298,216,626150,1,4,0:0:0:0:
244,360,626300,1,4,0:0:0:0:
403,265,626450,1,8,0:0:0:0:
403,265,626525,1,8,0:0:0:0:
403,265,626600,1,0,0:0:0:0:
220,191,626750,1,4,0:0:0:0:
389,259,626900,1,4,0:0:0:0:
205,364,627050,5,8,0:1:0:0:
296,100,627200,1,8,0:1:0:0:
96,170,627350,1,8,0:1:0:0:
269,291,627500,1,8,0:1:0:0:
220,191,627650,6,0,B|159:197|159:197|149:204|149:204|74:212,1,142.500005435944,6|0,0:1|0:0,0:0:0:0:
295,99,628100,2,0,P|365:160|363:252,1,190,4|0,0:2|0:0,0:0:0:0:
164,379,628550,2,0,B|130:323|130:323|151:249,1,142.500005435944,6|0,0:2|0:0,0:0:0:0:
45,152,629000,6,0,B|98:125|162:170|124:191|189:238|245:221,1,218.500004167557,6|0,0:1|0:0,0:0:0:0:
470,156,629450,2,0,P|414:152|345:130,1,109.250002083778,2|0,0:0|0:0,0:0:0:0:
258,338,629750,2,0,P|310:323|364:319,1,109.250002083778,6|0,0:2|0:0,0:0:0:0:
443,384,630050,5,2,0:0:0:0:
333,217,630200,1,8,0:1:0:0:
330,223,630275,1,8,0:1:0:0:
329,231,630350,1,8,0:1:0:0:
364,343,630500,5,2,0:0:0:0:
470,156,630650,1,8,0:1:0:0:
472,162,630725,1,8,0:1:0:0:
474,170,630800,1,8,0:1:0:0:
475,179,630875,1,8,0:1:0:0:
474,186,630950,1,10,0:2:0:0:
235,132,631100,1,8,0:1:0:0:
355,72,631250,1,8,0:1:0:0:
329,231,631400,5,2,0:2:0:0:
194,3,631550,2,8,L|254:8,2,54.6250010418892,8|8|8,0:1|0:1|0:1,0:1:0:0:
52,270,631850,5,4,0:1:0:0:
235,132,632000,1,8,0:1:0:0:
42,85,632150,1,4,0:2:0:0:
201,363,632300,1,8,0:1:0:0:
201,363,632450,5,2,0:1:0:0:
370,96,632600,2,0,L|300:87,1,47.5,12|0,0:1|0:1,0:1:0:0:
77,192,632750,2,0,L|146:183,1,47.5,12|0,0:1|0:1,0:1:0:0:
387,269,632900,5,2,0:1:0:0:
181,41,633050,2,0,P|168:72|177:110,1,47.5,12|0,0:1|0:1,0:1:0:0:
276,208,633200,2,0,P|287:228|288:252,1,47.5,12|0,0:1|0:1,0:1:0:0:
194,345,633350,5,2,0:1:0:0:
356,104,633500,2,0,L|364:34,1,47.5,12|0,0:1|0:1,0:1:0:0:
77,192,633650,2,0,L|85:261,1,47.5,12|0,0:1|0:1,0:1:0:0:
401,278,633800,5,2,0:1:0:0:
181,41,633950,2,0,B|239:96|238:196|163:266|163:266|243:216|330:256|286:288|368:350|454:293|454:293|460:351|395:394,1,665,14|0,0:1|2:1,0:1:0:0:
85,140,635150,5,6,0:1:0:0:
346,85,635300,1,8,0:1:0:0:
209,164,635450,1,8,0:1:0:0:
325,216,635600,1,8,0:1:0:0:
181,41,635750,5,2,0:0:0:0:
239,266,635900,1,8,0:1:0:0:
346,85,636050,2,0,L|290:92,2,47.5,0|8|8,0:1|0:1|0:1,0:1:0:0:
75,105,636350,5,2,0:0:0:0:
209,164,636500,1,8,0:1:0:0:
134,230,636650,1,8,0:1:0:0:
203,298,636800,1,8,0:1:0:0:
96,362,636950,6,0,P|88:337|94:297,1,47.5,2|0,0:0|0:0,0:0:0:0:
209,164,637100,1,8,0:0:0:0:
212,156,637250,2,0,P|161:133|107:145,1,95,4|4,0:0|0:0,0:0:0:0:
29,241,637560,1,2,0:0:0:0:
