osu file format v14

[General]
AudioFilename: audio.mp3
AudioLeadIn: 0
PreviewTime: 37288
Countdown: 1
SampleSet: Normal
StackLeniency: 0.8
Mode: 1
LetterboxInBreaks: 0
WidescreenStoryboard: 1

[Editor]
Bookmarks: 2574,5611,8649,11687,14725,17763,20801,23839,26877,29915,31434,32953,35991,39029,42067,45105,48143,51181,54219,57257,60295,63333,64820,67890,70928,72447,75833,77004,80042,83080,86118
DistanceSpacing: 1
BeatDivisor: 2
GridSize: 32
TimelineZoom: 1.416801

[Metadata]
Title:Braver (TV Size)
TitleUnicode:Braver (TV Size)
Artist:Straightener
ArtistUnicode:ストレイテナー
Creator:chinotauku
Version:Futsuu
Source:アンゴルモア 元寇合戦記
Tags:Braver ストレイテナー Straightener アンゴルモア 元寇合戦記 Angolmois Record of Mongol Invasion げんこうかっせんき japanese Anime
BeatmapID:1747289
BeatmapSetID:821399

[Difficulty]
HPDrainRate:4
CircleSize:5
OverallDifficulty:4
ApproachRate:5
SliderMultiplier:1.6
SliderTickRate:1

[Events]
//Background and Video events
0,0,"bg.jpg",0,0
//Break Periods
2,11855,13493
//Storyboard Layer 0 (Background)
//Storyboard Layer 1 (Fail)
//Storyboard Layer 2 (Pass)
//Storyboard Layer 3 (Foreground)
//Storyboard Layer 4 (Overlay)
//Storyboard Sound Samples

[TimingPoints]
1023,379.746835443038,4,1,2,80,1,0
1023,-200,4,1,2,80,0,0
14314,-200,4,1,2,90,0,0
14504,-133.333333333333,4,1,2,90,0,0
26845,-133.333333333333,4,1,2,100,0,0
27225,-133.333333333333,4,1,2,90,0,0
31023,-133.333333333333,4,1,2,90,0,0
32921,-133.333333333333,4,1,2,100,0,0
33301,-133.333333333333,4,1,2,90,0,0
37098,-133.333333333333,4,1,2,90,0,0
38617,-133.333333333333,4,1,2,90,0,0
38997,-133.333333333333,4,1,2,100,0,1
39377,-133.333333333333,4,1,2,90,0,1
51149,-133.333333333333,4,1,2,90,0,0
63301,-133.333333333333,4,1,2,90,0,0
64060,-133.333333333333,4,1,2,90,0,0
75453,-133.333333333333,4,1,2,90,0,1
87605,-133.333333333333,4,1,2,90,0,0

[HitObjects]
256,192,2542,5,0,0:0:0:0:
256,192,3681,1,0,0:0:0:0:
256,192,4060,1,8,0:0:0:0:
256,192,4820,1,8,0:0:0:0:
256,192,5579,1,0,0:0:0:0:
256,192,6719,5,8,0:0:0:0:
256,192,7098,1,8,0:0:0:0:
256,192,7858,1,8,0:0:0:0:
256,192,8617,1,0,0:0:0:0:
256,192,9757,5,8,0:0:0:0:
256,192,10136,1,0,0:0:0:0:
256,192,10896,1,8,0:0:0:0:
256,192,11655,1,0,0:0:0:0:
256,192,14693,5,12,0:0:0:0:
256,192,15453,1,8,0:0:0:0:
256,192,16212,1,8,0:0:0:0:
256,192,16972,1,0,0:0:0:0:
256,192,17352,1,0,0:0:0:0:
256,192,17731,1,8,0:0:0:0:
256,192,18491,1,8,0:0:0:0:
256,208,19250,1,0,0:0:0:0:
256,184,19630,1,8,0:0:0:0:
256,192,20390,1,0,0:0:0:0:
256,192,20769,1,12,0:0:0:0:
256,192,21529,1,0,0:0:0:0:
256,192,22288,1,8,0:0:0:0:
256,192,22668,1,0,0:0:0:0:
256,192,23048,1,8,0:0:0:0:
256,192,23807,1,0,0:0:0:0:
256,192,24187,1,0,0:0:0:0:
256,192,24567,1,0,0:0:0:0:
256,192,25326,1,8,0:0:0:0:
256,192,25706,1,8,0:0:0:0:
160,96,26086,2,0,L|352:96,1,180.000006866455
256,192,26845,1,12,0:0:0:0:
256,192,27605,1,0,0:0:0:0:
256,192,28364,1,8,0:0:0:0:
256,192,29124,1,0,0:0:0:0:
256,192,29883,1,8,0:0:0:0:
256,192,30263,1,8,0:0:0:0:
256,192,30453,1,0,0:0:0:0:
256,192,30643,1,8,0:0:0:0:
256,200,31023,1,0,0:0:0:0:
256,192,31402,1,0,0:0:0:0:
64,256,31592,2,0,L|160:256,5,60.0000022888184
256,192,32921,1,12,0:0:0:0:
256,192,33681,1,8,0:0:0:0:
256,192,34440,1,0,0:0:0:0:
256,192,34820,1,8,0:0:0:0:
256,192,35200,1,8,0:0:0:0:
256,192,35579,1,8,0:0:0:0:
256,192,35769,1,0,0:0:0:0:
256,192,35959,1,8,0:0:0:0:
128,192,36149,2,0,L|160:192,10,30.0000011444092
272,200,38997,5,12,0:0:0:0:
256,192,39757,1,8,0:0:0:0:
256,192,40136,1,0,0:0:0:0:
256,192,40516,1,0,0:0:0:0:
256,192,41276,1,8,0:0:0:0:
256,192,41655,1,8,0:0:0:0:
256,192,42035,1,0,0:0:0:0:
256,192,42415,1,0,0:0:0:0:
224,192,42605,1,0,0:0:0:0:
256,192,42795,1,8,0:0:0:0:
256,192,43554,1,0,0:0:0:0:
256,192,43934,1,0,0:0:0:0:
256,192,44124,1,0,0:0:0:0:
256,192,44314,1,8,0:0:0:0:
272,200,44693,1,8,0:0:0:0:
272,200,45073,1,12,0:0:0:0:
256,192,45833,1,8,0:0:0:0:
256,192,46212,1,0,0:0:0:0:
256,192,46592,1,0,0:0:0:0:
256,192,47352,1,8,0:0:0:0:
256,192,47731,1,8,0:0:0:0:
256,192,48111,1,0,0:0:0:0:
256,192,48491,1,0,0:0:0:0:
256,192,48681,1,0,0:0:0:0:
256,192,48871,1,8,0:0:0:0:
256,192,49630,1,0,0:0:0:0:
256,192,50010,1,8,0:0:0:0:
256,192,50200,1,0,0:0:0:0:
256,192,50390,1,8,0:0:0:0:
256,192,50769,1,0,0:0:0:0:
256,192,51149,1,12,0:0:0:0:
256,184,51909,1,8,0:0:0:0:
256,184,52288,1,0,0:0:0:0:
256,184,52668,1,0,0:0:0:0:
272,192,53048,1,0,0:0:0:0:
272,192,53238,1,0,0:0:0:0:
272,192,53428,1,8,0:0:0:0:
256,192,53807,1,8,0:0:0:0:
256,184,54187,1,0,0:0:0:0:
256,192,54567,1,0,0:0:0:0:
256,192,54757,1,0,0:0:0:0:
256,184,54947,1,8,0:0:0:0:
248,184,55706,1,0,0:0:0:0:
256,192,56086,1,0,0:0:0:0:
256,192,56276,1,0,0:0:0:0:
256,192,56466,1,8,0:0:0:0:
256,192,56845,1,8,0:0:0:0:
256,200,57225,1,12,0:0:0:0:
256,192,57985,1,8,0:0:0:0:
256,192,58364,1,8,0:0:0:0:
256,192,58744,1,0,0:0:0:0:
272,200,59504,1,8,0:0:0:0:
256,192,59883,1,0,0:0:0:0:
256,192,60073,1,0,0:0:0:0:
248,192,60263,1,0,0:0:0:0:
248,192,60643,1,0,0:0:0:0:
256,192,61023,1,8,0:0:0:0:
256,192,61592,1,8,0:0:0:0:
256,192,61782,1,0,0:0:0:0:
256,192,62162,1,0,0:0:0:0:
256,192,62352,1,8,0:0:0:0:
128,224,62541,2,0,L|224:224,4,60.0000022888184
256,192,64060,1,8,0:0:0:0:
256,192,64440,1,8,0:0:0:0:
256,192,64820,1,0,0:0:0:0:
256,192,65200,1,0,0:0:0:0:
256,192,65390,1,0,0:0:0:0:
256,192,65579,1,8,0:0:0:0:
256,184,67098,1,8,0:0:0:0:
256,192,67288,1,0,0:0:0:0:
256,192,67668,1,8,0:0:0:0:
256,192,68048,1,8,0:0:0:0:
256,192,68428,1,8,0:0:0:0:
256,192,68617,1,0,0:0:0:0:
256,192,68997,1,0,0:0:0:0:
256,192,69377,1,0,0:0:0:0:
256,192,69567,1,8,0:0:0:0:
256,192,70326,1,8,0:0:0:0:
256,192,70516,1,8,0:0:0:0:
256,192,70896,1,0,0:0:0:0:
256,192,71086,1,8,0:0:0:0:
256,192,71466,1,0,0:0:0:0:
256,192,71655,1,8,0:0:0:0:
256,192,72035,1,8,0:0:0:0:
256,192,72795,1,0,0:0:0:0:
256,192,72985,1,0,0:0:0:0:
247,186,73174,1,8,0:0:0:0:
256,192,73554,1,0,0:0:0:0:
256,192,73744,1,0,0:0:0:0:
256,192,73934,1,8,0:0:0:0:
256,192,74314,1,0,0:0:0:0:
256,192,74504,1,8,0:0:0:0:
256,192,74693,1,8,0:0:0:0:
256,192,75073,1,0,0:0:0:0:
256,192,75453,1,12,0:0:0:0:
256,192,76212,1,8,0:0:0:0:
256,192,76592,1,8,0:0:0:0:
256,192,76972,1,0,0:0:0:0:
256,192,77162,1,8,0:0:0:0:
256,192,77541,1,0,0:0:0:0:
256,192,77731,1,8,0:0:0:0:
256,192,77921,1,0,0:0:0:0:
256,192,79250,1,8,0:0:0:0:
264,192,79440,1,8,0:0:0:0:
256,192,79820,1,8,0:0:0:0:
256,192,80010,1,0,0:0:0:0:
256,192,80200,1,8,0:0:0:0:
256,192,80579,1,0,0:0:0:0:
256,192,80959,1,8,0:0:0:0:
256,192,81149,1,0,0:0:0:0:
256,184,81529,1,0,0:0:0:0:
256,192,81719,1,8,0:0:0:0:
264,176,82288,1,0,0:0:0:0:
256,192,82478,1,8,0:0:0:0:
256,192,82668,1,0,0:0:0:0:
256,192,83048,1,0,0:0:0:0:
256,192,83238,1,8,0:0:0:0:
256,192,83997,1,0,0:0:0:0:
256,192,84187,1,8,0:0:0:0:
256,184,84947,1,0,0:0:0:0:
264,184,85136,1,0,0:0:0:0:
256,192,85326,1,8,0:0:0:0:
256,192,85706,1,0,0:0:0:0:
256,192,86086,1,8,0:0:0:0:
264,184,86276,1,8,0:0:0:0:
256,192,86466,12,0,87605,0:0:0:0:
