osu file format v14

[General]
AudioFilename: Shadow of a Flower.mp3
AudioLeadIn: 0
PreviewTime: 128197
Countdown: 0
SampleSet: None
StackLeniency: 0.4
Mode: 1
LetterboxInBreaks: 1
WidescreenStoryboard: 1

[Editor]
Bookmarks: 12642,28642,42864,57086,85531,99753,128197,142419,170864,185086,213531,227753,241975,256197,270419,284642
DistanceSpacing: 0.1
BeatDivisor: 4
GridSize: 32
TimelineZoom: 1.3

[Metadata]
Title:Shadow of a Flower
TitleUnicode:Shadow of a Flower
Artist:StormWolf
ArtistUnicode:StormWolf
Creator:Firmatorenio
Version:Taiko
Source:
Tags:pony mlp cheerilee flooooooooower
BeatmapID:1303649
BeatmapSetID:618436

[Difficulty]
HPDrainRate:6
CircleSize:4
OverallDifficulty:6
ApproachRate:5
SliderMultiplier:1.4
SliderTickRate:2

[Events]
//Background and Video events
0,0,"maxresdefault.jpg",0,0
//Break Periods
//Storyboard Layer 0 (Background)
//Storyboard Layer 1 (Fail)
//Storyboard Layer 2 (Pass)
//Storyboard Layer 3 (Foreground)
//Storyboard Sound Samples

[TimingPoints]
197,444.444444444444,4,2,0,84,1,0
197,-111.111111111111,4,2,0,84,0,0
27752,-108.695652173913,4,2,0,84,0,0
27863,-106.382978723404,4,2,0,84,0,0
27974,-104.166666666667,4,2,0,84,0,0
28196,-99.009900990099,4,2,0,84,0,0
28419,-94.3396226415094,4,2,0,84,0,0
28530,-92.5925925925926,4,2,0,84,0,0
28642,-90.9090909090909,4,1,0,84,0,1
56196,-91.743119266055,4,1,0,84,0,1
56308,-92.5925925925926,4,1,0,84,0,1
56419,-93.4579439252336,4,1,0,84,0,1
56641,-95.2380952380952,4,1,0,84,0,1
56752,-96.1538461538461,4,1,0,84,0,1
56863,-97.0873786407767,4,1,0,84,0,1
56974,-98.0392156862745,4,1,0,84,0,1
57086,-100,4,2,0,84,0,0
98864,-99.009900990099,4,1,0,84,0,0
98974,-98.0392156862745,4,1,0,84,0,0
99085,-97.0873786407767,4,1,0,84,0,0
99308,-95.2380952380952,4,1,0,84,0,0
99419,-94.3396226415094,4,1,0,84,0,0
99530,-93.4579439252336,4,1,0,84,0,0
99641,-92.5925925925926,4,1,0,84,0,0
99753,-90.9090909090909,4,1,0,84,0,1
141530,-91.743119266055,4,1,0,84,0,1
141641,-92.5925925925926,4,1,0,84,0,1
141752,-93.4579439252336,4,1,0,84,0,1
141863,-94.3396226415094,4,1,0,84,0,1
141974,-95.2380952380952,4,1,0,84,0,1
142085,-96.1538461538461,4,1,0,84,0,1
142196,-97.0873786407767,4,1,0,84,0,1
142308,-98.0392156862745,4,1,0,84,0,1
142419,-100,4,2,0,84,0,0
184197,-99.009900990099,4,1,0,84,0,0
184308,-98.0392156862745,4,1,0,84,0,0
184419,-97.0873786407767,4,1,0,84,0,0
184641,-95.2380952380952,4,1,0,84,0,0
184863,-93.4579439252336,4,1,0,84,0,0
184974,-92.5925925925926,4,1,0,84,0,0
185086,-90.9090909090909,4,1,0,84,0,1
226863,-92.5925925925926,4,1,0,84,0,1
226974,-94.3396226415094,4,1,0,84,0,1
227085,-96.1538461538461,4,1,0,84,0,1
227196,-98.0392156862745,4,1,0,84,0,1
227308,-100,4,1,0,84,0,1
227419,-102.040816326531,4,1,0,84,0,1
227530,-105.263157894737,4,1,0,84,0,1
227641,-108.695652173913,4,1,0,84,0,1
227753,-111.111111111111,4,2,0,84,0,0
241086,-108.695652173913,4,1,0,84,0,0
241196,-106.382978723404,4,1,0,84,0,0
241308,-104.166666666667,4,1,0,84,0,0
241530,-100,4,1,0,84,0,0
241641,-98.0392156862745,4,1,0,84,0,0
241752,-95.2380952380952,4,1,0,84,0,0
241863,-93.4579439252336,4,1,0,84,0,0
241975,-90.9090909090909,4,1,0,84,0,1
269530,-83.3333333333333,4,1,0,84,0,1
269974,-76.9230769230769,4,1,0,84,0,1
270419,-76.9230769230769,4,1,0,84,0,0

[HitObjects]
256,192,14420,5,4,0:0:0:0:
256,192,14642,1,0,0:0:0:0:
256,192,14864,1,2,0:0:0:0:
256,192,15086,1,0,0:0:0:0:
256,192,15308,1,2,0:0:0:0:
256,192,15531,1,0,0:0:0:0:
256,192,15753,1,0,0:0:0:0:
256,192,16197,1,2,0:0:0:0:
256,192,16420,1,0,0:0:0:0:
256,192,16642,1,0,0:0:0:0:
256,192,16864,1,2,0:0:0:0:
256,192,17308,1,2,0:0:0:0:
256,192,17531,1,0,0:0:0:0:
256,192,17975,1,0,0:0:0:0:
256,192,18197,1,0,0:0:0:0:
256,192,18420,1,2,0:0:0:0:
256,192,18642,1,0,0:0:0:0:
256,192,18864,1,2,0:0:0:0:
256,192,19308,1,0,0:0:0:0:
256,192,19531,1,0,0:0:0:0:
256,192,19753,1,2,0:0:0:0:
256,192,19975,1,0,0:0:0:0:
256,192,20197,1,2,0:0:0:0:
256,192,20420,1,0,0:0:0:0:
256,192,20642,1,2,0:0:0:0:
256,192,21086,1,0,0:0:0:0:
256,192,21531,1,0,0:0:0:0:
256,192,21753,1,0,0:0:0:0:
256,192,21864,1,0,0:0:0:0:
256,192,21975,1,2,0:0:0:0:
256,192,22197,1,0,0:0:0:0:
256,192,22308,1,2,0:0:0:0:
256,192,22419,1,0,0:0:0:0:
256,192,22642,1,0,0:0:0:0:
256,192,22864,1,2,0:0:0:0:
256,192,23308,1,0,0:0:0:0:
256,192,23531,1,0,0:0:0:0:
256,192,23753,1,2,0:0:0:0:
256,192,23975,1,0,0:0:0:0:
256,192,24197,1,2,0:0:0:0:
256,192,24642,1,0,0:0:0:0:
256,192,24864,1,0,0:0:0:0:
256,192,25086,1,2,0:0:0:0:
256,192,25308,1,0,0:0:0:0:
256,192,25531,1,0,0:0:0:0:
256,192,25753,1,2,0:0:0:0:
256,192,26197,1,2,0:0:0:0:
256,192,26419,1,0,0:0:0:0:
256,192,26642,1,0,0:0:0:0:
256,192,26864,1,2,0:0:0:0:
256,192,27086,1,0,0:0:0:0:
256,192,27308,1,2,0:0:0:0:
256,192,27531,1,0,0:0:0:0:
256,192,27753,1,0,0:0:0:0:
256,192,27864,1,2,0:0:0:0:
256,192,27975,1,0,0:0:0:0:
256,192,28197,1,2,0:0:0:0:
256,192,28419,1,0,0:0:0:0:
256,192,28531,1,2,0:0:0:0:
256,192,28642,1,4,0:0:0:0:
256,192,28863,1,0,0:0:0:0:
256,192,29085,1,2,0:0:0:0:
256,192,29308,1,0,0:0:0:0:
256,192,29419,1,2,0:0:0:0:
256,192,29530,1,2,0:0:0:0:
256,192,29752,1,0,0:0:0:0:
256,192,29863,1,2,0:0:0:0:
256,192,29974,1,0,0:0:0:0:
256,192,30196,1,0,0:0:0:0:
256,192,30419,1,0,0:0:0:0:
256,192,30641,1,0,0:0:0:0:
256,192,30752,1,0,0:0:0:0:
256,192,30863,1,2,0:0:0:0:
256,192,30974,1,2,0:0:0:0:
256,192,31085,1,0,0:0:0:0:
256,192,31196,1,0,0:0:0:0:
256,192,31308,1,2,0:0:0:0:
256,192,31530,1,0,0:0:0:0:
256,192,31752,1,2,0:0:0:0:
256,192,31863,1,2,0:0:0:0:
256,192,31974,1,0,0:0:0:0:
256,192,32085,1,2,0:0:0:0:
256,192,32196,1,0,0:0:0:0:
256,192,32419,1,0,0:0:0:0:
256,192,32641,1,2,0:0:0:0:
256,192,32863,1,0,0:0:0:0:
256,192,32974,1,2,0:0:0:0:
256,192,33085,1,2,0:0:0:0:
256,192,33308,1,0,0:0:0:0:
256,192,33419,1,0,0:0:0:0:
256,192,33530,1,2,0:0:0:0:
256,192,33752,1,0,0:0:0:0:
256,192,33974,1,2,0:0:0:0:
256,192,34196,1,0,0:0:0:0:
256,192,34419,1,2,0:0:0:0:
256,192,34530,1,0,0:0:0:0:
256,192,34641,1,2,0:0:0:0:
256,192,34752,1,2,0:0:0:0:
256,192,34863,1,0,0:0:0:0:
256,192,35085,1,0,0:0:0:0:
256,192,35196,1,0,0:0:0:0:
256,192,35308,1,2,0:0:0:0:
256,192,35419,1,0,0:0:0:0:
256,192,35530,1,2,0:0:0:0:
256,192,35641,1,2,0:0:0:0:
256,192,35752,1,0,0:0:0:0:
256,192,35974,1,0,0:0:0:0:
256,192,36085,1,0,0:0:0:0:
256,192,36196,1,2,0:0:0:0:
256,192,36419,1,0,0:0:0:0:
256,192,36530,1,2,0:0:0:0:
256,192,36641,1,2,0:0:0:0:
256,192,36863,1,0,0:0:0:0:
256,192,37085,1,2,0:0:0:0:
256,192,37196,1,0,0:0:0:0:
256,192,37308,1,2,0:0:0:0:
256,192,37419,1,0,0:0:0:0:
256,192,37530,1,0,0:0:0:0:
256,192,37641,1,2,0:0:0:0:
256,192,37752,1,2,0:0:0:0:
256,192,37863,1,0,0:0:0:0:
256,192,37974,1,2,0:0:0:0:
256,192,38085,1,0,0:0:0:0:
256,192,38196,1,2,0:0:0:0:
256,192,38308,1,2,0:0:0:0:
256,192,38419,1,0,0:0:0:0:
256,192,38641,1,0,0:0:0:0:
256,192,38752,1,0,0:0:0:0:
256,192,38863,1,2,0:0:0:0:
256,192,38974,1,2,0:0:0:0:
256,192,39085,1,0,0:0:0:0:
256,192,39196,1,2,0:0:0:0:
256,192,39308,1,2,0:0:0:0:
256,192,39641,1,2,0:0:0:0:
256,192,39752,1,0,0:0:0:0:
256,192,39863,1,2,0:0:0:0:
256,192,39974,1,2,0:0:0:0:
256,192,40085,1,0,0:0:0:0:
256,192,40196,1,2,0:0:0:0:
256,192,40308,1,2,0:0:0:0:
256,192,40419,1,0,0:0:0:0:
256,192,40530,1,0,0:0:0:0:
256,192,40641,1,0,0:0:0:0:
256,192,40863,1,0,0:0:0:0:
256,192,40974,1,0,0:0:0:0:
256,192,41085,1,2,0:0:0:0:
256,192,41196,1,0,0:0:0:0:
256,192,41308,1,0,0:0:0:0:
256,192,41530,1,2,0:0:0:0:
256,192,41641,1,2,0:0:0:0:
256,192,41752,1,0,0:0:0:0:
256,192,41863,1,2,0:0:0:0:
256,192,41974,1,2,0:0:0:0:
256,192,42196,1,2,0:0:0:0:
256,192,42308,1,0,0:0:0:0:
256,192,42419,1,2,0:0:0:0:
256,192,42530,1,2,0:0:0:0:
256,192,42641,1,0,0:0:0:0:
256,192,42752,1,2,0:0:0:0:
256,192,43196,1,2,0:0:0:0:
256,192,43308,1,0,0:0:0:0:
256,192,43419,1,0,0:0:0:0:
256,192,43530,1,2,0:0:0:0:
256,192,43641,1,0,0:0:0:0:
256,192,43752,1,2,0:0:0:0:
256,192,43863,1,2,0:0:0:0:
256,192,44085,1,0,0:0:0:0:
256,192,44196,1,2,0:0:0:0:
256,192,44419,1,0,0:0:0:0:
256,192,44530,1,2,0:0:0:0:
256,192,44641,1,0,0:0:0:0:
256,192,44752,1,0,0:0:0:0:
256,192,44863,1,2,0:0:0:0:
256,192,44974,1,0,0:0:0:0:
256,192,45085,1,2,0:0:0:0:
256,192,45196,1,0,0:0:0:0:
256,192,45308,1,0,0:0:0:0:
256,192,45419,1,2,0:0:0:0:
256,192,45530,1,0,0:0:0:0:
256,192,45752,1,0,0:0:0:0:
256,192,45863,1,0,0:0:0:0:
256,192,45974,1,2,0:0:0:0:
256,192,46085,1,2,0:0:0:0:
256,192,46196,1,0,0:0:0:0:
256,192,46308,1,2,0:0:0:0:
256,192,46419,1,2,0:0:0:0:
256,192,46641,1,0,0:0:0:0:
256,192,46752,1,2,0:0:0:0:
256,192,46974,1,2,0:0:0:0:
256,192,47085,1,0,0:0:0:0:
256,192,47308,1,2,0:0:0:0:
256,192,47530,1,0,0:0:0:0:
256,192,47641,1,0,0:0:0:0:
256,192,47752,1,2,0:0:0:0:
256,192,47974,1,0,0:0:0:0:
256,192,48196,1,2,0:0:0:0:
256,192,48308,1,0,0:0:0:0:
256,192,48419,1,0,0:0:0:0:
256,192,48530,1,2,0:0:0:0:
256,192,48641,1,2,0:0:0:0:
256,192,48752,1,0,0:0:0:0:
256,192,48863,1,2,0:0:0:0:
256,192,48974,1,0,0:0:0:0:
256,192,49085,1,2,0:0:0:0:
256,192,49196,1,0,0:0:0:0:
256,192,49308,1,2,0:0:0:0:
256,192,49530,1,2,0:0:0:0:
256,192,49641,1,0,0:0:0:0:
256,192,49752,1,0,0:0:0:0:
256,192,49863,1,2,0:0:0:0:
256,192,49974,1,2,0:0:0:0:
256,192,50308,1,0,0:0:0:0:
256,192,50419,1,2,0:0:0:0:
256,192,50530,1,0,0:0:0:0:
256,192,50641,1,0,0:0:0:0:
256,192,50752,1,2,0:0:0:0:
256,192,50863,1,2,0:0:0:0:
256,192,50974,1,2,0:0:0:0:
256,192,51085,1,2,0:0:0:0:
256,192,51196,1,0,0:0:0:0:
256,192,51308,1,2,0:0:0:0:
256,192,51530,1,2,0:0:0:0:
256,192,51641,1,0,0:0:0:0:
256,192,51752,1,2,0:0:0:0:
256,192,51863,1,2,0:0:0:0:
256,192,51974,1,0,0:0:0:0:
256,192,52085,1,0,0:0:0:0:
256,192,52196,1,2,0:0:0:0:
256,192,52419,1,0,0:0:0:0:
256,192,52493,1,2,0:0:0:0:
256,192,52567,1,2,0:0:0:0:
256,192,52641,1,0,0:0:0:0:
256,192,52863,1,0,0:0:0:0:
256,192,53085,1,2,0:0:0:0:
256,192,53308,1,0,0:0:0:0:
256,192,53530,1,0,0:0:0:0:
256,192,53863,1,2,0:0:0:0:
256,192,53974,1,0,0:0:0:0:
256,192,54085,1,2,0:0:0:0:
256,192,54196,1,0,0:0:0:0:
256,192,54308,1,2,0:0:0:0:
256,192,54419,1,2,0:0:0:0:
256,192,54530,1,0,0:0:0:0:
256,192,54752,1,2,0:0:0:0:
256,192,54863,1,0,0:0:0:0:
256,192,55085,1,0,0:0:0:0:
256,192,55308,1,2,0:0:0:0:
256,192,55419,1,0,0:0:0:0:
256,192,55530,1,2,0:0:0:0:
256,192,55641,1,0,0:0:0:0:
256,192,55752,1,2,0:0:0:0:
256,192,55863,1,0,0:0:0:0:
256,192,55974,1,0,0:0:0:0:
256,192,56196,1,2,0:0:0:0:
256,192,56308,1,0,0:0:0:0:
256,192,56419,1,2,0:0:0:0:
256,192,56641,1,2,0:0:0:0:
256,192,56752,1,0,0:0:0:0:
256,192,56863,1,2,0:0:0:0:
256,192,56974,1,2,0:0:0:0:
256,192,57085,1,4,0:0:0:0:
256,192,57308,1,0,0:0:0:0:
256,192,57530,1,2,0:0:0:0:
256,192,57752,1,2,0:0:0:0:
256,192,57974,1,2,0:0:0:0:
256,192,58196,1,0,0:0:0:0:
256,192,58419,1,2,0:0:0:0:
256,192,58863,1,2,0:0:0:0:
256,192,59085,1,0,0:0:0:0:
256,192,59308,1,0,0:0:0:0:
256,192,59530,1,2,0:0:0:0:
256,192,59974,1,2,0:0:0:0:
256,192,60196,1,2,0:0:0:0:
256,192,60419,1,0,0:0:0:0:
256,192,60641,1,0,0:0:0:0:
256,192,60863,1,0,0:0:0:0:
256,192,61085,1,2,0:0:0:0:
256,192,61196,1,2,0:0:0:0:
256,192,61308,1,0,0:0:0:0:
256,192,61530,1,2,0:0:0:0:
256,192,61974,1,2,0:0:0:0:
256,192,62196,1,0,0:0:0:0:
256,192,62419,1,2,0:0:0:0:
256,192,62530,1,2,0:0:0:0:
256,192,62641,1,0,0:0:0:0:
256,192,62863,1,2,0:0:0:0:
256,192,63085,1,0,0:0:0:0:
256,192,63308,1,2,0:0:0:0:
256,192,63530,1,0,0:0:0:0:
256,192,63752,1,2,0:0:0:0:
256,192,64196,1,0,0:0:0:0:
256,192,64419,1,0,0:0:0:0:
256,192,64530,1,0,0:0:0:0:
256,192,64641,1,2,0:0:0:0:
256,192,64863,1,0,0:0:0:0:
256,192,64974,1,2,0:0:0:0:
256,192,65085,1,0,0:0:0:0:
256,192,65308,1,0,0:0:0:0:
256,192,65530,1,2,0:0:0:0:
256,192,65752,1,0,0:0:0:0:
256,192,65974,1,0,0:0:0:0:
256,192,66196,1,0,0:0:0:0:
256,192,66308,1,2,0:0:0:0:
256,192,66530,1,2,0:0:0:0:
256,192,66641,1,0,0:0:0:0:
256,192,66863,1,2,0:0:0:0:
256,192,67085,1,0,0:0:0:0:
256,192,67308,1,2,0:0:0:0:
256,192,67530,1,0,0:0:0:0:
256,192,67752,1,2,0:0:0:0:
256,192,68085,1,0,0:0:0:0:
256,192,68196,1,2,0:0:0:0:
256,192,68419,1,2,0:0:0:0:
256,192,68641,1,0,0:0:0:0:
256,192,68863,1,0,0:0:0:0:
256,192,69085,1,2,0:0:0:0:
256,192,69308,1,0,0:0:0:0:
256,192,69530,1,2,0:0:0:0:
256,192,69752,1,0,0:0:0:0:
256,192,69974,1,0,0:0:0:0:
256,192,70196,1,2,0:0:0:0:
256,192,70641,1,0,0:0:0:0:
256,192,70863,1,2,0:0:0:0:
256,192,71308,1,2,0:0:0:0:
256,192,71419,1,2,0:0:0:0:
256,192,71530,1,0,0:0:0:0:
256,192,71752,1,2,0:0:0:0:
256,192,71974,1,2,0:0:0:0:
256,192,72196,1,2,0:0:0:0:
256,192,72419,1,0,0:0:0:0:
256,192,72641,1,2,0:0:0:0:
256,192,72863,1,2,0:0:0:0:
256,192,73085,1,0,0:0:0:0:
256,192,73308,1,0,0:0:0:0:
256,192,73530,1,2,0:0:0:0:
256,192,73752,1,0,0:0:0:0:
256,192,74196,1,0,0:0:0:0:
256,192,74419,1,2,0:0:0:0:
256,192,74641,1,0,0:0:0:0:
256,192,74863,1,2,0:0:0:0:
256,192,74974,1,0,0:0:0:0:
256,192,75085,1,2,0:0:0:0:
256,192,75308,1,2,0:0:0:0:
256,192,75530,1,0,0:0:0:0:
256,192,75752,1,2,0:0:0:0:
256,192,75974,1,2,0:0:0:0:
256,192,76196,1,0,0:0:0:0:
256,192,76419,1,2,0:0:0:0:
256,192,76641,1,0,0:0:0:0:
256,192,76863,1,0,0:0:0:0:
256,192,76974,1,0,0:0:0:0:
256,192,77085,1,2,0:0:0:0:
256,192,77308,1,0,0:0:0:0:
256,192,77752,1,0,0:0:0:0:
256,192,77974,1,2,0:0:0:0:
256,192,78085,1,0,0:0:0:0:
256,192,78196,1,2,0:0:0:0:
256,192,78308,1,2,0:0:0:0:
256,192,78419,1,0,0:0:0:0:
256,192,78641,1,0,0:0:0:0:
256,192,78863,1,2,0:0:0:0:
256,192,79085,1,0,0:0:0:0:
256,192,79308,1,2,0:0:0:0:
256,192,79530,1,0,0:0:0:0:
256,192,79641,1,0,0:0:0:0:
256,192,79752,1,2,0:0:0:0:
256,192,79974,1,0,0:0:0:0:
256,192,80085,1,2,0:0:0:0:
256,192,80196,1,2,0:0:0:0:
256,192,80419,1,0,0:0:0:0:
256,192,80530,1,2,0:0:0:0:
256,192,80752,1,2,0:0:0:0:
256,192,80863,1,0,0:0:0:0:
256,192,81085,1,0,0:0:0:0:
256,192,81308,1,0,0:0:0:0:
256,192,81530,1,2,0:0:0:0:
256,192,81641,1,0,0:0:0:0:
256,192,81752,1,2,0:0:0:0:
256,192,81974,1,0,0:0:0:0:
256,192,82196,1,0,0:0:0:0:
256,192,82308,1,0,0:0:0:0:
256,192,82530,1,0,0:0:0:0:
256,192,82641,1,2,0:0:0:0:
256,192,82863,1,2,0:0:0:0:
256,192,83085,1,0,0:0:0:0:
256,192,83196,1,2,0:0:0:0:
256,192,83419,1,2,0:0:0:0:
256,192,83530,1,0,0:0:0:0:
256,192,83752,1,0,0:0:0:0:
256,192,83974,1,2,0:0:0:0:
256,192,84085,1,0,0:0:0:0:
256,192,84308,1,0,0:0:0:0:
256,192,84419,1,2,0:0:0:0:
256,192,84641,1,0,0:0:0:0:
256,192,84863,1,0,0:0:0:0:
256,192,85085,1,2,0:0:0:0:
256,192,85196,1,0,0:0:0:0:
256,192,85308,1,2,0:0:0:0:
256,192,85530,1,6,0:0:0:0:
256,192,86419,1,2,0:0:0:0:
256,192,87308,1,2,0:0:0:0:
256,192,87641,1,0,0:0:0:0:
256,192,87974,1,0,0:0:0:0:
256,192,88196,1,2,0:0:0:0:
256,192,89085,1,2,0:0:0:0:
256,192,89974,1,2,0:0:0:0:
256,192,90863,1,2,0:0:0:0:
256,192,91196,1,2,0:0:0:0:
256,192,91530,1,0,0:0:0:0:
256,192,91752,1,2,0:0:0:0:
256,192,92419,1,0,0:0:0:0:
256,192,92641,1,2,0:0:0:0:
256,192,92974,1,0,0:0:0:0:
256,192,93308,1,0,0:0:0:0:
256,192,93530,1,2,0:0:0:0:
256,192,93863,1,0,0:0:0:0:
256,192,94196,1,2,0:0:0:0:
256,192,94419,1,2,0:0:0:0:
256,192,94752,1,2,0:0:0:0:
256,192,95085,1,0,0:0:0:0:
256,192,95308,1,2,0:0:0:0:
256,192,95641,1,0,0:0:0:0:
256,192,95974,1,0,0:0:0:0:
256,192,96196,1,0,0:0:0:0:
256,192,96530,1,0,0:0:0:0:
256,192,96863,1,2,0:0:0:0:
256,192,97085,1,0,0:0:0:0:
256,192,97308,1,0,0:0:0:0:
256,192,97419,1,0,0:0:0:0:
256,192,97530,1,2,0:0:0:0:
256,192,97752,1,2,0:0:0:0:
256,192,97863,1,2,0:0:0:0:
256,192,97974,1,0,0:0:0:0:
256,192,98196,1,2,0:0:0:0:
256,192,98308,1,0,0:0:0:0:
256,192,98419,1,0,0:0:0:0:
256,192,98641,1,2,0:0:0:0:
256,192,98863,1,0,0:0:0:0:
256,192,98974,1,2,0:0:0:0:
256,192,99085,1,0,0:0:0:0:
256,192,99308,1,2,0:0:0:0:
256,192,99419,1,0,0:0:0:0:
256,192,99530,1,2,0:0:0:0:
256,192,99641,1,2,0:0:0:0:
256,192,99752,1,4,0:0:0:0:
256,192,99974,1,0,0:0:0:0:
256,192,100085,1,0,0:0:0:0:
256,192,100196,1,2,0:0:0:0:
256,192,100419,1,0,0:0:0:0:
256,192,100530,1,2,0:0:0:0:
256,192,100641,1,0,0:0:0:0:
256,192,100863,1,0,0:0:0:0:
256,192,100974,1,0,0:0:0:0:
256,192,101085,1,2,0:0:0:0:
256,192,101308,1,0,0:0:0:0:
256,192,101419,1,2,0:0:0:0:
256,192,101530,1,0,0:0:0:0:
256,192,101641,1,0,0:0:0:0:
256,192,101752,1,2,0:0:0:0:
256,192,101863,1,0,0:0:0:0:
256,192,101974,1,2,0:0:0:0:
256,192,102196,1,0,0:0:0:0:
256,192,102419,1,2,0:0:0:0:
256,192,102641,1,0,0:0:0:0:
256,192,102752,1,0,0:0:0:0:
256,192,102863,1,2,0:0:0:0:
256,192,102974,1,0,0:0:0:0:
256,192,103085,1,0,0:0:0:0:
256,192,103196,1,2,0:0:0:0:
256,192,103308,1,0,0:0:0:0:
256,192,103419,1,0,0:0:0:0:
256,192,103530,1,2,0:0:0:0:
256,192,103641,1,0,0:0:0:0:
256,192,103752,1,2,0:0:0:0:
256,192,103974,1,0,0:0:0:0:
256,192,104085,1,2,0:0:0:0:
256,192,104196,1,0,0:0:0:0:
256,192,104308,1,0,0:0:0:0:
256,192,104419,1,2,0:0:0:0:
256,192,104530,1,0,0:0:0:0:
256,192,104641,1,2,0:0:0:0:
256,192,104974,1,2,0:0:0:0:
256,192,105085,1,0,0:0:0:0:
256,192,105308,1,0,0:0:0:0:
256,192,105419,1,2,0:0:0:0:
256,192,105530,1,2,0:0:0:0:
256,192,105752,1,2,0:0:0:0:
256,192,105974,1,0,0:0:0:0:
256,192,106085,1,2,0:0:0:0:
256,192,106196,1,0,0:0:0:0:
256,192,106419,1,2,0:0:0:0:
256,192,106530,1,0,0:0:0:0:
256,192,106641,1,2,0:0:0:0:
256,192,106752,1,2,0:0:0:0:
256,192,106863,1,0,0:0:0:0:
256,192,107085,1,0,0:0:0:0:
256,192,107196,1,2,0:0:0:0:
256,192,107530,1,0,0:0:0:0:
256,192,107641,1,2,0:0:0:0:
256,192,107752,1,0,0:0:0:0:
256,192,107974,1,0,0:0:0:0:
256,192,108085,1,0,0:0:0:0:
256,192,108196,1,2,0:0:0:0:
256,192,108530,1,0,0:0:0:0:
256,192,108641,1,2,0:0:0:0:
256,192,108863,1,0,0:0:0:0:
256,192,108974,1,0,0:0:0:0:
256,192,109085,1,2,0:0:0:0:
256,192,109308,1,0,0:0:0:0:
256,192,109530,1,0,0:0:0:0:
256,192,109752,1,2,0:0:0:0:
256,192,109863,1,0,0:0:0:0:
256,192,109974,1,2,0:0:0:0:
256,192,110085,1,0,0:0:0:0:
256,192,110196,1,0,0:0:0:0:
256,192,110308,1,2,0:0:0:0:
256,192,110419,1,0,0:0:0:0:
256,192,110530,1,0,0:0:0:0:
256,192,110641,1,2,0:0:0:0:
256,192,110752,1,0,0:0:0:0:
256,192,110863,1,2,0:0:0:0:
256,192,111085,1,0,0:0:0:0:
256,192,111196,1,2,0:0:0:0:
256,192,111308,1,0,0:0:0:0:
256,192,111419,1,0,0:0:0:0:
256,192,111530,1,2,0:0:0:0:
256,192,111641,1,2,0:0:0:0:
256,192,111752,1,0,0:0:0:0:
256,192,112085,1,2,0:0:0:0:
256,192,112196,1,0,0:0:0:0:
256,192,112419,1,0,0:0:0:0:
256,192,112530,1,0,0:0:0:0:
256,192,112641,1,2,0:0:0:0:
256,192,112863,1,2,0:0:0:0:
256,192,112974,1,2,0:0:0:0:
256,192,113085,1,0,0:0:0:0:
256,192,113196,1,2,0:0:0:0:
256,192,113308,1,0,0:0:0:0:
256,192,113530,1,2,0:0:0:0:
256,192,113641,1,0,0:0:0:0:
256,192,113752,1,2,0:0:0:0:
256,192,113863,1,2,0:0:0:0:
256,192,113974,1,0,0:0:0:0:
256,192,114085,1,0,0:0:0:0:
256,192,114196,1,2,0:0:0:0:
256,192,114308,1,0,0:0:0:0:
256,192,114419,1,2,0:0:0:0:
256,192,114641,1,0,0:0:0:0:
256,192,114752,1,2,0:0:0:0:
256,192,114863,1,0,0:0:0:0:
256,192,114974,1,0,0:0:0:0:
256,192,115085,1,0,0:0:0:0:
256,192,115196,1,2,0:0:0:0:
256,192,115308,1,2,0:0:0:0:
256,192,115419,1,0,0:0:0:0:
256,192,115530,1,2,0:0:0:0:
256,192,115641,1,2,0:0:0:0:
256,192,115752,1,0,0:0:0:0:
256,192,115974,1,2,0:0:0:0:
256,192,116085,1,0,0:0:0:0:
256,192,116196,1,2,0:0:0:0:
256,192,116419,1,2,0:0:0:0:
256,192,116641,1,0,0:0:0:0:
256,192,116752,1,0,0:0:0:0:
256,192,116863,1,2,0:0:0:0:
256,192,116974,1,0,0:0:0:0:
256,192,117085,1,2,0:0:0:0:
256,192,117196,1,0,0:0:0:0:
256,192,117308,1,0,0:0:0:0:
256,192,117419,1,2,0:0:0:0:
256,192,117530,1,0,0:0:0:0:
256,192,117641,1,0,0:0:0:0:
256,192,117752,1,2,0:0:0:0:
256,192,117863,1,0,0:0:0:0:
256,192,117974,1,2,0:0:0:0:
256,192,118196,1,0,0:0:0:0:
256,192,118308,1,2,0:0:0:0:
256,192,118419,1,0,0:0:0:0:
256,192,118641,1,0,0:0:0:0:
256,192,118752,1,0,0:0:0:0:
256,192,118863,1,2,0:0:0:0:
256,192,119196,1,2,0:0:0:0:
256,192,119308,1,0,0:0:0:0:
256,192,119530,1,2,0:0:0:0:
256,192,119641,1,2,0:0:0:0:
256,192,119752,1,2,0:0:0:0:
256,192,119974,1,2,0:0:0:0:
256,192,120085,1,2,0:0:0:0:
256,192,120196,1,0,0:0:0:0:
256,192,120308,1,2,0:0:0:0:
256,192,120419,1,0,0:0:0:0:
256,192,120530,1,0,0:0:0:0:
256,192,120641,1,2,0:0:0:0:
256,192,120752,1,0,0:0:0:0:
256,192,120863,1,2,0:0:0:0:
256,192,120974,1,2,0:0:0:0:
256,192,121085,1,2,0:0:0:0:
256,192,121196,1,0,0:0:0:0:
256,192,121308,1,0,0:0:0:0:
256,192,121419,1,2,0:0:0:0:
256,192,121530,1,2,0:0:0:0:
256,192,121752,1,0,0:0:0:0:
256,192,121863,1,2,0:0:0:0:
256,192,121974,1,2,0:0:0:0:
256,192,122196,1,0,0:0:0:0:
256,192,122308,1,0,0:0:0:0:
256,192,122419,1,2,0:0:0:0:
256,192,122641,1,0,0:0:0:0:
256,192,122752,1,0,0:0:0:0:
256,192,122863,1,2,0:0:0:0:
256,192,122974,1,2,0:0:0:0:
256,192,123085,1,0,0:0:0:0:
256,192,123196,1,2,0:0:0:0:
256,192,123530,1,2,0:0:0:0:
256,192,123752,1,0,0:0:0:0:
256,192,123974,1,0,0:0:0:0:
256,192,124085,1,0,0:0:0:0:
256,192,124196,1,2,0:0:0:0:
256,192,124308,1,0,0:0:0:0:
256,192,124419,1,0,0:0:0:0:
256,192,124530,1,0,0:0:0:0:
256,192,124641,1,2,0:0:0:0:
256,192,124752,1,0,0:0:0:0:
256,192,124863,1,0,0:0:0:0:
256,192,124974,1,2,0:0:0:0:
256,192,125085,1,2,0:0:0:0:
256,192,125308,1,2,0:0:0:0:
256,192,125419,1,2,0:0:0:0:
256,192,125530,1,0,0:0:0:0:
256,192,125752,1,0,0:0:0:0:
256,192,125863,1,0,0:0:0:0:
256,192,125974,1,2,0:0:0:0:
256,192,126308,1,2,0:0:0:0:
256,192,126419,1,0,0:0:0:0:
256,192,126641,1,0,0:0:0:0:
256,192,126752,1,0,0:0:0:0:
256,192,126863,1,2,0:0:0:0:
256,192,127085,1,2,0:0:0:0:
256,192,127196,1,0,0:0:0:0:
256,192,127308,1,0,0:0:0:0:
256,192,127419,1,2,0:0:0:0:
256,192,127530,1,0,0:0:0:0:
256,192,127752,1,2,0:0:0:0:
256,192,127863,1,0,0:0:0:0:
256,192,127974,1,2,0:0:0:0:
256,192,128085,1,2,0:0:0:0:
256,192,128196,1,4,0:0:0:0:
256,192,128419,1,0,0:0:0:0:
256,192,128530,1,0,0:0:0:0:
256,192,128641,1,2,0:0:0:0:
256,192,128863,1,2,0:0:0:0:
256,192,128974,1,0,0:0:0:0:
256,192,129196,1,0,0:0:0:0:
256,192,129419,1,0,0:0:0:0:
256,192,129530,1,2,0:0:0:0:
256,192,129752,1,0,0:0:0:0:
256,192,129974,1,2,0:0:0:0:
256,192,130196,1,0,0:0:0:0:
256,192,130308,1,0,0:0:0:0:
256,192,130419,1,2,0:0:0:0:
256,192,130641,1,2,0:0:0:0:
256,192,130752,1,0,0:0:0:0:
256,192,130974,1,2,0:0:0:0:
256,192,131196,1,0,0:0:0:0:
256,192,131308,1,2,0:0:0:0:
256,192,131530,1,0,0:0:0:0:
256,192,131641,1,2,0:0:0:0:
256,192,131752,1,0,0:0:0:0:
256,192,131974,1,0,0:0:0:0:
256,192,132085,1,2,0:0:0:0:
256,192,132196,1,2,0:0:0:0:
256,192,132308,1,0,0:0:0:0:
256,192,132419,1,2,0:0:0:0:
256,192,132530,1,0,0:0:0:0:
256,192,132752,1,2,0:0:0:0:
256,192,132974,1,2,0:0:0:0:
256,192,133085,1,0,0:0:0:0:
256,192,133308,1,2,0:0:0:0:
256,192,133530,1,2,0:0:0:0:
256,192,133641,1,0,0:0:0:0:
256,192,133752,1,0,0:0:0:0:
256,192,133863,1,2,0:0:0:0:
256,192,133974,1,2,0:0:0:0:
256,192,134196,1,2,0:0:0:0:
256,192,134308,1,2,0:0:0:0:
256,192,134419,1,0,0:0:0:0:
256,192,134530,1,2,0:0:0:0:
256,192,134641,1,0,0:0:0:0:
256,192,134863,1,2,0:0:0:0:
256,192,134974,1,0,0:0:0:0:
256,192,135085,1,2,0:0:0:0:
256,192,135196,1,2,0:0:0:0:
256,192,135308,1,0,0:0:0:0:
256,192,135530,1,0,0:0:0:0:
256,192,135752,1,2,0:0:0:0:
256,192,135863,1,0,0:0:0:0:
256,192,135974,1,2,0:0:0:0:
256,192,136085,1,2,0:0:0:0:
256,192,136308,1,0,0:0:0:0:
256,192,136530,1,0,0:0:0:0:
256,192,136641,1,2,0:0:0:0:
256,192,136863,1,0,0:0:0:0:
256,192,136974,1,2,0:0:0:0:
256,192,137085,1,2,0:0:0:0:
256,192,137308,1,0,0:0:0:0:
256,192,137419,1,0,0:0:0:0:
256,192,137530,1,2,0:0:0:0:
256,192,137752,1,0,0:0:0:0:
256,192,137863,1,2,0:0:0:0:
256,192,138085,1,0,0:0:0:0:
256,192,138308,1,0,0:0:0:0:
256,192,138419,1,2,0:0:0:0:
256,192,138641,1,0,0:0:0:0:
256,192,138863,1,0,0:0:0:0:
256,192,139085,1,2,0:0:0:0:
256,192,139196,1,0,0:0:0:0:
256,192,139308,1,2,0:0:0:0:
256,192,139419,1,0,0:0:0:0:
256,192,139530,1,0,0:0:0:0:
256,192,139641,1,2,0:0:0:0:
256,192,139863,1,0,0:0:0:0:
256,192,140085,1,0,0:0:0:0:
256,192,140196,1,2,0:0:0:0:
256,192,140419,1,2,0:0:0:0:
256,192,140641,1,0,0:0:0:0:
256,192,140974,1,0,0:0:0:0:
256,192,141085,1,2,0:0:0:0:
256,192,141308,1,0,0:0:0:0:
256,192,141530,1,2,0:0:0:0:
256,192,141641,1,0,0:0:0:0:
256,192,141752,1,2,0:0:0:0:
256,192,141863,1,0,0:0:0:0:
256,192,141974,1,2,0:0:0:0:
256,192,142085,1,0,0:0:0:0:
256,192,142196,1,2,0:0:0:0:
256,192,142308,1,2,0:0:0:0:
256,192,142419,1,4,0:0:0:0:
256,192,142863,1,2,0:0:0:0:
256,192,143308,1,2,0:0:0:0:
256,192,143530,1,0,0:0:0:0:
256,192,143752,1,2,0:0:0:0:
256,192,143974,1,0,0:0:0:0:
256,192,144196,1,0,0:0:0:0:
256,192,144530,1,2,0:0:0:0:
256,192,144641,1,2,0:0:0:0:
256,192,144863,1,0,0:0:0:0:
256,192,145308,1,0,0:0:0:0:
256,192,145530,1,2,0:0:0:0:
256,192,145974,1,0,0:0:0:0:
256,192,146196,1,0,0:0:0:0:
256,192,146419,1,2,0:0:0:0:
256,192,146641,1,0,0:0:0:0:
256,192,146863,1,2,0:0:0:0:
256,192,147085,1,0,0:0:0:0:
256,192,147196,1,0,0:0:0:0:
256,192,147308,1,2,0:0:0:0:
256,192,147530,1,0,0:0:0:0:
256,192,147752,1,2,0:0:0:0:
256,192,147974,1,2,0:0:0:0:
256,192,148196,1,0,0:0:0:0:
256,192,148419,1,2,0:0:0:0:
256,192,148863,1,0,0:0:0:0:
256,192,149085,1,2,0:0:0:0:
256,192,149308,1,2,0:0:0:0:
256,192,149530,1,0,0:0:0:0:
256,192,149641,1,0,0:0:0:0:
256,192,149752,1,2,0:0:0:0:
256,192,149863,1,0,0:0:0:0:
256,192,149974,1,2,0:0:0:0:
256,192,150196,1,0,0:0:0:0:
256,192,150419,1,2,0:0:0:0:
256,192,150530,1,2,0:0:0:0:
256,192,150641,1,2,0:0:0:0:
256,192,150752,1,0,0:0:0:0:
256,192,150863,1,2,0:0:0:0:
256,192,151196,1,2,0:0:0:0:
256,192,151308,1,0,0:0:0:0:
256,192,151530,1,2,0:0:0:0:
256,192,151641,1,0,0:0:0:0:
256,192,151752,1,2,0:0:0:0:
256,192,151974,1,2,0:0:0:0:
256,192,152196,1,0,0:0:0:0:
256,192,152419,1,0,0:0:0:0:
256,192,152641,1,2,0:0:0:0:
256,192,152863,1,0,0:0:0:0:
256,192,153085,1,2,0:0:0:0:
256,192,153196,1,2,0:0:0:0:
256,192,153308,1,0,0:0:0:0:
256,192,153530,1,2,0:0:0:0:
256,192,153641,1,2,0:0:0:0:
256,192,153752,1,0,0:0:0:0:
256,192,153863,1,0,0:0:0:0:
256,192,153974,1,2,0:0:0:0:
256,192,154196,1,0,0:0:0:0:
256,192,154308,1,0,0:0:0:0:
256,192,154419,1,2,0:0:0:0:
256,192,154641,1,2,0:0:0:0:
256,192,154863,1,0,0:0:0:0:
256,192,154974,1,2,0:0:0:0:
256,192,155085,1,0,0:0:0:0:
256,192,155308,1,2,0:0:0:0:
256,192,155530,1,0,0:0:0:0:
256,192,155752,1,0,0:0:0:0:
256,192,155974,1,0,0:0:0:0:
256,192,156196,1,2,0:0:0:0:
256,192,156641,1,2,0:0:0:0:
256,192,156752,1,0,0:0:0:0:
256,192,156863,1,2,0:0:0:0:
256,192,157085,1,2,0:0:0:0:
256,192,157196,1,2,0:0:0:0:
256,192,157308,1,0,0:0:0:0:
256,192,157419,1,0,0:0:0:0:
256,192,157530,1,2,0:0:0:0:
256,192,157752,1,0,0:0:0:0:
256,192,157974,1,2,0:0:0:0:
256,192,158196,1,2,0:0:0:0:
256,192,158419,1,0,0:0:0:0:
256,192,158641,1,0,0:0:0:0:
256,192,158863,1,2,0:0:0:0:
256,192,159085,1,0,0:0:0:0:
256,192,159530,1,0,0:0:0:0:
256,192,159752,1,2,0:0:0:0:
256,192,159974,1,0,0:0:0:0:
256,192,160196,1,2,0:0:0:0:
256,192,160308,1,2,0:0:0:0:
256,192,160419,1,0,0:0:0:0:
256,192,160530,1,0,0:0:0:0:
256,192,160641,1,2,0:0:0:0:
256,192,160863,1,0,0:0:0:0:
256,192,160974,1,0,0:0:0:0:
256,192,161085,1,2,0:0:0:0:
256,192,161196,1,2,0:0:0:0:
256,192,161308,1,2,0:0:0:0:
256,192,161419,1,0,0:0:0:0:
256,192,161530,1,2,0:0:0:0:
256,192,161752,1,0,0:0:0:0:
256,192,161974,1,0,0:0:0:0:
256,192,162196,1,0,0:0:0:0:
256,192,162308,1,0,0:0:0:0:
256,192,162419,1,2,0:0:0:0:
256,192,162641,1,0,0:0:0:0:
256,192,163085,1,0,0:0:0:0:
256,192,163308,1,2,0:0:0:0:
256,192,163530,1,0,0:0:0:0:
256,192,163752,1,2,0:0:0:0:
256,192,163863,1,0,0:0:0:0:
256,192,163974,1,0,0:0:0:0:
256,192,164196,1,2,0:0:0:0:
256,192,164419,1,0,0:0:0:0:
256,192,164641,1,2,0:0:0:0:
256,192,164863,1,0,0:0:0:0:
256,192,164974,1,0,0:0:0:0:
256,192,165085,1,2,0:0:0:0:
256,192,165308,1,0,0:0:0:0:
256,192,165419,1,2,0:0:0:0:
256,192,165530,1,2,0:0:0:0:
256,192,165752,1,0,0:0:0:0:
256,192,165863,1,2,0:0:0:0:
256,192,166085,1,2,0:0:0:0:
256,192,166196,1,2,0:0:0:0:
256,192,166419,1,0,0:0:0:0:
256,192,166641,1,0,0:0:0:0:
256,192,166863,1,2,0:0:0:0:
256,192,167085,1,0,0:0:0:0:
256,192,167308,1,2,0:0:0:0:
256,192,167530,1,0,0:0:0:0:
256,192,167641,1,2,0:0:0:0:
256,192,167863,1,0,0:0:0:0:
256,192,167974,1,2,0:0:0:0:
256,192,168196,1,2,0:0:0:0:
256,192,168419,1,2,0:0:0:0:
256,192,168530,1,0,0:0:0:0:
256,192,168752,1,0,0:0:0:0:
256,192,168863,1,2,0:0:0:0:
256,192,169085,1,0,0:0:0:0:
256,192,169308,1,0,0:0:0:0:
256,192,169419,1,2,0:0:0:0:
256,192,169641,1,2,0:0:0:0:
256,192,169752,1,0,0:0:0:0:
256,192,169974,1,0,0:0:0:0:
256,192,170196,1,0,0:0:0:0:
256,192,170419,1,2,0:0:0:0:
256,192,170530,1,0,0:0:0:0:
256,192,170641,1,0,0:0:0:0:
256,192,170863,1,6,0:0:0:0:
256,192,171530,1,0,0:0:0:0:
256,192,171752,1,2,0:0:0:0:
256,192,172641,1,2,0:0:0:0:
256,192,172974,1,0,0:0:0:0:
256,192,173308,1,0,0:0:0:0:
256,192,173530,1,2,0:0:0:0:
256,192,173863,1,0,0:0:0:0:
256,192,174196,1,0,0:0:0:0:
256,192,174419,1,2,0:0:0:0:
256,192,174752,1,2,0:0:0:0:
256,192,175085,1,0,0:0:0:0:
256,192,175308,1,2,0:0:0:0:
256,192,175641,1,0,0:0:0:0:
256,192,175974,1,0,0:0:0:0:
256,192,176196,1,2,0:0:0:0:
256,192,176530,1,2,0:0:0:0:
256,192,176863,1,0,0:0:0:0:
256,192,177085,1,2,0:0:0:0:
256,192,177752,1,2,0:0:0:0:
256,192,177974,1,2,0:0:0:0:
256,192,178308,1,0,0:0:0:0:
256,192,178641,1,0,0:0:0:0:
256,192,178863,1,2,0:0:0:0:
256,192,179196,1,2,0:0:0:0:
256,192,179530,1,0,0:0:0:0:
256,192,179752,1,2,0:0:0:0:
256,192,180085,1,0,0:0:0:0:
256,192,180419,1,2,0:0:0:0:
256,192,180641,1,0,0:0:0:0:
256,192,180974,1,0,0:0:0:0:
256,192,181308,1,2,0:0:0:0:
256,192,181530,1,0,0:0:0:0:
256,192,181863,1,2,0:0:0:0:
256,192,182196,1,2,0:0:0:0:
256,192,182419,1,0,0:0:0:0:
256,192,182641,1,0,0:0:0:0:
256,192,182752,1,2,0:0:0:0:
256,192,182974,1,2,0:0:0:0:
256,192,183085,1,0,0:0:0:0:
256,192,183308,1,0,0:0:0:0:
256,192,183530,1,2,0:0:0:0:
256,192,183752,1,0,0:0:0:0:
256,192,183863,1,0,0:0:0:0:
256,192,183974,1,2,0:0:0:0:
256,192,184196,1,0,0:0:0:0:
256,192,184308,1,2,0:0:0:0:
256,192,184419,1,0,0:0:0:0:
256,192,184641,1,2,0:0:0:0:
256,192,184863,1,2,0:0:0:0:
256,192,184974,1,2,0:0:0:0:
256,192,185085,1,4,0:0:0:0:
256,192,185308,1,2,0:0:0:0:
256,192,185419,1,0,0:0:0:0:
256,192,185530,1,2,0:0:0:0:
256,192,185641,1,0,0:0:0:0:
256,192,185752,1,2,0:0:0:0:
256,192,185863,1,2,0:0:0:0:
256,192,185974,1,0,0:0:0:0:
256,192,186085,1,0,0:0:0:0:
256,192,186196,1,0,0:0:0:0:
256,192,186308,1,0,0:0:0:0:
256,192,186419,1,2,0:0:0:0:
256,192,186752,1,2,0:0:0:0:
256,192,186863,1,0,0:0:0:0:
256,192,186974,1,0,0:0:0:0:
256,192,187085,1,2,0:0:0:0:
256,192,187196,1,0,0:0:0:0:
256,192,187308,1,2,0:0:0:0:
256,192,187530,1,2,0:0:0:0:
256,192,187641,1,2,0:0:0:0:
256,192,187752,1,0,0:0:0:0:
256,192,187863,1,2,0:0:0:0:
256,192,187974,1,0,0:0:0:0:
256,192,188085,1,0,0:0:0:0:
256,192,188196,1,2,0:0:0:0:
256,192,188308,1,2,0:0:0:0:
256,192,188419,1,0,0:0:0:0:
256,192,188530,1,2,0:0:0:0:
256,192,188641,1,0,0:0:0:0:
256,192,188752,1,0,0:0:0:0:
256,192,188863,1,0,0:0:0:0:
256,192,188974,1,2,0:0:0:0:
256,192,189085,1,2,0:0:0:0:
256,192,189196,1,0,0:0:0:0:
256,192,189308,1,0,0:0:0:0:
256,192,189419,1,2,0:0:0:0:
256,192,189530,1,0,0:0:0:0:
256,192,189641,1,0,0:0:0:0:
256,192,189752,1,2,0:0:0:0:
256,192,189863,1,0,0:0:0:0:
256,192,189974,1,2,0:0:0:0:
256,192,190085,1,0,0:0:0:0:
256,192,190196,1,0,0:0:0:0:
256,192,190308,1,2,0:0:0:0:
256,192,190419,1,0,0:0:0:0:
256,192,190530,1,2,0:0:0:0:
256,192,190641,1,2,0:0:0:0:
256,192,190752,1,0,0:0:0:0:
256,192,190863,1,2,0:0:0:0:
256,192,190974,1,0,0:0:0:0:
256,192,191085,1,2,0:0:0:0:
256,192,191308,1,0,0:0:0:0:
256,192,191419,1,2,0:0:0:0:
256,192,191530,1,0,0:0:0:0:
256,192,191641,1,0,0:0:0:0:
256,192,191752,1,2,0:0:0:0:
256,192,191863,1,0,0:0:0:0:
256,192,191974,1,2,0:0:0:0:
256,192,192085,1,2,0:0:0:0:
256,192,192196,1,2,0:0:0:0:
256,192,192308,1,2,0:0:0:0:
256,192,192419,1,0,0:0:0:0:
256,192,192530,1,2,0:0:0:0:
256,192,192641,1,2,0:0:0:0:
256,192,192752,1,0,0:0:0:0:
256,192,192863,1,2,0:0:0:0:
256,192,192974,1,2,0:0:0:0:
256,192,193085,1,0,0:0:0:0:
256,192,193196,1,0,0:0:0:0:
256,192,193308,1,2,0:0:0:0:
256,192,193419,1,0,0:0:0:0:
256,192,193530,1,2,0:0:0:0:
256,192,193641,1,0,0:0:0:0:
256,192,193752,1,0,0:0:0:0:
256,192,193863,1,2,0:0:0:0:
256,192,193974,1,2,0:0:0:0:
256,192,194085,1,0,0:0:0:0:
256,192,194196,1,2,0:0:0:0:
256,192,194308,1,2,0:0:0:0:
256,192,194419,1,2,0:0:0:0:
256,192,194530,1,0,0:0:0:0:
256,192,194641,1,2,0:0:0:0:
256,192,194752,1,2,0:0:0:0:
256,192,194863,1,0,0:0:0:0:
256,192,195085,1,0,0:0:0:0:
256,192,195196,1,0,0:0:0:0:
256,192,195308,1,2,0:0:0:0:
256,192,195419,1,0,0:0:0:0:
256,192,195530,1,2,0:0:0:0:
256,192,195641,1,2,0:0:0:0:
256,192,195752,1,0,0:0:0:0:
256,192,195863,1,2,0:0:0:0:
256,192,195974,1,0,0:0:0:0:
256,192,196085,1,0,0:0:0:0:
256,192,196196,1,2,0:0:0:0:
256,192,196308,1,0,0:0:0:0:
256,192,196419,1,2,0:0:0:0:
256,192,196530,1,2,0:0:0:0:
256,192,196641,1,0,0:0:0:0:
256,192,196752,1,0,0:0:0:0:
256,192,196863,1,2,0:0:0:0:
256,192,196974,1,0,0:0:0:0:
256,192,197085,1,0,0:0:0:0:
256,192,197419,1,0,0:0:0:0:
256,192,197530,1,0,0:0:0:0:
256,192,197641,1,0,0:0:0:0:
256,192,197752,1,2,0:0:0:0:
256,192,197863,1,0,0:0:0:0:
256,192,197974,1,2,0:0:0:0:
256,192,198196,1,2,0:0:0:0:
256,192,198308,1,2,0:0:0:0:
256,192,198419,1,0,0:0:0:0:
256,192,198530,1,2,0:0:0:0:
256,192,198641,1,0,0:0:0:0:
256,192,198752,1,0,0:0:0:0:
256,192,198863,1,2,0:0:0:0:
256,192,198974,1,0,0:0:0:0:
256,192,199085,1,2,0:0:0:0:
256,192,199196,1,2,0:0:0:0:
256,192,199308,1,0,0:0:0:0:
256,192,199530,1,0,0:0:0:0:
256,192,199641,1,0,0:0:0:0:
256,192,199752,1,2,0:0:0:0:
256,192,199863,1,0,0:0:0:0:
256,192,199974,1,2,0:0:0:0:
256,192,200085,1,2,0:0:0:0:
256,192,200196,1,0,0:0:0:0:
256,192,200308,1,0,0:0:0:0:
256,192,200419,1,2,0:0:0:0:
256,192,200530,1,0,0:0:0:0:
256,192,200641,1,2,0:0:0:0:
256,192,200752,1,0,0:0:0:0:
256,192,200863,1,0,0:0:0:0:
256,192,200974,1,2,0:0:0:0:
256,192,201085,1,0,0:0:0:0:
256,192,201196,1,0,0:0:0:0:
256,192,201308,1,2,0:0:0:0:
256,192,201419,1,0,0:0:0:0:
256,192,201530,1,2,0:0:0:0:
256,192,201641,1,0,0:0:0:0:
256,192,201752,1,2,0:0:0:0:
256,192,201863,1,2,0:0:0:0:
256,192,201974,1,0,0:0:0:0:
256,192,202085,1,0,0:0:0:0:
256,192,202196,1,2,0:0:0:0:
256,192,202308,1,0,0:0:0:0:
256,192,202419,1,2,0:0:0:0:
256,192,202530,1,0,0:0:0:0:
256,192,202641,1,2,0:0:0:0:
256,192,202752,1,2,0:0:0:0:
256,192,202863,1,0,0:0:0:0:
256,192,203085,1,0,0:0:0:0:
256,192,203196,1,2,0:0:0:0:
256,192,203308,1,2,0:0:0:0:
256,192,203419,1,0,0:0:0:0:
256,192,203530,1,2,0:0:0:0:
256,192,203641,1,2,0:0:0:0:
256,192,203752,1,0,0:0:0:0:
256,192,203863,1,0,0:0:0:0:
256,192,203974,1,2,0:0:0:0:
256,192,204085,1,0,0:0:0:0:
256,192,204196,1,2,0:0:0:0:
256,192,204308,1,0,0:0:0:0:
256,192,204419,1,0,0:0:0:0:
256,192,204530,1,2,0:0:0:0:
256,192,204641,1,0,0:0:0:0:
256,192,204752,1,2,0:0:0:0:
256,192,204863,1,0,0:0:0:0:
256,192,204974,1,2,0:0:0:0:
256,192,205085,1,2,0:0:0:0:
256,192,205196,1,2,0:0:0:0:
256,192,205308,1,2,0:0:0:0:
256,192,205419,1,0,0:0:0:0:
256,192,205530,1,0,0:0:0:0:
256,192,205641,1,2,0:0:0:0:
256,192,205752,1,0,0:0:0:0:
256,192,205863,1,0,0:0:0:0:
256,192,205974,1,2,0:0:0:0:
256,192,206085,1,0,0:0:0:0:
256,192,206196,1,2,0:0:0:0:
256,192,206308,1,2,0:0:0:0:
256,192,206419,1,2,0:0:0:0:
256,192,206641,1,2,0:0:0:0:
256,192,206752,1,2,0:0:0:0:
256,192,206863,1,2,0:0:0:0:
256,192,206974,1,0,0:0:0:0:
256,192,207085,1,2,0:0:0:0:
256,192,207196,1,2,0:0:0:0:
256,192,207308,1,0,0:0:0:0:
256,192,207419,1,0,0:0:0:0:
256,192,207530,1,2,0:0:0:0:
256,192,207641,1,0,0:0:0:0:
256,192,207752,1,2,0:0:0:0:
256,192,207863,1,0,0:0:0:0:
256,192,207974,1,0,0:0:0:0:
256,192,208085,1,2,0:0:0:0:
256,192,208196,1,2,0:0:0:0:
256,192,208308,1,2,0:0:0:0:
256,192,208419,1,0,0:0:0:0:
256,192,208530,1,2,0:0:0:0:
256,192,208641,1,2,0:0:0:0:
256,192,208752,1,0,0:0:0:0:
256,192,208863,1,2,0:0:0:0:
256,192,208974,1,2,0:0:0:0:
256,192,209085,1,0,0:0:0:0:
256,192,209196,1,0,0:0:0:0:
256,192,209308,1,0,0:0:0:0:
256,192,209419,1,0,0:0:0:0:
256,192,209530,1,2,0:0:0:0:
256,192,209641,1,2,0:0:0:0:
256,192,209752,1,0,0:0:0:0:
256,192,209863,1,0,0:0:0:0:
256,192,209974,1,0,0:0:0:0:
256,192,210085,1,0,0:0:0:0:
256,192,210196,1,2,0:0:0:0:
256,192,210308,1,0,0:0:0:0:
256,192,210419,1,2,0:0:0:0:
256,192,210530,1,0,0:0:0:0:
256,192,210641,1,2,0:0:0:0:
256,192,210752,1,2,0:0:0:0:
256,192,210863,1,0,0:0:0:0:
256,192,210974,1,0,0:0:0:0:
256,192,211085,1,0,0:0:0:0:
256,192,211196,1,2,0:0:0:0:
256,192,211308,1,0,0:0:0:0:
256,192,211419,1,0,0:0:0:0:
256,192,211530,1,0,0:0:0:0:
256,192,211641,1,2,0:0:0:0:
256,192,211752,1,0,0:0:0:0:
256,192,211863,1,2,0:0:0:0:
256,192,211974,1,2,0:0:0:0:
256,192,212085,1,2,0:0:0:0:
256,192,212196,1,0,0:0:0:0:
256,192,212308,1,0,0:0:0:0:
256,192,212419,1,2,0:0:0:0:
256,192,212530,1,2,0:0:0:0:
256,192,212641,1,0,0:0:0:0:
256,192,212752,1,2,0:0:0:0:
256,192,212863,1,0,0:0:0:0:
256,192,212974,1,0,0:0:0:0:
256,192,213085,1,2,0:0:0:0:
256,192,213196,1,0,0:0:0:0:
256,192,213308,1,2,0:0:0:0:
256,192,213419,1,2,0:0:0:0:
256,192,213530,1,4,0:0:0:0:
256,192,213752,1,0,0:0:0:0:
256,192,213863,1,2,0:0:0:0:
256,192,213974,1,2,0:0:0:0:
256,192,214085,1,0,0:0:0:0:
256,192,214196,1,2,0:0:0:0:
256,192,214308,1,2,0:0:0:0:
256,192,214530,1,0,0:0:0:0:
256,192,214752,1,0,0:0:0:0:
256,192,214863,1,2,0:0:0:0:
256,192,215085,1,0,0:0:0:0:
256,192,215308,1,0,0:0:0:0:
256,192,215419,1,0,0:0:0:0:
256,192,215530,1,2,0:0:0:0:
256,192,215641,1,0,0:0:0:0:
256,192,215752,1,2,0:0:0:0:
256,192,215863,1,0,0:0:0:0:
256,192,215974,1,0,0:0:0:0:
256,192,216085,1,2,0:0:0:0:
256,192,216308,1,0,0:0:0:0:
256,192,216530,1,0,0:0:0:0:
256,192,216641,1,2,0:0:0:0:
256,192,216863,1,0,0:0:0:0:
256,192,217085,1,0,0:0:0:0:
256,192,217308,1,0,0:0:0:0:
256,192,217419,1,2,0:0:0:0:
256,192,217530,1,2,0:0:0:0:
256,192,217641,1,0,0:0:0:0:
256,192,217752,1,0,0:0:0:0:
256,192,217863,1,2,0:0:0:0:
256,192,218085,1,2,0:0:0:0:
256,192,218308,1,0,0:0:0:0:
256,192,218419,1,2,0:0:0:0:
256,192,218641,1,2,0:0:0:0:
256,192,218863,1,2,0:0:0:0:
256,192,218974,1,0,0:0:0:0:
256,192,219085,1,0,0:0:0:0:
256,192,219196,1,2,0:0:0:0:
256,192,219308,1,2,0:0:0:0:
256,192,219419,1,0,0:0:0:0:
256,192,219530,1,2,0:0:0:0:
256,192,219641,1,2,0:0:0:0:
256,192,219752,1,0,0:0:0:0:
256,192,219863,1,2,0:0:0:0:
256,192,219974,1,0,0:0:0:0:
256,192,220085,1,0,0:0:0:0:
256,192,220196,1,2,0:0:0:0:
256,192,220308,1,0,0:0:0:0:
256,192,220419,1,2,0:0:0:0:
256,192,220530,1,2,0:0:0:0:
256,192,220641,1,0,0:0:0:0:
256,192,220863,1,0,0:0:0:0:
256,192,220974,1,0,0:0:0:0:
256,192,221085,1,2,0:0:0:0:
256,192,221196,1,0,0:0:0:0:
256,192,221308,1,0,0:0:0:0:
256,192,221419,1,2,0:0:0:0:
256,192,221641,1,0,0:0:0:0:
256,192,221863,1,0,0:0:0:0:
256,192,221974,1,2,0:0:0:0:
256,192,222196,1,2,0:0:0:0:
256,192,222419,1,0,0:0:0:0:
256,192,222530,1,0,0:0:0:0:
256,192,222641,1,2,0:0:0:0:
256,192,222752,1,0,0:0:0:0:
256,192,222863,1,2,0:0:0:0:
256,192,222974,1,2,0:0:0:0:
256,192,223085,1,0,0:0:0:0:
256,192,223196,1,2,0:0:0:0:
256,192,223419,1,2,0:0:0:0:
256,192,223641,1,0,0:0:0:0:
256,192,223752,1,2,0:0:0:0:
256,192,223974,1,2,0:0:0:0:
256,192,224196,1,2,0:0:0:0:
256,192,224308,1,0,0:0:0:0:
256,192,224419,1,0,0:0:0:0:
256,192,224530,1,2,0:0:0:0:
256,192,224641,1,2,0:0:0:0:
256,192,224752,1,0,0:0:0:0:
256,192,224863,1,0,0:0:0:0:
256,192,224974,1,2,0:0:0:0:
256,192,225085,1,0,0:0:0:0:
256,192,225196,1,2,0:0:0:0:
256,192,225308,1,0,0:0:0:0:
256,192,225419,1,0,0:0:0:0:
256,192,225530,1,2,0:0:0:0:
256,192,225641,1,2,0:0:0:0:
256,192,225752,1,0,0:0:0:0:
256,192,225863,1,0,0:0:0:0:
256,192,225974,1,2,0:0:0:0:
256,192,226085,1,2,0:0:0:0:
256,192,226196,1,0,0:0:0:0:
256,192,226308,1,2,0:0:0:0:
256,192,226419,1,2,0:0:0:0:
256,192,226530,1,0,0:0:0:0:
256,192,226641,1,2,0:0:0:0:
256,192,226752,1,2,0:0:0:0:
256,192,226863,1,2,0:0:0:0:
256,192,226974,1,0,0:0:0:0:
256,192,227085,1,2,0:0:0:0:
256,192,227196,1,0,0:0:0:0:
256,192,227308,1,2,0:0:0:0:
256,192,227419,1,0,0:0:0:0:
256,192,227530,1,2,0:0:0:0:
256,192,227641,1,2,0:0:0:0:
256,192,227752,1,4,0:0:0:0:
256,192,228196,1,0,0:0:0:0:
256,192,228641,1,2,0:0:0:0:
256,192,229085,1,0,0:0:0:0:
256,192,229530,1,2,0:0:0:0:
256,192,229752,1,2,0:0:0:0:
256,192,229974,1,0,0:0:0:0:
256,192,230196,1,2,0:0:0:0:
256,192,230641,1,2,0:0:0:0:
256,192,230863,1,0,0:0:0:0:
256,192,231308,1,0,0:0:0:0:
256,192,231752,1,2,0:0:0:0:
256,192,232196,1,2,0:0:0:0:
256,192,232641,1,0,0:0:0:0:
256,192,232863,1,0,0:0:0:0:
256,192,233085,1,2,0:0:0:0:
256,192,233308,1,0,0:0:0:0:
256,192,233530,1,2,0:0:0:0:
256,192,233752,1,0,0:0:0:0:
256,192,233974,1,2,0:0:0:0:
256,192,234196,1,2,0:0:0:0:
256,192,234419,1,0,0:0:0:0:
256,192,234863,1,0,0:0:0:0:
256,192,235085,1,0,0:0:0:0:
256,192,235308,1,2,0:0:0:0:
256,192,235530,1,0,0:0:0:0:
256,192,235752,1,2,0:0:0:0:
256,192,236196,1,0,0:0:0:0:
256,192,236419,1,0,0:0:0:0:
256,192,236641,1,2,0:0:0:0:
256,192,236863,1,0,0:0:0:0:
256,192,237085,1,0,0:0:0:0:
256,192,237308,1,2,0:0:0:0:
256,192,237752,1,2,0:0:0:0:
256,192,237974,1,0,0:0:0:0:
256,192,238419,1,0,0:0:0:0:
256,192,238641,1,2,0:0:0:0:
256,192,238863,1,0,0:0:0:0:
256,192,239085,1,0,0:0:0:0:
256,192,239308,1,2,0:0:0:0:
256,192,239752,1,0,0:0:0:0:
256,192,240196,1,0,0:0:0:0:
256,192,240419,1,2,0:0:0:0:
256,192,240641,1,0,0:0:0:0:
256,192,240863,1,0,0:0:0:0:
256,192,241085,1,2,0:0:0:0:
256,192,241196,1,0,0:0:0:0:
256,192,241308,1,2,0:0:0:0:
256,192,241530,1,2,0:0:0:0:
256,192,241641,1,0,0:0:0:0:
256,192,241752,1,2,0:0:0:0:
256,192,241863,1,2,0:0:0:0:
256,192,241974,1,4,0:0:0:0:
256,192,242196,1,0,0:0:0:0:
256,192,242308,1,0,0:0:0:0:
256,192,242418,1,2,0:0:0:0:
256,192,242641,1,0,0:0:0:0:
256,192,242752,1,2,0:0:0:0:
256,192,242863,1,2,0:0:0:0:
256,192,243085,1,0,0:0:0:0:
256,192,243196,1,2,0:0:0:0:
256,192,243307,1,0,0:0:0:0:
256,192,243529,1,0,0:0:0:0:
256,192,243752,1,0,0:0:0:0:
256,192,243974,1,0,0:0:0:0:
256,192,244085,1,0,0:0:0:0:
256,192,244196,1,2,0:0:0:0:
256,192,244307,1,2,0:0:0:0:
256,192,244418,1,0,0:0:0:0:
256,192,244529,1,0,0:0:0:0:
256,192,244641,1,2,0:0:0:0:
256,192,244863,1,0,0:0:0:0:
256,192,245085,1,2,0:0:0:0:
256,192,245196,1,2,0:0:0:0:
256,192,245307,1,0,0:0:0:0:
256,192,245418,1,2,0:0:0:0:
256,192,245529,1,0,0:0:0:0:
256,192,245752,1,0,0:0:0:0:
256,192,245974,1,2,0:0:0:0:
256,192,246196,1,0,0:0:0:0:
256,192,246307,1,2,0:0:0:0:
256,192,246418,1,2,0:0:0:0:
256,192,246641,1,0,0:0:0:0:
256,192,246752,1,0,0:0:0:0:
256,192,246863,1,2,0:0:0:0:
256,192,247085,1,0,0:0:0:0:
256,192,247307,1,2,0:0:0:0:
256,192,247529,1,0,0:0:0:0:
256,192,247752,1,2,0:0:0:0:
256,192,247863,1,0,0:0:0:0:
256,192,247974,1,2,0:0:0:0:
256,192,248085,1,2,0:0:0:0:
256,192,248196,1,0,0:0:0:0:
256,192,248418,1,0,0:0:0:0:
256,192,248529,1,0,0:0:0:0:
256,192,248641,1,2,0:0:0:0:
256,192,248752,1,0,0:0:0:0:
256,192,248863,1,2,0:0:0:0:
256,192,248974,1,2,0:0:0:0:
256,192,249085,1,0,0:0:0:0:
256,192,249307,1,0,0:0:0:0:
256,192,249418,1,0,0:0:0:0:
256,192,249529,1,2,0:0:0:0:
256,192,249752,1,0,0:0:0:0:
256,192,249863,1,2,0:0:0:0:
256,192,249974,1,2,0:0:0:0:
256,192,250196,1,0,0:0:0:0:
256,192,250418,1,2,0:0:0:0:
256,192,250529,1,0,0:0:0:0:
256,192,250641,1,2,0:0:0:0:
256,192,250752,1,0,0:0:0:0:
256,192,250863,1,0,0:0:0:0:
256,192,250974,1,2,0:0:0:0:
256,192,251085,1,2,0:0:0:0:
256,192,251196,1,0,0:0:0:0:
256,192,251307,1,2,0:0:0:0:
256,192,251418,1,0,0:0:0:0:
256,192,251529,1,2,0:0:0:0:
256,192,251641,1,2,0:0:0:0:
256,192,251752,1,0,0:0:0:0:
256,192,251974,1,0,0:0:0:0:
256,192,252085,1,0,0:0:0:0:
256,192,252196,1,2,0:0:0:0:
256,192,252307,1,2,0:0:0:0:
256,192,252418,1,0,0:0:0:0:
256,192,252529,1,2,0:0:0:0:
256,192,252641,1,2,0:0:0:0:
256,192,252974,1,2,0:0:0:0:
256,192,253085,1,0,0:0:0:0:
256,192,253196,1,2,0:0:0:0:
256,192,253307,1,2,0:0:0:0:
256,192,253418,1,0,0:0:0:0:
256,192,253529,1,2,0:0:0:0:
256,192,253641,1,2,0:0:0:0:
256,192,253752,1,0,0:0:0:0:
256,192,253863,1,0,0:0:0:0:
256,192,253974,1,0,0:0:0:0:
256,192,254196,1,0,0:0:0:0:
256,192,254307,1,0,0:0:0:0:
256,192,254418,1,2,0:0:0:0:
256,192,254529,1,0,0:0:0:0:
256,192,254641,1,0,0:0:0:0:
256,192,254863,1,2,0:0:0:0:
256,192,254974,1,2,0:0:0:0:
256,192,255085,1,0,0:0:0:0:
256,192,255196,1,2,0:0:0:0:
256,192,255307,1,2,0:0:0:0:
256,192,255529,1,2,0:0:0:0:
256,192,255641,1,0,0:0:0:0:
256,192,255752,1,2,0:0:0:0:
256,192,255863,1,2,0:0:0:0:
256,192,255974,1,0,0:0:0:0:
256,192,256085,1,2,0:0:0:0:
256,192,256529,1,2,0:0:0:0:
256,192,256641,1,0,0:0:0:0:
256,192,256752,1,0,0:0:0:0:
256,192,256863,1,2,0:0:0:0:
256,192,256974,1,0,0:0:0:0:
256,192,257085,1,2,0:0:0:0:
256,192,257196,1,2,0:0:0:0:
256,192,257418,1,0,0:0:0:0:
256,192,257529,1,2,0:0:0:0:
256,192,257752,1,0,0:0:0:0:
256,192,257863,1,2,0:0:0:0:
256,192,257974,1,0,0:0:0:0:
256,192,258085,1,0,0:0:0:0:
256,192,258196,1,2,0:0:0:0:
256,192,258307,1,0,0:0:0:0:
256,192,258418,1,2,0:0:0:0:
256,192,258529,1,0,0:0:0:0:
256,192,258641,1,0,0:0:0:0:
256,192,258752,1,2,0:0:0:0:
256,192,258863,1,0,0:0:0:0:
256,192,259085,1,0,0:0:0:0:
256,192,259196,1,0,0:0:0:0:
256,192,259307,1,2,0:0:0:0:
256,192,259418,1,2,0:0:0:0:
256,192,259529,1,0,0:0:0:0:
256,192,259641,1,2,0:0:0:0:
256,192,259752,1,2,0:0:0:0:
256,192,259974,1,0,0:0:0:0:
256,192,260085,1,2,0:0:0:0:
256,192,260307,1,2,0:0:0:0:
256,192,260418,1,0,0:0:0:0:
256,192,260641,1,2,0:0:0:0:
256,192,260863,1,0,0:0:0:0:
256,192,260974,1,0,0:0:0:0:
256,192,261085,1,2,0:0:0:0:
256,192,261307,1,0,0:0:0:0:
256,192,261529,1,2,0:0:0:0:
256,192,261641,1,0,0:0:0:0:
256,192,261752,1,0,0:0:0:0:
256,192,261863,1,2,0:0:0:0:
256,192,261974,1,2,0:0:0:0:
256,192,262085,1,0,0:0:0:0:
256,192,262196,1,2,0:0:0:0:
256,192,262307,1,0,0:0:0:0:
256,192,262418,1,2,0:0:0:0:
256,192,262529,1,0,0:0:0:0:
256,192,262641,1,2,0:0:0:0:
256,192,262863,1,2,0:0:0:0:
256,192,262974,1,0,0:0:0:0:
256,192,263085,1,0,0:0:0:0:
256,192,263196,1,2,0:0:0:0:
256,192,263307,1,2,0:0:0:0:
256,192,263641,1,0,0:0:0:0:
256,192,263752,1,2,0:0:0:0:
256,192,263863,1,0,0:0:0:0:
256,192,263974,1,0,0:0:0:0:
256,192,264085,1,2,0:0:0:0:
256,192,264196,1,2,0:0:0:0:
256,192,264307,1,2,0:0:0:0:
256,192,264418,1,2,0:0:0:0:
256,192,264529,1,0,0:0:0:0:
256,192,264641,1,2,0:0:0:0:
256,192,264863,1,2,0:0:0:0:
256,192,264974,1,0,0:0:0:0:
256,192,265085,1,2,0:0:0:0:
256,192,265196,1,2,0:0:0:0:
256,192,265307,1,0,0:0:0:0:
256,192,265418,1,0,0:0:0:0:
256,192,265529,1,2,0:0:0:0:
256,192,265752,1,0,0:0:0:0:
256,192,265826,1,2,0:0:0:0:
256,192,265900,1,2,0:0:0:0:
256,192,265974,1,0,0:0:0:0:
256,192,266196,1,0,0:0:0:0:
256,192,266418,1,2,0:0:0:0:
256,192,266530,1,0,0:0:0:0:
256,192,266641,1,2,0:0:0:0:
256,192,266863,1,0,0:0:0:0:
256,192,267196,1,2,0:0:0:0:
256,192,267307,1,0,0:0:0:0:
256,192,267418,1,2,0:0:0:0:
256,192,267529,1,0,0:0:0:0:
256,192,267641,1,2,0:0:0:0:
256,192,267752,1,2,0:0:0:0:
256,192,267863,1,0,0:0:0:0:
256,192,268085,1,2,0:0:0:0:
256,192,268196,1,2,0:0:0:0:
256,192,268308,1,0,0:0:0:0:
256,192,268418,1,2,0:0:0:0:
256,192,268641,1,2,0:0:0:0:
256,192,268752,1,0,0:0:0:0:
256,192,268863,1,2,0:0:0:0:
256,192,268974,1,0,0:0:0:0:
256,192,269085,1,2,0:0:0:0:
256,192,269196,1,0,0:0:0:0:
256,192,269307,1,0,0:0:0:0:
256,192,269530,1,2,0:0:0:0:
256,192,269641,1,0,0:0:0:0:
256,192,269752,1,2,0:0:0:0:
256,192,269974,1,6,0:0:0:0:
256,192,270085,1,4,0:0:0:0:
256,192,270196,1,6,0:0:0:0:
256,192,270307,1,6,0:0:0:0:
256,192,270419,1,4,0:0:0:0:
