osu file format v14

[General]
AudioFilename: Shadow of a Flower.mp3
AudioLeadIn: 0
PreviewTime: 128197
Countdown: 0
SampleSet: None
StackLeniency: 0.4
Mode: 0
LetterboxInBreaks: 1
WidescreenStoryboard: 1

[Editor]
Bookmarks: 12642,28642,42864,57086,85531,99753,128197,142419,170864,185086,213531,227753,241975,256197,270419,284642
DistanceSpacing: 1.5
BeatDivisor: 4
GridSize: 4
TimelineZoom: 1

[Metadata]
Title:Shadow of a Flower
TitleUnicode:Shadow of a Flower
Artist:StormWolf
ArtistUnicode:StormWolf
Creator:Firmatorenio
Version:Insane
Source:
Tags:pony mlp cheerilee flooooooooower
BeatmapID:1303647
BeatmapSetID:618436

[Difficulty]
HPDrainRate:7.4
CircleSize:4
OverallDifficulty:8
ApproachRate:8
SliderMultiplier:1.8
SliderTickRate:2

[Events]
//Background and Video events
0,0,"maxresdefault.jpg",0,0
//Break Periods
2,85730,95447
2,171063,180781
2,227953,237669
//Storyboard Layer 0 (Background)
//Storyboard Layer 1 (Fail)
//Storyboard Layer 2 (Pass)
//Storyboard Layer 3 (Foreground)
//Storyboard Sound Samples

[TimingPoints]
14420,444.444444444444,4,2,0,60,1,0
28642,-100,4,1,0,60,0,1
57086,-100,4,2,0,60,0,0
98864,-100,4,1,0,60,0,0
99753,-100,4,1,0,60,0,1
142419,-100,4,2,0,60,0,0
184197,-100,4,1,0,60,0,0
185086,-100,4,1,0,60,0,1
227753,-100,4,2,0,60,0,0
241086,-100,4,1,0,60,0,0
241975,-100,4,1,0,60,0,1
270419,-100,4,2,0,60,0,0

[HitObjects]
36,208,14419,6,0,P|152:168|220:188,1,180,4|0,0:0|0:0,0:0:0:0:
280,227,15086,1,0,0:0:0:0:
369,232,15308,1,0,0:0:0:0:
446,185,15531,1,0,0:0:0:0:
462,96,15753,1,0,0:0:0:0:
414,19,15975,1,0,0:0:0:0:
341,72,16197,6,0,P|289:130|197:63,1,180
270,60,16864,2,0,P|214:167|152:149,1,180
94,161,17531,1,0,0:0:0:0:
25,204,17753,1,0,0:0:0:0:
7,283,17975,6,0,B|71:351|115:259|176:317,1,180
256,349,18642,1,0,0:0:0:0:
338,314,18864,2,0,B|397:259|441:351|505:283,1,180
487,204,19531,1,0,0:0:0:0:
428,135,19753,5,0,0:0:0:0:
346,96,19975,1,0,0:0:0:0:
256,84,20197,1,0,0:0:0:0:
166,96,20420,1,0,0:0:0:0:
84,135,20642,2,0,P|26:206|18:297,1,180
167,251,21531,5,0,0:0:0:0:
194,258,21753,1,0,0:0:0:0:
200,258,21864,1,0,0:0:0:0:
206,258,21975,2,0,P|261:247|290:221,1,90
308,203,22308,1,0,0:0:0:0:
332,182,22419,2,0,P|387:158|429:165,1,90
481,222,22864,1,0,0:0:0:0:
395,251,23086,1,0,0:0:0:0:
316,294,23308,6,0,P|232:341|184:332,2,135
316,203,24197,1,0,0:0:0:0:
268,126,24419,1,0,0:0:0:0:
191,77,24642,1,0,0:0:0:0:
101,88,24864,1,0,0:0:0:0:
37,151,25086,5,0,0:0:0:0:
88,275,25419,1,0,0:0:0:0:
221,296,25753,2,0,P|300:283|327:162,1,180
322,110,26419,6,0,P|237:66|185:127,1,180
256,136,27086,2,0,P|227:58|128:74,1,180
75,121,27753,1,8,0:0:0:0:
62,149,27864,1,2,0:0:0:0:
57,180,27975,1,0,0:0:0:0:
98,279,28197,1,8,0:0:0:0:
195,325,28419,1,2,0:0:0:0:
231,320,28531,1,0,0:0:0:0:
260,299,28642,6,0,B|323:278|315:202|392:179,1,180,4|0,0:0|0:0,0:0:0:0:
465,68,29308,1,2,0:0:0:0:
444,33,29419,1,0,0:0:0:0:
413,6,29531,1,0,0:0:0:0:
413,10,29753,1,2,0:0:0:0:
444,37,29865,1,0,0:0:0:0:
465,72,29976,1,8,0:0:0:0:
478,205,30197,1,2,0:0:0:0:
402,316,30419,5,0,0:0:0:0:
271,352,30642,1,2,0:0:0:0:
235,346,30753,1,0,0:0:0:0:
204,327,30864,1,8,0:0:0:0:
188,294,30975,1,0,0:0:0:0:
189,258,31086,1,2,0:0:0:0:
202,224,31197,1,0,0:0:0:0:
216,190,31308,2,0,P|221:108|141:64,1,180,0|8,0:0|0:0,0:0:0:0:
110,76,31864,1,0,0:0:0:0:
87,103,31975,1,2,0:0:0:0:
82,138,32086,1,0,0:0:0:0:
96,171,32197,6,0,P|148:227|266:217,1,180,0|8,0:0|0:0,0:0:0:0:
399,94,32864,1,0,0:0:0:0:
391,134,32975,1,0,0:0:0:0:
366,166,33086,1,2,0:0:0:0:
366,170,33308,1,2,0:0:0:0:
391,138,33419,1,0,0:0:0:0:
402,98,33531,2,0,P|390:41|357:9,1,90,8|2,0:0|0:0,0:0:0:0:
235,30,33975,6,0,P|219:78|232:139,1,90,0|2,0:0|0:0,0:0:0:0:
306,222,34419,1,8,0:0:0:0:
316,256,34531,1,0,0:0:0:0:
313,291,34642,1,2,0:0:0:0:
296,322,34753,1,0,0:0:0:0:
263,337,34864,2,0,P|182:330|128:251,1,180,0|8,0:0|0:0,0:0:0:0:
128,217,35419,1,0,0:0:0:0:
140,182,35531,1,2,0:0:0:0:
158,151,35642,1,0,0:0:0:0:
191,162,35753,6,0,P|259:191|361:155,1,180,0|8,0:0|0:0,0:0:0:0:
468,85,36419,1,2,0:0:0:0:
482,123,36531,1,0,0:0:0:0:
486,163,36642,2,0,P|471:227|454:248,1,90,0|2,0:0|0:0,0:0:0:0:
328,285,37086,1,8,0:0:0:0:
292,284,37197,1,0,0:0:0:0:
257,273,37308,1,2,0:0:0:0:
230,248,37419,1,0,0:0:0:0:
221,213,37531,5,0,0:0:0:0:
224,177,37642,1,0,0:0:0:0:
216,141,37753,1,2,0:0:0:0:
198,109,37864,1,0,0:0:0:0:
166,92,37975,1,8,0:0:0:0:
130,89,38086,1,0,0:0:0:0:
95,98,38197,1,2,0:0:0:0:
70,123,38308,1,0,0:0:0:0:
61,157,38419,2,0,P|69:213|198:251,1,180,0|8,0:0|0:0,0:0:0:0:
206,251,38975,1,0,0:0:0:0:
232,226,39086,1,2,0:0:0:0:
250,194,39197,1,0,0:0:0:0:
273,167,39308,6,0,P|314:127|361:122,1,90,0|2,0:0|0:0,0:0:0:0:
380,127,39642,1,0,0:0:0:0:
407,149,39753,1,8,0:0:0:0:
422,181,39864,1,0,0:0:0:0:
428,216,39975,1,2,0:0:0:0:
419,250,40086,1,0,0:0:0:0:
399,280,40197,1,0,0:0:0:0:
368,298,40308,1,0,0:0:0:0:
332,304,40419,1,2,0:0:0:0:
296,299,40531,1,0,0:0:0:0:
263,275,40642,2,0,P|223:238|159:232,1,90,8|2,0:0|0:0,0:0:0:0:
153,233,40975,1,0,0:0:0:0:
117,240,41086,5,0,0:0:0:0:
81,237,41197,1,0,0:0:0:0:
49,219,41308,2,0,P|28:179|37:131,1,90,2|8,0:0|0:0,0:0:0:0:
56,107,41642,1,0,0:0:0:0:
86,88,41753,1,2,0:0:0:0:
121,83,41864,1,8,0:0:0:0:
155,91,41975,1,8,0:0:0:0:
280,141,42197,1,10,0:0:0:0:
412,116,42419,1,8,0:0:0:0:
444,91,42531,1,8,0:0:0:0:
465,56,42642,1,10,0:0:0:0:
474,16,42753,1,8,0:0:0:0:
470,12,43197,5,2,0:0:0:0:
474,16,43308,1,8,0:0:0:0:
479,51,43419,1,0,0:0:0:0:
479,87,43531,1,2,0:0:0:0:
472,122,43642,1,0,0:0:0:0:
459,155,43753,1,0,0:0:0:0:
437,184,43864,2,0,P|396:216|330:217,1,90,0|2,0:0|0:0,0:0:0:0:
325,210,44197,2,0,P|271:186|222:192,1,90,8|2,0:0|0:0,0:0:0:0:
117,241,44642,6,0,P|73:203|69:153,1,90
71,138,44975,1,0,0:0:0:0:
91,108,45086,1,8,0:0:0:0:
121,88,45197,1,0,0:0:0:0:
156,83,45308,1,2,0:0:0:0:
188,97,45419,1,0,0:0:0:0:
220,113,45531,2,0,P|277:122|317:107,1,90,0|2,0:0|0:0,0:0:0:0:
426,49,45975,1,8,0:0:0:0:
437,83,46086,1,0,0:0:0:0:
441,118,46197,1,2,0:0:0:0:
435,153,46308,1,0,0:0:0:0:
424,187,46419,6,0,P|352:255|304:259,2,135,0|2|2,0:0|0:0|0:0,0:0:0:0:
307,138,47308,2,0,P|236:167|190:166,2,90,0|2|8,0:0|0:0|0:0,0:0:0:0:
410,50,47975,1,2,0:0:0:0:
276,71,48197,5,0,0:0:0:0:
236,77,48308,1,0,0:0:0:0:
197,89,48419,1,2,0:0:0:0:
157,99,48531,1,0,0:0:0:0:
116,93,48642,1,8,0:0:0:0:
112,133,48753,1,0,0:0:0:0:
86,164,48864,1,2,0:0:0:0:
61,196,48975,1,0,0:0:0:0:
46,234,49087,1,0,0:0:0:0:
50,274,49198,1,8,0:0:0:0:
79,301,49309,1,2,0:0:0:0:
211,327,49531,1,8,0:0:0:0:
251,330,49642,1,0,0:0:0:0:
291,325,49753,1,10,0:0:0:0:
327,307,49864,1,8,0:0:0:0:
359,282,49975,6,0,P|385:224|369:144,1,135,0|2,0:0|0:0,0:0:0:0:
370,151,50419,1,0,0:0:0:0:
339,123,50531,1,0,0:0:0:0:
299,112,50642,1,2,0:0:0:0:
260,99,50753,1,0,0:0:0:0:
223,82,50864,1,0,0:0:0:0:
182,80,50975,1,0,0:0:0:0:
143,66,51086,1,2,0:0:0:0:
102,66,51197,1,0,0:0:0:0:
65,82,51308,2,0,P|38:110|37:166,1,90,8|2,0:0|0:0,0:0:0:0:
58,192,51642,1,0,0:0:0:0:
98,195,51753,5,0,0:0:0:0:
133,214,51864,1,0,0:0:0:0:
172,206,51975,1,2,0:0:0:0:
207,224,52086,1,0,0:0:0:0:
246,215,52197,2,0,P|312:217|351:203,1,90,8|2,0:0|0:0,0:0:0:0:
365,184,52531,2,0,L|361:149,1,22.5
409,180,52642,2,0,P|439:231|375:325,1,180,0|8,0:0|0:0,0:0:0:0:
256,270,53308,1,2,0:0:0:0:
131,322,53531,6,0,P|81:290|58:214,1,135,0|2,0:0|0:0,0:0:0:0:
61,216,53975,1,8,0:0:0:0:
85,183,54086,1,0,0:0:0:0:
118,160,54197,1,2,0:0:0:0:
155,144,54308,1,0,0:0:0:0:
186,118,54419,1,0,0:0:0:0:
220,96,54531,2,0,P|268:86|313:97,1,90,0|2,0:0|0:0,0:0:0:0:
340,117,54864,2,0,P|396:129|434:116,1,90,8|2,0:0|0:0,0:0:0:0:
507,205,55308,5,0,0:0:0:0:
471,223,55419,1,0,0:0:0:0:
432,235,55531,1,2,0:0:0:0:
392,243,55642,1,0,0:0:0:0:
351,244,55753,1,0,0:0:0:0:
310,241,55864,1,0,0:0:0:0:
270,230,55975,2,0,P|226:205|194:164,1,90,2|0,0:0|0:0,0:0:0:0:
180,140,56308,1,8,0:0:0:0:
174,99,56419,1,2,0:0:0:0:
78,3,56642,1,8,0:0:0:0:
47,134,56864,1,10,0:0:0:0:
38,173,56975,1,8,0:0:0:0:
44,212,57086,6,0,P|68:269|101:285,1,90,4|2,0:0|0:0,0:0:0:0:
223,306,57531,1,8,0:0:0:0:
150,192,57753,1,2,0:0:0:0:
284,185,57975,1,0,0:0:0:0:
358,297,58197,1,2,0:0:0:0:
284,185,58419,6,0,P|301:100|387:97,2,180,8|0|8,0:0|0:0|0:0,0:0:0:0:
347,155,59531,2,0,P|253:120|213:190,1,180,2|2,0:0|0:0,0:0:0:0:
292,283,60197,1,8,0:0:0:0:
75,56,60642,5,0,0:0:0:0:
193,120,60864,2,0,P|213:171|194:230,1,90,2|8,0:0|0:0,0:0:0:0:
74,188,61308,1,2,0:0:0:0:
126,312,61531,2,0,P|202:345|302:291,1,180,0|8,0:0|0:0,0:0:0:0:
342,186,62197,1,2,0:0:0:0:
436,54,62419,5,0,0:0:0:0:
437,216,62642,1,2,0:0:0:0:
340,85,62864,1,8,0:0:0:0:
494,133,63086,1,2,0:0:0:0:
341,187,63308,2,0,P|265:151|245:53,1,180,0|8,0:0|0:0,0:0:0:0:
270,321,64197,5,0,0:0:0:0:
205,202,64419,1,2,0:0:0:0:
174,174,64531,1,0,0:0:0:0:
138,154,64642,2,0,P|83:145|22:178,1,90,8|2,0:0|0:0,0:0:0:0:
17,177,64975,1,0,0:0:0:0:
50,198,65086,2,0,P|94:231|103:271,1,90,0|2,0:0|0:0,0:0:0:0:
12,363,65531,1,8,0:0:0:0:
144,336,65753,1,2,0:0:0:0:
276,361,65975,5,0,0:0:0:0:
447,253,66308,1,2,0:0:0:0:
455,50,66642,2,0,P|408:41|364:61,1,90,2|0,0:0|0:0,0:0:0:0:
301,172,67086,1,2,0:0:0:0:
192,92,67308,1,8,0:0:0:0:
140,217,67531,1,2,0:0:0:0:
26,144,67753,5,0,0:0:0:0:
112,326,68086,1,2,0:0:0:0:
313,344,68419,2,0,P|371:343|401:329,2,90,2|0|2,0:0|0:0|0:0,0:0:0:0:
206,259,69086,2,0,P|247:243|292:245,1,90,8|2,0:0|0:0,0:0:0:0:
426,265,69531,5,0,0:0:0:0:
477,140,69753,1,2,0:0:0:0:
215,74,70197,1,2,0:0:0:0:
82,97,70419,1,0,0:0:0:0:
167,202,70642,1,2,0:0:0:0:
215,74,70864,1,8,0:0:0:0:
496,266,71308,5,0,0:0:0:0:
334,294,71531,1,2,0:0:0:0:
174,320,71753,1,8,0:0:0:0:
413,281,71975,1,0,0:0:0:0:
254,308,72197,1,2,0:0:0:0:
409,277,72419,1,2,0:0:0:0:
330,291,72642,1,8,0:0:0:0:
231,199,72864,6,0,P|340:214|418:166,2,180,2|0|2,0:0|0:0|0:0,0:0:0:0:
185,71,73975,1,0,0:0:0:0:
100,176,74197,1,2,0:0:0:0:
232,200,74419,1,8,0:0:0:0:
232,200,74864,5,0,0:0:0:0:
102,297,75086,1,2,0:0:0:0:
263,280,75308,1,8,0:0:0:0:
170,146,75531,1,2,0:0:0:0:
103,293,75753,1,0,0:0:0:0:
183,287,75975,1,2,0:0:0:0:
21,301,76197,1,8,0:0:0:0:
263,281,76419,6,0,P|346:250|418:153,2,180,2|0|2,0:0|0:0|0:0,0:0:0:0:
296,149,77531,1,0,0:0:0:0:
264,280,77753,1,2,0:0:0:0:
167,185,77975,1,8,0:0:0:0:
167,185,78419,5,0,0:0:0:0:
41,236,78642,2,0,P|22:187|41:146,1,90,2|8,0:0|0:0,0:0:0:0:
132,61,79086,1,0,0:0:0:0:
261,100,79308,2,0,P|326:126|365:112,2,90,0|2|8,0:0|0:0|0:0,0:0:0:0:
229,231,79975,1,2,0:0:0:0:
233,235,80086,1,0,0:0:0:0:
237,239,80197,6,0,P|309:266|396:256,2,135
135,328,81086,1,0,0:0:0:0:
95,198,81308,1,2,0:0:0:0:
191,103,81531,1,8,0:0:0:0:
356,316,81975,6,0,P|472:302|511:276,2,135,0|2|2,0:0|0:0|0:0,0:0:0:0:
395,186,82864,1,0,0:0:0:0:
200,241,83197,1,2,0:0:0:0:
33,124,83531,1,0,0:0:0:0:
167,109,83753,5,0,0:0:0:0:
186,310,84086,1,2,0:0:0:0:
273,127,84419,1,2,0:0:0:0:
334,247,84642,2,0,P|405:213|405:114,2,180,0|8|4,0:0|0:0|0:0,0:0:0:0:
256,192,96197,12,0,98642,0:0:0:0:
78,90,98864,5,0,0:0:0:0:
115,72,98975,1,8,0:0:0:0:
155,66,99086,1,2,0:0:0:0:
208,189,99308,1,8,0:0:0:0:
245,173,99419,1,0,0:0:0:0:
285,172,99531,1,10,0:0:0:0:
323,183,99642,1,8,0:0:0:0:
355,207,99753,6,0,P|376:255|371:296,1,90,4|2,0:0|0:0,0:0:0:0:
352,326,100086,1,0,0:0:0:0:
316,345,100197,1,8,0:0:0:0:
181,345,100419,1,2,0:0:0:0:
141,335,100531,1,0,0:0:0:0:
105,315,100642,1,0,0:0:0:0:
77,285,100753,1,0,0:0:0:0:
57,249,100864,2,0,P|38:197|45:159,1,90,2|8,0:0|0:0,0:0:0:0:
136,66,101308,1,2,0:0:0:0:
176,60,101419,1,0,0:0:0:0:
216,60,101531,6,0,P|267:79|293:114,1,90,0|2,0:0|0:0,0:0:0:0:
305,142,101864,1,0,0:0:0:0:
310,182,101975,1,8,0:0:0:0:
441,212,102197,2,0,P|453:145|439:97,1,90,2|0,0:0|0:0,0:0:0:0:
437,85,102531,1,0,0:0:0:0:
406,58,102642,2,0,P|357:32|302:35,1,90,2|8,0:0|0:0,0:0:0:0:
323,165,103086,1,2,0:0:0:0:
286,147,103197,1,0,0:0:0:0:
246,137,103308,6,0,P|193:127|144:140,1,90,0|2,0:0|0:0,0:0:0:0:
120,150,103642,1,0,0:0:0:0:
92,179,103753,1,8,0:0:0:0:
196,264,103975,1,2,0:0:0:0:
161,285,104086,1,0,0:0:0:0:
120,291,104197,2,0,P|58:275|37:245,1,90,0|2,0:0|0:0,0:0:0:0:
24,220,104531,1,0,0:0:0:0:
18,179,104642,2,0,P|27:117|80:88,1,90,8|2,0:0|0:0,0:0:0:0:
79,76,104975,1,0,0:0:0:0:
116,60,105086,5,0,0:0:0:0:
156,60,105197,1,0,0:0:0:0:
195,69,105308,1,2,0:0:0:0:
234,60,105419,1,0,0:0:0:0:
259,261,105753,1,2,0:0:0:0:
299,255,105864,1,0,0:0:0:0:
330,229,105975,1,0,0:0:0:0:
370,227,106086,1,0,0:0:0:0:
398,198,106197,2,0,P|449:173|467:142,1,90,2|8,0:0|0:0,0:0:0:0:
386,36,106642,1,10,0:0:0:0:
363,69,106753,1,2,0:0:0:0:
332,95,106864,6,0,P|293:124|252:119,1,90,0|2,0:0|0:0,0:0:0:0:
214,110,107197,1,0,0:0:0:0:
145,301,107531,1,2,0:0:0:0:
104,299,107642,1,0,0:0:0:0:
64,288,107753,2,0,P|18:250|14:192,1,90,0|2,0:0|0:0,0:0:0:0:
22,183,108086,1,0,0:0:0:0:
56,162,108197,2,0,P|107:143|130:113,1,90,8|2,0:0|0:0,0:0:0:0:
151,82,108531,1,0,0:0:0:0:
188,67,108642,5,0,0:0:0:0:
228,72,108753,1,0,0:0:0:0:
257,99,108864,1,2,0:0:0:0:
271,136,108975,2,0,P|290:210|346:248,1,135,0|2,0:0|0:0,0:0:0:0:
462,287,109531,2,0,P|501:231|505:189,2,90,0|2|8,0:0|0:0|0:0,0:0:0:0:
342,349,110197,1,2,0:0:0:0:
302,356,110308,1,0,0:0:0:0:
261,352,110419,6,0,P|197:317|189:291,1,90,0|2,0:0|0:0,0:0:0:0:
184,264,110753,1,0,0:0:0:0:
180,223,110864,2,0,P|155:184|100:166,1,90,8|2,0:0|0:0,0:0:0:0:
77,177,111197,1,0,0:0:0:0:
48,205,111308,2,0,P|38:253|58:286,1,90,0|2,0:0|0:0,0:0:0:0:
172,358,111753,2,0,P|242:340|264:313,1,90,8|2,0:0|0:0,0:0:0:0:
272,293,112086,1,0,0:0:0:0:
283,254,112197,5,0,0:0:0:0:
297,216,112308,1,0,0:0:0:0:
322,184,112419,1,2,0:0:0:0:
357,163,112531,2,0,P|423:140|452:75,1,135,0|2,0:0|0:0,0:0:0:0:
433,48,112975,1,0,0:0:0:0:
393,38,113086,1,0,0:0:0:0:
353,47,113197,1,0,0:0:0:0:
313,37,113308,1,2,0:0:0:0:
210,125,113531,1,8,0:0:0:0:
109,34,113753,1,2,0:0:0:0:
72,50,113864,1,0,0:0:0:0:
46,81,113975,6,0,P|35:130|51:173,1,90,4|2,0:0|0:0,0:0:0:0:
83,185,114308,2,0,P|159:216|193:256,1,135,0|2,0:0|0:0,0:0:0:0:
217,287,114753,1,0,0:0:0:0:
241,319,114864,2,0,P|306:353|332:346,1,90,0|2,0:0|0:0,0:0:0:0:
403,245,115308,2,0,P|338:211|312:218,1,90,8|2,0:0|0:0,0:0:0:0:
284,213,115642,1,0,0:0:0:0:
243,210,115753,6,0,P|192:179|186:169,1,45
179,157,115975,2,0,P|155:132|119:120,1,45,2|0,0:0|0:0,0:0:0:0:
65,312,116419,2,0,P|113:331|154:322,1,90,2|0,0:0|0:0,0:0:0:0:
283,306,116864,1,2,0:0:0:0:
323,302,116975,1,0,0:0:0:0:
357,280,117086,1,8,0:0:0:0:
426,164,117308,1,2,0:0:0:0:
415,124,117419,1,0,0:0:0:0:
391,90,117531,5,0,0:0:0:0:
359,64,117642,1,0,0:0:0:0:
319,47,117753,1,2,0:0:0:0:
280,60,117864,2,0,P|220:101|131:97,1,135,0|2,0:0|0:0,0:0:0:0:
119,112,118308,1,0,0:0:0:0:
81,126,118419,1,0,0:0:0:0:
29,251,118642,1,2,0:0:0:0:
156,295,118864,1,8,0:0:0:0:
267,218,119086,1,2,0:0:0:0:
307,219,119197,1,0,0:0:0:0:
344,234,119308,5,0,0:0:0:0:
375,259,119419,1,0,0:0:0:0:
412,274,119531,1,0,0:0:0:0:
452,269,119642,1,0,0:0:0:0:
416,69,119975,1,2,0:0:0:0:
375,70,120086,1,0,0:0:0:0:
337,85,120197,1,0,0:0:0:0:
298,96,120308,1,0,0:0:0:0:
258,89,120419,2,0,P|191:82|150:100,1,90,2|8,0:0|0:0,0:0:0:0:
110,210,120864,2,0,P|146:229|167:229,1,45,2|0,0:0|0:0,0:0:0:0:
156,337,121086,6,0,P|194:331|222:315,1,45
293,358,121308,2,0,P|310:336|320:306,1,45,2|0,0:0|0:0,0:0:0:0:
421,318,121531,1,8,0:0:0:0:
486,200,121753,2,0,P|463:183|435:176,1,45,2|0,0:0|0:0,0:0:0:0:
460,73,121975,2,0,P|405:38|345:50,1,90,0|2,0:0|0:0,0:0:0:0:
297,142,122419,1,8,0:0:0:0:
195,52,122642,1,2,0:0:0:0:
154,56,122753,1,0,0:0:0:0:
115,69,122864,5,0,0:0:0:0:
83,93,122975,1,0,0:0:0:0:
64,128,123086,1,2,0:0:0:0:
61,168,123197,1,0,0:0:0:0:
73,206,123308,1,8,0:0:0:0:
208,201,123531,2,0,P|196:269|164:297,1,90,2|0,0:0|0:0,0:0:0:0:
290,365,123975,1,2,0:0:0:0:
314,332,124086,1,0,0:0:0:0:
330,295,124197,2,0,P|347:242|339:199,1,90,8|2,0:0|0:0,0:0:0:0:
322,173,124531,1,0,0:0:0:0:
299,139,124642,6,0,P|293:102|302:84,1,45
317,62,124864,2,0,P|344:49|369:51,1,45
395,58,125086,2,0,P|436:94|445:147,1,90,8|2,0:0|0:0,0:0:0:0:
435,165,125419,1,0,0:0:0:0:
435,205,125531,2,0,P|452:252|443:311,1,90,0|2,0:0|0:0,0:0:0:0:
428,325,125864,1,0,0:0:0:0:
391,342,125975,2,0,P|339:343|311:303,1,90,0|2,0:0|0:0,0:0:0:0:
310,277,126308,1,0,0:0:0:0:
301,237,126419,6,0,P|271:211|247:215,1,45
270,118,126642,2,0,P|235:114|206:128,1,45,2|0,0:0|0:0,0:0:0:0:
156,38,126864,1,8,0:0:0:0:
73,144,127086,1,2,0:0:0:0:
66,183,127197,1,0,0:0:0:0:
72,222,127308,1,0,0:0:0:0:
87,259,127419,1,0,0:0:0:0:
112,291,127531,1,2,0:0:0:0:
112,295,127753,1,8,0:0:0:0:
87,263,127865,1,0,0:0:0:0:
72,226,127976,1,10,0:0:0:0:
66,187,128087,1,8,0:0:0:0:
72,147,128197,6,0,P|100:105|190:106,1,135,4|0,0:0|0:0,0:0:0:0:
182,103,128642,1,8,0:0:0:0:
311,139,128864,2,0,P|291:193|271:209,1,45,2|0,0:0|0:0,0:0:0:0:
241,59,129197,1,2,0:0:0:0:
228,193,129419,2,0,P|245:229|272:249,1,45
383,238,129753,1,2,0:0:0:0:
482,147,129975,6,0,P|451:76|371:36,1,135,0|2,0:0|0:0,0:0:0:0:
364,41,130419,2,0,P|303:60|256:46,1,90,0|2,0:0|0:0,0:0:0:0:
239,45,130753,1,2,0:0:0:0:
114,97,130975,1,2,0:0:0:0:
219,181,131197,1,2,0:0:0:0:
219,181,131308,1,0,0:0:0:0:
353,166,131531,1,2,0:0:0:0:
391,179,131642,1,2,0:0:0:0:
413,212,131753,6,0,P|374:288|306:314,1,135,0|2,0:0|0:0,0:0:0:0:
328,313,132197,1,8,0:0:0:0:
195,335,132419,1,2,0:0:0:0:
195,335,132531,1,2,0:0:0:0:
100,239,132753,2,0,P|128:180|167:161,1,90,2|2,0:0|0:0,0:0:0:0:
151,167,133086,1,8,0:0:0:0:
284,185,133308,1,2,0:0:0:0:
284,185,133419,1,2,0:0:0:0:
284,185,133531,6,0,P|330:112|400:107,1,135,0|2,0:0|0:0,0:0:0:0:
413,107,133975,2,0,P|467:154|465:203,1,90,8|2,0:0|0:0,0:0:0:0:
461,208,134308,1,2,0:0:0:0:
436,239,134419,1,0,0:0:0:0:
400,258,134531,1,0,0:0:0:0:
359,257,134642,1,0,0:0:0:0:
235,310,134864,1,8,0:0:0:0:
157,200,135086,1,10,0:0:0:0:
136,165,135197,1,8,0:0:0:0:
123,126,135308,6,0,P|186:137|270:118,1,135,0|2,0:0|0:0,0:0:0:0:
291,104,135753,1,8,0:0:0:0:
331,98,135864,1,2,0:0:0:0:
437,181,136086,1,2,0:0:0:0:
311,230,136308,2,0,P|277:279|236:297,1,90,2|2,0:0|0:0,0:0:0:0:
211,281,136642,2,0,P|153:250|96:250,1,90,8|2,0:0|0:0,0:0:0:0:
96,269,136975,1,2,0:0:0:0:
55,269,137086,6,0,P|17:222|36:155,1,135,0|2,0:0|0:0,0:0:0:0:
69,132,137531,1,0,0:0:0:0:
109,136,137642,1,2,0:0:0:0:
231,80,137864,1,2,0:0:0:0:
164,197,138086,1,2,0:0:0:0:
288,144,138308,1,2,0:0:0:0:
288,144,138419,1,8,0:0:0:0:
292,279,138642,1,2,0:0:0:0:
425,299,138864,6,0,P|450:245|430:168,1,135,0|2,0:0|0:0,0:0:0:0:
429,169,139308,1,8,0:0:0:0:
425,165,139419,1,2,0:0:0:0:
372,40,139642,1,2,0:0:0:0:
295,150,139864,1,2,0:0:0:0:
240,26,140086,1,2,0:0:0:0:
240,26,140197,1,8,0:0:0:0:
144,120,140419,1,2,0:0:0:0:
39,206,140642,6,0,P|16:278|46:333,1,135,0|2,0:0|0:0,0:0:0:0:
44,332,141086,1,8,0:0:0:0:
178,344,141308,1,2,0:0:0:0:
300,286,141531,1,8,0:0:0:0:
324,253,141642,1,2,0:0:0:0:
341,216,141753,1,10,0:0:0:0:
439,123,141975,1,8,0:0:0:0:
347,218,142197,1,10,0:0:0:0:
319,248,142308,1,8,0:0:0:0:
279,257,142419,6,0,P|230:263|188:226,1,90,4|2,0:0|0:0,0:0:0:0:
120,130,142864,2,0,P|84:208|140:301,1,180,8|0,0:0|0:0,0:0:0:0:
255,305,143531,2,0,P|253:256|225:216,1,90,2|8,0:0|0:0,0:0:0:0:
238,89,143975,1,2,0:0:0:0:
371,68,144197,6,0,P|430:102|397:203,1,180,0|8,0:0|0:0,0:0:0:0:
369,139,144864,2,0,P|450:143|465:235,1,180,2|2,0:0|0:0,0:0:0:0:
342,276,145531,1,8,0:0:0:0:
133,104,145975,5,0,0:0:0:0:
16,171,146197,2,0,P|-4:225|12:280,1,90,2|8,0:0|0:0,0:0:0:0:
133,230,146642,1,2,0:0:0:0:
164,361,146864,2,0,P|246:335|265:241,1,180,0|8,0:0|0:0,0:0:0:0:
303,120,147531,1,2,0:0:0:0:
428,170,147753,6,0,P|447:242|351:286,1,180,0|8,0:0|0:0,0:0:0:0:
380,222,148419,2,0,P|438:291|368:360,1,180,2|2,0:0|0:0,0:0:0:0:
259,361,149086,1,8,0:0:0:0:
129,324,149308,1,2,0:0:0:0:
39,222,149531,6,0,P|65:151|106:137,1,90,0|2,0:0|0:0,0:0:0:0:
112,133,149864,1,0,0:0:0:0:
149,117,149975,2,0,P|182:78|186:37,1,90,8|2,0:0|0:0,0:0:0:0:
325,40,150419,6,0,P|332:84|363:117,1,90,0|2,0:0|0:0,0:0:0:0:
400,133,150752,1,0,0:0:0:0:
438,145,150863,2,0,P|468:177|473:222,1,90,8|2,0:0|0:0,0:0:0:0:
396,333,151308,6,0,P|288:358|251:342,1,135,0|2,0:0|0:0,0:0:0:0:
265,347,151753,1,8,0:0:0:0:
193,232,151975,1,2,0:0:0:0:
327,243,152197,2,0,P|389:252|429:246,2,90,0|2|8,0:0|0:0|0:0,0:0:0:0:
291,112,152864,1,2,0:0:0:0:
181,33,153086,5,0,0:0:0:0:
46,27,153308,1,2,0:0:0:0:
147,117,153531,1,8,0:0:0:0:
209,236,153753,1,2,0:0:0:0:
238,367,153975,1,0,0:0:0:0:
300,247,154197,1,2,0:0:0:0:
412,172,154419,1,8,0:0:0:0:
293,107,154642,1,2,0:0:0:0:
158,97,154864,6,0,P|116:112|91:149,1,90,0|2,0:0|0:0,0:0:0:0:
115,282,155308,1,8,0:0:0:0:
249,297,155531,2,0,P|301:319|342:319,1,90,2|0,0:0|0:0,0:0:0:0:
431,227,155975,1,2,0:0:0:0:
458,358,156197,1,8,0:0:0:0:
36,81,156642,5,0,0:0:0:0:
77,209,156864,1,2,0:0:0:0:
208,237,157086,1,8,0:0:0:0:
110,144,157308,1,2,0:0:0:0:
208,237,157531,1,0,0:0:0:0:
168,108,157753,1,2,0:0:0:0:
77,209,157975,1,8,0:0:0:0:
105,77,158197,6,0,P|188:41|235:128,2,180,2|2|2,0:0|0:0|0:0,0:0:0:0:
155,206,159308,1,0,0:0:0:0:
237,100,159531,1,2,0:0:0:0:
105,77,159753,1,8,0:0:0:0:
320,248,160197,5,0,0:0:0:0:
424,163,160419,1,2,0:0:0:0:
381,34,160642,1,8,0:0:0:0:
423,161,160864,1,2,0:0:0:0:
423,161,161086,1,0,0:0:0:0:
206,105,161308,1,2,0:0:0:0:
381,34,161531,1,8,0:0:0:0:
208,215,161753,6,0,P|129:178|101:77,2,180,2|2|2,0:0|0:0|0:0,0:0:0:0:
335,168,162864,1,0,0:0:0:0:
229,83,163086,1,2,0:0:0:0:
429,52,163308,1,8,0:0:0:0:
17,82,163753,6,0,P|25:142|56:176,1,90,0|2,0:0|0:0,0:0:0:0:
73,190,164086,1,0,0:0:0:0:
112,201,164197,2,0,P|179:190|210:143,1,90,8|2,0:0|0:0,0:0:0:0:
495,82,164642,2,0,P|486:142|455:176,1,90,0|2,0:0|0:0,0:0:0:0:
439,190,164975,1,0,0:0:0:0:
400,201,165086,2,0,P|332:190|301:143,1,90,8|2,0:0|0:0,0:0:0:0:
289,150,165419,1,0,0:0:0:0:
272,112,165531,6,0,P|233:58|168:44,2,135,0|2|2,0:0|0:0|0:0,0:0:0:0:
331,232,166419,1,0,0:0:0:0:
199,266,166642,2,0,P|151:264|110:234,2,90,2|8|2,0:0|0:0|0:0,0:0:0:0:
192,132,167308,5,0,0:0:0:0:
366,217,167642,1,2,0:0:0:0:
347,15,167975,1,2,0:0:0:0:
444,107,168197,1,0,0:0:0:0:
256,28,168531,1,2,0:0:0:0:
68,107,168864,1,0,0:0:0:0:
194,132,169086,5,0,0:0:0:0:
194,132,169419,1,2,0:0:0:0:
306,300,169753,1,2,0:0:0:0:
338,169,169975,2,0,P|412:133|517:151,2,180,0|8|4,0:0|0:0|0:0,0:0:0:0:
256,192,181531,12,0,183975,0:0:0:0:
429,243,184197,5,0,0:0:0:0:
442,204,184308,1,8,0:0:0:0:
448,163,184419,1,2,0:0:0:0:
448,163,184642,1,8,0:0:0:0:
442,204,184753,1,0,0:0:0:0:
429,243,184864,1,10,0:0:0:0:
405,275,184975,1,8,0:0:0:0:
369,294,185086,6,0,P|342:304|300:299,1,45,4|0,0:0|0:0,0:0:0:0:
243,341,185308,2,0,P|215:326|201:307,1,45,2|0,0:0|0:0,0:0:0:0:
118,296,185531,1,8,0:0:0:0:
90,170,185753,2,0,P|125:173|140:183,1,45,2|0,0:0|0:0,0:0:0:0:
138,58,185975,1,0,0:0:0:0:
176,69,186086,1,0,0:0:0:0:
216,64,186197,1,2,0:0:0:0:
255,71,186308,1,0,0:0:0:0:
294,62,186419,2,0,P|347:51|391:62,1,90,8|2,0:0|0:0,0:0:0:0:
416,79,186753,1,0,0:0:0:0:
438,112,186864,6,0,P|462:165|452:214,1,90,0|2,0:0|0:0,0:0:0:0:
436,228,187197,2,0,P|377:255|328:232,1,90
317,234,187531,2,0,P|242:216|197:238,1,90,2|0,0:0|0:0,0:0:0:0:
191,223,187864,1,0,0:0:0:0:
150,223,187975,1,2,0:0:0:0:
53,128,188197,1,8,0:0:0:0:
83,101,188308,1,0,0:0:0:0:
122,92,188419,1,2,0:0:0:0:
161,102,188531,1,0,0:0:0:0:
190,130,188642,6,0,P|260:130|287:113,1,90,0|2,0:0|0:0,0:0:0:0:
305,93,188975,1,0,0:0:0:0:
489,176,189308,1,2,0:0:0:0:
474,213,189419,1,0,0:0:0:0:
445,242,189531,2,0,P|406:277|364:271,1,90,0|2,0:0|0:0,0:0:0:0:
250,214,189975,2,0,P|180:225|145:199,1,90
126,208,190308,1,0,0:0:0:0:
86,215,190419,5,0,0:0:0:0:
56,243,190531,1,0,0:0:0:0:
49,282,190642,1,2,0:0:0:0:
64,319,190753,1,0,0:0:0:0:
264,342,191086,2,0,P|310:305|317:261,1,90,2|0,0:0|0:0,0:0:0:0:
310,237,191419,1,8,0:0:0:0:
310,196,191531,1,2,0:0:0:0:
388,86,191753,1,8,0:0:0:0:
440,210,191975,1,2,0:0:0:0:
429,249,192086,1,0,0:0:0:0:
410,285,192197,6,0,P|374:318|325:311,1,90,0|2,0:0|0:0,0:0:0:0:
295,305,192531,2,0,P|244:290|201:223,1,135,0|2,0:0|0:0,0:0:0:0:
210,184,192975,1,0,0:0:0:0:
205,143,193086,1,0,0:0:0:0:
144,22,193308,2,0,P|203:5|245:19,1,90,2|8,0:0|0:0,0:0:0:0:
328,108,193753,1,2,0:0:0:0:
358,134,193864,1,0,0:0:0:0:
396,145,193975,5,0,0:0:0:0:
429,167,194086,1,0,0:0:0:0:
449,201,194197,1,2,0:0:0:0:
447,241,194308,1,0,0:0:0:0:
269,339,194642,2,0,P|222:326|200:291,1,90,2|0,0:0|0:0,0:0:0:0:
209,158,195086,1,2,0:0:0:0:
89,220,195308,1,8,0:0:0:0:
97,84,195531,1,2,0:0:0:0:
124,54,195642,1,0,0:0:0:0:
163,43,195753,6,0,P|223:41|265:72,1,90,0|2,0:0|0:0,0:0:0:0:
282,75,196086,2,0,B|328:96|360:38|414:70,1,135
446,91,196531,1,0,0:0:0:0:
466,126,196642,2,0,P|486:183|458:240,1,90,0|2,0:0|0:0,0:0:0:0:
446,233,196975,1,0,0:0:0:0:
405,233,197086,2,0,P|344:229|300:255,1,90,8|2,0:0|0:0,0:0:0:0:
285,262,197419,1,0,0:0:0:0:
255,290,197531,6,0,P|231:310|211:311,1,45
143,224,197753,2,0,P|106:225|82:220,1,45,2|0,0:0|0:0,0:0:0:0:
81,94,197975,1,8,0:0:0:0:
210,131,198197,1,2,0:0:0:0:
248,141,198308,1,0,0:0:0:0:
288,145,198419,1,0,0:0:0:0:
328,139,198531,1,8,0:0:0:0:
362,117,198642,1,2,0:0:0:0:
468,34,198864,1,0,0:0:0:0:
364,120,199086,1,2,0:0:0:0:
330,142,199197,1,8,0:0:0:0:
290,148,199308,6,0,P|264:163|255:183,1,45
237,211,199531,1,2,0:0:0:0:
237,251,199642,2,0,P|276:295|352:289,1,135,0|2,0:0|0:0,0:0:0:0:
377,264,200086,1,0,0:0:0:0:
391,226,200197,1,0,0:0:0:0:
401,186,200308,1,0,0:0:0:0:
426,154,200419,2,0,P|455:105|447:61,1,90,2|8,0:0|0:0,0:0:0:0:
323,32,200864,1,0,0:0:0:0:
282,35,200975,1,0,0:0:0:0:
244,50,201086,6,0,P|215:70|211:97,1,45
111,69,201308,2,0,P|103:103|112:121,1,45,2|0,0:0|0:0,0:0:0:0:
19,176,201531,1,8,0:0:0:0:
3,294,201753,2,0,P|59:325|104:319,1,90,2|0,0:0|0:0,0:0:0:0:
200,248,202197,1,2,0:0:0:0:
237,232,202308,1,0,0:0:0:0:
276,224,202419,2,0,P|326:230|365:215,1,90,8|2,0:0|0:0,0:0:0:0:
398,198,202753,1,0,0:0:0:0:
429,172,202864,6,0,P|442:104|414:72,1,90,0|2,0:0|0:0,0:0:0:0:
402,63,203197,2,0,P|335:53|267:84,1,135,0|2,0:0|0:0,0:0:0:0:
239,99,203642,1,0,0:0:0:0:
198,97,203753,1,0,0:0:0:0:
159,85,203864,1,0,0:0:0:0:
119,93,203975,1,2,0:0:0:0:
87,118,204086,1,0,0:0:0:0:
70,155,204197,2,0,P|45:198|1:215,1,90,8|2,0:0|0:0,0:0:0:0:
2,254,204531,1,0,0:0:0:0:
14,292,204642,6,0,P|55:321|99:320,1,90,0|2,0:0|0:0,0:0:0:0:
128,301,204975,1,0,0:0:0:0:
152,269,205086,1,8,0:0:0:0:
269,203,205308,1,2,0:0:0:0:
386,270,205531,1,0,0:0:0:0:
426,264,205642,1,8,0:0:0:0:
463,248,205753,1,2,0:0:0:0:
467,252,205975,1,8,0:0:0:0:
429,268,206086,1,0,0:0:0:0:
389,277,206197,1,10,0:0:0:0:
348,273,206308,1,8,0:0:0:0:
311,255,206419,5,0,0:0:0:0:
285,223,206531,1,0,0:0:0:0:
278,183,206642,1,2,0:0:0:0:
269,143,206753,1,0,0:0:0:0:
242,112,206864,1,8,0:0:0:0:
242,108,207086,1,2,0:0:0:0:
268,138,207197,1,0,0:0:0:0:
297,165,207308,2,0,P|343:182|383:168,1,90,0|2,0:0|0:0,0:0:0:0:
409,140,207642,1,0,0:0:0:0:
422,101,207753,2,0,P|398:54|339:43,1,90,8|2,0:0|0:0,0:0:0:0:
325,38,208086,1,0,0:0:0:0:
285,27,208197,5,0,0:0:0:0:
244,31,208308,1,0,0:0:0:0:
205,19,208419,1,2,0:0:0:0:
164,23,208531,2,0,P|90:34|67:60,1,90
54,72,208864,2,0,P|35:122|52:161,1,90,2|0,0:0|0:0,0:0:0:0:
143,248,209308,1,2,0:0:0:0:
110,271,209419,1,0,0:0:0:0:
71,283,209531,1,8,0:0:0:0:
67,287,209753,1,2,0:0:0:0:
106,275,209865,1,0,0:0:0:0:
139,252,209976,5,0,0:0:0:0:
175,234,210086,1,0,0:0:0:0:
202,204,210197,2,0,P|218:170|214:150,1,45,2|0,0:0|0:0,0:0:0:0:
419,144,210642,1,2,0:0:0:0:
429,182,210753,1,0,0:0:0:0:
427,222,210864,2,0,P|425:269|381:308,1,90,0|2,0:0|0:0,0:0:0:0:
360,316,211197,1,0,0:0:0:0:
319,315,211308,2,0,P|271:293|256:257,1,90,8|2,0:0|0:0,0:0:0:0:
265,221,211642,1,0,0:0:0:0:
283,185,211753,6,0,P|294:146|291:128,1,45
167,113,211975,2,0,P|160:77|150:60,1,45,2|0,0:0|0:0,0:0:0:0:
39,147,212197,1,8,0:0:0:0:
9,278,212419,1,2,0:0:0:0:
44,297,212531,1,0,0:0:0:0:
83,307,212642,1,0,0:0:0:0:
123,304,212753,1,8,0:0:0:0:
159,287,212864,1,2,0:0:0:0:
193,265,212975,1,0,0:0:0:0:
232,255,213086,1,8,0:0:0:0:
272,260,213197,1,0,0:0:0:0:
308,277,213308,1,10,0:0:0:0:
344,294,213419,1,8,0:0:0:0:
384,294,213531,6,0,P|445:275|491:210,1,135,4|2,0:0|0:0,0:0:0:0:
483,216,213975,1,0,0:0:0:0:
400,108,214197,1,2,0:0:0:0:
400,108,214308,1,2,0:0:0:0:
270,69,214531,1,2,0:0:0:0:
135,83,214753,1,2,0:0:0:0:
135,83,214864,1,8,0:0:0:0:
214,191,215086,1,2,0:0:0:0:
81,166,215308,6,0,P|124:216|204:220,1,135,0|2,0:0|0:0,0:0:0:0:
214,192,215753,2,0,P|282:176|317:186,1,90,8|2,0:0|0:0,0:0:0:0:
339,191,216086,1,2,0:0:0:0:
461,134,216308,1,2,0:0:0:0:
456,269,216531,1,2,0:0:0:0:
425,295,216642,2,0,P|376:327|315:322,1,90,8|2,0:0|0:0,0:0:0:0:
212,306,217086,5,0,0:0:0:0:
129,199,217308,1,2,0:0:0:0:
141,160,217419,1,0,0:0:0:0:
173,134,217531,1,8,0:0:0:0:
287,204,217753,1,2,0:0:0:0:
287,204,217864,1,2,0:0:0:0:
294,69,218086,1,2,0:0:0:0:
176,135,218308,1,2,0:0:0:0:
176,134,218419,1,8,0:0:0:0:
311,137,218642,1,2,0:0:0:0:
349,148,218753,1,0,0:0:0:0:
383,168,218864,5,0,0:0:0:0:
413,194,218975,1,0,0:0:0:0:
439,224,219086,1,2,0:0:0:0:
507,108,219308,1,8,0:0:0:0:
480,77,219419,1,0,0:0:0:0:
446,54,219530,1,2,0:0:0:0:
409,36,219641,1,0,0:0:0:0:
369,25,219753,1,2,0:0:0:0:
328,19,219864,1,8,0:0:0:0:
287,19,219975,1,2,0:0:0:0:
238,144,220197,1,8,0:0:0:0:
278,139,220308,1,8,0:0:0:0:
318,142,220419,1,10,0:0:0:0:
355,157,220531,1,8,0:0:0:0:
388,179,220642,5,0,0:0:0:0:
294,276,220864,1,2,0:0:0:0:
159,266,221086,1,8,0:0:0:0:
159,266,221197,1,2,0:0:0:0:
77,158,221419,1,2,0:0:0:0:
202,208,221642,1,2,0:0:0:0:
251,333,221864,1,2,0:0:0:0:
251,333,221975,1,8,0:0:0:0:
385,338,222197,1,2,0:0:0:0:
471,234,222419,6,0,P|441:181|385:163,1,90,0|2,0:0|0:0,0:0:0:0:
379,152,222753,1,0,0:0:0:0:
338,146,222864,1,8,0:0:0:0:
240,53,223086,1,2,0:0:0:0:
240,53,223197,1,2,0:0:0:0:
209,184,223419,1,2,0:0:0:0:
209,184,223531,1,2,0:0:0:0:
103,99,223753,1,8,0:0:0:0:
22,207,223975,1,2,0:0:0:0:
59,221,224086,1,0,0:0:0:0:
99,216,224197,5,0,0:0:0:0:
133,194,224308,1,0,0:0:0:0:
161,165,224419,1,2,0:0:0:0:
193,140,224531,1,2,0:0:0:0:
231,128,224642,1,8,0:0:0:0:
359,168,224864,1,2,0:0:0:0:
359,168,224975,1,2,0:0:0:0:
259,258,225197,1,2,0:0:0:0:
231,128,225419,1,2,0:0:0:0:
231,128,225531,1,8,0:0:0:0:
130,38,225753,1,2,0:0:0:0:
259,0,225975,5,0,0:0:0:0:
296,16,226086,1,2,0:0:0:0:
315,51,226197,1,2,0:0:0:0:
313,91,226308,1,2,0:0:0:0:
291,125,226419,1,8,0:0:0:0:
277,163,226531,1,2,0:0:0:0:
282,203,226642,1,2,0:0:0:0:
313,228,226753,1,2,0:0:0:0:
352,221,226864,1,0,0:0:0:0:
374,187,226975,1,8,0:0:0:0:
367,147,227086,1,2,0:0:0:0:
331,127,227197,1,0,0:0:0:0:
290,131,227308,1,8,0:0:0:0:
253,148,227419,1,0,0:0:0:0:
212,149,227531,1,10,0:0:0:0:
173,135,227642,1,8,0:0:0:0:
154,98,227753,1,4,0:0:0:0:
256,192,238419,12,0,240864,0:0:0:0:
210,254,241086,5,0,0:0:0:0:
174,235,241197,1,8,0:0:0:0:
146,205,241308,1,2,0:0:0:0:
142,209,241531,1,8,0:0:0:0:
170,239,241642,1,0,0:0:0:0:
206,258,241753,1,10,0:0:0:0:
245,265,241864,1,8,0:0:0:0:
285,262,241975,6,0,P|375:219|392:136,1,180,4|0,0:0|0:0,0:0:0:0:
259,133,242642,1,2,0:0:0:0:
225,110,242753,1,0,0:0:0:0:
200,78,242864,1,0,0:0:0:0:
200,82,243086,1,2,0:0:0:0:
225,114,243197,1,0,0:0:0:0:
259,137,243308,1,8,0:0:0:0:
377,202,243531,1,2,0:0:0:0:
466,302,243753,5,0,0:0:0:0:
332,323,243975,1,2,0:0:0:0:
292,315,244086,1,0,0:0:0:0:
256,295,244197,1,8,0:0:0:0:
233,261,244308,1,0,0:0:0:0:
230,220,244419,1,2,0:0:0:0:
240,180,244531,1,0,0:0:0:0:
266,149,244642,2,0,B|292:84|378:129|409:46,1,180,0|8,0:0|0:0,0:0:0:0:
375,25,245197,1,0,0:0:0:0:
334,22,245308,1,2,0:0:0:0:
294,32,245419,1,0,0:0:0:0:
258,51,245531,6,0,P|191:85|93:57,1,180,0|8,0:0|0:0,0:0:0:0:
150,180,246197,1,2,0:0:0:0:
190,183,246308,1,0,0:0:0:0:
229,174,246419,1,0,0:0:0:0:
154,184,246642,1,2,0:0:0:0:
194,187,246753,1,0,0:0:0:0:
233,178,246864,2,0,P|293:168|333:179,1,90,8|2,0:0|0:0,0:0:0:0:
449,133,247308,6,0,P|457:198|436:240,1,90,0|2,0:0|0:0,0:0:0:0:
334,292,247753,1,8,0:0:0:0:
294,299,247864,1,0,0:0:0:0:
253,294,247975,1,2,0:0:0:0:
219,271,248086,1,0,0:0:0:0:
194,239,248197,2,0,B|158:161|67:234|35:144,1,180,0|8,0:0|0:0,0:0:0:0:
41,120,248753,1,0,0:0:0:0:
60,84,248864,1,2,0:0:0:0:
94,63,248975,1,0,0:0:0:0:
133,56,249086,6,0,P|203:51|297:131,1,180,0|8,0:0|0:0,0:0:0:0:
422,97,249753,1,2,0:0:0:0:
432,136,249864,1,0,0:0:0:0:
431,176,249975,2,0,P|416:229|386:252,1,90,0|2,0:0|0:0,0:0:0:0:
262,292,250419,1,8,0:0:0:0:
221,296,250531,1,0,0:0:0:0:
181,288,250642,1,2,0:0:0:0:
145,268,250753,1,0,0:0:0:0:
124,233,250864,5,0,0:0:0:0:
114,193,250975,1,0,0:0:0:0:
123,153,251086,1,2,0:0:0:0:
148,121,251197,1,0,0:0:0:0:
184,103,251308,1,8,0:0:0:0:
224,97,251419,1,0,0:0:0:0:
262,83,251531,1,2,0:0:0:0:
294,58,251642,1,0,0:0:0:0:
328,36,251753,2,0,P|387:48|459:160,1,180,0|8,0:0|0:0,0:0:0:0:
452,179,252308,1,0,0:0:0:0:
433,214,252419,1,2,0:0:0:0:
398,236,252531,1,0,0:0:0:0:
359,247,252642,6,0,B|319:271|265:222|208:253,1,135,0|2,0:0|0:0,0:0:0:0:
186,251,253086,1,8,0:0:0:0:
145,247,253197,1,0,0:0:0:0:
109,228,253308,1,2,0:0:0:0:
89,192,253419,1,0,0:0:0:0:
89,151,253531,1,0,0:0:0:0:
104,113,253642,1,0,0:0:0:0:
134,86,253753,1,2,0:0:0:0:
169,67,253864,1,0,0:0:0:0:
209,64,253975,2,0,B|258:51|273:110|339:103,1,135,8|2,0:0|0:0,0:0:0:0:
337,107,254419,5,0,0:0:0:0:
354,144,254531,1,0,0:0:0:0:
357,184,254642,2,0,P|369:235|412:269,1,90,2|8,0:0|0:0,0:0:0:0:
423,288,254975,1,0,0:0:0:0:
437,325,255086,1,2,0:0:0:0:
427,364,255197,1,0,0:0:0:0:
391,382,255308,2,0,P|356:382|313:340,1,90,0|2,0:0|0:0,0:0:0:0:
298,212,255753,1,8,0:0:0:0:
258,205,255864,1,0,0:0:0:0:
221,221,255975,1,10,0:0:0:0:
180,218,256086,1,8,0:0:0:0:
180,218,256531,5,2,0:0:0:0:
176,222,256642,1,8,0:0:0:0:
144,197,256753,1,0,0:0:0:0:
133,157,256864,1,2,0:0:0:0:
151,121,256975,1,0,0:0:0:0:
188,105,257086,1,0,0:0:0:0:
226,118,257197,2,0,P|277:129|325:118,1,90,0|2,0:0|0:0,0:0:0:0:
350,105,257531,1,8,0:0:0:0:
482,129,257753,1,2,0:0:0:0:
377,214,257975,6,0,P|315:208|267:177,1,90,0|2,0:0|0:0,0:0:0:0:
261,167,258308,1,0,0:0:0:0:
226,146,258419,1,8,0:0:0:0:
185,139,258531,1,0,0:0:0:0:
145,147,258642,1,2,0:0:0:0:
112,171,258753,1,0,0:0:0:0:
93,206,258864,2,0,P|90:291|172:349,1,180,0|8,0:0|0:0,0:0:0:0:
197,335,259419,1,0,0:0:0:0:
237,330,259531,1,2,0:0:0:0:
270,307,259642,1,0,0:0:0:0:
303,284,259753,6,0,P|345:203|326:127,2,135,0|2|2,0:0|0:0|0:0,0:0:0:0:
425,226,260642,2,0,P|421:145|410:113,2,90,0|2|8,0:0|0:0|0:0,0:0:0:0:
352,339,261308,1,2,0:0:0:0:
216,334,261531,5,0,0:0:0:0:
178,320,261642,1,0,0:0:0:0:
146,295,261753,1,2,0:0:0:0:
129,257,261864,1,0,0:0:0:0:
127,216,261975,1,8,0:0:0:0:
140,177,262086,1,0,0:0:0:0:
168,147,262197,1,2,0:0:0:0:
203,128,262308,1,0,0:0:0:0:
239,110,262419,1,0,0:0:0:0:
272,87,262531,1,8,0:0:0:0:
291,51,262642,1,2,0:0:0:0:
291,55,262864,1,8,0:0:0:0:
272,91,262975,1,0,0:0:0:0:
239,114,263087,1,10,0:0:0:0:
203,132,263198,1,8,0:0:0:0:
168,151,263308,6,0,P|169:216|236:278,1,135,0|2,0:0|0:0,0:0:0:0:
249,283,263753,1,8,0:0:0:0:
289,282,263864,1,0,0:0:0:0:
326,266,263975,1,2,0:0:0:0:
355,238,264086,1,0,0:0:0:0:
372,201,264197,1,0,0:0:0:0:
370,160,264308,1,0,0:0:0:0:
353,123,264419,1,2,0:0:0:0:
326,91,264531,1,0,0:0:0:0:
327,50,264642,2,0,P|379:58|421:112,1,90,8|2,0:0|0:0,0:0:0:0:
424,117,264975,1,0,0:0:0:0:
432,156,265086,5,0,0:0:0:0:
432,196,265197,1,0,0:0:0:0:
422,235,265308,1,2,0:0:0:0:
403,271,265419,1,0,0:0:0:0:
368,293,265531,2,0,P|293:310|249:294,1,90,8|2,0:0|0:0,0:0:0:0:
244,292,265864,2,0,L|218:284,1,22.5
241,249,265975,2,0,P|176:214|72:240,1,180,0|8,0:0|0:0,0:0:0:0:
152,348,266642,1,2,0:0:0:0:
286,335,266864,6,0,P|343:305|382:237,1,135,0|2,0:0|0:0,0:0:0:0:
387,246,267308,1,8,0:0:0:0:
388,205,267419,1,0,0:0:0:0:
376,165,267531,1,2,0:0:0:0:
347,136,267642,1,0,0:0:0:0:
309,121,267753,1,0,0:0:0:0:
268,122,267864,2,0,P|207:143|184:169,1,90,0|2,0:0|0:0,0:0:0:0:
171,196,268197,2,0,P|128:246|93:257,1,90,8|2,0:0|0:0,0:0:0:0:
216,334,268642,5,0,0:0:0:0:
256,328,268753,1,0,0:0:0:0:
292,311,268864,1,2,0:0:0:0:
318,280,268975,1,0,0:0:0:0:
321,239,269086,1,8,0:0:0:0:
305,201,269197,1,0,0:0:0:0:
271,178,269308,2,0,P|225:131|238:80,1,90,2|0,0:0|0:0,0:0:0:0:
239,72,269642,1,8,0:0:0:0:
273,50,269753,1,2,0:0:0:0:
433,69,269975,1,8,0:0:0:0:
450,124,270086,1,0,0:0:0:0:
437,181,270197,1,10,0:0:0:0:
419,236,270308,1,8,0:0:0:0:
434,292,270419,1,4,0:0:0:0:
