osu file format v14

[General]
AudioFilename: Shadow of a Flower.mp3
AudioLeadIn: 0
PreviewTime: 128197
Countdown: 0
SampleSet: None
StackLeniency: 0.4
Mode: 0
LetterboxInBreaks: 1
WidescreenStoryboard: 1

[Editor]
Bookmarks: 12642,28642,42864,57086,85531,99753,128197,142419,170864,185086,213531,227753,241975,256197,270419,284642
DistanceSpacing: 1
BeatDivisor: 4
GridSize: 4
TimelineZoom: 1

[Metadata]
Title:Shadow of a Flower
TitleUnicode:Shadow of a Flower
Artist:StormWolf
ArtistUnicode:StormWolf
Creator:Firmatorenio
Version:Hard
Source:
Tags:pony mlp cheerilee flooooooooower
BeatmapID:1303646
BeatmapSetID:618436

[Difficulty]
HPDrainRate:6
CircleSize:4
OverallDifficulty:6
ApproachRate:7.5
SliderMultiplier:1.6
SliderTickRate:2

[Events]
//Background and Video events
0,0,"maxresdefault.jpg",0,0
//Break Periods
2,85730,95372
2,171063,180706
2,227953,237594
//Storyboard Layer 0 (Background)
//Storyboard Layer 1 (Fail)
//Storyboard Layer 2 (Pass)
//Storyboard Layer 3 (Foreground)
//Storyboard Sound Samples

[TimingPoints]
14420,444.444444444444,4,2,0,60,1,0
28642,-100,4,1,0,60,0,1
57086,-100,4,2,0,60,0,0
99753,-100,4,1,0,60,0,1
142419,-100,4,2,0,60,0,0
185086,-100,4,1,0,60,0,1
227753,-100,4,2,0,60,0,0
241975,-100,4,1,0,60,0,1
270419,-100,4,2,0,60,0,0

[HitObjects]
477,125,14420,5,4,0:0:0:0:
447,199,14642,2,0,P|413:248|373:265,1,80
321,230,15086,2,0,P|267:255|223:250,1,80
207,185,15531,2,0,P|147:180|112:153,1,80
38,40,16197,6,0,P|155:28|215:57,1,160
243,104,16864,2,0,P|319:123|397:106,1,160
469,141,17531,1,0,0:0:0:0:
401,185,17753,1,0,0:0:0:0:
324,207,17975,5,0,0:0:0:0:
324,207,18197,1,0,0:0:0:0:
243,209,18420,2,0,P|186:229|140:218,1,80
90,205,18864,2,0,P|106:282|192:305,1,160
252,285,19531,1,0,0:0:0:0:
328,309,19753,6,0,P|389:283|408:251,1,80
435,203,20197,2,0,P|446:162|425:101,1,80
384,66,20642,2,0,P|315:38|221:70,2,160
345,136,21753,5,0,0:0:0:0:
330,164,21864,1,0,0:0:0:0:
310,189,21975,2,0,P|270:203|229:190,1,80
205,179,22308,1,0,0:0:0:0:
179,159,22419,2,0,P|105:160|47:222,1,160
179,310,23308,6,0,P|256:317|312:279,2,120
125,249,24197,1,0,0:0:0:0:
147,169,24419,1,0,0:0:0:0:
202,229,24642,1,0,0:0:0:0:
226,152,24864,1,0,0:0:0:0:
282,208,25086,6,0,P|330:256|386:256,2,120
358,184,25975,1,0,0:0:0:0:
299,129,26197,1,0,0:0:0:0:
376,107,26419,2,0,P|345:61|233:77,1,160
177,100,27086,6,0,P|99:110|47:48,1,160
14,126,27753,1,0,0:0:0:0:
12,130,27864,1,8,0:0:0:0:
10,134,27975,1,2,0:0:0:0:
16,213,28197,2,0,P|40:261|68:280,1,80,8|2,0:0|0:0,0:0:0:0:
90,288,28531,1,0,0:0:0:0:
121,291,28642,6,0,P|207:278|263:225,1,160,4|8,0:0|0:0,0:0:0:0:
268,151,29308,1,2,0:0:0:0:
269,147,29419,1,0,0:0:0:0:
270,143,29531,1,0,0:0:0:0:
334,195,29753,1,2,0:0:0:0:
338,191,29864,1,0,0:0:0:0:
342,187,29975,1,8,0:0:0:0:
345,107,30197,1,2,0:0:0:0:
411,151,30419,6,0,P|428:222|416:250,1,80,0|2,0:0|0:0,0:0:0:0:
412,263,30753,1,0,0:0:0:0:
387,294,30864,2,0,P|378:318|382:347,3,40,8|0|2|0,0:0|0:0|0:0|0:0,0:0:0:0:
341,348,31308,2,0,P|265:338|234:298,1,120
224,270,31753,2,0,P|194:237|165:229,3,40,8|0|2|0,0:0|0:0|0:0|0:0,0:0:0:0:
160,230,32197,6,0,P|91:232|36:322,1,160,0|8,0:0|0:0,0:0:0:0:
119,320,32864,1,2,0:0:0:0:
123,319,32975,1,0,0:0:0:0:
127,318,33086,1,0,0:0:0:0:
206,308,33308,1,2,0:0:0:0:
210,307,33419,1,0,0:0:0:0:
214,306,33531,2,0,P|263:285|283:250,1,80,8|2,0:0|0:0,0:0:0:0:
325,200,33975,6,0,P|339:155|320:104,1,80,0|2,0:0|0:0,0:0:0:0:
279,64,34419,2,0,P|243:61|217:73,3,40,8|0|2|0,0:0|0:0|0:0|0:0,0:0:0:0:
200,70,34864,2,0,P|135:108|123:169,1,120
118,187,35308,2,0,P|120:216|131:244,3,40,8|0|2|0,0:0|0:0|0:0|0:0,0:0:0:0:
148,257,35753,6,0,P|248:289|302:267,1,160,0|8,0:0|0:0,0:0:0:0:
354,215,36419,2,0,P|369:186|368:159,1,40,2|0,0:0|0:0,0:0:0:0:
367,139,36642,2,0,P|270:124|228:148,1,120,0|2,0:0|0:0,0:0:0:0:
215,143,37086,2,0,P|184:160|175:181,3,40,8|0|2|0,0:0|0:0|0:0|0:0,0:0:0:0:
154,192,37531,6,0,P|136:220|135:237,3,40,0|0|2|0,0:0|0:0|0:0|0:0,0:0:0:0:
126,265,37975,2,0,P|125:294|134:313,3,40,8|0|2|0,0:0|0:0|0:0|0:0,0:0:0:0:
152,336,38419,2,0,P|214:361|245:356,1,80,0|2,0:0|0:0,0:0:0:0:
300,331,38864,2,0,P|317:302|322:289,3,40,8|0|2|0,0:0|0:0|0:0|0:0,0:0:0:0:
320,256,39308,6,0,P|313:201|341:142,1,120,0|2,0:0|0:0,0:0:0:0:
359,108,39753,2,0,P|381:75|384:57,3,40,8|0|2|0,0:0|0:0|0:0|0:0,0:0:0:0:
367,37,40197,2,0,P|339:19|308:19,3,40,0|0|2|0,0:0|0:0|0:0|0:0,0:0:0:0:
292,15,40642,2,0,P|214:43|194:100,1,120,8|2,0:0|0:0,0:0:0:0:
185,109,41086,6,0,P|179:138|186:156,1,40
197,184,41308,2,0,P|230:223|265:230,1,80,2|0,0:0|0:0,0:0:0:0:
292,234,41642,1,0,0:0:0:0:
327,228,41753,1,2,0:0:0:0:
358,211,41864,1,0,0:0:0:0:
382,185,41975,2,0,P|396:133|384:95,1,80,8|10,0:0|0:0,0:0:0:0:
344,43,42419,2,0,P|315:35|286:43,3,40,8|8|10|8,0:0|0:0|0:0|0:0,0:0:0:0:
232,187,43197,5,2,0:0:0:0:
213,209,43308,2,0,P|229:248|232:272,4,40,8|0|2|0|0,0:0|0:0|0:0|0:0|0:0,0:0:0:0:
172,209,43864,2,0,P|126:171|124:122,1,80,2|0,0:0|0:0,0:0:0:0:
113,114,44197,2,0,P|121:64|144:40,1,80,8|2,0:0|0:0,0:0:0:0:
203,92,44642,6,0,P|246:116|296:117,1,80,0|2,0:0|0:0,0:0:0:0:
315,120,44975,1,0,0:0:0:0:
353,110,45086,2,0,P|381:97|417:113,3,40,8|0|2|0,0:0|0:0|0:0|0:0,0:0:0:0:
429,102,45531,2,0,P|461:179|438:223,1,120,0|2,0:0|0:0,0:0:0:0:
425,240,45975,2,0,P|401:269|368:273,3,40,8|0|2|0,0:0|0:0|0:0|0:0,0:0:0:0:
362,289,46419,6,0,P|303:298|245:261,2,120,0|2|2,0:0|0:0|0:0,0:0:0:0:
318,222,47308,2,0,P|266:187|255:159,3,80,0|2|8|2,0:0|0:0|0:0|0:0,0:0:0:0:
309,110,48197,6,0,P|282:96|261:95,3,40,0|0|2|0,0:0|0:0|0:0|0:0,0:0:0:0:
232,95,48642,2,0,P|196:99|172:118,3,40,8|0|2|0,0:0|0:0|0:0|0:0,0:0:0:0:
157,117,49086,1,0,0:0:0:0:
153,121,49197,1,8,0:0:0:0:
149,125,49308,1,2,0:0:0:0:
80,83,49531,2,0,P|69:148|91:178,1,80,8|10,0:0|0:0,0:0:0:0:
99,188,49864,1,8,0:0:0:0:
133,207,49975,6,0,P|171:248|184:312,1,120,0|2,0:0|0:0,0:0:0:0:
207,341,50419,2,0,P|252:337|265:332,3,40,8|0|2|0,0:0|0:0|0:0|0:0,0:0:0:0:
280,316,50864,2,0,P|299:287|301:274,3,40,0|0|2|0,0:0|0:0|0:0|0:0,0:0:0:0:
308,243,51308,2,0,P|300:172|282:153,1,80,8|2,0:0|0:0,0:0:0:0:
279,130,51642,6,0,P|300:97|306:84,4,40,0|0|2|0|0,0:0|0:0|0:0|0:0|0:0,0:0:0:0:
240,119,52197,2,0,P|189:108|146:134,1,80,8|2,0:0|0:0,0:0:0:0:
135,145,52531,1,0,0:0:0:0:
124,183,52642,2,0,P|148:239|197:256,1,80,0|2,0:0|0:0,0:0:0:0:
240,231,53086,2,0,P|281:253|301:284,1,80,8|2,0:0|0:0,0:0:0:0:
396,294,53531,6,0,P|448:241|459:185,1,120,0|2,0:0|0:0,0:0:0:0:
452,158,53975,2,0,P|490:138|501:120,4,40,8|0|2|0|0,0:0|0:0|0:0|0:0|0:0,0:0:0:0:
423,129,54531,2,0,P|344:112|324:120,1,80
308,116,54864,2,0,P|238:111|217:90,1,80,8|2,0:0|0:0,0:0:0:0:
188,40,55308,6,0,P|168:59|159:80,3,40,0|0|2|0,0:0|0:0|0:0|0:0,0:0:0:0:
141,104,55753,2,0,P|130:124|130:142,1,40,8|0,0:0|0:0,0:0:0:0:
127,180,55975,2,0,P|141:238|180:266,1,80,2|0,0:0|0:0,0:0:0:0:
189,269,56308,1,8,0:0:0:0:
228,270,56419,1,2,0:0:0:0:
317,233,56642,1,8,0:0:0:0:
349,145,56864,1,2,0:0:0:0:
345,119,56975,1,8,0:0:0:0:
333,100,57086,6,0,P|285:72|248:77,1,80,4|2,0:0|0:0,0:0:0:0:
190,108,57531,1,8,0:0:0:0:
117,142,57753,1,2,0:0:0:0:
124,62,57975,1,0,0:0:0:0:
197,29,58197,1,2,0:0:0:0:
262,74,58419,1,8,0:0:0:0:
235,232,58864,6,0,P|321:261|400:223,1,160,0|8,0:0|0:0,0:0:0:0:
442,184,59531,2,0,P|356:155|277:193,1,160,2|2,0:0|0:0,0:0:0:0:
236,233,60197,1,8,0:0:0:0:
85,177,60642,5,0,0:0:0:0:
139,118,60864,2,0,P|182:84|215:81,1,80,2|8,0:0|0:0,0:0:0:0:
276,117,61308,2,0,P|233:151|200:154,1,80,2|0,0:0|0:0,0:0:0:0:
131,110,61753,2,0,P|174:76|207:73,1,80,2|8,0:0|0:0,0:0:0:0:
268,110,62197,1,2,0:0:0:0:
318,172,62419,5,0,0:0:0:0:
361,239,62642,2,0,P|385:270|422:282,1,80,2|8,0:0|0:0,0:0:0:0:
501,268,63086,1,2,0:0:0:0:
486,189,63308,2,0,P|445:104|353:90,2,160,0|8|0,0:0|0:0|0:0,0:0:0:0:
501,268,64419,5,2,0:0:0:0:
489,297,64531,1,0,0:0:0:0:
467,321,64642,2,0,P|414:340|369:331,1,80,8|2,0:0|0:0,0:0:0:0:
362,324,64975,1,0,0:0:0:0:
333,309,65086,2,0,P|280:284|241:290,1,80,0|2,0:0|0:0,0:0:0:0:
180,295,65531,1,8,0:0:0:0:
80,170,65975,6,0,P|42:121|35:57,2,120,0|2|2,0:0|0:0|0:0,0:0:0:0:
148,211,66864,1,0,0:0:0:0:
225,228,67086,1,2,0:0:0:0:
304,232,67308,1,8,0:0:0:0:
382,215,67531,1,2,0:0:0:0:
446,167,67753,6,0,P|469:113|456:51,2,120,0|2|2,0:0|0:0|0:0,0:0:0:0:
457,246,68642,2,0,P|453:292|404:322,1,80,0|2,0:0|0:0,0:0:0:0:
351,327,69086,1,8,0:0:0:0:
371,168,69531,6,0,P|378:113|352:71,1,80,0|2,0:0|0:0,0:0:0:0:
297,55,69975,1,8,0:0:0:0:
300,135,70197,2,0,P|240:171|142:137,1,160,2|2,0:0|0:0,0:0:0:0:
92,101,70864,1,8,0:0:0:0:
28,247,71308,5,0,0:0:0:0:
97,286,71531,1,2,0:0:0:0:
175,300,71753,1,8,0:0:0:0:
250,273,71975,1,2,0:0:0:0:
325,300,72197,1,0,0:0:0:0:
403,286,72419,1,2,0:0:0:0:
472,247,72642,1,8,0:0:0:0:
401,209,72864,6,0,P|314:172|274:82,2,160,2|2|2,0:0|0:0|0:0,0:0:0:0:
471,171,73975,1,0,0:0:0:0:
426,104,74197,1,2,0:0:0:0:
349,80,74419,1,8,0:0:0:0:
472,247,74864,5,0,0:0:0:0:
403,286,75087,1,2,0:0:0:0:
325,300,75309,1,8,0:0:0:0:
250,273,75531,1,2,0:0:0:0:
175,300,75753,1,0,0:0:0:0:
97,286,75975,1,2,0:0:0:0:
28,247,76198,1,8,0:0:0:0:
99,209,76420,6,0,P|186:172|226:82,2,160,2|2|2,0:0|0:0|0:0,0:0:0:0:
29,171,77531,1,0,0:0:0:0:
74,104,77753,1,2,0:0:0:0:
151,80,77975,1,8,0:0:0:0:
250,204,78419,5,0,0:0:0:0:
211,274,78642,1,2,0:0:0:0:
290,274,78864,1,8,0:0:0:0:
327,203,79086,2,0,P|310:155|276:132,1,80,2|0,0:0|0:0,0:0:0:0:
212,137,79531,1,2,0:0:0:0:
173,205,79753,1,8,0:0:0:0:
95,224,79975,1,2,0:0:0:0:
75,199,80086,1,0,0:0:0:0:
65,168,80197,6,0,P|49:81|62:42,2,120,0|2|2,0:0|0:0|0:0,0:0:0:0:
105,237,81086,2,0,P|150:284|243:299,1,160,0|8,0:0|0:0,0:0:0:0:
316,273,81753,1,2,0:0:0:0:
385,233,81975,6,0,P|414:172|411:119,2,120,0|2|2,0:0|0:0|0:0,0:0:0:0:
333,171,82864,2,0,P|327:103|298:59,2,120,0|2|2,0:0|0:0|0:0,0:0:0:0:
257,144,83753,6,0,P|218:88|171:64,2,120,0|2|2,0:0|0:0|0:0,0:0:0:0:
177,152,84642,2,0,P|115:123|22:137,2,160,0|8|4,0:0|0:0|0:0,0:0:0:0:
256,192,96197,12,0,99531,0:0:0:0:
325,127,99753,6,0,P|278:106|242:106,1,80,4|2,0:0|0:0,0:0:0:0:
211,114,100086,1,0,0:0:0:0:
179,138,100197,2,0,P|149:180|148:212,1,80,8|2,0:0|0:0,0:0:0:0:
155,246,100531,1,0,0:0:0:0:
178,278,100642,2,0,P|220:305|251:304,1,80,0|2,0:0|0:0,0:0:0:0:
340,275,101086,1,8,0:0:0:0:
418,99,101531,5,0,0:0:0:0:
396,132,101642,1,0,0:0:0:0:
369,161,101753,1,2,0:0:0:0:
337,184,101864,1,0,0:0:0:0:
299,199,101975,2,0,P|237:203|206:194,1,80,8|2,0:0|0:0,0:0:0:0:
182,184,102308,1,0,0:0:0:0:
142,175,102419,2,0,P|89:173|55:194,1,80,0|2,0:0|0:0,0:0:0:0:
3,257,102864,1,8,0:0:0:0:
193,280,103308,6,0,P|264:291|295:311,1,80,0|2,0:0|0:0,0:0:0:0:
307,309,103642,2,0,P|380:308|411:287,1,80,2|2,0:0|0:0,0:0:0:0:
412,277,103975,2,0,P|431:227|429:185,1,80,2|0,0:0|0:0,0:0:0:0:
425,105,104419,1,2,0:0:0:0:
421,101,104531,1,0,0:0:0:0:
417,97,104642,1,8,0:0:0:0:
268,206,105086,6,0,P|210:195|179:154,1,80,0|2,0:0|0:0,0:0:0:0:
174,148,105419,2,0,P|148:88|117:69,1,80,2|2,0:0|0:0,0:0:0:0:
104,57,105753,2,0,P|48:55|16:86,1,80,2|0,0:0|0:0,0:0:0:0:
7,100,106086,1,0,0:0:0:0:
8,139,106197,1,2,0:0:0:0:
47,225,106419,1,8,0:0:0:0:
125,280,106642,1,10,0:0:0:0:
163,291,106753,1,8,0:0:0:0:
202,291,106864,6,0,P|255:278|281:256,1,80,0|2,0:0|0:0,0:0:0:0:
305,238,107197,2,0,P|357:215|386:216,1,80,2|2,0:0|0:0,0:0:0:0:
419,212,107531,2,0,P|465:176|476:145,1,80,2|0,0:0|0:0,0:0:0:0:
447,65,107975,2,0,P|401:101|390:132,1,80,2|8,0:0|0:0,0:0:0:0:
338,304,108642,6,0,P|283:318|237:309,1,80,0|2,0:0|0:0,0:0:0:0:
222,302,108975,1,0,0:0:0:0:
190,276,109086,2,0,P|168:224|123:198,2,80,8|2|0,0:0|0:0|0:0,0:0:0:0:
115,336,109753,2,0,P|74:315|52:265,1,80,2|8,0:0|0:0,0:0:0:0:
101,100,110419,5,0,0:0:0:0:
136,80,110531,1,0,0:0:0:0:
173,67,110642,2,0,P|206:62|221:65,1,40,2|0,0:0|0:0,0:0:0:0:
356,61,111086,1,2,0:0:0:0:
349,100,111197,1,0,0:0:0:0:
330,135,111308,2,0,P|290:175|246:185,1,80,0|2,0:0|0:0,0:0:0:0:
173,198,111753,1,8,0:0:0:0:
30,325,112197,6,0,P|82:340|110:335,1,80,0|2,0:0|0:0,0:0:0:0:
145,324,112531,1,0,0:0:0:0:
182,310,112642,2,0,P|230:297|272:302,1,80,8|2,0:0|0:0,0:0:0:0:
299,306,112975,1,0,0:0:0:0:
337,316,113086,1,0,0:0:0:0:
376,319,113197,1,0,0:0:0:0:
414,308,113308,1,2,0:0:0:0:
485,243,113531,1,8,0:0:0:0:
392,218,113753,1,2,0:0:0:0:
352,219,113864,1,0,0:0:0:0:
313,209,113975,6,0,P|251:185|239:171,1,80,4|2,0:0|0:0,0:0:0:0:
219,143,114308,1,0,0:0:0:0:
193,112,114419,1,8,0:0:0:0:
156,94,114531,1,0,0:0:0:0:
116,96,114642,2,0,P|59:119|42:153,1,80,2|0,0:0|0:0,0:0:0:0:
57,227,115086,2,0,P|114:204|131:170,1,80,2|0,0:0|0:0,0:0:0:0:
260,55,115753,6,0,P|321:49|346:58,1,80,0|2,0:0|0:0,0:0:0:0:
371,75,116086,2,0,P|398:110|405:154,1,80,2|2,0:0|0:0,0:0:0:0:
398,183,116419,1,2,0:0:0:0:
301,180,116642,2,0,P|318:246|341:259,1,80,0|2,0:0|0:0,0:0:0:0:
353,277,116975,1,0,0:0:0:0:
348,324,117086,2,0,P|298:339|261:329,1,80,8|2,0:0|0:0,0:0:0:0:
185,291,117531,6,0,P|157:244|166:206,1,80,0|2,0:0|0:0,0:0:0:0:
173,183,117864,1,0,0:0:0:0:
176,143,117975,1,8,0:0:0:0:
159,48,118197,2,0,P|115:67|93:96,2,80,2|0|2,0:0|0:0|0:0,0:0:0:0:
246,87,118864,1,8,0:0:0:0:
337,58,119086,1,2,0:0:0:0:
427,88,119308,6,0,P|435:143|410:179,1,80,0|2,0:0|0:0,0:0:0:0:
396,191,119642,2,0,P|358:226|354:278,1,80,2|2,0:0|0:0,0:0:0:0:
352,292,119975,1,2,0:0:0:0:
260,321,120197,1,0,0:0:0:0:
220,323,120308,1,8,0:0:0:0:
180,319,120419,1,2,0:0:0:0:
105,258,120642,2,0,P|90:215|97:178,1,80,8|2,0:0|0:0,0:0:0:0:
115,147,120975,1,0,0:0:0:0:
151,129,121086,6,0,P|201:141|246:137,1,80,0|2,0:0|0:0,0:0:0:0:
268,134,121419,1,0,0:0:0:0:
304,117,121531,2,0,P|363:84|397:83,1,80,8|2,0:0|0:0,0:0:0:0:
413,88,121864,1,0,0:0:0:0:
448,105,121975,2,0,P|482:154|474:191,2,80,0|2|8,0:0|0:0|0:0,0:0:0:0:
383,176,122642,1,2,0:0:0:0:
347,265,122864,5,0,0:0:0:0:
311,282,122975,1,0,0:0:0:0:
271,289,123086,2,0,P|199:279|185:266,1,80,2|8,0:0|0:0,0:0:0:0:
128,207,123531,1,0,0:0:0:0:
109,112,123753,2,0,P|156:130|192:132,1,80,0|2,0:0|0:0,0:0:0:0:
219,153,124086,1,0,0:0:0:0:
225,193,124197,2,0,P|204:229|204:292,1,80,8|2,0:0|0:0,0:0:0:0:
266,334,124642,6,0,P|330:338|359:327,1,80,0|2,0:0|0:0,0:0:0:0:
353,294,124975,2,0,P|370:242|399:216,1,80,2|2,0:0|0:0,0:0:0:0:
419,201,125308,1,2,0:0:0:0:
443,169,125419,1,0,0:0:0:0:
448,129,125531,2,0,P|432:78|392:61,1,80,0|2,0:0|0:0,0:0:0:0:
317,81,125975,1,8,0:0:0:0:
246,145,126197,1,2,0:0:0:0:
178,76,126419,6,0,P|114:66|86:84,1,80,0|2,0:0|0:0,0:0:0:0:
66,89,126753,1,0,0:0:0:0:
38,117,126864,1,8,0:0:0:0:
27,209,127086,1,2,0:0:0:0:
27,246,127197,1,2,0:0:0:0:
52,275,127308,2,0,P|84:300|133:309,1,80
161,313,127642,1,2,0:0:0:0:
200,316,127753,2,0,P|248:310|274:281,1,80,8|2,0:0|0:0,0:0:0:0:
297,260,128086,1,0,0:0:0:0:
332,241,128197,6,0,P|378:205|388:172,1,80,4|2,0:0|0:0,0:0:0:0:
367,91,128642,1,8,0:0:0:0:
293,153,128864,2,0,P|267:161|240:156,1,40,2|2,0:0|0:0,0:0:0:0:
170,114,129197,1,2,0:0:0:0:
75,127,129419,2,0,P|41:209|50:251,1,120,2|2,0:0|0:0,0:0:0:0:
105,312,129975,6,0,P|162:324|229:301,1,120,0|2,0:0|0:0,0:0:0:0:
250,281,130419,1,8,0:0:0:0:
343,256,130642,2,0,P|359:279|375:288,1,40,2|2,0:0|0:0,0:0:0:0:
399,171,130975,1,2,0:0:0:0:
369,79,131197,2,0,P|326:37|261:33,1,120,2|2,0:0|0:0,0:0:0:0:
288,125,131753,6,0,P|298:182|264:220,1,80,0|2,0:0|0:0,0:0:0:0:
246,285,132197,1,8,0:0:0:0:
158,245,132419,1,2,0:0:0:0:
158,245,132531,1,2,0:0:0:0:
121,156,132753,1,2,0:0:0:0:
157,67,132975,2,0,P|228:39|283:47,1,120,2|2,0:0|0:0,0:0:0:0:
306,60,133419,1,0,0:0:0:0:
332,90,133531,6,0,P|322:142|339:189,1,80,0|2,0:0|0:0,0:0:0:0:
378,248,133975,1,8,0:0:0:0:
303,307,134197,1,2,0:0:0:0:
265,320,134308,1,0,0:0:0:0:
225,321,134419,2,0,P|179:308|170:300,2,40,0|8|2,0:0|0:0|0:0,0:0:0:0:
253,229,134864,1,8,0:0:0:0:
223,137,135086,1,8,0:0:0:0:
199,104,135197,1,8,0:0:0:0:
164,83,135308,6,0,P|95:79|37:124,1,120,0|2,0:0|0:0,0:0:0:0:
29,136,135753,1,0,0:0:0:0:
39,231,135975,2,0,P|87:261|163:244,1,120,2|2,0:0|0:0,0:0:0:0:
186,242,136419,2,0,P|243:233|285:252,1,80,2|8,0:0|0:0,0:0:0:0:
340,296,136864,1,2,0:0:0:0:
379,301,136975,1,0,0:0:0:0:
417,290,137086,6,0,P|450:240|450:207,1,80,0|2,0:0|0:0,0:0:0:0:
427,128,137531,1,8,0:0:0:0:
360,196,137753,1,2,0:0:0:0:
360,196,137864,1,2,0:0:0:0:
264,186,138086,1,2,0:0:0:0:
188,126,138308,2,0,P|127:102|51:135,1,120,2|2,0:0|0:0,0:0:0:0:
131,193,138864,6,0,P|176:244|175:283,1,80,0|2,0:0|0:0,0:0:0:0:
175,293,139197,1,0,0:0:0:0:
186,331,139308,1,8,0:0:0:0:
281,346,139531,1,2,0:0:0:0:
281,346,139642,1,2,0:0:0:0:
366,302,139864,1,2,0:0:0:0:
286,248,140086,2,0,P|346:209|411:217,1,120,2|2,0:0|0:0,0:0:0:0:
487,227,140642,6,0,P|490:157|438:106,1,120,0|2,0:0|0:0,0:0:0:0:
424,104,141086,1,8,0:0:0:0:
328,101,141308,1,2,0:0:0:0:
300,193,141531,1,0,0:0:0:0:
300,193,141642,1,8,0:0:0:0:
300,193,141753,1,2,0:0:0:0:
228,128,141975,1,8,0:0:0:0:
200,220,142197,1,10,0:0:0:0:
200,220,142308,1,2,0:0:0:0:
200,220,142419,6,0,P|251:280|338:281,2,160,4|8|0,0:0|0:0|0:0,0:0:0:0:
162,148,143531,1,2,0:0:0:0:
155,68,143753,1,8,0:0:0:0:
92,117,143975,1,2,0:0:0:0:
101,196,144197,6,0,P|119:272|218:283,1,160,0|8,0:0|0:0,0:0:0:0:
259,253,144864,2,0,B|299:224|363:263|420:215,1,160,2|2,0:0|0:0,0:0:0:0:
455,153,145531,1,8,0:0:0:0:
301,108,145975,5,0,0:0:0:0:
225,135,146197,2,0,P|173:146|127:137,1,80,2|8,0:0|0:0,0:0:0:0:
69,120,146642,1,2,0:0:0:0:
86,197,146864,2,0,P|138:237|234:247,1,160,0|8,0:0|0:0,0:0:0:0:
296,203,147531,1,2,0:0:0:0:
303,282,147753,6,0,P|381:281|437:227,1,160,0|8,0:0|0:0,0:0:0:0:
432,148,148419,2,0,P|353:148|297:202,1,160,2|2,0:0|0:0,0:0:0:0:
305,282,149086,1,8,0:0:0:0:
230,311,149308,1,2,0:0:0:0:
150,297,149531,6,0,P|116:258|113:209,1,80,0|2,0:0|0:0,0:0:0:0:
109,191,149864,1,0,0:0:0:0:
119,152,149975,2,0,P|144:104|184:86,1,80,8|2,0:0|0:0,0:0:0:0:
223,145,150419,2,0,P|254:120|268:84,1,80,0|2,0:0|0:0,0:0:0:0:
281,45,150753,1,0,0:0:0:0:
310,71,150864,2,0,P|369:107|408:100,1,80,8|2,0:0|0:0,0:0:0:0:
457,100,151308,6,0,P|448:168|402:216,2,120,0|2|2,0:0|0:0|0:0,0:0:0:0:
429,24,152197,1,0,0:0:0:0:
335,153,152642,1,8,0:0:0:0:
269,199,152864,1,2,0:0:0:0:
189,209,153086,5,0,0:0:0:0:
111,190,153308,1,2,0:0:0:0:
57,130,153531,1,8,0:0:0:0:
39,51,153753,1,2,0:0:0:0:
115,74,153975,1,0,0:0:0:0:
164,136,154197,1,2,0:0:0:0:
189,209,154419,1,8,0:0:0:0:
186,289,154642,1,2,0:0:0:0:
143,356,154864,6,0,P|86:375|39:368,2,80,0|2|8,0:0|0:0|0:0,0:0:0:0:
186,289,155531,1,2,0:0:0:0:
237,137,155975,2,0,P|274:86|310:73,1,80,2|8,0:0|0:0,0:0:0:0:
411,180,156642,5,0,0:0:0:0:
393,257,156864,1,2,0:0:0:0:
333,203,157086,1,8,0:0:0:0:
316,281,157308,1,2,0:0:0:0:
196,281,157531,1,0,0:0:0:0:
179,203,157753,1,2,0:0:0:0:
119,257,157975,1,8,0:0:0:0:
101,180,158197,6,0,P|160:124|236:147,2,160,2|2|2,0:0|0:0|0:0,0:0:0:0:
42,235,159308,1,0,0:0:0:0:
61,312,159531,1,2,0:0:0:0:
136,337,159753,1,8,0:0:0:0:
101,204,160197,5,0,0:0:0:0:
119,127,160419,1,2,0:0:0:0:
179,181,160641,1,8,0:0:0:0:
196,103,160863,1,2,0:0:0:0:
316,103,161086,1,0,0:0:0:0:
333,181,161308,1,2,0:0:0:0:
393,127,161530,1,8,0:0:0:0:
411,204,161752,6,0,P|352:260|276:237,2,160,2|2|2,0:0|0:0|0:0,0:0:0:0:
470,149,162863,1,0,0:0:0:0:
488,228,163086,1,2,0:0:0:0:
430,283,163308,1,8,0:0:0:0:
317,190,163753,6,0,P|266:172|244:132,1,80,0|2,0:0|0:0,0:0:0:0:
266,115,164086,1,0,0:0:0:0:
226,112,164197,2,0,P|199:86|193:45,1,80,8|2,0:0|0:0,0:0:0:0:
123,45,164642,2,0,P|114:97|79:126,1,80,0|2,0:0|0:0,0:0:0:0:
57,106,164975,1,0,0:0:0:0:
62,147,165086,2,0,P|41:177|2:190,1,80,8|2,0:0|0:0,0:0:0:0:
3,270,165531,6,0,P|56:327|101:327,2,120,0|2|2,0:0|0:0|0:0,0:0:0:0:
28,194,166419,2,0,P|78:236|81:262,2,80,0|0|8,0:0|0:0|0:0,0:0:0:0:
69,58,167308,6,0,P|132:65|177:102,2,120,0|2|2,0:0|0:0|0:0,0:0:0:0:
197,10,168197,2,0,P|248:47|268:102,2,120,0|2|2,0:0|0:0|0:0,0:0:0:0:
330,36,169086,6,0,P|355:94|345:151,2,120,0|2|2,0:0|0:0|0:0,0:0:0:0:
433,124,169975,2,0,P|425:186|325:246,2,160,0|8|4,0:0|0:0|0:0,0:0:0:0:
256,192,181531,12,0,184864,0:0:0:0:
339,197,185086,6,0,P|352:147|344:108,1,80,4|2,0:0|0:0,0:0:0:0:
334,81,185419,2,0,P|288:44|217:49,1,120,2|2,0:0|0:0,0:0:0:0:
192,59,185864,2,0,P|172:80|149:86,1,40
81,135,186197,2,0,P|36:180|0:184,1,80,2|8,0:0|0:0,0:0:0:0:
199,263,186864,5,0,0:0:0:0:
233,283,186975,1,0,0:0:0:0:
272,287,187086,2,0,P|331:290|354:275,1,80,2|8,0:0|0:0,0:0:0:0:
419,216,187531,1,2,0:0:0:0:
450,125,187753,2,0,P|433:87|394:58,2,80,0|2|8,0:0|0:0|0:0,0:0:0:0:
356,145,188419,1,2,0:0:0:0:
270,101,188642,6,0,P|210:99|167:115,1,80,0|2,0:0|0:0,0:0:0:0:
159,128,188975,1,0,0:0:0:0:
119,128,189086,2,0,P|77:184|74:224,1,80,8|2,0:0|0:0,0:0:0:0:
96,225,189419,1,0,0:0:0:0:
90,273,189531,2,0,P|127:329|160:336,1,80,0|2,0:0|0:0,0:0:0:0:
196,247,189975,2,0,P|225:273|237:313,1,80,8|2,0:0|0:0,0:0:0:0:
332,341,190419,6,0,P|381:299|389:259,1,80,0|2,0:0|0:0,0:0:0:0:
361,253,190753,2,0,P|358:196|340:170,1,80,2|2,0:0|0:0,0:0:0:0:
307,171,191086,2,0,P|266:138|211:138,1,80,2|0,0:0|0:0,0:0:0:0:
213,162,191419,1,0,0:0:0:0:
172,159,191531,1,2,0:0:0:0:
116,80,191753,1,8,0:0:0:0:
211,71,191975,1,10,0:0:0:0:
249,61,192086,1,8,0:0:0:0:
288,59,192197,6,0,P|350:67|385:85,1,80,0|2,0:0|0:0,0:0:0:0:
398,97,192531,1,0,0:0:0:0:
414,133,192642,1,8,0:0:0:0:
438,228,192864,1,2,0:0:0:0:
427,266,192975,1,0,0:0:0:0:
400,296,193086,2,0,P|363:318|320:322,1,80,0|2,0:0|0:0,0:0:0:0:
287,316,193419,1,0,0:0:0:0:
249,302,193531,1,8,0:0:0:0:
337,169,193975,6,0,P|288:148|237:152,1,80,0|2,0:0|0:0,0:0:0:0:
231,173,194308,2,0,P|179:169|133:129,1,80,2|2,0:0|0:0,0:0:0:0:
125,128,194642,2,0,P|74:133|34:169,1,80,2|0,0:0|0:0,0:0:0:0:
36,242,195086,2,0,P|87:237|127:201,1,80,2|0,0:0|0:0,0:0:0:0:
125,126,195531,1,2,0:0:0:0:
148,93,195642,1,0,0:0:0:0:
179,68,195753,6,0,P|228:50|273:62,1,80,0|2,0:0|0:0,0:0:0:0:
291,68,196086,2,0,P|362:98|417:91,1,120,2|2,0:0|0:0,0:0:0:0:
414,133,196531,2,0,P|418:165|408:178,1,40
320,184,196864,1,2,0:0:0:0:
294,214,196975,1,0,0:0:0:0:
258,232,197086,2,0,P|180:217|149:191,1,120,8|2,0:0|0:0,0:0:0:0:
127,158,197531,5,0,0:0:0:0:
58,90,197753,1,2,0:0:0:0:
37,124,197864,1,0,0:0:0:0:
25,162,197975,2,0,P|19:213|27:242,1,80,8|2,0:0|0:0,0:0:0:0:
43,276,198308,1,0,0:0:0:0:
73,301,198419,2,0,P|104:319|145:317,2,40,0|8|2,0:0|0:0|0:0,0:0:0:0:
122,218,198864,2,0,P|148:230|172:228,2,40,8|0|10,0:0|0:0|0:0,0:0:0:0:
93,194,199198,1,8,0:0:0:0:
84,155,199308,6,0,P|95:95|113:73,1,80
144,71,199642,1,0,0:0:0:0:
175,94,199753,2,0,P|219:129|263:123,1,80
279,122,200086,1,0,0:0:0:0:
318,117,200197,2,0,P|367:117|407:133,1,80,0|2,0:0|0:0,0:0:0:0:
468,189,200642,1,8,0:0:0:0:
377,221,200864,1,2,0:0:0:0:
353,253,200975,1,0,0:0:0:0:
319,274,201086,6,0,P|236:285|202:259,2,120,0|2|2,0:0|0:0|0:0,0:0:0:0:
269,191,201975,1,0,0:0:0:0:
173,180,202197,1,2,0:0:0:0:
136,197,202308,1,0,0:0:0:0:
119,233,202419,2,0,P|68:241|43:211,1,80,8|2,0:0|0:0,0:0:0:0:
43,184,202753,1,0,0:0:0:0:
61,148,202864,6,0,P|112:113|157:115,1,80,0|2,0:0|0:0,0:0:0:0:
167,101,203197,2,0,P|228:82|277:23,1,120,2|2,0:0|0:0,0:0:0:0:
302,25,203642,2,0,P|331:26|345:35,1,40,0|8,0:0|0:0,0:0:0:0:
382,117,203975,1,2,0:0:0:0:
371,155,204086,1,0,0:0:0:0:
342,183,204197,1,8,0:0:0:0:
469,279,204642,6,0,P|421:318|389:324,1,80,0|2,0:0|0:0,0:0:0:0:
364,321,204975,1,0,0:0:0:0:
324,314,205086,2,0,P|256:344|224:331,2,80,8|0|0,0:0|0:0|0:0,0:0:0:0:
326,273,205642,1,8,0:0:0:0:
308,237,205753,1,2,0:0:0:0:
221,194,205975,1,8,0:0:0:0:
225,289,206197,1,10,0:0:0:0:
200,320,206308,1,8,0:0:0:0:
163,335,206419,6,0,P|109:326|77:289,1,80,0|2,0:0|0:0,0:0:0:0:
71,275,206753,1,0,0:0:0:0:
83,237,206864,2,0,P|92:182|76:149,1,80,8|2,0:0|0:0,0:0:0:0:
70,122,207197,1,0,0:0:0:0:
77,82,207308,2,0,P|108:40|161:35,2,80,0|2|8,0:0|0:0|0:0,0:0:0:0:
164,122,207975,1,2,0:0:0:0:
196,144,208086,1,0,0:0:0:0:
234,153,208197,5,0,0:0:0:0:
327,131,208419,1,0,0:0:0:0:
367,131,208531,1,2,0:0:0:0:
299,222,208753,1,2,0:0:0:0:
259,222,208864,1,2,0:0:0:0:
393,203,209086,2,0,P|389:253|359:293,1,80,0|2,0:0|0:0,0:0:0:0:
341,300,209419,1,0,0:0:0:0:
302,313,209531,2,0,P|245:302|224:277,1,80,8|2,0:0|0:0,0:0:0:0:
200,261,209864,1,0,0:0:0:0:
164,242,209975,6,0,P|131:231|101:238,3,40
86,235,210419,1,8,0:0:0:0:
21,162,210642,1,2,0:0:0:0:
37,125,210753,1,0,0:0:0:0:
76,113,210864,2,0,P|130:112|161:94,1,80,0|2,0:0|0:0,0:0:0:0:
186,80,211197,1,0,0:0:0:0:
224,67,211308,2,0,P|287:63|312:73,1,80,8|2,0:0|0:0,0:0:0:0:
336,89,211642,1,0,0:0:0:0:
353,124,211753,6,0,P|357:169|327:210,1,80,0|2,0:0|0:0,0:0:0:0:
363,231,212086,2,0,P|341:275|301:297,1,80,2|2,0:0|0:0,0:0:0:0:
329,329,212419,1,2,0:0:0:0:
290,339,212531,1,0,0:0:0:0:
250,333,212642,1,0,0:0:0:0:
216,310,212753,1,8,0:0:0:0:
195,275,212864,1,0,0:0:0:0:
192,179,213086,1,8,0:0:0:0:
101,215,213308,1,2,0:0:0:0:
85,178,213419,1,0,0:0:0:0:
87,137,213531,6,0,P|123:82|186:73,2,120,4|2|2,0:0|0:0|0:0,0:0:0:0:
53,159,214308,1,2,0:0:0:0:
36,253,214531,1,2,0:0:0:0:
89,332,214753,2,0,P|145:349|210:319,1,120,2|2,0:0|0:0,0:0:0:0:
218,233,215308,6,0,P|273:216|306:172,1,80,0|2,0:0|0:0,0:0:0:0:
293,105,215753,2,0,P|238:122|205:166,1,80,8|2,0:0|0:0,0:0:0:0:
183,144,216086,1,2,0:0:0:0:
99,96,216308,1,2,0:0:0:0:
88,191,216531,2,0,P|127:276|167:298,1,120,2|2,0:0|0:0,0:0:0:0:
236,255,217086,5,0,0:0:0:0:
294,330,217308,1,2,0:0:0:0:
331,241,217531,1,8,0:0:0:0:
392,314,217753,1,2,0:0:0:0:
392,314,217864,1,2,0:0:0:0:
432,226,218086,1,2,0:0:0:0:
371,151,218308,2,0,P|308:140|257:177,1,120,2|2,0:0|0:0,0:0:0:0:
227,188,218753,1,0,0:0:0:0:
187,185,218864,6,0,P|124:174|87:198,1,80,2|0,0:0|0:0,0:0:0:0:
36,239,219308,1,8,0:0:0:0:
119,286,219531,2,0,P|92:315|69:330,4,40,2|0|0|8|2,0:0|0:0|0:0|0:0|0:0,0:0:0:0:
214,293,220197,2,0,P|236:268|259:257,3,40,8|0|10|8,0:0|0:0|0:0|0:0,0:0:0:0:
277,246,220642,6,0,P|337:235|358:247,1,80,0|2,0:0|0:0,0:0:0:0:
437,285,221086,1,8,0:0:0:0:
450,247,221197,1,0,0:0:0:0:
446,207,221308,2,0,P|434:173|415:158,1,40,2|2,0:0|0:0,0:0:0:0:
357,108,221642,1,2,0:0:0:0:
264,132,221864,2,0,P|193:149|137:137,1,120,2|2,0:0|0:0,0:0:0:0:
111,123,222308,1,0,0:0:0:0:
71,124,222419,6,0,P|39:179|46:207,1,80,0|2,0:0|0:0,0:0:0:0:
104,264,222864,1,8,0:0:0:0:
199,271,223086,2,0,P|216:297|217:333,1,40,2|2,0:0|0:0,0:0:0:0:
279,212,223419,1,2,0:0:0:0:
304,119,223642,2,0,P|273:113|254:118,1,40,2|8,0:0|0:0,0:0:0:0:
375,59,223975,1,2,0:0:0:0:
402,150,224197,6,0,P|398:207|380:235,1,80,0|2,0:0|0:0,0:0:0:0:
366,260,224531,1,0,0:0:0:0:
334,284,224642,1,8,0:0:0:0:
238,295,224864,1,2,0:0:0:0:
238,295,224975,1,2,0:0:0:0:
145,268,225197,1,2,0:0:0:0:
93,187,225419,1,2,0:0:0:0:
93,187,225531,1,8,0:0:0:0:
110,92,225753,1,2,0:0:0:0:
180,156,225975,6,0,P|236:197|306:182,2,120,0|2|2,0:0|0:0|0:0,0:0:0:0:
261,105,226864,1,0,0:0:0:0:
261,105,226975,1,8,0:0:0:0:
261,105,227086,1,2,0:0:0:0:
354,84,227308,1,8,0:0:0:0:
418,156,227531,1,10,0:0:0:0:
418,156,227642,1,8,0:0:0:0:
418,156,227753,1,4,0:0:0:0:
256,192,238419,12,0,241753,0:0:0:0:
157,227,241975,6,0,P|257:296|302:284,1,160,4|8,0:0|0:0,0:0:0:0:
255,199,242642,1,2,0:0:0:0:
260,193,242753,1,0,0:0:0:0:
265,187,242864,1,0,0:0:0:0:
352,225,243086,1,2,0:0:0:0:
357,219,243197,1,0,0:0:0:0:
362,213,243308,1,8,0:0:0:0:
337,119,243531,1,2,0:0:0:0:
261,60,243753,6,0,P|204:59|168:87,1,80,0|2,0:0|0:0,0:0:0:0:
154,94,244086,1,0,0:0:0:0:
128,124,244197,2,0,P|117:142|120:175,3,40,8|0|2|0,0:0|0:0|0:0|0:0,0:0:0:0:
100,197,244642,2,0,P|118:263|168:300,1,120
194,303,245086,2,0,P|210:305|246:324,3,40,8|0|2|0,0:0|0:0|0:0|0:0,0:0:0:0:
268,331,245531,6,0,P|355:322|406:263,1,160,0|8,0:0|0:0,0:0:0:0:
375,196,246197,1,2,0:0:0:0:
371,188,246308,1,0,0:0:0:0:
367,180,246419,1,0,0:0:0:0:
457,213,246642,1,2,0:0:0:0:
462,207,246753,1,0,0:0:0:0:
467,201,246864,1,8,0:0:0:0:
432,111,247086,1,2,0:0:0:0:
331,85,247308,6,0,P|272:95|241:85,1,80,0|2,0:0|0:0,0:0:0:0:
163,56,247753,2,0,P|116:47|100:51,3,40,8|0|2|0,0:0|0:0|0:0|0:0,0:0:0:0:
85,53,248197,2,0,P|38:109|54:186,1,120
58,187,248642,2,0,P|83:206|108:211,3,40,8|0|2|0,0:0|0:0|0:0|0:0,0:0:0:0:
131,210,249086,6,0,P|215:227|241:290,1,160,0|8,0:0|0:0,0:0:0:0:
325,335,249753,1,2,0:0:0:0:
364,329,249864,1,0,0:0:0:0:
397,312,249975,2,0,P|436:248|418:173,1,120
415,169,250419,2,0,P|395:148|364:139,3,40,8|0|0|0,0:0|0:0|0:0|0:0,0:0:0:0:
353,129,250864,6,0,P|321:120|291:129,3,40,0|0|2|0,0:0|0:0|0:0|0:0,0:0:0:0:
274,120,251308,2,0,P|241:125|220:118,3,40,8|0|2|0,0:0|0:0|0:0|0:0,0:0:0:0:
199,105,251753,2,0,P|157:67|70:80,1,120
60,84,252197,2,0,P|43:107|40:127,3,40,8|0|2|0,0:0|0:0|0:0|0:0,0:0:0:0:
35,157,252642,6,0,P|29:208|78:267,1,120,0|2,0:0|0:0,0:0:0:0:
107,264,253086,2,0,P|140:274|153:295,3,40,8|0|2|0,0:0|0:0|0:0|0:0,0:0:0:0:
176,299,253531,2,0,P|194:324|212:332,3,40,0|0|2|0,0:0|0:0|0:0|0:0,0:0:0:0:
238,337,253975,2,0,P|295:337|349:298,1,120
357,264,254419,6,0,P|403:275|426:273,1,40
425,247,254642,2,0,P|447:195|438:155,1,80,2|8,0:0|0:0,0:0:0:0:
420,140,254975,2,0,P|372:160|354:161,2,40,0|2|8,0:0|0:0|0:0,0:0:0:0:
409,101,255308,2,0,P|375:51|343:46,1,80,8|10,0:0|0:0,0:0:0:0:
281,102,255753,2,0,P|247:95|234:85,3,40,8|8|10|8,0:0|0:0|0:0|0:0,0:0:0:0:
98,215,256531,5,2,0:0:0:0:
114,239,256642,2,0,P|97:267|69:282,4,40,8|0|2|0|0,0:0|0:0|0:0|0:0|0:0,0:0:0:0:
152,249,257197,2,0,P|226:262|260:254,1,80,0|2,0:0|0:0,0:0:0:0:
269,252,257531,2,0,P|325:242|362:246,1,80,8|2,0:0|0:0,0:0:0:0:
413,173,257975,6,0,P|403:106|375:85,1,80,0|2,0:0|0:0,0:0:0:0:
363,77,258308,2,0,P|380:38|380:23,4,40,0|8|0|2|0,0:0|0:0|0:0|0:0|0:0,0:0:0:0:
322,79,258864,2,0,P|256:84|184:48,1,120
173,42,259308,2,0,P|143:47|124:75,3,40,8|0|2|0,0:0|0:0|0:0|0:0,0:0:0:0:
125,91,259753,6,0,P|103:177|55:214,2,120,0|2|2,0:0|0:0|0:0,0:0:0:0:
201,173,260642,2,0,P|241:211|277:217,3,80,0|2|8|2,0:0|0:0|0:0|0:0,0:0:0:0:
376,215,261531,6,0,P|389:183|390:164,3,40,0|0|2|0,0:0|0:0|0:0|0:0,0:0:0:0:
387,137,261975,2,0,P|374:99|367:90,3,40,8|0|2|0,0:0|0:0|0:0|0:0,0:0:0:0:
345,71,262419,2,0,P|313:57|297:57,2,40,0|8|2,0:0|0:0|0:0,0:0:0:0:
290,150,262864,1,8,0:0:0:0:
239,231,263086,1,10,0:0:0:0:
207,206,263197,1,8,0:0:0:0:
195,167,263308,6,0,P|186:108|116:62,1,120,0|2,0:0|0:0,0:0:0:0:
102,65,263753,6,0,P|68:75|47:106,3,40,8|0|2|0,0:0|0:0|0:0|0:0,0:0:0:0:
36,105,264197,2,0,P|26:145|31:154,3,40,0|0|2|0,0:0|0:0|0:0|0:0,0:0:0:0:
34,180,264642,2,0,P|76:238|108:250,1,80,8|2,0:0|0:0,0:0:0:0:
120,251,264975,1,0,0:0:0:0:
159,252,265086,6,0,P|192:250|221:233,3,40,0|0|2|0,0:0|0:0|0:0|0:0,0:0:0:0:
235,231,265531,2,0,P|301:207|328:211,1,80,8|2,0:0|0:0,0:0:0:0:
347,217,265864,1,0,0:0:0:0:
385,227,265975,2,0,P|437:224|506:125,1,160,0|8,0:0|0:0,0:0:0:0:
455,64,266642,1,2,0:0:0:0:
372,112,266864,6,0,P|299:116|255:93,1,120,0|2,0:0|0:0,0:0:0:0:
225,72,267308,2,0,P|239:35|265:18,4,40,8|0|2|0|0,0:0|0:0|0:0|0:0|0:0,0:0:0:0:
185,80,267864,2,0,P|127:118|117:149,1,80,2|2,0:0|0:0,0:0:0:0:
109,162,268197,2,0,P|81:214|54:229,1,80,8|2,0:0|0:0,0:0:0:0:
21,292,268642,6,0,P|61:309|85:308,3,40,0|0|2|0,0:0|0:0|0:0|0:0,0:0:0:0:
96,306,269086,2,0,P|132:298|152:299,3,40,8|0|2|0,0:0|0:0|0:0|0:0,0:0:0:0:
175,300,269531,1,0,0:0:0:0:
212,313,269642,1,8,0:0:0:0:
251,311,269753,1,2,0:0:0:0:
341,279,269975,1,8,0:0:0:0:
406,209,270197,1,10,0:0:0:0:
416,170,270308,1,8,0:0:0:0:
411,130,270419,1,4,0:0:0:0:
