osu file format v14

[General]
AudioFilename: Shadow of a Flower.mp3
AudioLeadIn: 0
PreviewTime: 128197
Countdown: 0
SampleSet: None
StackLeniency: 0.7
Mode: 0
LetterboxInBreaks: 1
WidescreenStoryboard: 1

[Editor]
Bookmarks: 12642,28642,42864,57086,85531,99753,128197,142419,170864,185086,213531,227753,241975,256197,270419,284642
DistanceSpacing: 1.2
BeatDivisor: 4
GridSize: 4
TimelineZoom: 1

[Metadata]
Title:Shadow of a Flower
TitleUnicode:Shadow of a Flower
Artist:StormWolf
ArtistUnicode:StormWolf
Creator:Firmatorenio
Version:Advanced
Source:
Tags:pony mlp cheerilee flooooooooower
BeatmapID:1303645
BeatmapSetID:618436

[Difficulty]
HPDrainRate:5.2
CircleSize:3.8
OverallDifficulty:5.5
ApproachRate:6.1
SliderMultiplier:1.4
SliderTickRate:2

[Events]
//Background and Video events
0,0,"maxresdefault.jpg",0,0
//Break Periods
2,85730,95162
2,171063,180496
2,227953,237384
//Storyboard Layer 0 (Background)
//Storyboard Layer 1 (Fail)
//Storyboard Layer 2 (Pass)
//Storyboard Layer 3 (Foreground)
//Storyboard Sound Samples

[TimingPoints]
14420,444.444444444444,4,2,0,60,1,0
28642,-100,4,1,0,60,0,1
57086,-100,4,2,0,60,0,0
99753,-100,4,1,0,60,0,1
142419,-100,4,2,0,60,0,0
185086,-100,4,1,0,60,0,1
227753,-100,4,2,0,60,0,0
241975,-100,4,1,0,60,0,1
270419,-100,4,2,0,60,0,0

[HitObjects]
440,233,14420,6,0,P|378:269|301:238,1,140,4|0,0:0|0:0,0:0:0:0:
256,192,15086,1,0,0:0:0:0:
200,129,15308,2,0,P|152:91|66:114,1,140
58,270,16197,2,0,B|91:321|150:262|203:313,1,140
323,301,16864,2,0,B|362:262|421:321|454:270,1,140
495,199,17531,1,0,0:0:0:0:
411,199,17753,1,0,0:0:0:0:
454,127,17975,5,0,0:0:0:0:
370,127,18197,2,0,P|330:111|303:72,1,70
256,28,18642,1,0,0:0:0:0:
199,91,18864,2,0,P|174:115|142:127,1,70
58,139,19308,2,0,P|95:197|105:200,1,70
175,204,19753,1,0,0:0:0:0:
241,255,19975,1,0,0:0:0:0:
324,261,20197,2,0,P|375:224|387:198,1,70
416,144,20642,2,0,P|419:69|357:19,2,140
471,229,21753,5,0,0:0:0:0:
408,285,21975,1,0,0:0:0:0:
486,314,22197,1,0,0:0:0:0:
421,367,22419,1,0,0:0:0:0:
256,260,22864,1,0,0:0:0:0:
91,367,23308,2,0,P|65:295|87:253,2,105
150,306,24197,1,0,0:0:0:0:
146,222,24419,1,0,0:0:0:0:
69,187,24642,1,0,0:0:0:0:
138,140,24864,1,0,0:0:0:0:
213,177,25086,6,0,P|288:181|336:156,2,105
390,93,26197,2,0,P|419:140|420:173,1,70
411,237,26642,1,0,0:0:0:0:
357,301,26864,2,0,P|313:318|285:312,1,70
244,124,27531,2,0,P|160:74|158:24,1,140,2|2,0:0|0:0,0:0:0:0:
238,42,28197,1,8,0:0:0:0:
416,128,28642,6,0,P|440:192|416:256,1,140,4|8,0:0|0:0,0:0:0:0:
359,193,29308,1,2,0:0:0:0:
335,112,29531,1,0,0:0:0:0:
359,192,29753,1,2,0:0:0:0:
335,272,29975,1,8,0:0:0:0:
256,302,30197,1,2,0:0:0:0:
172,313,30419,2,0,P|125:254|140:197,1,140,0|8,0:0|0:0,0:0:0:0:
206,242,31086,1,2,0:0:0:0:
213,158,31308,2,0,P|160:116|79:140,1,140,0|8,0:0|0:0,0:0:0:0:
28,181,31975,1,2,0:0:0:0:
54,259,32197,6,0,P|107:301|187:283,1,140,0|8,0:0|0:0,0:0:0:0:
237,235,32864,1,2,0:0:0:0:
256,153,33086,1,0,0:0:0:0:
238,234,33308,1,2,0:0:0:0:
319,212,33531,2,0,P|365:191|396:197,1,70,8|2,0:0|0:0,0:0:0:0:
463,215,33975,2,0,P|459:154|441:132,1,70,0|2,0:0|0:0,0:0:0:0:
380,110,34419,1,8,0:0:0:0:
342,34,34642,1,2,0:0:0:0:
258,37,34864,2,0,P|184:68|156:143,1,140,0|8,0:0|0:0,0:0:0:0:
167,202,35531,1,2,0:0:0:0:
94,244,35753,6,0,P|152:284|220:267,1,140,0|8,0:0|0:0,0:0:0:0:
254,195,36419,1,2,0:0:0:0:
300,264,36642,1,0,0:0:0:0:
454,143,37086,1,8,0:0:0:0:
392,199,37308,1,2,0:0:0:0:
471,225,37531,1,0,0:0:0:0:
409,281,37753,1,2,0:0:0:0:
488,307,37975,1,8,0:0:0:0:
425,363,38197,1,2,0:0:0:0:
344,340,38419,2,0,B|312:309|247:357|203:313,1,140,0|8,0:0|0:0,0:0:0:0:
156,253,39086,1,2,0:0:0:0:
138,170,39308,6,0,P|172:87|238:78,1,140,0|8,0:0|0:0,0:0:0:0:
224,158,39975,1,2,0:0:0:0:
294,113,40197,1,0,0:0:0:0:
224,160,40419,1,2,0:0:0:0:
297,200,40642,1,8,0:0:0:0:
442,69,41086,1,0,0:0:0:0:
512,114,41308,1,2,0:0:0:0:
438,155,41531,1,8,0:0:0:0:
508,201,41753,1,2,0:0:0:0:
434,241,41975,2,0,P|358:189|356:138,1,140,8|8,0:0|0:0,0:0:0:0:
32,48,43308,5,8,0:0:0:0:
114,65,43531,2,0,P|139:119|132:149,2,70,2|0|2,0:0|0:0|0:0,0:0:0:0:
57,126,44197,1,8,0:0:0:0:
94,200,44419,1,2,0:0:0:0:
178,200,44642,2,0,P|252:228|313:189,1,140,0|8,0:0|0:0,0:0:0:0:
242,144,45308,1,2,0:0:0:0:
323,122,45531,2,0,P|379:162|380:238,1,140,0|8,0:0|0:0,0:0:0:0:
320,283,46197,1,2,0:0:0:0:
397,313,46419,6,0,P|448:284|466:221,2,105,0|2|2,0:0|0:0|0:0,0:0:0:0:
328,362,47308,2,0,P|272:346|250:321,3,70,0|2|8|2,0:0|0:0|0:0|0:0,0:0:0:0:
237,259,48197,2,0,P|207:224|172:218,1,70,0|2,0:0|0:0,0:0:0:0:
102,232,48642,1,8,0:0:0:0:
133,154,48864,1,2,0:0:0:0:
50,168,49086,2,0,P|56:118|79:90,2,70,0|2|8,0:0|0:0|0:0,0:0:0:0:
19,246,49753,1,2,0:0:0:0:
73,309,49975,6,0,P|143:301|181:243,1,140,0|8,0:0|0:0,0:0:0:0:
165,164,50642,1,2,0:0:0:0:
243,193,50864,1,0,0:0:0:0:
229,110,51086,1,2,0:0:0:0:
307,139,51308,1,8,0:0:0:0:
451,271,51753,1,0,0:0:0:0:
379,315,51975,1,2,0:0:0:0:
310,266,52197,1,8,0:0:0:0:
242,315,52419,1,2,0:0:0:0:
234,231,52642,2,0,P|319:185|368:208,1,140,0|8,0:0|0:0,0:0:0:0:
437,190,53308,1,2,0:0:0:0:
446,106,53531,6,0,P|386:52|300:40,1,140,0|8,0:0|0:0,0:0:0:0:
256,79,54197,1,2,0:0:0:0:
182,38,54419,2,0,P|115:57|65:105,1,140,0|8,0:0|0:0,0:0:0:0:
25,179,55086,1,2,0:0:0:0:
108,181,55308,1,0,0:0:0:0:
65,253,55531,1,2,0:0:0:0:
148,255,55753,1,8,0:0:0:0:
106,328,55975,1,2,0:0:0:0:
189,328,56197,2,0,P|233:256|210:199,1,140,0|8,0:0|0:0,0:0:0:0:
184,130,56864,1,2,0:0:0:0:
248,75,57086,6,0,P|327:56|379:104,1,140,4|8,0:0|0:0,0:0:0:0:
305,141,57753,1,2,0:0:0:0:
382,173,57975,1,0,0:0:0:0:
313,221,58197,1,2,0:0:0:0:
387,260,58419,1,8,0:0:0:0:
197,311,58864,2,0,P|123:295|97:235,1,140,0|8,0:0|0:0,0:0:0:0:
127,162,59531,2,0,P|93:102|27:92,1,140,2|2,0:0|0:0,0:0:0:0:
44,174,60197,1,8,0:0:0:0:
239,192,60642,5,0,0:0:0:0:
319,214,60864,2,0,P|371:217|397:211,1,70,2|8,0:0|0:0,0:0:0:0:
467,185,61308,1,2,0:0:0:0:
452,267,61531,2,0,P|352:293|287:282,1,140,0|8,0:0|0:0,0:0:0:0:
243,249,62197,1,2,0:0:0:0:
244,332,62419,1,0,0:0:0:0:
171,289,62642,1,2,0:0:0:0:
171,205,62864,2,0,P|221:169|256:172,1,70,8|2,0:0|0:0,0:0:0:0:
307,193,63308,2,0,P|377:168|423:100,1,140,0|8,0:0|0:0,0:0:0:0:
231,53,64197,5,0,0:0:0:0:
149,34,64419,2,0,P|108:54|85:95,1,70,2|8,0:0|0:0,0:0:0:0:
112,154,64864,2,0,P|149:138|176:93,1,70,2|0,0:0|0:0,0:0:0:0:
256,298,65531,1,8,0:0:0:0:
340,121,65975,2,0,P|380:178|426:189,2,105,0|2|2,0:0|0:0|0:0,0:0:0:0:
422,105,66864,1,0,0:0:0:0:
489,154,67086,1,2,0:0:0:0:
478,237,67308,1,8,0:0:0:0:
401,272,67531,1,0,0:0:0:0:
318,255,67753,6,0,P|260:228|203:250,2,105,0|2|2,0:0|0:0|0:0,0:0:0:0:
257,313,68642,1,0,0:0:0:0:
173,307,68864,1,2,0:0:0:0:
133,232,69086,1,8,0:0:0:0:
256,81,69531,2,0,P|321:87|345:109,2,70,0|2|8,0:0|0:0|0:0,0:0:0:0:
173,97,70197,2,0,P|206:149|299:154,1,140,2|2,0:0|0:0,0:0:0:0:
363,168,70864,1,8,0:0:0:0:
227,309,71308,6,0,P|232:255|254:231,1,70,0|2,0:0|0:0,0:0:0:0:
310,291,71753,1,8,0:0:0:0:
319,207,71975,1,2,0:0:0:0:
250,159,72197,1,0,0:0:0:0:
175,196,72419,1,2,0:0:0:0:
167,279,72642,1,8,0:0:0:0:
98,232,72864,2,0,P|99:154|155:112,2,140,2|2|2,0:0|0:0|0:0,0:0:0:0:
167,279,73975,1,0,0:0:0:0:
174,195,74197,1,2,0:0:0:0:
242,243,74419,1,8,0:0:0:0:
285,75,74864,6,0,P|280:129|258:153,1,70,0|2,0:0|0:0,0:0:0:0:
202,93,75309,1,8,0:0:0:0:
193,177,75531,1,2,0:0:0:0:
262,225,75753,1,0,0:0:0:0:
337,188,75975,1,2,0:0:0:0:
345,105,76198,1,8,0:0:0:0:
414,152,76420,2,0,P|413:230|357:272,2,140,2|2|2,0:0|0:0|0:0,0:0:0:0:
345,105,77531,5,0,0:0:0:0:
338,189,77753,1,2,0:0:0:0:
270,141,77975,1,8,0:0:0:0:
129,192,78419,5,0,0:0:0:0:
114,275,78642,1,2,0:0:0:0:
192,244,78864,1,8,0:0:0:0:
182,327,79086,1,2,0:0:0:0:
259,295,79308,1,0,0:0:0:0:
271,211,79531,2,0,P|316:231|336:262,1,70,2|8,0:0|0:0,0:0:0:0:
335,329,79975,1,2,0:0:0:0:
405,283,80197,2,0,P|436:205|428:160,2,105,0|2|2,0:0|0:0|0:0,0:0:0:0:
410,367,81086,1,0,0:0:0:0:
482,324,81308,1,2,0:0:0:0:
510,244,81531,1,8,0:0:0:0:
370,106,81975,6,0,P|321:133|304:181,2,105,0|2|2,0:0|0:0|0:0,0:0:0:0:
387,188,82864,2,0,P|366:235|321:258,2,105,0|2|2,0:0|0:0|0:0,0:0:0:0:
303,177,83753,2,0,P|302:106|259:68,2,105,0|2|2,0:0|0:0|0:0,0:0:0:0:
223,150,84642,2,0,P|233:231|296:263,2,140,0|8|4,0:0|0:0|0:0,0:0:0:0:
256,192,96197,12,0,99308,0:0:0:0:
198,66,99753,6,0,P|154:79|132:106,2,70,4|2|8,0:0|0:0|0:0,0:0:0:0:
205,149,100419,2,0,P|259:124|272:98,1,70,2|0,0:0|0:0,0:0:0:0:
277,33,100864,1,2,0:0:0:0:
340,87,101086,1,8,0:0:0:0:
408,270,101531,2,0,P|452:246|470:221,2,70,0|2|8,0:0|0:0|0:0,0:0:0:0:
386,189,102197,1,2,0:0:0:0:
327,249,102419,1,0,0:0:0:0:
301,168,102642,2,0,P|250:207|242:235,2,70,2|8|2,0:0|0:0|0:0,0:0:0:0:
361,110,103308,6,0,P|301:86|225:127,1,140,0|8,0:0|0:0,0:0:0:0:
173,172,103975,1,2,0:0:0:0:
151,90,104197,2,0,P|88:146|97:212,1,140,0|8,0:0|0:0,0:0:0:0:
259,294,105086,2,0,P|308:333|374:322,2,105,0|2|2,0:0|0:0|0:0,0:0:0:0:
332,252,105975,2,0,P|389:259|411:284,2,70,0|2|8,0:0|0:0|0:0,0:0:0:0:
258,210,106642,1,2,0:0:0:0:
184,251,106864,6,0,P|174:183|240:129,1,140,0|8,0:0|0:0,0:0:0:0:
303,140,107531,1,2,0:0:0:0:
270,62,107753,2,0,P|343:64|383:114,1,140,0|8,0:0|0:0,0:0:0:0:
188,80,108642,2,0,P|198:18|237:-13,2,105,0|2|2,0:0|0:0|0:0,0:0:0:0:
246,140,109531,1,0,0:0:0:0:
165,162,109753,1,2,0:0:0:0:
105,103,109975,1,8,0:0:0:0:
50,291,110419,6,0,P|104:322|196:320,1,140,0|8,0:0|0:0,0:0:0:0:
256,287,111086,1,2,0:0:0:0:
331,324,111308,2,0,P|401:323|462:291,1,140,0|8,0:0|0:0,0:0:0:0:
401,104,112197,2,0,P|437:82|450:57,2,70,0|2|8,0:0|0:0|0:0,0:0:0:0:
365,27,112864,1,2,0:0:0:0:
315,94,113086,1,0,0:0:0:0:
347,171,113308,1,2,0:0:0:0:
263,163,113531,1,8,0:0:0:0:
226,87,113753,1,10,0:0:0:0:
180,157,113975,6,0,P|211:230|281:244,1,140,0|8,0:0|0:0,0:0:0:0:
348,246,114642,1,2,0:0:0:0:
308,319,114864,2,0,P|376:322|398:305,2,70,0|2|8,0:0|0:0|0:0,0:0:0:0:
401,146,115753,2,0,P|443:102|446:54,2,105,0|2|2,0:0|0:0|0:0,0:0:0:0:
364,69,116642,1,0,0:0:0:0:
316,138,116864,2,0,P|331:198|359:218,1,70,2|8,0:0|0:0,0:0:0:0:
414,230,117308,1,2,0:0:0:0:
351,286,117531,6,0,P|396:312|438:307,2,70,0|2|8,0:0|0:0|0:0,0:0:0:0:
336,203,118197,1,2,0:0:0:0:
272,258,118419,2,0,P|252:204|257:177,2,70,0|2|8,0:0|0:0|0:0,0:0:0:0:
110,146,119308,2,0,P|170:110|184:74,2,105,0|2|2,0:0|0:0|0:0,0:0:0:0:
101,62,120197,1,0,0:0:0:0:
34,113,120419,1,2,0:0:0:0:
42,196,120642,1,8,0:0:0:0:
117,232,120864,1,10,0:0:0:0:
48,280,121086,6,0,P|97:315|154:304,2,105,0|2|2,0:0|0:0|0:0,0:0:0:0:
117,232,121975,2,0,P|201:253|219:316,1,140,0|8,0:0|0:0,0:0:0:0:
398,216,122864,2,0,P|443:242|476:238,2,70,0|2|8,0:0|0:0|0:0,0:0:0:0:
459,158,123531,1,2,0:0:0:0:
378,134,123753,1,0,0:0:0:0:
440,78,123975,1,2,0:0:0:0:
359,52,124197,1,8,0:0:0:0:
298,109,124419,1,2,0:0:0:0:
315,191,124642,6,0,P|251:180|216:127,2,105,0|2|2,0:0|0:0|0:0,0:0:0:0:
378,134,125531,1,0,0:0:0:0:
394,216,125753,1,2,0:0:0:0:
332,273,125975,1,8,0:0:0:0:
171,161,126419,2,0,P|220:128|246:129,2,70,0|2|8,0:0|0:0|0:0,0:0:0:0:
238,211,127086,1,2,0:0:0:0:
161,245,127308,1,0,0:0:0:0:
92,195,127531,1,2,0:0:0:0:
101,111,127753,1,8,0:0:0:0:
177,77,127975,1,2,0:0:0:0:
244,126,128197,6,0,P|299:150|321:213,2,105,0|2|2,0:0|0:0|0:0,0:0:0:0:
67,39,129308,2,0,P|24:88|22:114,1,70,2|8,0:0|0:0,0:0:0:0:
44,171,129753,1,2,0:0:0:0:
105,114,129975,2,0,P|127:169|119:198,1,70,0|2,0:0|0:0,0:0:0:0:
79,248,130419,1,8,0:0:0:0:
163,254,130642,1,2,0:0:0:0:
316,132,131086,2,0,P|285:101|254:93,2,70,2|8|2,0:0|0:0|0:0,0:0:0:0:
244,177,131753,5,0,0:0:0:0:
317,217,131975,1,2,0:0:0:0:
390,176,132197,1,8,0:0:0:0:
390,92,132419,1,2,0:0:0:0:
363,286,132864,1,2,0:0:0:0:
279,293,133086,1,8,0:0:0:0:
234,221,133308,1,2,0:0:0:0:
195,296,133531,2,0,P|153:246|154:198,2,105,0|2|2,0:0|0:0|0:0,0:0:0:0:
239,366,134419,1,0,0:0:0:0:
279,293,134642,1,2,0:0:0:0:
234,221,134864,1,8,0:0:0:0:
317,221,135086,1,10,0:0:0:0:
278,146,135308,6,0,P|359:149|399:206,1,140,0|8,0:0|0:0,0:0:0:0:
384,274,135975,1,2,0:0:0:0:
209,184,136419,2,0,P|197:140|221:98,1,70,2|8,0:0|0:0,0:0:0:0:
270,66,136864,1,2,0:0:0:0:
347,98,137086,2,0,P|353:44|336:13,2,70,0|2|8,0:0|0:0|0:0,0:0:0:0:
279,148,137753,2,0,P|363:178|414:146,1,140,0|2,0:0|0:0,0:0:0:0:
431,77,138419,1,8,0:0:0:0:
436,273,138864,5,0,0:0:0:0:
356,300,139086,1,2,0:0:0:0:
272,308,139308,2,0,P|207:302|176:273,1,105,8|2,0:0|0:0,0:0:0:0:
247,228,139864,2,0,P|205:197|153:197,1,105,2|8,0:0|0:0,0:0:0:0:
96,258,140419,1,2,0:0:0:0:
71,177,140642,2,0,P|112:120|168:112,2,105,0|2|2,0:0|0:0|0:0,0:0:0:0:
153,192,141531,2,0,P|222:180|268:218,2,105,0|2|2,0:0|0:0|0:0,0:0:0:0:
98,256,142419,5,4,0:0:0:0:
289,296,142864,2,0,P|340:237|325:169,1,140,8|0,0:0|0:0,0:0:0:0:
257,219,143531,1,2,0:0:0:0:
255,135,143753,2,0,P|295:97|328:96,1,70,8|2,0:0|0:0,0:0:0:0:
386,123,144197,2,0,P|381:46|313:11,1,140,0|8,0:0|0:0,0:0:0:0:
252,36,144864,2,0,P|166:30|126:97,1,140,2|2,0:0|0:0,0:0:0:0:
207,104,145531,1,8,0:0:0:0:
350,236,145975,5,0,0:0:0:0:
312,311,146197,1,2,0:0:0:0:
265,241,146419,2,0,P|283:185|312:168,1,70,8|2,0:0|0:0,0:0:0:0:
370,154,146864,1,0,0:0:0:0:
310,94,147086,1,2,0:0:0:0:
391,75,147308,2,0,P|441:114|448:146,1,70,8|2,0:0|0:0,0:0:0:0:
437,202,147753,2,0,P|385:235|358:235,1,70,0|2,0:0|0:0,0:0:0:0:
295,220,148197,1,8,0:0:0:0:
229,167,148419,2,0,P|165:127|95:140,1,140,2|2,0:0|0:0,0:0:0:0:
38,188,149086,1,8,0:0:0:0:
168,334,149531,5,0,0:0:0:0:
245,301,149753,1,2,0:0:0:0:
178,250,149975,1,8,0:0:0:0:
256,219,150197,1,2,0:0:0:0:
334,250,150419,1,0,0:0:0:0:
267,301,150642,1,2,0:0:0:0:
344,334,150864,1,8,0:0:0:0:
412,284,151086,1,2,0:0:0:0:
399,200,151308,2,0,P|352:169|290:180,2,105,0|2|2,0:0|0:0|0:0,0:0:0:0:
334,250,152197,1,0,0:0:0:0:
251,236,152419,1,2,0:0:0:0:
221,157,152642,1,8,0:0:0:0:
389,57,153086,6,0,P|407:97|401:134,1,70,0|2,0:0|0:0,0:0:0:0:
321,109,153531,1,8,0:0:0:0:
308,26,153753,1,2,0:0:0:0:
243,79,153975,1,0,0:0:0:0:
172,33,154197,1,2,0:0:0:0:
169,116,154419,1,8,0:0:0:0:
97,71,154642,1,2,0:0:0:0:
94,154,154864,2,0,P|145:195|172:193,1,70,0|2,0:0|0:0,0:0:0:0:
228,179,155308,1,8,0:0:0:0:
201,258,155531,2,0,P|286:238|308:192,1,140,2|2,0:0|0:0,0:0:0:0:
288,114,156197,1,8,0:0:0:0:
93,88,156642,6,0,P|54:137|56:164,1,70,0|2,0:0|0:0,0:0:0:0:
135,159,157086,1,8,0:0:0:0:
80,222,157308,2,0,P|143:242|166:231,1,70,2|0,0:0|0:0,0:0:0:0:
214,197,157753,1,2,0:0:0:0:
210,113,157975,1,8,0:0:0:0:
284,151,158197,2,0,P|295:222|239:276,2,140,2|2|2,0:0|0:0|0:0,0:0:0:0:
210,113,159308,1,0,0:0:0:0:
214,197,159531,1,2,0:0:0:0:
254,270,159753,1,8,0:0:0:0:
419,296,160197,6,0,P|458:247|456:220,1,70,0|2,0:0|0:0,0:0:0:0:
377,225,160641,1,8,0:0:0:0:
432,162,160863,2,0,P|369:142|346:153,1,70,2|0,0:0|0:0,0:0:0:0:
298,187,161308,1,2,0:0:0:0:
302,271,161530,1,8,0:0:0:0:
228,233,161753,2,0,P|217:162|272:107,2,140,2|2|2,0:0|0:0|0:0,0:0:0:0:
302,271,162863,1,0,0:0:0:0:
298,187,163086,1,2,0:0:0:0:
259,112,163308,1,8,0:0:0:0:
115,23,163753,6,0,P|132:62|169:87,1,70,0|2,0:0|0:0,0:0:0:0:
80,121,164197,1,8,0:0:0:0:
7,162,164419,2,0,P|32:186|45:219,1,70,2|0,0:0|0:0,0:0:0:0:
63,301,164864,1,2,0:0:0:0:
127,247,165086,1,8,0:0:0:0:
141,329,165308,1,2,0:0:0:0:
205,274,165531,2,0,P|194:195|162:170,2,105,0|2|2,0:0|0:0|0:0,0:0:0:0:
216,357,166419,2,0,P|282:313|286:250,1,140,0|8,0:0|0:0,0:0:0:0:
385,87,167308,6,0,P|424:129|479:148,2,105,0|2|2,0:0|0:0|0:0,0:0:0:0:
315,38,168197,2,0,P|298:94|335:156,2,105,0|2|2,0:0|0:0|0:0,0:0:0:0:
197,38,169086,2,0,P|214:94|177:156,2,105,0|2|2,0:0|0:0|0:0,0:0:0:0:
127,87,169975,2,0,P|88:129|8:144,2,140,0|8|4,0:0|0:0|0:0,0:0:0:0:
256,192,181531,12,0,184642,0:0:0:0:
211,156,185086,6,0,P|143:173|86:132,1,140,4|8,0:0|0:0,0:0:0:0:
160,91,185753,2,0,P|228:74|285:115,1,140,2|2,0:0|0:0,0:0:0:0:
285,194,186419,1,8,0:0:0:0:
146,332,186864,2,0,P|101:332|70:311,2,70,0|2|8,0:0|0:0|0:0,0:0:0:0:
195,263,187531,2,0,P|163:248|128:251,2,70,2|0|2,0:0|0:0|0:0,0:0:0:0:
225,341,188197,1,8,0:0:0:0:
300,190,188642,6,0,P|349:237|433:223,1,140,0|8,0:0|0:0,0:0:0:0:
378,157,189308,1,2,0:0:0:0:
311,104,189531,1,0,0:0:0:0:
390,76,189753,1,2,0:0:0:0:
325,22,189975,1,8,0:0:0:0:
247,53,190197,1,2,0:0:0:0:
237,136,190419,2,0,P|213:182|181:193,2,70,0|2|8,0:0|0:0|0:0,0:0:0:0:
153,121,191086,2,0,P|113:175|122:219,2,105,2|2|8,0:0|0:0|0:0,0:0:0:0:
344,79,192197,5,0,0:0:0:0:
405,21,192419,1,2,0:0:0:0:
421,103,192642,1,8,0:0:0:0:
484,48,192864,2,0,P|505:93|470:166,2,105,2|2|8,0:0|0:0|0:0,0:0:0:0:
417,232,193975,2,0,P|460:244|491:236,2,70,0|2|8,0:0|0:0|0:0,0:0:0:0:
346,185,194642,1,2,0:0:0:0:
266,157,194864,1,0,0:0:0:0:
182,166,195086,1,2,0:0:0:0:
118,221,195308,1,8,0:0:0:0:
197,248,195531,1,2,0:0:0:0:
267,294,195753,6,0,P|306:329|343:331,1,70,0|2,0:0|0:0,0:0:0:0:
341,250,196197,1,8,0:0:0:0:
354,167,196419,2,0,P|405:192|416:228,1,70,2|0,0:0|0:0,0:0:0:0:
415,285,196864,1,2,0:0:0:0:
346,334,197086,1,8,0:0:0:0:
269,153,197531,2,0,P|242:84|205:68,1,105,0|2,0:0|0:0,0:0:0:0:
188,149,198086,2,0,P|215:218|252:231,1,105,2|0,0:0|0:0,0:0:0:0:
323,222,198642,1,2,0:0:0:0:
353,143,198864,1,8,0:0:0:0:
302,75,199086,1,2,0:0:0:0:
385,68,199308,6,0,P|434:126|412:198,2,140,0|8|0,0:0|0:0|0:0,0:0:0:0:
353,143,200419,1,2,0:0:0:0:
302,75,200642,1,8,0:0:0:0:
106,68,201086,1,0,0:0:0:0:
40,120,201308,2,0,P|88:149|116:148,1,70,2|8,0:0|0:0,0:0:0:0:
71,228,201753,2,0,P|127:229|150:214,1,70,2|0,0:0|0:0,0:0:0:0:
156,305,202197,2,0,P|205:277|218:253,1,70,2|8,0:0|0:0,0:0:0:0:
256,196,202642,1,2,0:0:0:0:
331,159,202864,6,0,P|392:189|450:177,2,105,0|2|2,0:0|0:0|0:0,0:0:0:0:
260,112,203753,1,0,0:0:0:0:
185,150,203975,1,2,0:0:0:0:
188,66,204197,1,8,0:0:0:0:
87,234,204642,2,0,P|42:260|29:294,2,70,0|2|8,0:0|0:0|0:0,0:0:0:0:
106,315,205308,2,0,P|165:354|232:330,1,140,2|2,0:0|0:0,0:0:0:0:
300,293,205975,1,8,0:0:0:0:
381,274,206197,1,10,0:0:0:0:
447,222,206419,6,0,P|471:161|438:103,2,105,0|2|2,0:0|0:0|0:0,0:0:0:0:
457,25,207531,2,0,P|399:46|382:73,1,70,2|8,0:0|0:0,0:0:0:0:
331,105,207975,1,2,0:0:0:0:
261,151,208197,2,0,P|197:176|165:173,2,70,0|2|8,0:0|0:0|0:0,0:0:0:0:
251,67,208864,2,0,P|190:40|95:65,1,140,2|2,0:0|0:0,0:0:0:0:
55,105,209531,1,8,0:0:0:0:
121,289,209975,5,0,0:0:0:0:
175,352,210197,1,2,0:0:0:0:
203,273,210419,1,8,0:0:0:0:
256,338,210642,1,2,0:0:0:0:
309,273,210864,1,0,0:0:0:0:
337,352,211086,1,2,0:0:0:0:
391,289,211308,1,8,0:0:0:0:
380,93,211753,2,0,P|322:120|269:100,1,105,0|2,0:0|0:0,0:0:0:0:
317,33,212308,2,0,P|266:25|221:50,1,105,2|0,0:0|0:0,0:0:0:0:
204,133,212864,1,2,0:0:0:0:
265,189,213086,1,8,0:0:0:0:
185,216,213308,1,2,0:0:0:0:
126,155,213531,6,0,P|127:98|176:57,2,105,4|2|2,0:0|0:0|0:0,0:0:0:0:
289,264,214642,2,0,P|333:233|339:193,2,70,2|8|2,0:0|0:0|0:0,0:0:0:0:
237,330,215308,2,0,P|285:348|317:340,1,70,0|2,0:0|0:0,0:0:0:0:
369,294,215753,1,8,0:0:0:0:
452,299,215975,1,2,0:0:0:0:
433,104,216419,2,0,P|383:62|375:33,1,70,2|8,0:0|0:0,0:0:0:0:
310,104,216864,1,2,0:0:0:0:
243,52,217086,6,0,P|174:20|130:37,2,105,0|2|2,0:0|0:0|0:0,0:0:0:0:
177,104,217975,1,0,0:0:0:0:
93,93,218197,1,2,0:0:0:0:
127,169,218419,1,8,0:0:0:0:
64,324,218864,1,0,0:0:0:0:
143,350,219086,1,2,0:0:0:0:
203,291,219308,1,8,0:0:0:0:
282,318,219531,1,2,0:0:0:0:
333,251,219753,2,0,P|406:250|447:188,1,140,0|8,0:0|0:0,0:0:0:0:
428,118,220419,1,2,0:0:0:0:
366,175,220642,6,0,P|296:161|269:121,2,105,0|2|2,0:0|0:0|0:0,0:0:0:0:
349,92,221531,1,0,0:0:0:0:
273,55,221753,1,2,0:0:0:0:
201,98,221975,1,8,0:0:0:0:
59,187,222419,2,0,P|63:242|83:268,1,70,0|2,0:0|0:0,0:0:0:0:
142,210,222864,1,8,0:0:0:0:
146,293,223086,2,0,P|198:273|212:250,1,70,2|0,0:0|0:0,0:0:0:0:
221,180,223531,1,2,0:0:0:0:
282,237,223753,1,8,0:0:0:0:
301,155,223975,1,2,0:0:0:0:
362,212,224197,6,0,P|385:160|375:115,1,105,0|2,0:0|0:0,0:0:0:0:
302,71,224753,2,0,P|368:31|406:40,1,105,2|0,0:0|0:0,0:0:0:0:
453,90,225308,1,2,0:0:0:0:
466,173,225531,1,8,0:0:0:0:
435,251,225753,1,2,0:0:0:0:
367,300,225975,2,0,P|304:324|261:309,2,105,0|2|2,0:0|0:0|0:0,0:0:0:0:
309,238,226864,2,0,P|258:229|211:252,2,105,0|2|2,0:0|0:0|0:0,0:0:0:0:
366,299,227753,1,4,0:0:0:0:
256,192,238419,12,0,241531,0:0:0:0:
200,193,241975,6,0,P|159:233|181:324,1,140,4|8,0:0|0:0,0:0:0:0:
241,269,242642,1,2,0:0:0:0:
283,196,242864,1,0,0:0:0:0:
241,269,243086,1,2,0:0:0:0:
324,270,243308,1,8,0:0:0:0:
365,196,243531,1,2,0:0:0:0:
327,121,243753,2,0,P|408:126|446:191,1,140,0|8,0:0|0:0,0:0:0:0:
427,251,244419,1,2,0:0:0:0:
507,225,244642,1,0,0:0:0:0:
490,307,244864,1,2,0:0:0:0:
409,329,245086,2,0,P|365:302|354:282,1,70,8|2,0:0|0:0,0:0:0:0:
353,202,245531,6,0,P|304:140|229:149,1,140,0|8,0:0|0:0,0:0:0:0:
272,219,246197,2,0,P|295:262|328:277,2,70,2|0|2,0:0|0:0|0:0,0:0:0:0:
189,201,246864,2,0,P|133:219|100:216,1,70,8|2,0:0|0:0,0:0:0:0:
65,280,247308,2,0,P|40:228|46:196,2,70,0|2|8,0:0|0:0|0:0,0:0:0:0:
147,299,247975,1,2,0:0:0:0:
227,274,248197,2,0,B|263:251|334:297|376:273,1,140,0|8,0:0|0:0,0:0:0:0:
427,221,248864,1,2,0:0:0:0:
388,146,249086,6,0,P|384:80|300:44,1,140,0|8,0:0|0:0,0:0:0:0:
256,89,249753,1,2,0:0:0:0:
185,42,249975,2,0,P|128:78|124:146,1,140,0|8,0:0|0:0,0:0:0:0:
83,220,250642,1,2,0:0:0:0:
147,273,250864,1,0,0:0:0:0:
226,247,251086,1,2,0:0:0:0:
305,274,251308,1,8,0:0:0:0:
363,213,251531,1,2,0:0:0:0:
446,224,251753,2,0,P|461:152|416:78,1,140,0|8,0:0|0:0,0:0:0:0:
357,128,252419,1,2,0:0:0:0:
284,171,252642,6,0,P|271:118|289:79,2,70,0|2|8,0:0|0:0|0:0,0:0:0:0:
212,214,253308,1,2,0:0:0:0:
131,238,253531,2,0,P|133:176|148:159,1,70,0|2,0:0|0:0,0:0:0:0:
209,131,253975,1,8,0:0:0:0:
136,88,254197,1,2,0:0:0:0:
63,129,254419,1,0,0:0:0:0:
50,212,254642,2,0,P|63:260|88:289,1,70,2|8,0:0|0:0,0:0:0:0:
153,305,255086,1,2,0:0:0:0:
232,277,255308,2,0,B|270:253|340:297|377:273,1,140,8|8,0:0|0:0,0:0:0:0:
106,67,256642,6,0,P|141:46|175:51,1,70,8|2,0:0|0:0,0:0:0:0:
158,131,257086,2,0,P|87:148|30:103,1,140,0|8,0:0|0:0,0:0:0:0:
33,27,257753,1,2,0:0:0:0:
106,67,257975,1,0,0:0:0:0:
188,53,258197,1,2,0:0:0:0:
242,116,258419,1,8,0:0:0:0:
221,197,258642,1,2,0:0:0:0:
140,219,258864,2,0,P|92:282|125:353,1,140,0|8,0:0|0:0,0:0:0:0:
180,293,259531,1,2,0:0:0:0:
261,271,259753,6,0,P|326:288|367:271,2,105,0|2|2,0:0|0:0|0:0,0:0:0:0:
315,206,260642,2,0,P|362:193|398:207,3,70,0|2|8|2,0:0|0:0|0:0|0:0,0:0:0:0:
438,259,261531,1,0,0:0:0:0:
462,178,261753,1,2,0:0:0:0:
403,117,261975,1,8,0:0:0:0:
322,142,262197,1,2,0:0:0:0:
341,60,262419,1,0,0:0:0:0:
260,85,262642,1,2,0:0:0:0:
241,166,262864,1,8,0:0:0:0:
300,224,263086,1,2,0:0:0:0:
219,247,263308,6,0,P|171:214|176:116,1,140,0|8,0:0|0:0,0:0:0:0:
228,84,263975,1,2,0:0:0:0:
148,55,264197,1,0,0:0:0:0:
86,111,264419,1,2,0:0:0:0:
105,193,264642,2,0,P|114:243|97:282,1,70,8|2,0:0|0:0,0:0:0:0:
52,322,265086,2,0,P|99:344|137:338,1,70,0|2,0:0|0:0,0:0:0:0:
186,297,265531,1,8,0:0:0:0:
266,322,265753,1,2,0:0:0:0:
330,268,265975,2,0,P|403:264|451:324,1,140,0|8,0:0|0:0,0:0:0:0:
370,345,266642,1,2,0:0:0:0:
330,270,266864,6,0,P|326:197|386:149,1,140,0|8,0:0|0:0,0:0:0:0:
401,231,267531,1,2,0:0:0:0:
453,165,267753,1,0,0:0:0:0:
419,88,267975,2,0,P|374:71|336:85,1,70,2|8,0:0|0:0,0:0:0:0:
295,135,268419,1,2,0:0:0:0:
222,177,268642,2,0,P|172:178|145:165,1,70,0|2,0:0|0:0,0:0:0:0:
85,122,269086,1,8,0:0:0:0:
77,205,269308,1,2,0:0:0:0:
143,257,269531,2,0,B|167:297|242:283|272:314,1,140,0|8,0:0|0:0,0:0:0:0:
340,354,270197,1,2,0:0:0:0:
344,270,270419,1,4,0:0:0:0:
