osu file format v14

[General]
AudioFilename: audio.mp3
AudioLeadIn: 0
PreviewTime: 111428
Countdown: 0
SampleSet: Normal
StackLeniency: 0.7
Mode: 0
LetterboxInBreaks: 0
WidescreenStoryboard: 1

[Editor]
Bookmarks: 22752,45340,67928,90516,101811,107458,110281,113105,135693,158281,180869,203458,214752,220399,223222,226046,265575,271222,293811
DistanceSpacing: 1.1
BeatDivisor: 4
GridSize: 4
TimelineZoom: 0.9

[Metadata]
Title:How strong you are
TitleUnicode:How strong you are
Artist:Stonebank vs duyui
ArtistUnicode:Stonebank vs duyui
Creator:Masala
Version:gachiGASM
Source:
Tags:mashup dnb drum and bass edm electro dubstep gay gachimuchi billy herrington van darkholme don't stop that turns me on
BeatmapID:997439
BeatmapSetID:465973

[Difficulty]
HPDrainRate:5
CircleSize:4
OverallDifficulty:8
ApproachRate:9
SliderMultiplier:1.8
SliderTickRate:1

[Events]
//Background and Video events
0,0,"bg.jpg",0,0
//Break Periods
//Storyboard Layer 0 (Background)
//Storyboard Layer 1 (Fail)
//Storyboard Layer 2 (Pass)
//Storyboard Layer 3 (Foreground)
//Storyboard Sound Samples

[TimingPoints]
164,352.941176470588,4,1,0,100,1,0
164,-111.111111111111,4,1,0,100,0,0
11458,-100,4,1,0,100,0,0
22752,-125,4,1,0,100,0,0
45340,-111.111111111111,4,1,0,100,0,0
49222,-166.666666666666,4,1,0,100,0,0
50281,-111.111111111111,4,1,0,100,0,0
50987,-166.666666666666,4,1,0,100,0,0
56634,-111.111111111111,4,1,0,100,0,0
62281,-166.666666666666,4,1,0,100,0,0
67928,-100,4,1,0,100,0,0
90516,-111.111111111111,4,1,0,100,0,0
111693,-100,4,1,0,100,0,0
113105,-90.9090909090909,4,1,0,100,0,1
135693,-100,4,1,0,100,0,0
158281,-125,4,1,0,100,0,0
180869,-111.111111111111,4,1,0,100,0,0
184752,-166.666666666666,4,1,0,100,0,0
185811,-111.111111111111,4,1,0,100,0,0
186516,-166.666666666666,4,1,0,100,0,0
192163,-111.111111111111,4,1,0,100,0,0
197811,-166.666666666666,4,1,0,100,0,0
203458,-111.111111111111,4,1,0,100,0,0
271222,-100,4,1,0,100,0,1
293811,-100,4,1,0,100,0,0

[HitObjects]
350,362,164,6,0,L|438:354,1,80.9999975280763
259,284,516,2,0,L|347:276,1,80.9999975280763
168,206,869,2,0,L|256:198,1,80.9999975280763
363,117,1222,2,0,L|325:197,1,80.9999975280763
222,118,1575,6,0,L|255:44,1,80.9999975280763
256,279,1928,2,0,L|248:198,1,80.9999975280763
422,322,2281,2,0,L|375:256,1,80.9999975280763
90,322,2634,2,0,L|136:256,1,80.9999975280763
400,170,2987,6,0,L|319:163,1,80.9999975280763
294,82,3340,2,0,P|334:74|376:75,1,80.9999975280763
425,251,3693,2,0,P|385:259|343:258,1,80.9999975280763
284,353,4046,2,0,P|257:322|236:285,1,80.9999975280763
295,109,4399,6,0,P|291:150|265:180,1,80.9999975280763
128,278,4752,2,0,P|132:237|158:207,1,80.9999975280763
174,337,5105,2,0,P|136:354|97:346,1,80.9999975280763
37,188,5458,2,0,L|47:103,1,80.9999975280763
135,7,5811,6,0,L|144:87,1,80.9999975280763
293,151,6163,2,0,P|253:164|214:159,1,80.9999975280763
264,3,6516,2,0,L|246:82,1,80.9999975280763
385,181,6869,2,0,L|366:102,1,80.9999975280763
505,201,7222,6,0,L|487:280,1,80.9999975280763
446,86,7575,2,0,P|447:45|464:9,1,80.9999975280763
385,181,7928,2,0,P|348:200|309:203,1,80.9999975280763
134,122,8281,2,0,P|174:115|212:126,1,80.9999975280763
133,225,8634,6,0,P|92:216|60:193,1,80.9999975280763
309,203,8987,2,0,P|344:225|366:258,1,80.9999975280763
212,126,9340,2,0,L|223:212,1,80.9999975280763
117,43,9693,2,0,L|106:129,1,80.9999975280763
20,296,10046,6,0,L|57:224,1,80.9999975280763
132,375,10399,2,0,P|91:384|53:374,1,80.9999975280763
195,291,10752,1,0,0:0:0:0:
237,384,10928,1,0,0:0:0:0:
113,273,11105,2,0,P|146:222|203:207,1,121.499996292114
221,209,11458,6,0,L|133:186,1,90
362,149,11811,2,0,L|450:126,1,90
362,12,12163,1,0,0:0:0:0:
307,210,12340,1,0,0:0:0:0:
307,210,12428,1,0,0:0:0:0:
307,210,12516,1,0,0:0:0:0:
269,72,12693,1,0,0:0:0:0:
169,248,12869,6,0,L|81:271,1,90
298,382,13222,2,0,L|207:373,1,90
483,311,13575,2,0,L|392:319,1,90
366,318,13840,1,0,0:0:0:0:
339,316,13928,1,0,0:0:0:0:
300,150,14105,6,0,P|334:71|420:213,1,360
382,139,14987,6,0,P|426:127|470:142,1,90
465,281,15340,2,0,P|421:293|377:278,1,90
239,148,15693,5,0,0:0:0:0:
191,25,15869,1,0,0:0:0:0:
47,162,16046,2,0,L|30:250,1,90
139,370,16399,2,0,L|122:282,1,90
117,255,16663,1,0,0:0:0:0:
112,228,16752,1,0,0:0:0:0:
17,366,16928,1,0,0:0:0:0:
207,242,17105,6,0,P|172:154|94:134,1,180
112,228,17634,1,0,0:0:0:0:
207,242,17811,2,0,L|296:232,1,90
323,227,18075,1,0,0:0:0:0:
349,222,18163,1,0,0:0:0:0:
112,228,18340,1,0,0:0:0:0:
301,381,18516,5,0,0:0:0:0:
243,163,18693,1,0,0:0:0:0:
41,253,18869,2,0,P|70:291|113:304,1,90
114,138,19222,2,0,L|111:230,1,90
243,163,19575,1,0,0:0:0:0:
200,39,19752,1,0,0:0:0:0:
256,192,19928,1,0,0:0:0:0:
256,192,20016,12,0,22399,0:0:0:0:
96,224,22752,6,0,B|162:258|200:322|200:322|184:250|204:177,1,288
128,149,23634,1,0,0:0:0:0:
279,216,23811,6,0,P|273:254|277:287,1,72
366,155,24163,2,0,P|372:117|368:84,1,72
426,226,24516,1,0,0:0:0:0:
285,116,24693,2,0,P|216:104|141:114,1,144
35,149,25222,1,0,0:0:0:0:
29,19,25399,1,0,0:0:0:0:
105,244,25575,6,0,P|60:283|39:148,1,288
153,139,26458,1,0,0:0:0:0:
43,216,26634,2,0,L|50:294,1,72
206,339,26987,6,0,B|281:337|281:337|346:316,1,144
268,263,27516,1,0,0:0:0:0:
268,263,27693,2,0,B|348:239|348:239|373:246|383:246|401:260|415:273|421:293|419:311|422:328|422:328|428:350|445:367,1,252
454,377,28399,6,0,P|441:234|473:92,1,288
512,10,29281,1,0,0:0:0:0:
387,59,29458,2,0,P|340:63|292:49,2,96
512,10,30163,1,0,0:0:0:0:
333,143,30428,2,0,P|250:185|170:155,1,180
246,70,31046,1,0,0:0:0:0:
333,143,31222,6,0,B|398:201|398:269|398:269|339:240|339:240|342:279|313:313,1,288
251,248,32281,1,0,0:0:0:0:
251,248,32458,1,0,0:0:0:0:
143,356,32634,6,0,B|146:289|146:289|131:251|145:207,1,144
26,69,33340,2,0,B|116:57|116:57|141:68|167:69,1,144
310,17,34046,6,0,P|246:124|366:162,1,288
321,96,34928,1,0,0:0:0:0:
414,8,35105,2,0,L|404:83,1,72
497,237,35458,6,0,L|487:165,1,72
496,62,35811,1,0,0:0:0:0:
496,62,35987,1,0,0:0:0:0:
429,265,36163,2,0,P|451:294|485:310,1,72
421,373,36516,2,0,P|454:387|491:383,1,72
295,323,36869,6,0,B|256:282|244:223|244:223|249:339|183:379,1,288
14,325,37752,1,0,0:0:0:0:
14,109,37928,2,0,P|17:147|12:184,1,72
181,80,38281,6,0,L|186:8,1,72
78,31,38634,1,0,0:0:0:0:
112,163,38811,1,0,0:0:0:0:
243,199,38987,2,0,P|315:206|389:185,1,144
493,114,39516,1,0,0:0:0:0:
201,27,39693,6,0,P|242:111|394:49,1,288
298,32,40575,1,0,0:0:0:0:
479,15,40752,1,0,0:0:0:0:
392,53,40928,1,0,0:0:0:0:
468,248,41105,6,0,P|413:216|390:143,1,144
468,248,41811,2,0,P|449:315|390:353,1,144
489,151,42340,1,0,0:0:0:0:
489,151,42516,6,0,P|455:163|418:163,1,72
334,147,42869,2,0,P|310:119|278:101,1,72
196,77,43222,2,0,P|144:190|454:237,1,576
60,40,45340,6,0,P|134:24|195:76,1,161.999995056153
227,151,45869,2,0,L|389:115,1,161.999995056153
463,92,46399,2,0,P|382:84|328:25,1,161.999995056153
509,188,46928,1,0,0:0:0:0:
509,188,47105,6,0,P|486:221|483:261,1,80.9999975280763
499,340,47458,2,0,L|413:333,1,80.9999975280763
337,325,47811,2,0,P|295:325|259:342,1,80.9999975280763
191,383,48163,6,0,P|118:354|171:232,1,242.999992584229
256,293,48869,2,0,L|177:308,1,80.9999975280763
96,317,49222,2,0,P|35:227|45:120,1,215.999993408203
85,48,50105,1,0,0:0:0:0:
202,89,50281,6,0,P|169:113|130:122,1,80.9999975280763
85,48,50634,2,0,P|118:24|157:15,1,80.9999975280763
261,43,50987,2,0,B|283:85|277:127|233:165|233:165|305:192|333:246|333:246|286:291|286:291|242:241|201:230|201:230|150:200|162:164|150:147|172:124|175:111|200:103|201:89|201:89|105:159|9:98,1,809.999975280762
90,202,53811,6,0,B|106:251|127:266|137:294|180:316|186:294|196:304|211:313|207:324|235:340|248:368|266:369|266:369|343:381|414:351|414:351|445:366|477:362|477:362|504:333|501:294|501:294|457:294|442:284|442:284|421:277|403:271|381:284|371:296|334:304|307:304|279:292,1,755.999976928712
387,48,56634,6,0,P|390:90|408:126,1,80.9999975280763
460,185,56987,1,0,0:0:0:0:
438,262,57163,2,0,P|414:296|380:319,1,80.9999975280763
304,339,57516,1,0,0:0:0:0:
304,339,57693,6,0,P|183:303|159:192,1,242.999992584229
182,123,58399,2,0,P|196:83|191:42,1,80.9999975280763
103,74,58752,1,0,0:0:0:0:
103,74,58928,1,0,0:0:0:0:
227,141,59105,2,0,L|279:78,1,80.9999975280763
148,164,59458,6,0,P|201:219|282:203,1,161.999995056153
344,156,59987,1,0,0:0:0:0:
414,116,60163,2,0,L|430:37,1,80.9999975280763
484,224,60516,2,0,L|500:303,1,80.9999975280763
446,373,60869,6,0,P|334:343|209:365,1,242.999992584229
130,377,61575,2,0,L|118:296,1,80.9999975280763
118,215,61928,1,0,0:0:0:0:
167,84,62105,1,0,0:0:0:0:
256,192,62281,6,0,B|320:265|412:278|412:278|453:262|464:212|464:212|388:205|348:176|348:176|353:137|306:61|306:61|360:95|402:101,1,620.999981048585
256,192,64399,12,0,67752,0:0:0:0:
305,29,67928,6,0,L|291:121,1,90
230,206,68281,1,0,0:0:0:0:
65,155,68458,2,0,P|157:146|218:85,1,180
101,28,68987,1,0,0:0:0:0:
388,61,69163,2,0,L|360:245,1,180
176,337,69693,6,0,P|128:341|91:322,1,90
8,311,70046,2,0,P|61:244|145:257,1,180
281,350,70575,2,0,P|365:363|418:296,1,180
463,59,71105,2,0,L|475:151,1,90
334,285,71458,2,0,L|345:195,1,90
498,355,71811,5,0,0:0:0:0:
251,271,71987,2,0,L|274:92,1,180
65,23,72516,2,0,B|111:21|111:21|156:32,1,90
407,65,72869,2,0,B|453:67|453:67|498:56,1,90
285,237,73222,1,0,0:0:0:0:
333,7,73399,1,0,0:0:0:0:
356,280,73575,6,0,P|279:320|208:268,1,180
146,115,74105,2,0,P|75:66|0:106,1,180
71,149,74634,1,0,0:0:0:0:
218,367,74811,2,0,P|211:281|284:236,1,180
285,320,75340,2,0,L|191:308,1,90
407,246,75693,2,0,L|496:234,1,90
285,320,76046,1,0,0:0:0:0:
421,138,76222,1,0,0:0:0:0:
144,233,76399,6,0,P|106:210|82:168,1,90
244,216,76752,2,0,P|243:260|218:302,1,90
179,138,77105,5,0,0:0:0:0:
421,138,77281,1,0,0:0:0:0:
144,233,77458,1,0,0:0:0:0:
316,0,77634,2,0,L|408:13,1,90
316,285,77987,2,0,L|226:272,1,90
144,233,78340,1,0,0:0:0:0:
125,382,78516,1,0,0:0:0:0:
218,127,78693,1,0,0:0:0:0:
70,265,78869,1,0,0:0:0:0:
263,324,79046,1,0,0:0:0:0:
21,159,79222,6,0,P|13:115|22:68,1,90
70,265,79575,1,0,0:0:0:0:
253,197,79752,2,0,P|269:109|251:15,1,180
133,114,80281,1,0,0:0:0:0:
253,197,80458,2,0,P|336:230|410:182,1,180
327,133,80987,2,0,L|333:224,1,90
223,342,81340,2,0,L|301:289,1,90
456,327,81693,5,0,0:0:0:0:
163,257,81869,2,0,P|82:267|25:343,1,180
63,43,82399,2,0,L|57:142,1,90
261,295,82752,2,0,L|255:205,1,90
137,369,83105,1,0,0:0:0:0:
192,158,83281,2,0,P|272:128|332:189,1,180
314,265,83811,6,0,P|276:244|255:205,1,90
479,248,84163,2,0,L|390:243,1,90
186,336,84516,1,0,0:0:0:0:
332,189,84693,1,0,0:0:0:0:
50,89,84869,6,0,P|136:121|206:76,1,180
123,24,85399,2,0,L|140:207,1,180
78,308,85928,1,0,0:0:0:0:
212,60,86105,2,0,L|220:151,1,90
45,281,86458,1,0,0:0:0:0:
255,93,86635,2,0,L|231:181,1,90
374,361,86987,6,0,L|351:273,1,90
334,160,87340,1,0,0:0:0:0:
273,351,87516,1,0,0:0:0:0:
406,202,87693,6,0,P|416:159|403:113,1,90
140,254,88046,2,0,P|130:297|143:343,1,90
334,160,88399,5,0,0:0:0:0:
69,194,88575,1,0,0:0:0:0:
304,322,88752,1,0,0:0:0:0:
189,81,88928,2,0,P|146:71|100:84,1,90
334,160,89281,2,0,P|377:170|423:157,1,90
148,158,89634,1,0,0:0:0:0:
243,0,89811,1,0,0:0:0:0:
217,211,89987,1,0,0:0:0:0:
137,43,90163,1,0,0:0:0:0:
253,112,90340,1,0,0:0:0:0:
36,132,90516,5,0,0:0:0:0:
219,35,90693,1,0,0:0:0:0:
93,17,90869,1,0,0:0:0:0:
253,112,91046,2,0,P|294:116|336:112,1,80.9999975280763
428,90,91399,1,0,0:0:0:0:
234,123,91575,2,0,P|271:140|311:151,1,80.9999975280763
439,82,91928,5,0,0:0:0:0:
373,248,92105,2,0,L|365:338,1,80.9999975280763
488,162,92458,2,0,L|495:242,1,80.9999975280763
473,355,92811,1,0,0:0:0:0:
284,297,92987,2,0,P|242:294|195:298,1,80.9999975280763
90,307,93340,6,0,P|23:265|21:189,1,161.999995056153
91,146,93869,2,0,P|103:184|95:224,1,80.9999975280763
20,374,94222,1,0,0:0:0:0:
130,125,94399,2,0,L|110:205,1,80.9999975280763
15,380,94752,5,0,0:0:0:0:
3,233,94928,2,0,P|0:192|6:148,1,80.9999975280763
92,80,95281,2,0,P|95:39|89:-5,1,80.9999975280763
1,34,95634,1,0,0:0:0:0:
170,10,95811,1,0,0:0:0:0:
79,161,95987,1,0,0:0:0:0:
310,15,96163,6,0,P|392:5|465:31,1,161.999995056153
288,94,96693,2,0,P|254:73|230:31,1,80.9999975280763
512,104,97046,1,0,0:0:0:0:
257,106,97222,2,0,L|176:83,1,80.9999975280763
6,12,97575,5,0,0:0:0:0:
152,170,97752,2,0,P|163:210|165:251,1,80.9999975280763
53,346,98105,2,0,P|42:306|40:265,1,80.9999975280763
152,364,98458,1,0,0:0:0:0:
85,135,98634,2,0,P|113:104|156:95,1,80.9999975280763
299,167,98987,6,0,P|225:198|152:170,1,161.999995056153
363,128,99516,2,0,P|375:167|362:209,1,80.9999975280763
271,355,99869,1,0,0:0:0:0:
395,153,100046,2,0,L|351:226,1,80.9999975280763
261,369,100399,5,0,0:0:0:0:
168,122,100575,2,0,P|162:82|166:38,1,80.9999975280763
395,153,100928,2,0,P|401:193|397:237,1,80.9999975280763
250,80,101281,1,0,0:0:0:0:
482,35,101458,2,0,P|501:70|512:113,1,80.9999975280763
208,152,101811,6,0,P|167:83|202:12,1,161.999995056153
283,200,102340,2,0,P|316:223|343:259,1,80.9999975280763
250,80,102693,1,0,0:0:0:0:
108,140,102869,1,0,0:0:0:0:
283,200,103046,1,0,0:0:0:0:
157,58,103222,5,0,0:0:0:0:
341,54,103399,1,0,0:0:0:0:
173,233,103575,1,0,0:0:0:0:
250,80,103752,1,0,0:0:0:0:
283,200,103928,1,0,0:0:0:0:
75,128,104105,1,0,0:0:0:0:
117,351,104281,1,0,0:0:0:0:
173,233,104458,1,0,0:0:0:0:
0,343,104634,5,0,0:0:0:0:
187,312,104811,1,0,0:0:0:0:
75,128,104987,1,0,0:0:0:0:
283,200,105163,1,0,0:0:0:0:
82,260,105340,1,0,0:0:0:0:
350,256,105516,1,0,0:0:0:0:
204,89,105693,1,0,0:0:0:0:
317,337,105869,1,0,0:0:0:0:
498,235,106046,5,0,0:0:0:0:
283,200,106222,1,0,0:0:0:0:
444,351,106399,1,0,0:0:0:0:
403,140,106575,1,0,0:0:0:0:
317,337,106752,1,0,0:0:0:0:
204,89,106928,1,0,0:0:0:0:
283,200,107105,1,0,0:0:0:0:
68,165,107281,1,0,0:0:0:0:
359,222,107458,5,0,0:0:0:0:
338,256,107546,1,0,0:0:0:0:
303,276,107634,1,0,0:0:0:0:
263,276,107722,1,0,0:0:0:0:
228,257,107810,1,0,0:0:0:0:
207,223,107899,1,0,0:0:0:0:
205,183,107987,1,0,0:0:0:0:
223,147,108075,1,0,0:0:0:0:
256,125,108163,1,0,0:0:0:0:
296,121,108252,1,0,0:0:0:0:
332,138,108340,1,0,0:0:0:0:
365,161,108429,1,0,0:0:0:0:
405,169,108517,1,0,0:0:0:0:
444,160,108605,1,0,0:0:0:0:
477,137,108693,1,0,0:0:0:0:
497,102,108782,1,0,0:0:0:0:
503,62,108869,6,0,P|505:40|500:20,1,40.4999987640381
376,6,109046,2,0,P|374:28|379:48,1,40.4999987640381
497,214,109222,5,0,0:0:0:0:
501,254,109310,1,0,0:0:0:0:
493,293,109398,1,0,0:0:0:0:
473,328,109486,1,0,0:0:0:0:
443,355,109575,6,0,L|400:369,1,40.4999987640381
218,344,109752,1,0,0:0:0:0:
218,344,109840,1,0,0:0:0:0:
218,344,109928,2,0,L|256:332,1,40.4999987640381
418,271,110105,2,0,L|379:259,1,40.4999987640381
256,192,110281,1,0,0:0:0:0:
256,192,110369,12,0,111516,0:0:0:0:
256,192,111693,5,0,0:0:0:0:
106,181,111869,2,0,P|83:178|55:168,2,45
300,129,112222,1,0,0:0:0:0:
323,155,112310,1,0,0:0:0:0:
333,189,112398,1,0,0:0:0:0:
325,224,112486,1,0,0:0:0:0:
303,252,112574,1,0,0:0:0:0:
270,267,112663,1,0,0:0:0:0:
235,265,112752,2,0,L|150:237,1,90
104,105,113105,6,0,P|194:70|271:123,1,198.000006042481
342,306,113634,2,0,P|420:359|509:324,1,198.000006042481
432,261,114163,1,0,0:0:0:0:
162,335,114340,2,0,P|126:246|180:167,1,198.000006042481
444,268,114869,2,0,P|465:313|455:363,1,99.0000030212403
180,167,115222,2,0,P|175:117|202:73,1,99.0000030212403
225,257,115575,5,0,0:0:0:0:
75,98,115752,2,0,L|70:0,1,99.0000030212403
255,135,116105,1,0,0:0:0:0:
99,266,116281,2,0,P|49:271|5:244,1,99.0000030212403
255,135,116634,2,0,P|305:130|349:157,1,99.0000030212403
503,326,116987,5,0,0:0:0:0:
227,205,117163,2,0,P|178:149|242:58,1,198.000006042481
99,266,117693,2,0,P|49:271|5:244,1,99.0000030212403
255,135,118046,2,0,P|305:130|349:157,1,99.0000030212403
66,192,118399,1,0,0:0:0:0:
237,58,118575,1,0,0:0:0:0:
419,183,118752,6,0,P|386:221|341:233,1,99.0000030212403
66,192,119105,1,0,0:0:0:0:
345,153,119281,2,0,L|453:323,1,198.000006042481
499,150,119811,1,0,0:0:0:0:
203,331,119987,2,0,B|153:342|153:342|101:337,1,99.0000030212403
345,153,120340,1,0,0:0:0:0:
15,122,120516,6,0,P|20:168|53:212,1,99.0000030212403
345,153,120869,2,0,P|340:107|307:63,1,99.0000030212403
105,138,121222,1,0,0:0:0:0:
105,138,121399,1,0,0:0:0:0:
367,178,121575,6,0,L|470:163,1,99.0000030212403
233,276,121928,2,0,L|336:261,1,99.0000030212403
105,138,122281,5,0,0:0:0:0:
151,382,122458,1,0,0:0:0:0:
259,183,122634,1,0,0:0:0:0:
0,217,122811,2,0,B|7:266|7:266|26:313,1,99.0000030212403
259,183,123163,2,0,B|252:134|252:134|233:87,1,99.0000030212403
105,138,123516,1,0,0:0:0:0:
432,170,123693,1,0,0:0:0:0:
149,336,123869,1,0,0:0:0:0:
280,36,124046,1,0,0:0:0:0:
350,357,124222,1,0,0:0:0:0:
16,160,124399,6,0,L|12:60,1,99.0000030212403
149,336,124752,1,0,0:0:0:0:
432,170,124928,2,0,P|477:260|418:328,1,198.000006042481
431,7,125458,1,0,0:0:0:0:
263,159,125634,2,0,P|300:245|394:246,1,198.000006042481
281,78,126163,6,0,P|231:83|193:113,1,99.0000030212403
347,173,126516,2,0,P|384:139|397:92,1,99.0000030212403
145,210,126869,1,0,0:0:0:0:
331,47,127046,2,0,P|418:14|477:86,1,198.000006042481
145,210,127575,2,0,P|96:217|51:197,1,99.0000030212403
397,93,127928,2,0,P|445:85|490:105,1,99.0000030212403
107,137,128281,5,0,0:0:0:0:
346,320,128458,2,0,P|438:352|508:289,1,198.000006042481
107,137,128987,2,0,L|80:235,1,99.0000030212403
197,3,129340,2,0,L|205:104,1,99.0000030212403
175,280,129693,1,0,0:0:0:0:
291,78,129869,1,0,0:0:0:0:
93,281,130046,6,0,P|142:357|238:334,1,198.000006042481
370,134,130575,2,0,P|461:114|512:192,1,198.000006042481
430,192,131105,1,0,0:0:0:0:
175,280,131281,2,0,L|73:269,1,99.0000030212403
0,180,131634,1,0,0:0:0:0:
255,286,131811,6,0,P|233:336|193:358,1,99.0000030212403
0,180,132163,2,0,P|22:130|62:108,1,99.0000030212403
250,27,132516,1,0,0:0:0:0:
250,27,132693,1,0,0:0:0:0:
161,143,132869,5,0,0:0:0:0:
340,83,133046,1,0,0:0:0:0:
140,37,133222,1,0,0:0:0:0:
272,177,133399,1,0,0:0:0:0:
67,195,133575,1,0,0:0:0:0:
67,195,133752,1,0,0:0:0:0:
340,83,133928,1,0,0:0:0:0:
340,83,134105,1,0,0:0:0:0:
231,319,134281,5,0,0:0:0:0:
182,323,134369,1,0,0:0:0:0:
139,300,134457,1,0,0:0:0:0:
116,257,134545,1,0,0:0:0:0:
120,208,134633,1,0,0:0:0:0:
151,170,134722,1,0,0:0:0:0:
198,155,134811,6,0,L|252:156,1,49.5000015106202
366,268,134987,2,0,L|312:267,1,49.5000015106202
201,135,135163,2,0,L|260:145,1,49.5000015106202
362,288,135339,2,0,L|303:278,1,49.5000015106202
125,224,135516,1,0,0:0:0:0:
125,224,135605,1,0,0:0:0:0:
125,224,135693,6,0,P|54:162|73:84,1,180
148,56,136222,2,0,P|152:100|134:141,1,90
63,232,136575,1,0,0:0:0:0:
193,32,136752,2,0,L|163:121,1,90
50,241,137105,5,0,0:0:0:0:
260,83,137281,2,0,P|306:82|348:96,1,90
287,204,137634,2,0,P|241:205|199:191,1,90
99,109,137987,1,0,0:0:0:0:
303,226,138163,2,0,L|256:310,1,90
266,154,138516,6,0,P|337:152|383:241,1,180
99,109,139046,2,0,L|80:21,1,90
11,177,139399,1,0,0:0:0:0:
163,12,139575,2,0,P|208:7|253:13,1,90
396,53,139928,5,0,0:0:0:0:
262,172,140105,2,0,P|226:146|208:106,1,90
322,261,140458,2,0,P|281:279|236:275,1,90
143,239,140811,1,0,0:0:0:0:
362,300,140987,2,0,L|271:313,1,90
64,270,141340,6,0,P|78:184|161:156,1,180
143,239,141869,2,0,P|101:220|77:185,1,90
31,59,142222,1,0,0:0:0:0:
142,280,142399,2,0,L|79:214,1,90
29,38,142752,5,0,0:0:0:0:
163,64,142928,2,0,P|207:73|252:63,1,90
432,44,143281,2,0,L|344:24,1,90
206,0,143634,1,0,0:0:0:0:
444,117,143811,2,0,P|485:97|505:58,1,90
511,221,144163,6,0,P|520:309|465:377,1,180
321,268,144693,2,0,P|365:264|409:276,1,90
358,369,145046,1,0,0:0:0:0:
305,234,145222,2,0,L|394:242,1,90
356,380,145575,5,0,0:0:0:0:
164,326,145752,2,0,P|153:282|155:237,1,90
12,192,146105,2,0,P|16:146|33:105,1,90
47,82,146370,1,0,0:0:0:0:
67,64,146458,1,0,0:0:0:0:
92,54,146546,1,0,0:0:0:0:
118,53,146634,2,0,P|139:57|164:71,1,45
236,186,146811,2,0,P|229:166|228:138,1,45
258,46,146987,6,0,P|346:42|407:108,1,180
451,252,147516,2,0,P|468:295|495:332,1,90
307,138,147869,1,0,0:0:0:0:
438,293,148046,2,0,L|494:370,1,90
338,384,148399,5,0,0:0:0:0:
307,138,148575,2,0,B|303:93|303:93|315:47,1,90
345,225,148928,2,0,B|300:229|300:229|254:217,1,90
130,161,149281,1,0,0:0:0:0:
371,248,149458,2,0,L|277:240,1,90
62,203,149811,6,0,P|64:115|141:81,1,180
132,243,150340,2,0,P|101:274|53:283,1,90
130,161,150693,1,0,0:0:0:0:
145,292,150869,2,0,L|87:363,1,90
134,142,151222,5,0,0:0:0:0:
256,29,151399,2,0,P|304:24|345:27,1,90
134,142,151752,2,0,P|86:147|45:144,1,90
12,19,152105,1,0,0:0:0:0:
159,154,152281,2,0,L|72:185,1,90
175,75,152634,6,0,P|237:136|207:218,1,180
94,70,153163,2,0,P|109:26|143:0,1,90
159,154,153516,1,0,0:0:0:0:
49,70,153693,2,0,L|106:-3,1,90
254,36,154046,5,0,0:0:0:0:
380,124,154222,2,0,L|395:215,1,90
492,4,154575,2,0,L|490:96,1,90
482,221,154928,1,0,0:0:0:0:
315,72,155105,2,0,P|351:47|396:42,1,90
256,192,155458,1,0,0:0:0:0:
256,192,155546,12,0,157928,0:0:0:0:
379,216,158281,6,0,P|286:313|155:264,1,288
118,195,159163,1,0,0:0:0:0:
90,120,159340,6,0,P|73:88|43:62,1,72
177,81,159693,2,0,P|168:45|146:12,1,72
248,29,160046,1,0,0:0:0:0:
323,51,160222,2,0,L|395:66,1,72
471,82,160575,1,0,0:0:0:0:
471,82,160752,2,0,P|477:119|500:152,1,72
427,328,161105,6,0,P|389:192|473:80,1,288
424,16,161987,1,0,0:0:0:0:
346,30,162163,2,0,P|310:37|271:35,1,72
196,24,162516,2,0,P|160:22|124:29,1,72
52,63,162869,1,0,0:0:0:0:
52,63,163046,1,0,0:0:0:0:
52,63,163222,2,0,B|74:97|97:112|137:119|161:102|149:91|232:108|232:108|258:112|290:107,1,252
302,104,163928,6,0,P|307:232|179:224,1,288
246,170,164811,1,0,0:0:0:0:
352,182,164987,2,0,P|397:195|434:227,1,96
503,338,165516,1,0,0:0:0:0:
503,338,165693,1,0,0:0:0:0:
391,378,165958,2,0,B|302:372|302:372|209:378,1,180
132,384,166575,1,0,0:0:0:0:
52,379,166752,6,0,P|20:238|47:93,1,288
100,0,167811,1,0,0:0:0:0:
100,0,167987,1,0,0:0:0:0:
144,65,168163,6,0,P|151:98|144:139,1,72
117,209,168516,2,0,P|149:219|181:246,1,72
227,305,168869,2,0,L|292:339,1,72
351,282,169222,2,0,L|256:232,1,108
240,223,169575,6,0,P|191:105|315:60,1,288
383,97,170458,1,0,0:0:0:0:
274,140,170634,2,0,P|237:146|203:140,1,72
57,114,170987,6,0,P|92:108|128:114,1,72
94,201,171340,1,0,0:0:0:0:
94,201,171516,1,0,0:0:0:0:
173,313,171693,2,0,L|177:393,1,72
258,225,172046,2,0,L|254:305,1,72
250,380,172399,6,0,P|377:320|510:378,1,288
510,275,173281,1,0,0:0:0:0:
474,203,173458,2,0,P|467:167|467:129,1,72
472,52,173811,6,0,P|436:59|398:59,1,72
322,46,174163,1,0,0:0:0:0:
322,46,174340,1,0,0:0:0:0:
244,29,174516,2,0,P|173:19|103:34,1,144
34,74,175046,1,0,0:0:0:0:
2,146,175222,6,0,P|129:176|113:309,1,288
48,233,176105,1,0,0:0:0:0:
146,191,176281,1,0,0:0:0:0:
216,271,176458,1,0,0:0:0:0:
146,191,176634,6,0,P|157:123|224:92,1,144
342,183,177340,2,0,P|277:207|220:169,1,144
285,129,177869,1,0,0:0:0:0:
285,129,178046,6,0,P|316:110|351:106,1,72
430,109,178399,2,0,L|369:70,1,72
302,26,178752,2,0,P|179:222|433:307,1,576
432,307,180869,6,0,P|368:260|289:273,1,161.999995056153
220,328,181399,2,0,P|141:339|78:293,1,161.999995056153
44,210,181928,2,0,L|18:48,1,161.999995056153
105,72,182458,1,0,0:0:0:0:
105,72,182634,2,0,P|148:71|182:50,1,80.9999975280763
252,0,182987,1,0,0:0:0:0:
252,0,183163,1,0,0:0:0:0:
338,20,183340,2,0,B|376:32|376:32|409:61,1,80.9999975280763
470,122,183693,6,0,P|459:241|355:253,1,242.999992584229
398,175,184399,2,0,P|429:204|442:240,1,80.9999975280763
440,350,184752,2,0,L|223:362,1,215.999993408203
143,366,185634,1,0,0:0:0:0:
262,284,185811,2,0,L|180:288,1,80.9999975280763
131,203,186163,2,0,L|212:207,1,80.9999975280763
291,211,186516,6,0,B|379:221|421:78|359:28|359:28|316:40|258:37|258:37|206:97|206:97|261:114|315:108|315:108|312:124|294:158|297:140|290:132|287:137|257:139|233:140|229:152|179:202|216:234|220:261|247:276|268:285|296:283,1,809.999975280762
365,285,189340,6,0,B|319:360|222:362|222:362|145:328|37:343|37:343|76:241|45:174|45:174|16:129|37:73|90:60|136:78|156:114|145:157,1,755.999976928712
214,21,192163,6,0,P|291:13|370:42,1,161.999995056153
444,90,192693,2,0,L|486:250,1,161.999995056153
427,314,193222,6,0,B|390:174|390:174|338:176|300:140,1,242.999992584229
373,81,193928,2,0,L|339:154,1,80.9999975280763
327,244,194281,1,0,0:0:0:0:
327,244,194458,1,0,0:0:0:0:
346,330,194634,2,0,P|366:364|402:386,1,80.9999975280763
327,244,194987,6,0,P|266:293|269:373,1,161.999995056153
174,380,195516,1,0,0:0:0:0:
174,380,195693,2,0,L|92:370,1,80.9999975280763
0,283,196046,6,0,L|243:253,1,242.999992584229
327,244,196752,1,0,0:0:0:0:
362,165,196928,1,0,0:0:0:0:
311,95,197105,2,0,P|270:88|233:98,1,80.9999975280763
162,154,197458,1,0,0:0:0:0:
275,177,197634,1,0,0:0:0:0:
100,94,197811,6,0,P|79:179|152:240,1,188.999994232178
178,239,198516,2,0,P|217:243|257:258,1,80.9999975280763
280,274,198869,2,0,P|317:288|412:290,1,134.999995880127
440,281,199399,2,0,B|404:241|390:193|390:193|366:217,1,134.999995880127
256,192,199928,12,0,203281,0:0:0:0:
