osu file format v14

[General]
AudioFilename: audio.mp3
AudioLeadIn: 0
PreviewTime: 134089
Countdown: 0
SampleSet: Soft
StackLeniency: 0.7
Mode: 0
LetterboxInBreaks: 0
WidescreenStoryboard: 1

[Editor]
Bookmarks: 45148,56442,62089,67736,79030,88913,100207,112913,122795,134266,145383,152442
DistanceSpacing: 1
BeatDivisor: 2
GridSize: 4
TimelineZoom: 1

[Metadata]
Title:Be Alright
TitleUnicode:Be Alright
Artist:Stonebank feat. EMEL
ArtistUnicode:Stonebank feat. EMEL
Creator:SquareTude
Version:Normal
Source:
Tags:
BeatmapID:965425
BeatmapSetID:439065

[Difficulty]
HPDrainRate:4
CircleSize:2.5
OverallDifficulty:4
ApproachRate:4.5
SliderMultiplier:1.8
SliderTickRate:2

[Events]
//Background and Video events
0,0,"bg.jpg",0,0
//Break Periods
//Storyboard Layer 0 (Background)
//Storyboard Layer 1 (Fail)
//Storyboard Layer 2 (Pass)
//Storyboard Layer 3 (Foreground)
//Storyboard Sound Samples

[TimingPoints]
-28,352.941176470588,4,1,0,85,1,0
10560,-200,4,1,0,85,0,0
23971,-200,4,2,0,75,0,0
45148,-200,4,2,0,85,0,0
67736,-200,4,2,0,85,0,0
87501,-200,4,1,0,85,0,0
88913,-200,4,1,0,85,0,0
101619,-200,4,1,0,85,0,1
112913,-200,4,3,0,70,0,0
135501,-200,4,1,0,85,0,1
152442,-200,4,2,0,85,0,0

[HitObjects]
104,96,10560,6,0,B|80:140|112:200,1,90
188,220,11266,1,0,0:0:0:0:
272,192,11619,1,0,0:0:0:0:
352,156,11971,2,0,P|396:132|408:92,1,90
328,56,12677,5,0,0:0:0:0:
256,108,13030,1,0,0:0:0:0:
208,184,13383,2,0,P|200:240|216:288,1,90
296,288,14089,5,0,0:0:0:0:
376,248,14442,1,0,0:0:0:0:
328,172,14795,2,0,P|280:148|208:152,1,90
232,56,15501,6,0,P|284:40|348:64,1,90
384,108,16207,2,0,P|412:152|408:224,1,90
356,256,16913,5,0,0:0:0:0:
276,296,17266,1,0,0:0:0:0:
188,316,17619,1,0,0:0:0:0:
100,292,17971,1,0,0:0:0:0:
140,212,18324,2,0,P|168:168|156:120,1,90
104,64,19030,2,0,P|76:108|88:156,1,90
144,208,19736,5,0,0:0:0:0:
224,252,20089,1,0,0:0:0:0:
312,264,20442,1,0,0:0:0:0:
396,228,20795,5,0,0:0:0:0:
112,80,23971,6,0,P|160:104|196:144,1,90
164,168,24501,2,0,P|200:204|208:248,1,90
184,276,25030,1,0,0:0:0:0:
360,88,26795,6,0,L|256:88,1,90
180,88,27501,2,0,P|188:40|232:8,1,90
204,276,29266,6,0,P|224:216|232:204,1,45
260,220,29619,2,0,B|252:176|188:168|148:188,1,90
148,196,30148,2,0,P|96:208|72:256,1,90
84,280,30677,1,0,0:0:0:0:
320,68,31913,6,0,L|264:100,3,45
208,144,32795,2,0,P|184:192|184:240,1,90
248,292,33501,1,0,0:0:0:0:
408,168,34913,5,0,0:0:0:0:
368,88,35266,2,0,P|300:72|184:104,1,180
212,188,36324,2,0,P|280:172|380:220,1,180
128,108,38089,6,0,P|132:184|112:212,1,90
196,252,38795,2,0,P|100:276|80:264,1,90
256,192,40913,12,0,43736,0:0:0:0:
136,80,45148,5,0,0:0:0:0:
136,172,45501,2,0,P|144:228|184:252,1,90
256,260,46207,1,0,0:0:0:0:
344,256,46560,2,0,P|400:232|412:184,1,90
392,120,47266,2,0,P|340:144|328:192,1,90
344,256,47971,1,0,0:0:0:0:
116,24,49383,6,0,P|180:20|208:40,1,90
248,108,50089,2,0,P|280:144|320:148,1,90
404,116,50795,1,0,0:0:0:0:
448,328,52207,6,0,B|380:356|320:308|264:344,1,180
192,292,53266,1,0,0:0:0:0:
124,236,53619,2,0,P|152:200|156:152,1,90
75,159,54324,2,0,P|80:114|108:80,1,90
196,56,55030,6,0,P|220:120|208:152,1,90
180,220,55736,1,0,0:0:0:0:
268,232,56089,2,0,P|304:184|332:168,1,90
388,240,56795,5,0,0:0:0:0:
448,172,57148,1,0,0:0:0:0:
480,88,57501,1,0,0:0:0:0:
424,20,57854,2,0,P|360:56|340:88,1,90
308,148,58560,2,0,P|240:200|208:200,1,90
172,136,59266,5,0,0:0:0:0:
84,164,59619,1,0,0:0:0:0:
152,224,59971,2,0,P|84:276|52:276,1,90
120,360,60677,1,0,0:0:0:0:
212,360,61030,1,0,0:0:0:0:
260,284,61383,2,0,P|312:348|312:376,1,90
68,304,63148,5,0,0:0:0:0:
132,244,63501,2,0,B|196:224|216:200|236:168|272:152|300:144,1,180
256,192,64560,12,0,66324,0:0:0:0:
136,84,67736,6,0,P|200:120|208:160,1,90
240,216,68442,1,0,0:0:0:0:
308,332,68971,6,0,P|376:348|444:332,1,135
452,292,69677,1,0,0:0:0:0:
464,204,70030,2,0,P|456:176|424:148,1,45
300,44,70913,6,0,P|232:36|204:40,1,90
144,156,71795,5,0,0:0:0:0:
96,228,72148,1,0,0:0:0:0:
156,292,72501,1,0,0:0:0:0:
420,120,73736,6,0,P|468:88|496:48,1,90
356,28,74619,5,0,0:0:0:0:
268,28,74971,2,0,P|208:72|184:116,1,90
168,168,75677,2,0,P|180:196|200:208,1,45
332,320,76560,6,0,P|364:280|368:228,1,90
364,108,77442,6,0,P|280:128|264:160,1,90
284,12,79030,5,0,0:0:0:0:
360,60,79383,2,0,P|372:112|356:160,1,90
312,220,80089,2,0,L|212:260,1,90
148,296,80795,2,0,P|148:328|212:364,1,90
280,364,81501,1,0,0:0:0:0:
356,316,81854,1,0,0:0:0:0:
400,236,82207,6,0,P|420:180|448:156,1,90
512,104,82913,2,0,P|468:76|412:76,1,90
344,56,83619,1,0,0:0:0:0:
268,104,83971,2,0,P|232:148|212:188,1,90
256,192,84677,12,0,88736,0:0:0:0:
284,176,90324,5,0,0:0:0:0:
352,236,90677,2,0,P|376:280|360:328,1,90
280,300,91383,2,0,P|244:256|200:252,1,90
124,232,92089,1,0,0:0:0:0:
60,296,92442,1,0,0:0:0:0:
132,352,92795,2,0,P|180:316|200:256,1,90
212,204,93501,6,0,P|228:160|264:128,1,90
340,92,94207,1,0,0:0:0:0:
428,96,94560,2,0,L|504:168,1,90
420,208,95266,1,0,0:0:0:0:
511,246,95619,2,0,P|481:280|440:296,1,90
348,296,96324,6,0,P|303:292|267:267,1,90
184,236,97030,2,0,P|220:192|264:176,1,90
216,96,97736,1,0,0:0:0:0:
304,88,98089,2,0,P|348:120|360:160,1,90
420,220,98795,1,0,0:0:0:0:
444,128,99148,6,0,P|440:72|396:44,1,90
328,72,99854,2,0,P|297:103|298:147,1,90
400,132,100560,1,0,0:0:0:0:
492,180,100913,2,0,P|456:208|414:225,1,90
324,224,101619,1,0,0:0:0:0:
376,296,101971,6,0,P|362:338|330:369,1,90
264,308,102677,1,0,0:0:0:0:
192,252,103030,2,0,L|112:204,1,90
116,116,103736,1,0,0:0:0:0:
32,77,104089,2,0,P|62:44|104:28,1,90
196,32,104795,6,0,P|222:69|225:113,1,90
312,144,105501,2,0,P|286:181|246:202,1,90
332,252,106207,1,0,0:0:0:0:
336,336,106560,2,0,P|291:330|254:306,1,90
164,296,107266,1,0,0:0:0:0:
76,284,107619,6,0,P|42:256|16:219,1,90
24,128,108324,1,0,0:0:0:0:
112,108,108677,2,0,P|156:105|199:118,1,90
144,192,109383,2,0,P|112:252|128:312,1,90
268,360,110442,5,0,0:0:0:0:
312,280,110795,1,0,0:0:0:0:
400,296,111148,2,0,P|400:240|428:208,1,90
496,316,111854,1,0,0:0:0:0:
512,232,112207,2,0,P|508:191|484:147,1,90
400,120,112913,5,0,0:0:0:0:
400,212,113266,2,0,P|412:264|396:312,1,90
336,356,113971,2,0,P|280:376|240:344,1,90
188,308,114677,2,0,P|156:320|188:360,1,90
264,364,115383,1,0,0:0:0:0:
328,300,115736,5,0,0:0:0:0:
372,220,116089,2,0,P|408:160|432:136,1,90
472,72,116795,2,0,P|428:44|372:44,1,90
300,52,117501,2,0,P|244:92|224:128,1,90
176,180,118207,2,0,P|132:228|80:252,1,90
76,156,118913,6,0,P|88:112|124:64,1,90
172,16,119619,2,0,P|228:-4|268:28,1,90,0|0,0:0|0:0,0:0:0:0:
312,76,120324,2,0,P|352:52|316:24,1,90
252,7,121030,2,0,L|160:7,1,90
132,92,121736,6,0,P|112:148|84:172,1,90
28,232,122442,2,0,P|72:260|128:260,1,90
196,288,123148,1,0,0:0:0:0:
292,272,123501,2,0,P|348:216|360:184,1,90
368,120,124207,6,0,P|356:72|320:28,1,90
248,8,124913,1,0,0:0:0:0:
160,32,125266,1,0,0:0:0:0:
72,12,125619,2,0,P|40:68|40:128,1,90
60,180,126324,2,0,P|103:179|127:143,1,90
56,88,127030,5,0,0:0:0:0:
124,32,127383,1,0,0:0:0:0:
220,44,127736,2,0,P|268:96|268:136,1,90,0|0,0:0|0:0,0:0:0:0:
264,200,128442,1,0,0:0:0:0:
184,248,128795,1,0,0:0:0:0:
120,308,129148,2,0,P|88:356|180:352,1,180
264,300,130207,6,0,P|316:260|356:252,1,90
348,340,130913,2,0,P|404:320|420:280,1,90
424,200,131619,1,0,0:0:0:0:
444,112,131971,1,0,0:0:0:0:
468,24,132324,1,4,0:0:0:0:
256,192,132677,12,0,134089,0:0:0:0:
160,152,135501,6,0,P|136:108|152:60,1,90
236,76,136207,2,0,P|272:120|316:124,1,90
392,140,136913,1,0,0:0:0:0:
448,72,137266,1,0,0:0:0:0:
368,32,137619,2,0,P|320:68|300:128,1,90
296,184,138324,6,0,P|280:228|244:260,1,90
172,284,139030,1,0,0:0:0:0:
88,280,139383,2,0,L|12:208,1,90
96,164,140089,1,0,0:0:0:0:
92,72,140442,2,0,P|36:100|12:148,1,90
204,48,141148,1,0,0:0:0:0:
200,144,141501,6,0,P|172:188|176:240,1,90
204,308,142207,2,0,P|240:352|284:368,1,90
296,280,142913,1,0,0:0:0:0:
352,208,143266,2,0,P|300:172|240:160,1,90
184,156,143971,1,0,0:0:0:0:
116,216,144324,6,0,P|180:256|216:260,1,90
280,232,145030,2,0,P|236:176|210:174,1,90
88,72,146795,6,0,P|132:116|168:120,1,90
168,36,147501,1,0,0:0:0:0:
248,0,147854,2,0,P|300:40|336:80,1,90
240,104,148560,2,0,P|300:168|308:200,1,90
324,260,149266,1,0,0:0:0:0:
240,312,149619,1,0,0:0:0:0:
128,308,149971,6,0,P|164:256|144:208,1,90
156,144,150677,1,0,0:0:0:0:
248,144,151030,1,0,0:0:0:0:
252,232,151383,1,0,0:0:0:0:
164,236,151736,1,0,0:0:0:0:
104,172,152089,1,0,0:0:0:0:
144,316,152795,6,0,P|100:280|84:232,1,90
108,112,153677,6,0,P|164:84|216:88,1,90
280,96,154383,2,0,P|340:132|332:196,1,135
236,340,155619,6,0,P|316:324|340:304,1,90
256,192,156501,12,4,157913,0:0:0:0:
