osu file format v14

[General]
AudioFilename: audio.mp3
AudioLeadIn: 0
PreviewTime: 37900
Countdown: 0
SampleSet: Normal
StackLeniency: 0.7
Mode: 1
LetterboxInBreaks: 0
WidescreenStoryboard: 0

[Editor]
Bookmarks: 136,4371,15665,26959,32606,35429,36841,38253,49547,59429,60841,72135,77782,80606,82018,84841
DistanceSpacing: 2
BeatDivisor: 4
GridSize: 16
TimelineZoom: 2.2

[Metadata]
Title:The Pressure (Cut Ver.)
TitleUnicode:The Pressure (Cut Ver.)
Artist:Stonebank
ArtistUnicode:Stonebank
Creator:MicSup08
Version:Stage Fright
Source:
Tags:featured artist fa mappers' guild mg mpg version instrumental dubstep english single monstercat release electronic electro hard dance hardcore bass upbeat happy core rave 022 contact mcs341
BeatmapID:4465938
BeatmapSetID:2124862

[Difficulty]
HPDrainRate:6
CircleSize:5
OverallDifficulty:6.5
ApproachRate:5
SliderMultiplier:1.4
SliderTickRate:1

[Events]
//Background and Video events
0,0,"bg.jpg",0,0
//Break Periods
//Storyboard Layer 0 (Background)
//Storyboard Layer 1 (Fail)
//Storyboard Layer 2 (Pass)
//Storyboard Layer 3 (Foreground)
//Storyboard Layer 4 (Overlay)
//Storyboard Sound Samples

[TimingPoints]
136,352.941176470588,4,1,0,60,1,0
136,-133.333333333333,4,1,0,60,0,0
1542,-125,4,1,0,65,0,0
2954,-117.647058823529,4,1,0,70,0,0
4371,352.941176470588,4,1,0,75,1,0
4371,-111.111111111111,4,1,0,75,0,0
14248,-111.111111111111,4,1,0,75,0,0
14513,-113.462688362246,4,1,0,75,0,0
14601,-114.268737216185,4,1,0,75,0,0
14777,-115.915956295048,4,1,0,75,0,0
14954,-117.611221992358,4,1,0,75,0,0
15130,-119.356810022153,4,1,0,75,0,0
15307,-121.154994796393,4,1,0,75,0,0
15660,-124.91911487312,4,1,0,75,0,0
26954,-125,4,1,0,70,0,0
27042,-124.756257461984,4,1,0,70,0,0
27130,-124.513618677043,4,1,0,70,0,0
27218,-124.271767442785,4,1,0,70,0,0
27307,-124.031007751938,4,1,0,70,0,0
27483,-123.552123552124,4,1,0,70,0,0
27571,-123.31398947885,4,1,0,70,0,0
27660,-123.076923076923,4,1,0,70,0,0
27836,-122.605363984674,4,1,0,70,0,0
28013,-122.137404580153,4,1,0,70,0,0
28101,-121.904687600952,4,1,0,70,0,0
28189,-121.673003802281,4,1,0,70,0,0
28365,-121.212121212121,4,1,0,70,0,0
28454,-120.982913583115,4,1,0,70,0,0
28542,-120.754716981132,4,1,0,70,0,0
28630,-120.52723433387,4,1,0,70,0,0
28718,-120.300751879699,4,1,0,70,0,0
28895,-119.850187265918,4,1,0,70,0,0
28983,-119.626096672241,4,1,0,70,0,0
29071,-119.402985074627,4,1,0,70,0,0
29248,-118.959107806691,4,1,0,70,0,0
29424,-118.518518518519,4,1,0,70,0,0
29513,-118.299375497597,4,1,0,70,0,0
29601,-118.081180811808,4,1,0,70,0,0
29689,-117.863650614423,4,1,0,70,0,0
29777,-117.647058823529,4,1,0,70,0,0
29954,-117.216117216117,4,1,0,70,0,0
30042,-117.001759706466,4,1,0,70,0,0
30130,-116.788321167883,4,1,0,70,0,0
30307,-116.363636363636,4,1,0,70,0,0
30395,-116.152382633825,4,1,0,70,0,0
30483,-115.942028985507,4,1,0,70,0,0
30660,-115.523465703971,4,1,0,70,0,0
30836,-115.107913669065,4,1,0,70,0,0
30924,-114.901190721039,4,1,0,70,0,0
31013,-114.695340501792,4,1,0,70,0,0
31101,-114.490095461842,4,1,0,70,0,0
31189,-114.285714285714,4,1,0,70,0,0
31365,-113.879003558719,4,1,0,70,0,0
31454,-113.676667182001,4,1,0,70,0,0
31542,-113.475177304965,4,1,0,70,0,0
31718,-113.074204946996,4,1,0,70,0,0
31895,-112.676056338028,4,1,0,70,0,0
31983,-112.477968377944,4,1,0,70,0,0
32071,-112.280701754386,4,1,0,70,0,0
32160,-112.084000233135,4,1,0,70,0,0
32248,-111.888111888112,4,1,0,70,0,0
32424,-111.498257839721,4,1,0,70,0,0
32601,-111.111111111111,4,1,0,75,0,0
32689,-110.726643598616,4,1,0,75,0,0
32777,-110.344827586207,4,1,0,75,0,0
32865,-109.965635738832,4,1,0,75,0,0
32954,-109.58904109589,4,1,0,75,0,0
33042,-109.215017064846,4,1,0,75,0,0
33130,-108.843537414966,4,1,0,75,0,0
33218,-108.474576271186,4,1,0,75,0,0
33307,-108.108108108108,4,1,0,75,0,0
33395,-107.744107744108,4,1,0,75,0,0
33483,-107.38255033557,4,1,0,75,0,0
33571,-107.023411371237,4,1,0,75,0,0
33660,-106.666666666667,4,1,0,75,0,0
33748,-106.312292358804,4,1,0,75,0,0
33836,-105.960264900662,4,1,0,75,0,0
33924,-105.610561056106,4,1,0,75,0,0
34013,-105.263157894737,4,1,0,80,0,0
34101,-104.918032786885,4,1,0,80,0,0
34189,-104.575163398693,4,1,0,80,0,0
34277,-104.234527687296,4,1,0,80,0,0
34365,-103.896103896104,4,1,0,80,0,0
34454,-103.559870550162,4,1,0,80,0,0
34542,-103.225806451613,4,1,0,80,0,0
34630,-102.893890675241,4,1,0,80,0,0
34718,-102.564102564103,4,1,0,80,0,0
34807,-102.23642172524,4,1,0,80,0,0
34895,-101.910828025478,4,1,0,80,0,0
34983,-101.587301587302,4,1,0,80,0,0
35071,-101.26582278481,4,1,0,80,0,0
35160,-100.946372239748,4,1,0,80,0,0
35248,-100.62893081761,4,1,0,80,0,0
35336,-100.313479623824,4,1,0,80,0,0
35424,-100,4,1,0,85,0,0
35513,-99.2949068663421,4,1,0,85,0,0
35601,-98.5997844608712,4,1,0,85,0,0
35689,-97.9142310501693,4,1,0,85,0,0
35777,-97.2382395211211,4,1,0,85,0,0
35865,-96.5714247085716,4,1,0,85,0,0
35954,-95.9136930224707,4,1,0,85,0,0
36042,-95.2649508813913,4,1,0,85,0,0
36130,-94.6248361807524,4,1,0,85,0,0
36218,-93.9933546698248,4,1,0,85,0,0
36307,-93.3701585238552,4,1,0,85,0,0
36395,-92.7551717964915,4,1,0,85,0,0
36483,-92.1483182471178,4,1,0,85,0,0
36571,-91.5492699861211,4,1,0,85,0,0
36660,-90.9580428739831,4,1,0,85,0,0
36836,-100,4,1,0,75,0,0
36924,-98.3717507810717,4,1,0,75,0,0
37013,-96.7957696376837,4,1,0,75,0,0
37101,-95.2693980403085,4,1,0,75,0,0
37189,-93.7904178081742,4,1,0,75,0,0
37277,-92.3566555438468,4,1,0,75,0,0
37365,-90.9661514950287,4,1,0,75,0,0
37454,-89.6168164163669,4,1,0,75,0,0
37542,-88.3069266187101,4,1,0,75,0,0
37630,-87.0347773563361,4,1,0,75,0,0
37718,-85.7988343370367,4,1,0,75,0,0
37807,-84.5974304376479,4,1,0,75,0,0
37895,-83.3333333333333,4,1,0,75,0,0
38253,-90.9090909090909,4,1,0,90,0,1
48135,-90.9090909090909,4,1,0,85,0,0
48307,-88.9092787501489,4,1,0,85,0,0
48395,-87.9420075225593,4,1,0,85,0,0
48483,-86.9954805847836,4,1,0,85,0,0
48571,-86.0691858543572,4,1,0,85,0,0
48660,-85.1624089720301,4,1,0,85,0,0
48748,-84.274539481779,4,1,0,85,0,0
48836,-83.3333333333333,4,1,0,75,0,0
49101,-88.8278542832347,4,1,0,75,0,0
49365,-95.0980746443807,4,1,0,75,0,0
49547,-90.9090909090909,4,1,0,90,0,1
59429,-100,4,1,0,85,0,0
59601,-98.7780171498393,4,1,0,85,0,0
59777,-97.5855386038632,4,1,0,85,0,0
59954,-96.4215085530699,4,1,0,85,0,0
60130,-95.2380952380952,4,1,0,85,0,0
60218,-93.0674087241389,4,1,0,85,0,0
60307,-90.9934666690932,4,1,0,85,0,0
60395,-89.0100216383363,4,1,0,85,0,0
60483,-86.9565217391304,4,1,0,85,0,0
60841,-90.9090909090909,4,1,0,90,0,1
70723,-90.9090909090909,4,1,0,80,0,0
70807,-76.9230769230769,4,1,0,80,0,0
71777,-95.2380952380952,4,1,0,80,0,0
71954,-93.0232558139535,4,1,0,80,0,0
72135,-90.9090909090909,4,1,0,90,0,1
72307,-90.6515580736544,4,1,0,90,0,1
72395,-90.5232970757354,4,1,0,90,0,1
72483,-90.3954802259887,4,1,0,90,0,1
72660,-90.1408450704225,4,1,0,90,0,1
72748,-90.014024184968,4,1,0,90,0,1
72836,-89.8876404494382,4,1,0,90,0,1
73013,-89.6358543417367,4,1,0,90,0,1
73189,-89.3854748603352,4,1,0,90,0,1
73277,-89.2608487635587,4,1,0,90,0,1
73365,-89.1364902506964,4,1,0,90,0,1
73454,-89.0124777691337,4,1,0,90,0,1
73542,-88.8888888888889,4,1,0,90,0,1
73718,-88.6426592797784,4,1,0,90,0,1
73807,-88.5200161460509,4,1,0,90,0,1
73895,-88.3977900552486,4,1,0,90,0,1
74071,-88.1542699724518,4,1,0,90,0,1
74160,-88.0329736306031,4,1,0,90,0,1
74248,-87.9120879120879,4,1,0,90,0,1
74424,-87.6712328767123,4,1,0,90,0,1
74601,-87.431693989071,4,1,0,90,0,1
74689,-87.3124528512755,4,1,0,90,0,1
74777,-87.1934604904632,4,1,0,90,0,1
74865,-87.0747920218593,4,1,0,90,0,1
74954,-86.9565217391304,4,1,0,90,0,1
75130,-86.7208672086721,4,1,0,90,0,1
75218,-86.603480767099,4,1,0,90,0,1
75307,-86.4864864864865,4,1,0,90,0,1
75395,-86.3697332816267,4,1,0,90,0,1
75483,-86.2533692722372,4,1,0,90,0,1
75571,-86.1372441939191,4,1,0,90,0,1
75660,-86.0215053763441,4,1,0,90,0,1
75836,-85.7908847184987,4,1,0,90,0,1
76013,-85.5614973262032,4,1,0,90,0,1
76101,-85.4472995235459,4,1,0,90,0,1
76189,-85.3333333333333,4,1,0,90,0,1
76365,-85.1063829787234,4,1,0,90,0,1
76454,-84.9933960131298,4,1,0,90,0,1
76542,-84.8806366047745,4,1,0,90,0,1
76630,-84.7681759922963,4,1,0,90,0,1
76718,-84.6560846560847,4,1,0,90,0,1
76895,-84.4327176781003,4,1,0,90,0,1
77071,-84.2105263157895,4,1,0,90,0,1
77160,-84.0998332300307,4,1,0,90,0,1
77248,-83.989501312336,4,1,0,90,0,1
77336,-83.8793881501911,4,1,0,90,0,1
77424,-83.7696335078534,4,1,0,90,0,1
77513,-83.6601657140562,4,1,0,90,0,1
77601,-83.5509138381201,4,1,0,90,0,1
77689,-83.4419469342594,4,1,0,90,0,1
77777,-83.3333333333333,4,1,0,90,0,1
77954,-82.9026540455666,4,1,0,90,0,1
78042,-82.6889794608844,4,1,0,90,0,1
78130,-82.4764035009584,4,1,0,90,0,1
78218,-82.2649853897386,4,1,0,90,0,1
78307,-82.0545810662336,4,1,0,90,0,1
78395,-81.8452502745908,4,1,0,90,0,1
78483,-81.6369848196027,4,1,0,90,0,1
78660,-81.2236175537233,4,1,0,90,0,1
78836,-80.8144153521528,4,1,0,90,0,1
78924,-80.6114215098681,4,1,0,90,0,1
79013,-80.4093802366609,4,1,0,90,0,1
79101,-80.2083492079024,4,1,0,90,0,1
79189,-80.00832086537,4,1,0,90,0,1
79365,-79.6112423812041,4,1,0,90,0,1
79454,-79.4141774954516,4,1,0,90,0,1
79542,-79.2180858058618,4,1,0,90,0,1
79630,-79.0229601210632,4,1,0,90,0,1
79718,-78.8288554601989,4,1,0,90,0,1
79807,-78.6356401884739,4,1,0,90,0,1
79895,-78.4433697702786,4,1,0,90,0,1
80071,-78.061635906479,4,1,0,90,0,1
80248,-77.6835993608194,4,1,0,90,0,1
80336,-77.4959508365688,4,1,0,90,0,1
80424,-77.3092664432944,4,1,0,90,0,1
80601,-76.9230769230769,4,1,0,90,0,1
80689,-76.5568993843294,4,1,0,90,0,1
80777,-76.1942496199812,4,1,0,90,0,1
80865,-75.8349618891399,4,1,0,90,0,1
80954,-75.4791036101655,4,1,0,90,0,1
81042,-75.1265130479728,4,1,0,90,0,1
81130,-74.7772013286413,4,1,0,90,0,1
81218,-74.4311783274272,4,1,0,90,0,1
81307,-74.0882880493369,4,1,0,90,0,1
81395,-73.748542544428,4,1,0,90,0,1
81483,-73.4119526404811,4,1,0,90,0,1
81571,-73.07836778004,4,1,0,90,0,1
81660,-72.7478537564446,4,1,0,90,0,1
81748,-72.4202634794026,4,1,0,90,0,1
81836,-72.0956103145748,4,1,0,90,0,1
81924,-71.7739064527613,4,1,0,90,0,1
82018,-71.4285714285714,4,1,0,90,0,0
82101,-62.5,4,1,0,90,0,0
83424,-90.9090909090909,4,1,0,75,0,0
84130,-100,4,1,0,70,0,0
84836,-111.111111111111,4,1,0,65,0,0

[HitObjects]
256,192,136,12,0,4194,0:0:0:0:
256,192,4371,5,0,0:0:0:0:
256,192,4635,1,8,0:0:0:0:
256,192,4723,1,0,0:0:0:0:
256,192,4900,1,8,0:0:0:0:
256,192,5076,1,0,0:0:0:0:
256,192,5341,1,0,0:0:0:0:
256,192,5429,1,8,0:0:0:0:
256,192,5606,1,0,0:0:0:0:
256,192,5782,1,8,0:0:0:0:
256,192,6047,1,8,0:0:0:0:
256,192,6135,1,8,0:0:0:0:
256,192,6312,1,8,0:0:0:0:
256,192,6488,1,0,0:0:0:0:
256,192,6841,1,0,0:0:0:0:
256,192,7194,1,8,0:0:0:0:
256,192,7459,1,8,0:0:0:0:
256,192,7547,1,0,0:0:0:0:
256,192,7723,1,0,0:0:0:0:
256,192,7900,1,8,0:0:0:0:
256,192,8165,1,0,0:0:0:0:
256,192,8253,1,8,0:0:0:0:
256,192,8429,1,8,0:0:0:0:
256,192,8606,1,0,0:0:0:0:
256,192,8870,1,0,0:0:0:0:
256,192,8959,1,0,0:0:0:0:
256,192,9135,1,8,0:0:0:0:
256,192,9312,1,0,0:0:0:0:
256,192,9665,1,0,0:0:0:0:
256,192,9841,1,8,0:0:0:0:
256,192,10018,1,8,0:0:0:0:
256,192,10282,1,0,0:0:0:0:
256,192,10370,1,0,0:0:0:0:
256,192,10547,1,8,0:0:0:0:
256,192,10723,1,0,0:0:0:0:
256,192,10988,1,8,0:0:0:0:
256,192,11076,1,8,0:0:0:0:
256,192,11253,1,8,0:0:0:0:
256,192,11429,1,0,0:0:0:0:
256,192,11606,1,8,0:0:0:0:
256,192,11782,1,0,0:0:0:0:
256,192,11870,1,8,0:0:0:0:
256,192,12135,1,0,0:0:0:0:
256,192,12488,1,0,0:0:0:0:
256,192,12841,1,8,0:0:0:0:
256,192,13106,1,8,0:0:0:0:
256,192,13194,1,0,0:0:0:0:
256,192,13370,1,0,0:0:0:0:
256,192,13547,1,8,0:0:0:0:
256,192,13812,1,0,0:0:0:0:
256,192,13900,1,0,0:0:0:0:
256,192,14076,1,8,0:0:0:0:
256,192,14253,1,0,0:0:0:0:
256,192,14518,1,8,0:0:0:0:
256,192,14606,1,0,0:0:0:0:
256,192,14782,1,8,0:0:0:0:
256,192,14959,1,0,0:0:0:0:
256,192,15135,1,8,0:0:0:0:
256,192,15312,1,0,0:0:0:0:
256,192,15665,1,8,0:0:0:0:
256,192,16018,1,0,0:0:0:0:
256,192,16194,1,8,0:0:0:0:
256,192,16370,1,0,0:0:0:0:
256,192,16723,1,0,0:0:0:0:
256,192,16900,1,8,0:0:0:0:
256,192,16988,1,8,0:0:0:0:
256,192,17076,1,0,0:0:0:0:
256,192,17253,1,0,0:0:0:0:
256,192,17429,1,8,0:0:0:0:
256,192,17782,1,0,0:0:0:0:
256,192,18135,1,8,0:0:0:0:
256,192,18312,1,0,0:0:0:0:
256,192,18400,1,0,0:0:0:0:
256,192,18488,1,8,0:0:0:0:
256,192,18665,1,0,0:0:0:0:
256,192,18841,1,8,0:0:0:0:
256,192,19194,1,0,0:0:0:0:
256,192,19547,1,8,0:0:0:0:
256,192,19723,1,0,0:0:0:0:
256,192,19812,1,0,0:0:0:0:
256,192,19900,1,8,0:0:0:0:
256,192,20076,1,0,0:0:0:0:
256,192,20253,1,8,0:0:0:0:
256,192,20606,1,0,0:0:0:0:
256,192,20959,1,0,0:0:0:0:
256,192,21312,1,8,0:0:0:0:
256,192,21665,1,0,0:0:0:0:
256,192,21841,1,8,0:0:0:0:
256,192,22018,1,0,0:0:0:0:
256,192,22370,1,0,0:0:0:0:
256,192,22547,1,8,0:0:0:0:
256,192,22635,1,8,0:0:0:0:
256,192,22723,1,0,0:0:0:0:
256,192,22900,1,0,0:0:0:0:
256,192,23076,1,8,0:0:0:0:
256,192,23429,1,0,0:0:0:0:
256,192,23782,1,8,0:0:0:0:
256,192,23959,1,0,0:0:0:0:
256,192,24047,1,0,0:0:0:0:
256,192,24135,1,8,0:0:0:0:
256,192,24312,1,0,0:0:0:0:
256,192,24488,1,8,0:0:0:0:
256,192,24841,1,0,0:0:0:0:
256,192,25194,1,8,0:0:0:0:
256,192,25370,1,0,0:0:0:0:
256,192,25459,1,0,0:0:0:0:
256,192,25547,1,8,0:0:0:0:
256,192,25723,1,0,0:0:0:0:
256,192,25900,1,8,0:0:0:0:
256,192,26253,1,0,0:0:0:0:
256,192,26606,1,0,0:0:0:0:
256,192,26959,1,8,0:0:0:0:
256,192,27047,1,0,0:0:0:0:
256,192,27135,1,0,0:0:0:0:
256,192,27223,1,0,0:0:0:0:
256,192,27312,1,8,0:0:0:0:
256,192,27488,1,0,0:0:0:0:
256,192,27576,1,0,0:0:0:0:
256,192,27665,1,8,0:0:0:0:
256,192,27841,1,0,0:0:0:0:
256,192,28018,1,8,0:0:0:0:
256,192,28106,1,0,0:0:0:0:
256,192,28194,1,8,0:0:0:0:
256,192,28370,1,0,0:0:0:0:
256,192,28459,1,8,0:0:0:0:
256,192,28547,1,0,0:0:0:0:
256,192,28635,1,0,0:0:0:0:
256,192,28723,1,8,0:0:0:0:
256,192,28900,1,0,0:0:0:0:
256,192,28988,1,8,0:0:0:0:
256,192,29076,1,0,0:0:0:0:
256,192,29253,1,8,0:0:0:0:
256,192,29429,1,0,0:0:0:0:
256,192,29518,1,8,0:0:0:0:
256,192,29606,1,8,0:0:0:0:
256,192,29694,1,8,0:0:0:0:
256,192,29782,1,0,0:0:0:0:
256,192,29959,1,8,0:0:0:0:
256,192,30047,1,0,0:0:0:0:
256,192,30135,1,8,0:0:0:0:
256,192,30312,1,0,0:0:0:0:
256,192,30400,1,0,0:0:0:0:
256,192,30488,1,8,0:0:0:0:
256,192,30665,1,0,0:0:0:0:
256,192,30841,1,8,0:0:0:0:
256,192,30929,1,0,0:0:0:0:
256,192,31018,1,8,0:0:0:0:
256,192,31106,1,8,0:0:0:0:
256,192,31194,1,0,0:0:0:0:
256,192,31370,1,8,0:0:0:0:
256,192,31459,1,0,0:0:0:0:
256,192,31547,1,8,0:0:0:0:
256,192,31723,1,0,0:0:0:0:
256,192,31900,1,8,0:0:0:0:
256,192,31988,1,8,0:0:0:0:
256,192,32076,1,0,0:0:0:0:
256,192,32165,1,0,0:0:0:0:
256,192,32253,1,8,0:0:0:0:
256,192,32429,1,0,0:0:0:0:
256,192,32606,1,8,0:0:0:0:
256,192,32694,1,0,0:0:0:0:
256,192,32782,1,8,0:0:0:0:
256,192,32870,1,8,0:0:0:0:
256,192,32959,1,0,0:0:0:0:
256,192,33047,1,8,0:0:0:0:
256,192,33135,1,0,0:0:0:0:
256,192,33223,1,0,0:0:0:0:
256,192,33312,1,8,0:0:0:0:
256,192,33400,1,8,0:0:0:0:
256,192,33488,1,8,0:0:0:0:
256,192,33576,1,8,0:0:0:0:
256,192,33665,1,0,0:0:0:0:
256,192,33753,1,8,0:0:0:0:
256,192,33841,1,0,0:0:0:0:
256,192,33929,1,8,0:0:0:0:
256,192,34018,1,0,0:0:0:0:
256,192,34106,1,0,0:0:0:0:
256,192,34194,1,8,0:0:0:0:
256,192,34282,1,0,0:0:0:0:
256,192,34370,1,8,0:0:0:0:
256,192,34459,1,8,0:0:0:0:
256,192,34547,1,0,0:0:0:0:
256,192,34635,1,8,0:0:0:0:
256,192,34723,1,0,0:0:0:0:
256,192,34812,1,0,0:0:0:0:
256,192,34900,1,0,0:0:0:0:
256,192,34988,1,0,0:0:0:0:
256,192,35076,1,8,0:0:0:0:
256,192,35165,1,8,0:0:0:0:
256,192,35253,1,0,0:0:0:0:
256,192,35341,1,0,0:0:0:0:
256,192,35429,1,8,0:0:0:0:
256,192,35518,1,0,0:0:0:0:
256,192,35606,1,8,0:0:0:0:
256,192,35694,1,0,0:0:0:0:
256,192,35782,1,8,0:0:0:0:
256,192,35870,1,0,0:0:0:0:
256,192,35959,1,0,0:0:0:0:
256,192,36047,1,0,0:0:0:0:
256,192,36135,1,8,0:0:0:0:
256,192,36223,1,0,0:0:0:0:
256,192,36312,1,0,0:0:0:0:
256,192,36400,1,0,0:0:0:0:
256,192,36488,1,8,0:0:0:0:
256,192,36576,1,0,0:0:0:0:
256,192,36665,1,8,0:0:0:0:
256,192,36841,1,8,0:0:0:0:
256,192,36929,1,8,0:0:0:0:
256,192,37018,1,8,0:0:0:0:
256,192,37106,1,8,0:0:0:0:
256,192,37194,1,8,0:0:0:0:
256,192,37282,1,8,0:0:0:0:
256,192,37370,1,8,0:0:0:0:
256,192,37459,1,8,0:0:0:0:
256,192,37547,1,8,0:0:0:0:
256,192,37635,1,8,0:0:0:0:
256,192,37723,1,8,0:0:0:0:
256,192,37812,1,8,0:0:0:0:
256,192,37900,1,0,0:0:0:0:
256,192,38253,1,12,0:0:0:0:
256,192,38429,1,0,0:0:0:0:
256,192,38518,1,8,0:0:0:0:
256,192,38606,1,0,0:0:0:0:
256,192,38782,1,8,0:0:0:0:
256,192,38870,1,8,0:0:0:0:
256,192,38959,1,0,0:0:0:0:
256,192,39135,1,8,0:0:0:0:
256,192,39312,1,0,0:0:0:0:
256,192,39400,1,8,0:0:0:0:
256,192,39488,1,0,0:0:0:0:
256,192,39576,1,0,0:0:0:0:
256,192,39665,1,8,0:0:0:0:
256,192,39841,1,0,0:0:0:0:
256,192,39929,1,0,0:0:0:0:
256,192,40018,1,8,0:0:0:0:
256,192,40194,1,0,0:0:0:0:
256,192,40282,1,8,0:0:0:0:
256,192,40370,1,0,0:0:0:0:
256,192,40547,1,8,0:0:0:0:
256,192,40723,1,0,0:0:0:0:
256,192,40812,1,0,0:0:0:0:
256,192,40900,1,8,0:0:0:0:
256,192,40988,1,8,0:0:0:0:
256,192,41076,1,0,0:0:0:0:
256,192,41253,1,8,0:0:0:0:
256,192,41341,1,8,0:0:0:0:
256,192,41429,1,0,0:0:0:0:
256,192,41518,1,8,0:0:0:0:
256,192,41606,1,0,0:0:0:0:
256,192,41694,1,0,0:0:0:0:
256,192,41782,1,8,0:0:0:0:
256,192,41959,1,0,0:0:0:0:
256,192,42135,1,8,0:0:0:0:
256,192,42223,1,0,0:0:0:0:
256,192,42312,1,8,0:0:0:0:
256,192,42488,1,0,0:0:0:0:
256,192,42576,1,0,0:0:0:0:
256,192,42665,1,8,0:0:0:0:
256,192,42753,1,8,0:0:0:0:
256,192,42841,1,8,0:0:0:0:
256,192,43018,1,0,0:0:0:0:
256,192,43194,1,8,0:0:0:0:
256,192,43282,1,8,0:0:0:0:
256,192,43370,1,0,0:0:0:0:
256,192,43459,1,8,0:0:0:0:
256,192,43547,1,0,0:0:0:0:
256,192,43635,1,0,0:0:0:0:
256,192,43723,1,0,0:0:0:0:
256,192,43812,1,0,0:0:0:0:
256,192,43900,1,8,0:0:0:0:
256,192,44076,1,0,0:0:0:0:
256,192,44165,1,0,0:0:0:0:
256,192,44253,1,8,0:0:0:0:
256,192,44429,1,0,0:0:0:0:
256,192,44518,1,8,0:0:0:0:
256,192,44606,1,0,0:0:0:0:
256,192,44782,1,8,0:0:0:0:
256,192,44959,1,0,0:0:0:0:
256,192,45047,1,0,0:0:0:0:
256,192,45135,1,8,0:0:0:0:
256,192,45223,1,0,0:0:0:0:
256,192,45312,1,8,0:0:0:0:
256,192,45488,1,8,0:0:0:0:
256,192,45576,1,0,0:0:0:0:
256,192,45665,1,8,0:0:0:0:
256,192,45841,1,8,0:0:0:0:
256,192,45929,1,8,0:0:0:0:
256,192,46018,1,0,0:0:0:0:
256,192,46194,1,8,0:0:0:0:
256,192,46370,1,0,0:0:0:0:
256,192,46459,1,0,0:0:0:0:
256,192,46547,1,0,0:0:0:0:
256,192,46723,1,8,0:0:0:0:
256,192,46812,1,0,0:0:0:0:
256,192,46900,1,8,0:0:0:0:
256,192,46988,1,0,0:0:0:0:
256,192,47076,1,8,0:0:0:0:
256,192,47253,1,0,0:0:0:0:
256,192,47429,1,8,0:0:0:0:
256,192,47518,1,0,0:0:0:0:
256,192,47606,1,8,0:0:0:0:
256,192,47694,1,0,0:0:0:0:
256,192,47782,1,8,0:0:0:0:
256,192,47959,1,0,0:0:0:0:
256,192,48135,1,0,0:0:0:0:
256,192,48312,1,8,0:0:0:0:
256,192,48400,1,8,0:0:0:0:
256,192,48488,1,8,0:0:0:0:
256,192,48576,1,8,0:0:0:0:
256,192,48665,1,8,0:0:0:0:
256,192,48753,1,8,0:0:0:0:
256,192,48841,1,0,0:0:0:0:
256,192,49106,1,8,0:0:0:0:
256,192,49370,1,0,0:0:0:0:
256,192,49547,1,12,0:0:0:0:
256,192,49723,1,0,0:0:0:0:
256,192,49812,1,0,0:0:0:0:
256,192,49900,1,8,0:0:0:0:
256,192,50076,1,0,0:0:0:0:
256,192,50165,1,8,0:0:0:0:
256,192,50253,1,0,0:0:0:0:
256,192,50429,1,8,0:0:0:0:
256,192,50606,1,0,0:0:0:0:
256,192,50694,1,0,0:0:0:0:
256,192,50782,1,8,0:0:0:0:
256,192,50870,1,0,0:0:0:0:
256,192,50959,1,8,0:0:0:0:
256,192,51135,1,8,0:0:0:0:
256,192,51223,1,0,0:0:0:0:
256,192,51312,1,8,0:0:0:0:
256,192,51488,1,8,0:0:0:0:
256,192,51576,1,8,0:0:0:0:
256,192,51665,1,0,0:0:0:0:
256,192,51841,1,8,0:0:0:0:
256,192,52018,1,0,0:0:0:0:
256,192,52106,1,0,0:0:0:0:
256,192,52194,1,8,0:0:0:0:
256,192,52282,1,8,0:0:0:0:
256,192,52370,1,0,0:0:0:0:
256,192,52547,1,8,0:0:0:0:
256,192,52635,1,0,0:0:0:0:
256,192,52723,1,8,0:0:0:0:
256,192,52812,1,8,0:0:0:0:
256,192,52900,1,0,0:0:0:0:
256,192,52988,1,0,0:0:0:0:
256,192,53076,1,8,0:0:0:0:
256,192,53253,1,0,0:0:0:0:
256,192,53429,1,8,0:0:0:0:
256,192,53518,1,8,0:0:0:0:
256,192,53606,1,0,0:0:0:0:
256,192,53782,1,0,0:0:0:0:
256,192,53870,1,0,0:0:0:0:
256,192,53959,1,8,0:0:0:0:
256,192,54047,1,8,0:0:0:0:
256,192,54135,1,8,0:0:0:0:
256,192,54312,1,0,0:0:0:0:
256,192,54488,1,8,0:0:0:0:
256,192,54576,1,0,0:0:0:0:
256,192,54665,1,8,0:0:0:0:
256,192,54753,1,8,0:0:0:0:
256,192,54841,1,0,0:0:0:0:
256,192,54929,1,0,0:0:0:0:
256,192,55018,1,0,0:0:0:0:
256,192,55106,1,0,0:0:0:0:
256,192,55194,1,8,0:0:0:0:
256,192,55370,1,0,0:0:0:0:
256,192,55459,1,0,0:0:0:0:
256,192,55547,1,8,0:0:0:0:
256,192,55723,1,8,0:0:0:0:
256,192,55812,1,8,0:0:0:0:
256,192,55900,1,0,0:0:0:0:
256,192,56076,1,8,0:0:0:0:
256,192,56253,1,0,0:0:0:0:
256,192,56341,1,8,0:0:0:0:
256,192,56429,1,0,0:0:0:0:
256,192,56518,1,0,0:0:0:0:
256,192,56606,1,8,0:0:0:0:
256,192,56782,1,8,0:0:0:0:
256,192,56870,1,0,0:0:0:0:
256,192,56959,1,8,0:0:0:0:
256,192,57135,1,0,0:0:0:0:
256,192,57223,1,8,0:0:0:0:
256,192,57312,1,0,0:0:0:0:
256,192,57488,1,8,0:0:0:0:
256,192,57665,1,0,0:0:0:0:
256,192,57753,1,0,0:0:0:0:
256,192,57841,1,0,0:0:0:0:
256,192,58018,1,8,0:0:0:0:
256,192,58106,1,0,0:0:0:0:
256,192,58194,1,8,0:0:0:0:
256,192,58282,1,0,0:0:0:0:
256,192,58370,1,8,0:0:0:0:
256,192,58547,1,0,0:0:0:0:
256,192,58723,1,8,0:0:0:0:
256,192,58812,1,0,0:0:0:0:
256,192,58900,1,8,0:0:0:0:
256,192,58988,1,0,0:0:0:0:
256,192,59076,1,8,0:0:0:0:
256,192,59253,1,0,0:0:0:0:
256,192,59429,1,8,0:0:0:0:
256,192,59606,1,8,0:0:0:0:
256,192,59782,1,8,0:0:0:0:
256,192,59959,1,8,0:0:0:0:
256,192,60135,1,8,0:0:0:0:
256,192,60223,1,8,0:0:0:0:
256,192,60312,1,8,0:0:0:0:
256,192,60400,1,8,0:0:0:0:
256,192,60488,1,0,0:0:0:0:
256,192,60841,1,12,0:0:0:0:
256,192,61018,1,8,0:0:0:0:
256,192,61106,1,0,0:0:0:0:
256,192,61194,1,8,0:0:0:0:
256,192,61370,1,0,0:0:0:0:
256,192,61547,1,8,0:0:0:0:
256,192,61635,1,8,0:0:0:0:
256,192,61723,1,0,0:0:0:0:
256,192,61812,1,8,0:0:0:0:
256,192,61900,1,0,0:0:0:0:
256,192,61988,1,0,0:0:0:0:
256,192,62076,1,8,0:0:0:0:
256,192,62165,1,8,0:0:0:0:
256,192,62253,1,0,0:0:0:0:
256,192,62429,1,8,0:0:0:0:
256,192,62518,1,0,0:0:0:0:
256,192,62606,1,8,0:0:0:0:
256,192,62782,1,8,0:0:0:0:
256,192,62959,1,0,0:0:0:0:
256,192,63047,1,8,0:0:0:0:
256,192,63135,1,0,0:0:0:0:
256,192,63312,1,8,0:0:0:0:
256,192,63400,1,8,0:0:0:0:
256,192,63488,1,8,0:0:0:0:
256,192,63576,1,8,0:0:0:0:
256,192,63665,1,0,0:0:0:0:
256,192,63841,1,8,0:0:0:0:
256,192,64018,1,0,0:0:0:0:
256,192,64106,1,0,0:0:0:0:
256,192,64194,1,8,0:0:0:0:
256,192,64370,1,8,0:0:0:0:
256,192,64459,1,8,0:0:0:0:
256,192,64547,1,0,0:0:0:0:
256,192,64635,1,0,0:0:0:0:
256,192,64723,1,8,0:0:0:0:
256,192,64900,1,8,0:0:0:0:
256,192,64988,1,8,0:0:0:0:
256,192,65076,1,0,0:0:0:0:
256,192,65253,1,8,0:0:0:0:
256,192,65429,1,0,0:0:0:0:
256,192,65518,1,0,0:0:0:0:
256,192,65606,1,0,0:0:0:0:
256,192,65782,1,8,0:0:0:0:
256,192,65870,1,8,0:0:0:0:
256,192,65959,1,8,0:0:0:0:
256,192,66047,1,8,0:0:0:0:
256,192,66135,1,0,0:0:0:0:
256,192,66223,1,8,0:0:0:0:
256,192,66312,1,0,0:0:0:0:
256,192,66400,1,0,0:0:0:0:
256,192,66488,1,8,0:0:0:0:
256,192,66665,1,8,0:0:0:0:
256,192,66753,1,0,0:0:0:0:
256,192,66841,1,8,0:0:0:0:
256,192,67018,1,0,0:0:0:0:
256,192,67194,1,8,0:0:0:0:
256,192,67282,1,8,0:0:0:0:
256,192,67370,1,0,0:0:0:0:
256,192,67459,1,8,0:0:0:0:
256,192,67547,1,0,0:0:0:0:
256,192,67635,1,0,0:0:0:0:
256,192,67723,1,8,0:0:0:0:
256,192,67812,1,8,0:0:0:0:
256,192,67900,1,0,0:0:0:0:
256,192,68076,1,8,0:0:0:0:
256,192,68165,1,0,0:0:0:0:
256,192,68253,1,8,0:0:0:0:
256,192,68429,1,8,0:0:0:0:
256,192,68606,1,0,0:0:0:0:
256,192,68694,1,0,0:0:0:0:
256,192,68782,1,8,0:0:0:0:
256,192,68959,1,8,0:0:0:0:
256,192,69047,1,8,0:0:0:0:
256,192,69135,1,8,0:0:0:0:
256,192,69223,1,8,0:0:0:0:
256,192,69312,1,0,0:0:0:0:
256,192,69488,1,8,0:0:0:0:
256,192,69665,1,0,0:0:0:0:
256,192,69753,1,8,0:0:0:0:
256,192,69841,1,0,0:0:0:0:
256,192,70018,1,8,0:0:0:0:
256,192,70194,1,0,0:0:0:0:
256,192,70282,1,0,0:0:0:0:
256,192,70370,1,8,0:0:0:0:
256,192,70459,1,8,0:0:0:0:
256,192,70547,1,8,0:0:0:0:
256,192,70723,1,0,0:0:0:0:
256,192,70812,12,0,71606,0:0:0:0:
256,192,71782,5,0,0:0:0:0:
256,192,72135,1,12,0:0:0:0:
256,192,72312,1,0,0:0:0:0:
256,192,72400,1,8,0:0:0:0:
256,192,72488,1,0,0:0:0:0:
256,192,72665,1,8,0:0:0:0:
256,192,72753,1,8,0:0:0:0:
256,192,72841,1,0,0:0:0:0:
256,192,73018,1,8,0:0:0:0:
256,192,73194,1,0,0:0:0:0:
256,192,73282,1,8,0:0:0:0:
256,192,73370,1,0,0:0:0:0:
256,192,73459,1,0,0:0:0:0:
256,192,73547,1,8,0:0:0:0:
256,192,73723,1,0,0:0:0:0:
256,192,73812,1,0,0:0:0:0:
256,192,73900,1,8,0:0:0:0:
256,192,74076,1,8,0:0:0:0:
256,192,74165,1,8,0:0:0:0:
256,192,74253,1,0,0:0:0:0:
256,192,74429,1,8,0:0:0:0:
256,192,74606,1,0,0:0:0:0:
256,192,74694,1,0,0:0:0:0:
256,192,74782,1,8,0:0:0:0:
256,192,74870,1,8,0:0:0:0:
256,192,74959,1,0,0:0:0:0:
256,192,75135,1,8,0:0:0:0:
256,192,75223,1,8,0:0:0:0:
256,192,75312,1,0,0:0:0:0:
256,192,75400,1,8,0:0:0:0:
256,192,75488,1,0,0:0:0:0:
256,192,75576,1,0,0:0:0:0:
256,192,75665,1,8,0:0:0:0:
256,192,75841,1,0,0:0:0:0:
256,192,76018,1,8,0:0:0:0:
256,192,76106,1,0,0:0:0:0:
256,192,76194,1,8,0:0:0:0:
256,192,76370,1,0,0:0:0:0:
256,192,76459,1,0,0:0:0:0:
256,192,76547,1,8,0:0:0:0:
256,192,76635,1,8,0:0:0:0:
256,192,76723,1,8,0:0:0:0:
256,192,76900,1,0,0:0:0:0:
256,192,77076,1,8,0:0:0:0:
256,192,77165,1,8,0:0:0:0:
256,192,77253,1,0,0:0:0:0:
256,192,77341,1,8,0:0:0:0:
256,192,77429,1,0,0:0:0:0:
256,192,77518,1,0,0:0:0:0:
256,192,77606,1,0,0:0:0:0:
256,192,77694,1,0,0:0:0:0:
256,192,77782,1,8,0:0:0:0:
256,192,77959,1,8,0:0:0:0:
256,192,78047,1,0,0:0:0:0:
256,192,78135,1,8,0:0:0:0:
256,192,78223,1,8,0:0:0:0:
256,192,78312,1,0,0:0:0:0:
256,192,78400,1,8,0:0:0:0:
256,192,78488,1,0,0:0:0:0:
256,192,78665,1,8,0:0:0:0:
256,192,78841,1,0,0:0:0:0:
256,192,78929,1,0,0:0:0:0:
256,192,79018,1,8,0:0:0:0:
256,192,79106,1,0,0:0:0:0:
256,192,79194,1,8,0:0:0:0:
256,192,79370,1,8,0:0:0:0:
256,192,79459,1,0,0:0:0:0:
256,192,79547,1,8,0:0:0:0:
256,192,79635,1,8,0:0:0:0:
256,192,79723,1,0,0:0:0:0:
256,192,79812,1,8,0:0:0:0:
256,192,79900,1,0,0:0:0:0:
256,192,80076,1,8,0:0:0:0:
256,192,80253,1,0,0:0:0:0:
256,192,80341,1,0,0:0:0:0:
256,192,80429,1,0,0:0:0:0:
256,192,80606,1,8,0:0:0:0:
256,192,80694,1,0,0:0:0:0:
256,192,80782,1,8,0:0:0:0:
256,192,80870,1,0,0:0:0:0:
256,192,80959,1,8,0:0:0:0:
256,192,81047,1,8,0:0:0:0:
256,192,81135,1,0,0:0:0:0:
256,192,81223,1,0,0:0:0:0:
256,192,81312,1,8,0:0:0:0:
256,192,81400,1,0,0:0:0:0:
256,192,81488,1,8,0:0:0:0:
256,192,81576,1,0,0:0:0:0:
256,192,81665,1,8,0:0:0:0:
256,192,81753,1,8,0:0:0:0:
256,192,81841,1,0,0:0:0:0:
256,192,81929,1,0,0:0:0:0:
256,192,82018,1,0,0:0:0:0:
256,192,82106,12,0,83253,0:0:0:0:
256,192,83429,5,12,0:0:0:0:
256,192,83606,12,0,84841,0:0:0:0:
