osu file format v14

[General]
AudioFilename: audio.mp3
AudioLeadIn: 0
PreviewTime: 37900
Countdown: 0
SampleSet: Normal
StackLeniency: 0.7
Mode: 1
LetterboxInBreaks: 0
WidescreenStoryboard: 1

[Editor]
Bookmarks: 136,4371,15665,26959,32606,35429,36841,38253,49547,59429,60841,72135,77782,80606,82018,84841
DistanceSpacing: 2
BeatDivisor: 4
GridSize: 16
TimelineZoom: 2.2

[Metadata]
Title:The Pressure (Cut Ver.)
TitleUnicode:The Pressure (Cut Ver.)
Artist:Stonebank
ArtistUnicode:Stonebank
Creator:MicSup08
Version:Oni
Source:
Tags:featured artist fa mappers' guild mg mpg version instrumental dubstep english single monstercat release electronic electro hard dance hardcore bass upbeat happy core rave 022 contact mcs341
BeatmapID:4465937
BeatmapSetID:2124862

[Difficulty]
HPDrainRate:5
CircleSize:5
OverallDifficulty:6
ApproachRate:5
SliderMultiplier:1.4
SliderTickRate:1

[Events]
//Background and Video events
0,0,"bg.jpg",0,0
//Break Periods
//Storyboard Layer 0 (Background)
//Storyboard Layer 1 (Fail)
//Storyboard Layer 2 (Pass)
//Storyboard Layer 3 (Foreground)
//Storyboard Layer 4 (Overlay)
//Storyboard Sound Samples

[TimingPoints]
136,352.941176470588,4,1,0,60,1,0
136,-133.333333333333,4,1,0,60,0,0
1542,-125,4,1,0,65,0,0
2954,-117.647058823529,4,1,0,70,0,0
4371,352.941176470588,4,1,0,75,1,0
4371,-111.111111111111,4,1,0,75,0,0
14248,-111.111111111111,4,1,0,75,0,0
14513,-112.2745246858,4,1,0,75,0,0
14601,-112.667804611493,4,1,0,75,0,0
14777,-113.462688362246,4,1,0,75,0,0
14954,-114.268737216185,4,1,0,75,0,0
15130,-115.086452943451,4,1,0,75,0,0
15307,-115.915956295048,4,1,0,75,0,0
15660,-117.611221992358,4,1,0,75,0,0
32601,-117.647058823529,4,1,0,75,0,0
32777,-116.788321167883,4,1,0,75,0,0
32954,-115.942028985507,4,1,0,75,0,0
33042,-115.523465703971,4,1,0,75,0,0
33130,-115.107913669065,4,1,0,75,0,0
33218,-114.695340501792,4,1,0,75,0,0
33307,-114.285714285714,4,1,0,75,0,0
33483,-113.475177304965,4,1,0,75,0,0
33660,-112.676056338028,4,1,0,75,0,0
33748,-112.280701754386,4,1,0,75,0,0
33836,-111.888111888112,4,1,0,75,0,0
34013,-111.111111111111,4,1,0,80,0,0
34189,-110.344827586207,4,1,0,80,0,0
34365,-109.58904109589,4,1,0,80,0,0
34454,-109.215017064846,4,1,0,80,0,0
34542,-108.843537414966,4,1,0,80,0,0
34630,-108.474576271186,4,1,0,80,0,0
34718,-108.108108108108,4,1,0,80,0,0
34895,-107.38255033557,4,1,0,80,0,0
35071,-106.666666666667,4,1,0,80,0,0
35160,-106.312292358804,4,1,0,80,0,0
35248,-105.960264900662,4,1,0,80,0,0
35424,-105.263157894737,4,1,0,85,0,0
35513,-104.918032786885,4,1,0,85,0,0
35601,-104.575163398693,4,1,0,85,0,0
35689,-104.234527687296,4,1,0,85,0,0
35777,-103.896103896104,4,1,0,85,0,0
35954,-103.225806451613,4,1,0,85,0,0
36130,-102.564102564103,4,1,0,85,0,0
36218,-102.23642172524,4,1,0,85,0,0
36307,-101.910828025478,4,1,0,85,0,0
36395,-101.587301587302,4,1,0,85,0,0
36483,-101.26582278481,4,1,0,85,0,0
36660,-100.62893081761,4,1,0,85,0,0
36836,-100,4,1,0,85,0,0
37895,-105.263157894737,4,1,0,85,0,0
38253,-95.2380952380952,4,1,0,90,0,1
48135,-95.2380952380952,4,1,0,85,0,0
48836,-95.2380952380952,4,1,0,75,0,0
49101,-96.9515523397803,4,1,0,75,0,0
49365,-98.7276961793369,4,1,0,75,0,0
49547,-95.2380952380952,4,1,0,90,0,1
59429,-105.263157894737,4,1,0,85,0,0
60130,-105.263157894737,4,1,0,85,0,0
60218,-103.910030539158,4,1,0,85,0,0
60307,-102.591249787123,4,1,0,85,0,0
60395,-101.305524291545,4,1,0,85,0,0
60483,-100.051526536166,4,1,0,85,0,0
60841,-95.2380952380952,4,1,0,90,0,1
70723,-95.2380952380954,4,1,0,80,0,0
70807,-90.9090909090909,4,1,0,80,0,0
71777,-100,4,1,0,80,0,0
72135,-95.2380952380952,4,1,0,90,0,1
77777,-95.2380952380952,4,1,0,90,0,1
78130,-94.1195958881031,4,1,0,90,0,1
78306,-93.5700530916481,4,1,0,90,0,1
78395,-93.2977682240863,4,1,0,90,0,1
78483,-93.0269768930292,4,1,0,90,0,1
78659,-92.4901682951102,4,1,0,90,0,1
78836,-91.9595194195515,4,1,0,90,0,1
78924,-91.6964297995058,4,1,0,90,0,1
79012,-91.4349248496353,4,1,0,90,0,1
79100,-91.1748240781769,4,1,0,90,0,1
79189,-90.9162815604507,4,1,0,90,0,1
79365,-90.4034071236077,4,1,0,90,0,1
79542,-89.8963674675834,4,1,0,90,0,1
79718,-89.3949836898852,4,1,0,90,0,1
79806,-89.1464229997771,4,1,0,90,0,1
79895,-88.8991616809054,4,1,0,90,0,1
80071,-88.4088094074046,4,1,0,90,0,1
80247,-87.9238368555622,4,1,0,90,0,1
80336,-87.6833019427112,4,1,0,90,0,1
80424,-87.4440795111526,4,1,0,90,0,1
80600,-86.9696049927511,4,1,0,90,0,1
80777,-86.5002517157325,4,1,0,90,0,1
80865,-86.267506912184,4,1,0,90,0,1
80953,-86.035937210973,4,1,0,90,0,1
81042,-85.8056073964434,4,1,0,90,0,1
81130,-85.5765807706,4,1,0,90,0,1
81306,-85.1221034012239,4,1,0,90,0,1
81483,-84.6723560845132,4,1,0,90,0,1
81571,-84.4493312457459,4,1,0,90,0,1
81659,-84.2274072614132,4,1,0,90,0,1
81748,-84.0067171771055,4,1,0,90,0,1
81836,-83.7871103585167,4,1,0,90,0,1
82018,-83.3513928017737,4,1,0,90,0,0
82101,-80,4,1,0,90,0,0
83424,-100,4,1,0,75,0,0
84130,-105.263157894737,4,1,0,70,0,0
84836,-111.111111111111,4,1,0,65,0,0

[HitObjects]
256,192,136,12,0,4194,0:0:0:0:
256,192,4371,5,0,0:0:0:0:
256,192,4635,1,0,0:0:0:0:
256,192,4900,1,8,0:0:0:0:
256,192,5076,1,0,0:0:0:0:
256,192,5341,1,8,0:0:0:0:
256,192,5606,1,0,0:0:0:0:
256,192,5782,1,8,0:0:0:0:
256,192,6047,1,0,0:0:0:0:
256,192,6135,1,8,0:0:0:0:
256,192,6312,1,8,0:0:0:0:
256,192,6488,1,0,0:0:0:0:
256,192,6841,1,0,0:0:0:0:
256,192,7194,1,8,0:0:0:0:
256,192,7459,1,8,0:0:0:0:
256,192,7723,1,0,0:0:0:0:
256,192,7900,1,8,0:0:0:0:
256,192,8165,1,0,0:0:0:0:
256,192,8429,1,8,0:0:0:0:
256,192,8606,1,0,0:0:0:0:
256,192,8870,1,8,0:0:0:0:
256,192,8959,1,0,0:0:0:0:
256,192,9135,1,0,0:0:0:0:
256,192,9312,1,8,0:0:0:0:
256,192,9665,1,0,0:0:0:0:
256,192,9841,1,8,0:0:0:0:
256,192,10018,1,8,0:0:0:0:
256,192,10282,1,0,0:0:0:0:
256,192,10547,1,8,0:0:0:0:
256,192,10723,1,0,0:0:0:0:
256,192,10988,1,0,0:0:0:0:
256,192,11253,1,8,0:0:0:0:
256,192,11429,1,0,0:0:0:0:
256,192,11606,1,8,0:0:0:0:
256,192,11782,1,0,0:0:0:0:
256,192,11870,1,8,0:0:0:0:
256,192,12135,1,0,0:0:0:0:
256,192,12488,1,0,0:0:0:0:
256,192,12841,1,8,0:0:0:0:
256,192,13106,1,8,0:0:0:0:
256,192,13370,1,0,0:0:0:0:
256,192,13547,1,8,0:0:0:0:
256,192,13812,1,0,0:0:0:0:
256,192,14076,1,8,0:0:0:0:
256,192,14253,1,0,0:0:0:0:
256,192,14518,1,8,0:0:0:0:
256,192,14606,1,0,0:0:0:0:
256,192,14782,1,8,0:0:0:0:
256,192,14959,1,0,0:0:0:0:
256,192,15135,1,8,0:0:0:0:
256,192,15312,1,0,0:0:0:0:
256,192,15665,1,8,0:0:0:0:
256,192,16018,1,0,0:0:0:0:
256,192,16194,1,8,0:0:0:0:
256,192,16370,1,0,0:0:0:0:
256,192,16723,1,0,0:0:0:0:
256,192,16900,1,8,0:0:0:0:
256,192,17076,1,0,0:0:0:0:
256,192,17253,1,0,0:0:0:0:
256,192,17429,1,8,0:0:0:0:
256,192,17782,1,0,0:0:0:0:
256,192,18135,1,8,0:0:0:0:
256,192,18312,1,0,0:0:0:0:
256,192,18488,1,8,0:0:0:0:
256,192,18665,1,8,0:0:0:0:
256,192,18841,1,0,0:0:0:0:
256,192,19194,1,0,0:0:0:0:
256,192,19547,1,8,0:0:0:0:
256,192,19723,1,0,0:0:0:0:
256,192,19900,1,8,0:0:0:0:
256,192,20076,1,8,0:0:0:0:
256,192,20253,1,0,0:0:0:0:
256,192,20606,1,8,0:0:0:0:
256,192,20959,1,0,0:0:0:0:
256,192,21312,1,8,0:0:0:0:
256,192,21665,1,0,0:0:0:0:
256,192,21841,1,8,0:0:0:0:
256,192,22018,1,0,0:0:0:0:
256,192,22370,1,0,0:0:0:0:
256,192,22547,1,8,0:0:0:0:
256,192,22723,1,0,0:0:0:0:
256,192,22900,1,0,0:0:0:0:
256,192,23076,1,8,0:0:0:0:
256,192,23429,1,0,0:0:0:0:
256,192,23782,1,8,0:0:0:0:
256,192,23959,1,0,0:0:0:0:
256,192,24135,1,8,0:0:0:0:
256,192,24312,1,8,0:0:0:0:
256,192,24488,1,0,0:0:0:0:
256,192,24841,1,0,0:0:0:0:
256,192,25194,1,8,0:0:0:0:
256,192,25370,1,0,0:0:0:0:
256,192,25547,1,8,0:0:0:0:
256,192,25723,1,8,0:0:0:0:
256,192,25900,1,0,0:0:0:0:
256,192,26253,1,8,0:0:0:0:
256,192,26606,1,0,0:0:0:0:
256,192,26959,1,8,0:0:0:0:
256,192,27135,1,0,0:0:0:0:
256,192,27223,1,0,0:0:0:0:
256,192,27312,1,8,0:0:0:0:
256,192,27488,1,0,0:0:0:0:
256,192,27665,1,8,0:0:0:0:
256,192,27841,1,0,0:0:0:0:
256,192,28018,1,8,0:0:0:0:
256,192,28106,1,0,0:0:0:0:
256,192,28194,1,8,0:0:0:0:
256,192,28370,1,8,0:0:0:0:
256,192,28547,1,0,0:0:0:0:
256,192,28635,1,0,0:0:0:0:
256,192,28723,1,8,0:0:0:0:
256,192,28900,1,0,0:0:0:0:
256,192,29076,1,8,0:0:0:0:
256,192,29429,1,0,0:0:0:0:
256,192,29606,1,8,0:0:0:0:
256,192,29694,1,8,0:0:0:0:
256,192,29782,1,0,0:0:0:0:
256,192,29959,1,0,0:0:0:0:
256,192,30135,1,8,0:0:0:0:
256,192,30312,1,0,0:0:0:0:
256,192,30400,1,8,0:0:0:0:
256,192,30488,1,0,0:0:0:0:
256,192,30665,1,8,0:0:0:0:
256,192,30841,1,0,0:0:0:0:
256,192,31018,1,8,0:0:0:0:
256,192,31106,1,8,0:0:0:0:
256,192,31194,1,0,0:0:0:0:
256,192,31370,1,0,0:0:0:0:
256,192,31547,1,8,0:0:0:0:
256,192,31900,1,8,0:0:0:0:
256,192,32076,1,0,0:0:0:0:
256,192,32165,1,0,0:0:0:0:
256,192,32253,1,8,0:0:0:0:
256,192,32606,1,8,0:0:0:0:
256,192,32782,1,0,0:0:0:0:
256,192,32959,1,8,0:0:0:0:
256,192,33047,1,8,0:0:0:0:
256,192,33135,1,0,0:0:0:0:
256,192,33223,1,0,0:0:0:0:
256,192,33312,1,8,0:0:0:0:
256,192,33488,1,0,0:0:0:0:
256,192,33665,1,8,0:0:0:0:
256,192,33753,1,0,0:0:0:0:
256,192,33841,1,8,0:0:0:0:
256,192,34018,1,8,0:0:0:0:
256,192,34194,1,0,0:0:0:0:
256,192,34370,1,8,0:0:0:0:
256,192,34459,1,0,0:0:0:0:
256,192,34547,1,8,0:0:0:0:
256,192,34635,1,8,0:0:0:0:
256,192,34723,1,0,0:0:0:0:
256,192,34900,1,8,0:0:0:0:
256,192,35076,1,0,0:0:0:0:
256,192,35165,1,0,0:0:0:0:
256,192,35253,1,8,0:0:0:0:
256,192,35429,1,8,0:0:0:0:
256,192,35518,1,0,0:0:0:0:
256,192,35606,1,8,0:0:0:0:
256,192,35694,1,0,0:0:0:0:
256,192,35782,1,8,0:0:0:0:
256,192,35959,1,0,0:0:0:0:
256,192,36135,1,8,0:0:0:0:
256,192,36223,1,0,0:0:0:0:
256,192,36312,1,0,0:0:0:0:
256,192,36400,1,0,0:0:0:0:
256,192,36488,1,8,0:0:0:0:
256,192,36665,1,0,0:0:0:0:
256,192,36841,12,0,37723,0:0:0:0:
256,192,37900,5,0,0:0:0:0:
256,192,38253,1,12,0:0:0:0:
256,192,38606,1,0,0:0:0:0:
256,192,38782,1,8,0:0:0:0:
256,192,38870,1,8,0:0:0:0:
256,192,38959,1,0,0:0:0:0:
256,192,39135,1,8,0:0:0:0:
256,192,39312,1,0,0:0:0:0:
256,192,39400,1,0,0:0:0:0:
256,192,39488,1,8,0:0:0:0:
256,192,39576,1,0,0:0:0:0:
256,192,39665,1,8,0:0:0:0:
256,192,39841,1,0,0:0:0:0:
256,192,40018,1,8,0:0:0:0:
256,192,40194,1,8,0:0:0:0:
256,192,40282,1,8,0:0:0:0:
256,192,40370,1,0,0:0:0:0:
256,192,40547,1,0,0:0:0:0:
256,192,40723,1,8,0:0:0:0:
256,192,40812,1,0,0:0:0:0:
256,192,40900,1,8,0:0:0:0:
256,192,40988,1,8,0:0:0:0:
256,192,41076,1,0,0:0:0:0:
256,192,41253,1,0,0:0:0:0:
256,192,41429,1,8,0:0:0:0:
256,192,41606,1,0,0:0:0:0:
256,192,41694,1,0,0:0:0:0:
256,192,41782,1,8,0:0:0:0:
256,192,41959,1,0,0:0:0:0:
256,192,42135,1,8,0:0:0:0:
256,192,42223,1,8,0:0:0:0:
256,192,42312,1,0,0:0:0:0:
256,192,42488,1,0,0:0:0:0:
256,192,42576,1,8,0:0:0:0:
256,192,42665,1,0,0:0:0:0:
256,192,42841,1,8,0:0:0:0:
256,192,43018,1,0,0:0:0:0:
256,192,43194,1,8,0:0:0:0:
256,192,43282,1,0,0:0:0:0:
256,192,43370,1,0,0:0:0:0:
256,192,43459,1,0,0:0:0:0:
256,192,43547,1,8,0:0:0:0:
256,192,43723,1,0,0:0:0:0:
256,192,43900,1,8,0:0:0:0:
256,192,44253,1,0,0:0:0:0:
256,192,44429,1,8,0:0:0:0:
256,192,44518,1,8,0:0:0:0:
256,192,44606,1,0,0:0:0:0:
256,192,44782,1,8,0:0:0:0:
256,192,44959,1,0,0:0:0:0:
256,192,45047,1,8,0:0:0:0:
256,192,45135,1,0,0:0:0:0:
256,192,45223,1,0,0:0:0:0:
256,192,45312,1,8,0:0:0:0:
256,192,45488,1,0,0:0:0:0:
256,192,45665,1,8,0:0:0:0:
256,192,45841,1,8,0:0:0:0:
256,192,45929,1,8,0:0:0:0:
256,192,46018,1,0,0:0:0:0:
256,192,46194,1,8,0:0:0:0:
256,192,46370,1,0,0:0:0:0:
256,192,46459,1,0,0:0:0:0:
256,192,46547,1,0,0:0:0:0:
256,192,46723,1,8,0:0:0:0:
256,192,46900,1,8,0:0:0:0:
256,192,46988,1,0,0:0:0:0:
256,192,47076,1,8,0:0:0:0:
256,192,47253,1,0,0:0:0:0:
256,192,47429,1,8,0:0:0:0:
256,192,47606,1,8,0:0:0:0:
256,192,47694,1,0,0:0:0:0:
256,192,47782,1,8,0:0:0:0:
256,192,47959,1,0,0:0:0:0:
256,192,48135,1,0,0:0:0:0:
256,192,48312,1,8,0:0:0:0:
256,192,48400,1,8,0:0:0:0:
256,192,48488,1,8,0:0:0:0:
256,192,48576,1,8,0:0:0:0:
256,192,48665,1,8,0:0:0:0:
256,192,48841,1,0,0:0:0:0:
256,192,49106,1,8,0:0:0:0:
256,192,49370,1,0,0:0:0:0:
256,192,49547,1,12,0:0:0:0:
256,192,49900,1,0,0:0:0:0:
256,192,50076,1,8,0:0:0:0:
256,192,50165,1,8,0:0:0:0:
256,192,50253,1,0,0:0:0:0:
256,192,50429,1,8,0:0:0:0:
256,192,50606,1,0,0:0:0:0:
256,192,50694,1,8,0:0:0:0:
256,192,50782,1,0,0:0:0:0:
256,192,50870,1,0,0:0:0:0:
256,192,50959,1,8,0:0:0:0:
256,192,51135,1,0,0:0:0:0:
256,192,51312,1,8,0:0:0:0:
256,192,51488,1,0,0:0:0:0:
256,192,51576,1,8,0:0:0:0:
256,192,51665,1,0,0:0:0:0:
256,192,51841,1,0,0:0:0:0:
256,192,52018,1,8,0:0:0:0:
256,192,52106,1,8,0:0:0:0:
256,192,52194,1,0,0:0:0:0:
256,192,52282,1,8,0:0:0:0:
256,192,52370,1,0,0:0:0:0:
256,192,52547,1,0,0:0:0:0:
256,192,52723,1,8,0:0:0:0:
256,192,52900,1,0,0:0:0:0:
256,192,52988,1,0,0:0:0:0:
256,192,53076,1,8,0:0:0:0:
256,192,53253,1,0,0:0:0:0:
256,192,53429,1,8,0:0:0:0:
256,192,53518,1,0,0:0:0:0:
256,192,53606,1,8,0:0:0:0:
256,192,53782,1,0,0:0:0:0:
256,192,53870,1,8,0:0:0:0:
256,192,53959,1,0,0:0:0:0:
256,192,54135,1,8,0:0:0:0:
256,192,54312,1,0,0:0:0:0:
256,192,54488,1,8,0:0:0:0:
256,192,54576,1,0,0:0:0:0:
256,192,54665,1,0,0:0:0:0:
256,192,54753,1,0,0:0:0:0:
256,192,54841,1,8,0:0:0:0:
256,192,55018,1,0,0:0:0:0:
256,192,55194,1,8,0:0:0:0:
256,192,55547,1,0,0:0:0:0:
256,192,55723,1,8,0:0:0:0:
256,192,55812,1,8,0:0:0:0:
256,192,55900,1,0,0:0:0:0:
256,192,56076,1,8,0:0:0:0:
256,192,56253,1,0,0:0:0:0:
256,192,56341,1,0,0:0:0:0:
256,192,56429,1,8,0:0:0:0:
256,192,56518,1,0,0:0:0:0:
256,192,56606,1,8,0:0:0:0:
256,192,56782,1,0,0:0:0:0:
256,192,56959,1,8,0:0:0:0:
256,192,57135,1,0,0:0:0:0:
256,192,57223,1,8,0:0:0:0:
256,192,57312,1,0,0:0:0:0:
256,192,57488,1,8,0:0:0:0:
256,192,57665,1,0,0:0:0:0:
256,192,57753,1,0,0:0:0:0:
256,192,57841,1,0,0:0:0:0:
256,192,58018,1,8,0:0:0:0:
256,192,58194,1,8,0:0:0:0:
256,192,58282,1,0,0:0:0:0:
256,192,58370,1,8,0:0:0:0:
256,192,58547,1,0,0:0:0:0:
256,192,58723,1,8,0:0:0:0:
256,192,58900,1,8,0:0:0:0:
256,192,58988,1,0,0:0:0:0:
256,192,59076,1,8,0:0:0:0:
256,192,59429,1,8,0:0:0:0:
256,192,59606,1,8,0:0:0:0:
256,192,59782,1,8,0:0:0:0:
256,192,59959,1,8,0:0:0:0:
256,192,60135,1,8,0:0:0:0:
256,192,60223,1,8,0:0:0:0:
256,192,60312,1,8,0:0:0:0:
256,192,60400,1,8,0:0:0:0:
256,192,60488,1,0,0:0:0:0:
256,192,60841,1,12,0:0:0:0:
256,192,61194,1,8,0:0:0:0:
256,192,61370,1,0,0:0:0:0:
256,192,61547,1,8,0:0:0:0:
256,192,61723,1,8,0:0:0:0:
256,192,61812,1,8,0:0:0:0:
256,192,61900,1,0,0:0:0:0:
256,192,61988,1,0,0:0:0:0:
256,192,62076,1,0,0:0:0:0:
256,192,62253,1,8,0:0:0:0:
256,192,62429,1,8,0:0:0:0:
256,192,62518,1,8,0:0:0:0:
256,192,62606,1,0,0:0:0:0:
256,192,62782,1,8,0:0:0:0:
256,192,62959,1,0,0:0:0:0:
256,192,63047,1,8,0:0:0:0:
256,192,63135,1,0,0:0:0:0:
256,192,63312,1,8,0:0:0:0:
256,192,63400,1,8,0:0:0:0:
256,192,63488,1,8,0:0:0:0:
256,192,63576,1,8,0:0:0:0:
256,192,63665,1,0,0:0:0:0:
256,192,63841,1,8,0:0:0:0:
256,192,64018,1,0,0:0:0:0:
256,192,64106,1,0,0:0:0:0:
256,192,64194,1,8,0:0:0:0:
256,192,64370,1,0,0:0:0:0:
256,192,64547,1,8,0:0:0:0:
256,192,64635,1,8,0:0:0:0:
256,192,64723,1,0,0:0:0:0:
256,192,64812,1,0,0:0:0:0:
256,192,64900,1,8,0:0:0:0:
256,192,65076,1,0,0:0:0:0:
256,192,65253,1,8,0:0:0:0:
256,192,65429,1,0,0:0:0:0:
256,192,65518,1,0,0:0:0:0:
256,192,65606,1,0,0:0:0:0:
256,192,65782,1,8,0:0:0:0:
256,192,65870,1,0,0:0:0:0:
256,192,65959,1,8,0:0:0:0:
256,192,66047,1,8,0:0:0:0:
256,192,66135,1,0,0:0:0:0:
256,192,66312,1,8,0:0:0:0:
256,192,66488,1,0,0:0:0:0:
256,192,66841,1,8,0:0:0:0:
256,192,67018,1,0,0:0:0:0:
256,192,67194,1,8,0:0:0:0:
256,192,67370,1,8,0:0:0:0:
256,192,67459,1,8,0:0:0:0:
256,192,67547,1,0,0:0:0:0:
256,192,67635,1,0,0:0:0:0:
256,192,67723,1,0,0:0:0:0:
256,192,67900,1,8,0:0:0:0:
256,192,68076,1,8,0:0:0:0:
256,192,68165,1,8,0:0:0:0:
256,192,68253,1,0,0:0:0:0:
256,192,68429,1,8,0:0:0:0:
256,192,68606,1,0,0:0:0:0:
256,192,68694,1,8,0:0:0:0:
256,192,68782,1,0,0:0:0:0:
256,192,68959,1,8,0:0:0:0:
256,192,69047,1,8,0:0:0:0:
256,192,69135,1,8,0:0:0:0:
256,192,69223,1,8,0:0:0:0:
256,192,69312,1,0,0:0:0:0:
256,192,69488,1,8,0:0:0:0:
256,192,69665,1,0,0:0:0:0:
256,192,69753,1,0,0:0:0:0:
256,192,69841,1,8,0:0:0:0:
256,192,70018,1,0,0:0:0:0:
256,192,70194,1,8,0:0:0:0:
256,192,70282,1,8,0:0:0:0:
256,192,70370,1,0,0:0:0:0:
256,192,70547,1,8,0:0:0:0:
256,192,70723,1,0,0:0:0:0:
256,192,70812,12,0,71606,0:0:0:0:
256,192,71782,5,0,0:0:0:0:
256,192,72135,1,12,0:0:0:0:
256,192,72488,1,0,0:0:0:0:
256,192,72665,1,8,0:0:0:0:
256,192,72753,1,8,0:0:0:0:
256,192,72841,1,0,0:0:0:0:
256,192,73018,1,8,0:0:0:0:
256,192,73194,1,0,0:0:0:0:
256,192,73282,1,8,0:0:0:0:
256,192,73370,1,0,0:0:0:0:
256,192,73459,1,0,0:0:0:0:
256,192,73547,1,8,0:0:0:0:
256,192,73723,1,0,0:0:0:0:
256,192,73900,1,8,0:0:0:0:
256,192,74076,1,8,0:0:0:0:
256,192,74165,1,8,0:0:0:0:
256,192,74253,1,0,0:0:0:0:
256,192,74429,1,0,0:0:0:0:
256,192,74606,1,8,0:0:0:0:
256,192,74694,1,8,0:0:0:0:
256,192,74782,1,0,0:0:0:0:
256,192,74870,1,8,0:0:0:0:
256,192,74959,1,0,0:0:0:0:
256,192,75135,1,0,0:0:0:0:
256,192,75312,1,8,0:0:0:0:
256,192,75488,1,0,0:0:0:0:
256,192,75576,1,0,0:0:0:0:
256,192,75665,1,8,0:0:0:0:
256,192,75841,1,0,0:0:0:0:
256,192,76018,1,8,0:0:0:0:
256,192,76106,1,8,0:0:0:0:
256,192,76194,1,0,0:0:0:0:
256,192,76370,1,0,0:0:0:0:
256,192,76459,1,8,0:0:0:0:
256,192,76547,1,0,0:0:0:0:
256,192,76723,1,8,0:0:0:0:
256,192,76900,1,0,0:0:0:0:
256,192,77076,1,8,0:0:0:0:
256,192,77165,1,0,0:0:0:0:
256,192,77253,1,0,0:0:0:0:
256,192,77341,1,0,0:0:0:0:
256,192,77429,1,8,0:0:0:0:
256,192,77606,1,0,0:0:0:0:
256,192,77782,1,8,0:0:0:0:
256,192,78135,1,0,0:0:0:0:
256,192,78312,1,8,0:0:0:0:
256,192,78400,1,8,0:0:0:0:
256,192,78488,1,0,0:0:0:0:
256,192,78665,1,8,0:0:0:0:
256,192,78841,1,0,0:0:0:0:
256,192,78929,1,0,0:0:0:0:
256,192,79018,1,8,0:0:0:0:
256,192,79106,1,0,0:0:0:0:
256,192,79194,1,8,0:0:0:0:
256,192,79370,1,0,0:0:0:0:
256,192,79547,1,8,0:0:0:0:
256,192,79723,1,8,0:0:0:0:
256,192,79812,1,8,0:0:0:0:
256,192,79900,1,0,0:0:0:0:
256,192,80076,1,8,0:0:0:0:
256,192,80253,1,0,0:0:0:0:
256,192,80341,1,0,0:0:0:0:
256,192,80429,1,8,0:0:0:0:
256,192,80606,1,0,0:0:0:0:
256,192,80782,1,8,0:0:0:0:
256,192,80870,1,0,0:0:0:0:
256,192,80959,1,8,0:0:0:0:
256,192,81047,1,0,0:0:0:0:
256,192,81135,1,8,0:0:0:0:
256,192,81312,1,0,0:0:0:0:
256,192,81488,1,8,0:0:0:0:
256,192,81576,1,0,0:0:0:0:
256,192,81665,1,8,0:0:0:0:
256,192,81753,1,0,0:0:0:0:
256,192,81841,1,8,0:0:0:0:
256,192,82018,1,0,0:0:0:0:
256,192,82106,12,0,83253,0:0:0:0:
256,192,83429,5,12,0:0:0:0:
256,192,83606,12,0,84841,0:0:0:0:
