osu file format v14

[General]
AudioFilename: audio.mp3
AudioLeadIn: 0
PreviewTime: 37900
Countdown: 0
SampleSet: Normal
StackLeniency: 0.7
Mode: 1
LetterboxInBreaks: 0
WidescreenStoryboard: 1

[Editor]
Bookmarks: 136,4371,15665,26959,32606,35429,36841,38253,49547,59429,60841,72135,77782,80606,82018,84841
DistanceSpacing: 2
BeatDivisor: 4
GridSize: 16
TimelineZoom: 2.2

[Metadata]
Title:The Pressure (Cut Ver.)
TitleUnicode:The Pressure (Cut Ver.)
Artist:Stonebank
ArtistUnicode:Stonebank
Creator:MicSup08
Version:Muzukashii
Source:
Tags:featured artist fa mappers' guild mg mpg version instrumental dubstep english single monstercat release electronic electro hard dance hardcore bass upbeat happy core rave 022 contact mcs341
BeatmapID:4465936
BeatmapSetID:2124862

[Difficulty]
HPDrainRate:6
CircleSize:5
OverallDifficulty:5
ApproachRate:5
SliderMultiplier:1.4
SliderTickRate:1

[Events]
//Background and Video events
0,0,"bg.jpg",0,0
//Break Periods
//Storyboard Layer 0 (Background)
//Storyboard Layer 1 (Fail)
//Storyboard Layer 2 (Pass)
//Storyboard Layer 3 (Foreground)
//Storyboard Layer 4 (Overlay)
//Storyboard Sound Samples

[TimingPoints]
136,352.941176470588,4,1,0,60,1,0
136,-125,4,1,0,60,0,0
1542,-120.004800192008,4,1,0,65,0,0
2954,-115.393491807062,4,1,0,70,0,0
4371,352.941176470588,4,1,0,75,1,0
4371,-111.111111111111,4,1,0,75,0,0
14248,-111.111111111111,4,1,0,70,0,0
15660,-117.647058823529,4,1,0,70,0,0
26954,-111.111111111111,4,1,0,70,0,0
32601,-105.263157894737,4,1,0,75,0,0
34013,-105.263157894737,4,1,0,80,0,0
35424,-105.263157894737,4,1,0,85,0,0
38253,-100,4,1,0,90,0,1
48135,-100,4,1,0,85,0,0
48836,-100,4,1,0,75,0,0
49101,-101.890787340681,4,1,0,75,0,0
49365,-103.854346356322,4,1,0,75,0,0
49547,-100,4,1,0,90,0,1
59429,-105.263157894737,4,1,0,85,0,0
60841,-100,4,1,0,90,0,1
70723,-100,4,1,0,80,0,0
71777,-105.263157894737,4,1,0,80,0,0
72135,-100,4,1,0,90,0,1
82018,-100,4,1,0,90,0,0
83424,-100,4,1,0,75,0,0
84130,-105.263157894737,4,1,0,70,0,0
84836,-111.111111111111,4,1,0,65,0,0

[HitObjects]
256,192,136,12,0,4194,0:0:0:0:
256,192,4371,5,0,0:0:0:0:
256,192,4635,1,0,0:0:0:0:
256,192,4900,1,8,0:0:0:0:
256,192,5076,1,0,0:0:0:0:
256,192,5341,1,8,0:0:0:0:
256,192,5606,1,0,0:0:0:0:
256,192,5782,1,8,0:0:0:0:
256,192,6047,1,8,0:0:0:0:
256,192,6312,1,8,0:0:0:0:
256,192,6488,1,0,0:0:0:0:
256,192,7194,1,8,0:0:0:0:
256,192,7459,1,0,0:0:0:0:
256,192,7723,1,8,0:0:0:0:
256,192,7900,1,8,0:0:0:0:
256,192,8165,1,0,0:0:0:0:
256,192,8429,1,8,0:0:0:0:
256,192,8606,1,0,0:0:0:0:
256,192,8870,1,0,0:0:0:0:
256,192,9135,1,8,0:0:0:0:
256,192,9312,1,0,0:0:0:0:
256,192,9841,1,8,0:0:0:0:
256,192,10018,1,8,0:0:0:0:
256,192,10282,1,0,0:0:0:0:
256,192,10547,1,8,0:0:0:0:
256,192,10723,1,0,0:0:0:0:
256,192,10988,1,0,0:0:0:0:
256,192,11253,1,8,0:0:0:0:
256,192,11429,1,0,0:0:0:0:
256,192,11606,1,8,0:0:0:0:
256,192,11870,1,8,0:0:0:0:
256,192,12135,1,0,0:0:0:0:
256,192,12841,1,8,0:0:0:0:
256,192,13106,1,0,0:0:0:0:
256,192,13370,1,8,0:0:0:0:
256,192,13547,1,8,0:0:0:0:
256,192,13812,1,0,0:0:0:0:
256,192,14076,1,8,0:0:0:0:
256,192,14253,1,0,0:0:0:0:
256,192,14518,1,0,0:0:0:0:
256,192,14782,1,8,0:0:0:0:
256,192,15135,1,0,0:0:0:0:
256,192,15665,1,8,0:0:0:0:
256,192,16018,1,8,0:0:0:0:
256,192,16370,1,0,0:0:0:0:
256,192,16723,1,0,0:0:0:0:
256,192,16900,1,0,0:0:0:0:
256,192,17076,1,8,0:0:0:0:
256,192,17429,1,0,0:0:0:0:
256,192,17782,1,0,0:0:0:0:
256,192,18135,1,8,0:0:0:0:
256,192,18312,1,0,0:0:0:0:
256,192,18488,1,8,0:0:0:0:
256,192,18665,1,8,0:0:0:0:
256,192,18841,1,0,0:0:0:0:
256,192,19194,1,0,0:0:0:0:
256,192,19547,1,8,0:0:0:0:
256,192,19723,1,0,0:0:0:0:
256,192,19900,1,8,0:0:0:0:
256,192,20076,1,8,0:0:0:0:
256,192,20253,1,0,0:0:0:0:
256,192,20606,1,8,0:0:0:0:
256,192,20959,1,0,0:0:0:0:
256,192,21312,1,8,0:0:0:0:
256,192,21665,1,8,0:0:0:0:
256,192,22018,1,0,0:0:0:0:
256,192,22370,1,0,0:0:0:0:
256,192,22547,1,0,0:0:0:0:
256,192,22723,1,8,0:0:0:0:
256,192,23076,1,0,0:0:0:0:
256,192,23429,1,0,0:0:0:0:
256,192,23782,1,8,0:0:0:0:
256,192,23959,1,0,0:0:0:0:
256,192,24135,1,8,0:0:0:0:
256,192,24312,1,8,0:0:0:0:
256,192,24488,1,0,0:0:0:0:
256,192,24841,1,0,0:0:0:0:
256,192,25194,1,8,0:0:0:0:
256,192,25370,1,0,0:0:0:0:
256,192,25547,1,8,0:0:0:0:
256,192,25723,1,8,0:0:0:0:
256,192,25900,1,0,0:0:0:0:
256,192,26253,1,8,0:0:0:0:
256,192,26606,1,0,0:0:0:0:
256,192,26959,1,8,0:0:0:0:
256,192,27312,1,8,0:0:0:0:
256,192,27488,1,0,0:0:0:0:
256,192,27665,1,8,0:0:0:0:
256,192,28018,1,0,0:0:0:0:
256,192,28194,1,0,0:0:0:0:
256,192,28370,1,8,0:0:0:0:
256,192,28723,1,0,0:0:0:0:
256,192,28900,1,8,0:0:0:0:
256,192,29076,1,0,0:0:0:0:
256,192,29429,1,0,0:0:0:0:
256,192,29606,1,8,0:0:0:0:
256,192,29694,1,8,0:0:0:0:
256,192,29782,1,8,0:0:0:0:
256,192,29959,1,0,0:0:0:0:
256,192,30135,1,8,0:0:0:0:
256,192,30488,1,0,0:0:0:0:
256,192,30841,1,0,0:0:0:0:
256,192,31018,1,8,0:0:0:0:
256,192,31106,1,8,0:0:0:0:
256,192,31194,1,8,0:0:0:0:
256,192,31370,1,0,0:0:0:0:
256,192,31547,1,8,0:0:0:0:
256,192,31900,1,0,0:0:0:0:
256,192,32253,1,0,0:0:0:0:
256,192,32606,1,8,0:0:0:0:
256,192,32782,1,0,0:0:0:0:
256,192,32959,1,8,0:0:0:0:
256,192,33135,1,0,0:0:0:0:
256,192,33223,1,0,0:0:0:0:
256,192,33312,1,0,0:0:0:0:
256,192,33665,1,0,0:0:0:0:
256,192,33841,1,8,0:0:0:0:
256,192,33929,1,8,0:0:0:0:
256,192,34018,1,8,0:0:0:0:
256,192,34194,1,0,0:0:0:0:
256,192,34370,1,8,0:0:0:0:
256,192,34547,1,0,0:0:0:0:
256,192,34635,1,0,0:0:0:0:
256,192,34723,1,0,0:0:0:0:
256,192,35076,1,0,0:0:0:0:
256,192,35253,1,0,0:0:0:0:
256,192,35429,1,8,0:0:0:0:
256,192,35518,1,8,0:0:0:0:
256,192,35606,1,8,0:0:0:0:
256,192,35782,1,0,0:0:0:0:
256,192,35959,1,8,0:0:0:0:
256,192,36135,1,0,0:0:0:0:
256,192,36223,1,0,0:0:0:0:
256,192,36312,1,0,0:0:0:0:
256,192,36488,1,8,0:0:0:0:
256,192,36576,1,8,0:0:0:0:
256,192,36665,1,8,0:0:0:0:
256,192,36841,12,0,37723,0:0:0:0:
256,192,37900,5,0,0:0:0:0:
256,192,38253,1,12,0:0:0:0:
256,192,38606,1,0,0:0:0:0:
256,192,38959,1,0,0:0:0:0:
256,192,39312,1,8,0:0:0:0:
256,192,39488,1,0,0:0:0:0:
256,192,39576,1,0,0:0:0:0:
256,192,39665,1,0,0:0:0:0:
256,192,39841,1,8,0:0:0:0:
256,192,40018,1,0,0:0:0:0:
256,192,40370,1,0,0:0:0:0:
256,192,40723,1,8,0:0:0:0:
256,192,40900,1,8,0:0:0:0:
256,192,40988,1,8,0:0:0:0:
256,192,41076,1,8,0:0:0:0:
256,192,41253,1,0,0:0:0:0:
256,192,41429,1,8,0:0:0:0:
256,192,41606,1,0,0:0:0:0:
256,192,41782,1,8,0:0:0:0:
256,192,42135,1,0,0:0:0:0:
256,192,42312,1,8,0:0:0:0:
256,192,42400,1,8,0:0:0:0:
256,192,42488,1,8,0:0:0:0:
256,192,42665,1,0,0:0:0:0:
256,192,42841,1,8,0:0:0:0:
256,192,43194,1,0,0:0:0:0:
256,192,43370,1,0,0:0:0:0:
256,192,43547,1,8,0:0:0:0:
256,192,43723,1,0,0:0:0:0:
256,192,43900,1,8,0:0:0:0:
256,192,44253,1,0,0:0:0:0:
256,192,44606,1,0,0:0:0:0:
256,192,44959,1,8,0:0:0:0:
256,192,45135,1,0,0:0:0:0:
256,192,45223,1,0,0:0:0:0:
256,192,45312,1,0,0:0:0:0:
256,192,45488,1,8,0:0:0:0:
256,192,45665,1,0,0:0:0:0:
256,192,46018,1,0,0:0:0:0:
256,192,46370,1,8,0:0:0:0:
256,192,46547,1,8,0:0:0:0:
256,192,46723,1,0,0:0:0:0:
256,192,46812,1,0,0:0:0:0:
256,192,46900,1,0,0:0:0:0:
256,192,47076,1,8,0:0:0:0:
256,192,47429,1,0,0:0:0:0:
256,192,47518,1,0,0:0:0:0:
256,192,47606,1,0,0:0:0:0:
256,192,47782,1,8,0:0:0:0:
256,192,48135,1,0,0:0:0:0:
256,192,48312,1,8,0:0:0:0:
256,192,48488,1,8,0:0:0:0:
256,192,48576,1,8,0:0:0:0:
256,192,48665,1,8,0:0:0:0:
256,192,48841,1,0,0:0:0:0:
256,192,49106,1,8,0:0:0:0:
256,192,49370,1,0,0:0:0:0:
256,192,49547,1,12,0:0:0:0:
256,192,49900,1,0,0:0:0:0:
256,192,50253,1,0,0:0:0:0:
256,192,50606,1,8,0:0:0:0:
256,192,50782,1,0,0:0:0:0:
256,192,50870,1,0,0:0:0:0:
256,192,50959,1,0,0:0:0:0:
256,192,51135,1,0,0:0:0:0:
256,192,51312,1,8,0:0:0:0:
256,192,51665,1,0,0:0:0:0:
256,192,52018,1,8,0:0:0:0:
256,192,52194,1,8,0:0:0:0:
256,192,52282,1,8,0:0:0:0:
256,192,52370,1,8,0:0:0:0:
256,192,52547,1,0,0:0:0:0:
256,192,52723,1,8,0:0:0:0:
256,192,52900,1,0,0:0:0:0:
256,192,53076,1,8,0:0:0:0:
256,192,53429,1,0,0:0:0:0:
256,192,53606,1,8,0:0:0:0:
256,192,53694,1,8,0:0:0:0:
256,192,53782,1,8,0:0:0:0:
256,192,53959,1,0,0:0:0:0:
256,192,54135,1,8,0:0:0:0:
256,192,54488,1,0,0:0:0:0:
256,192,54665,1,8,0:0:0:0:
256,192,54841,1,0,0:0:0:0:
256,192,55018,1,0,0:0:0:0:
256,192,55194,1,8,0:0:0:0:
256,192,55547,1,0,0:0:0:0:
256,192,55900,1,0,0:0:0:0:
256,192,56253,1,8,0:0:0:0:
256,192,56429,1,0,0:0:0:0:
256,192,56518,1,0,0:0:0:0:
256,192,56606,1,0,0:0:0:0:
256,192,56782,1,0,0:0:0:0:
256,192,56959,1,8,0:0:0:0:
256,192,57312,1,0,0:0:0:0:
256,192,57665,1,8,0:0:0:0:
256,192,57841,1,8,0:0:0:0:
256,192,58018,1,0,0:0:0:0:
256,192,58106,1,0,0:0:0:0:
256,192,58194,1,0,0:0:0:0:
256,192,58370,1,8,0:0:0:0:
256,192,58723,1,0,0:0:0:0:
256,192,58812,1,0,0:0:0:0:
256,192,58900,1,0,0:0:0:0:
256,192,59076,1,8,0:0:0:0:
256,192,59429,1,8,0:0:0:0:
256,192,59606,1,8,0:0:0:0:
256,192,59782,1,8,0:0:0:0:
256,192,59959,1,8,0:0:0:0:
256,192,60135,1,8,0:0:0:0:
256,192,60223,1,8,0:0:0:0:
256,192,60312,1,8,0:0:0:0:
256,192,60488,1,0,0:0:0:0:
256,192,60841,1,12,0:0:0:0:
256,192,61194,1,8,0:0:0:0:
256,192,61547,1,0,0:0:0:0:
256,192,61723,1,0,0:0:0:0:
256,192,61812,1,0,0:0:0:0:
256,192,61900,1,0,0:0:0:0:
256,192,62076,1,8,0:0:0:0:
256,192,62253,1,0,0:0:0:0:
256,192,62606,1,8,0:0:0:0:
256,192,62782,1,8,0:0:0:0:
256,192,62959,1,0,0:0:0:0:
256,192,63047,1,0,0:0:0:0:
256,192,63135,1,0,0:0:0:0:
256,192,63312,1,8,0:0:0:0:
256,192,63488,1,0,0:0:0:0:
256,192,63665,1,8,0:0:0:0:
256,192,64018,1,0,0:0:0:0:
256,192,64194,1,0,0:0:0:0:
256,192,64370,1,8,0:0:0:0:
256,192,64459,1,8,0:0:0:0:
256,192,64547,1,8,0:0:0:0:
256,192,64723,1,0,0:0:0:0:
256,192,64900,1,8,0:0:0:0:
256,192,65076,1,0,0:0:0:0:
256,192,65429,1,8,0:0:0:0:
256,192,65606,1,0,0:0:0:0:
256,192,65782,1,8,0:0:0:0:
256,192,65870,1,8,0:0:0:0:
256,192,65959,1,8,0:0:0:0:
256,192,66135,1,8,0:0:0:0:
256,192,66488,1,0,0:0:0:0:
256,192,66841,1,0,0:0:0:0:
256,192,67194,1,8,0:0:0:0:
256,192,67370,1,0,0:0:0:0:
256,192,67459,1,0,0:0:0:0:
256,192,67547,1,0,0:0:0:0:
256,192,67723,1,0,0:0:0:0:
256,192,67900,1,8,0:0:0:0:
256,192,68253,1,8,0:0:0:0:
256,192,68429,1,8,0:0:0:0:
256,192,68606,1,0,0:0:0:0:
256,192,68694,1,0,0:0:0:0:
256,192,68782,1,0,0:0:0:0:
256,192,68959,1,8,0:0:0:0:
256,192,69135,1,0,0:0:0:0:
256,192,69312,1,8,0:0:0:0:
256,192,69665,1,0,0:0:0:0:
256,192,69841,1,0,0:0:0:0:
256,192,70018,1,8,0:0:0:0:
256,192,70106,1,8,0:0:0:0:
256,192,70194,1,8,0:0:0:0:
256,192,70370,1,0,0:0:0:0:
256,192,70547,1,8,0:0:0:0:
256,192,70723,1,0,0:0:0:0:
256,192,70900,12,0,71606,0:0:0:0:
256,192,71782,5,0,0:0:0:0:
256,192,72135,1,12,0:0:0:0:
256,192,72488,1,0,0:0:0:0:
256,192,72841,1,0,0:0:0:0:
256,192,73194,1,8,0:0:0:0:
256,192,73370,1,0,0:0:0:0:
256,192,73459,1,0,0:0:0:0:
256,192,73547,1,0,0:0:0:0:
256,192,73723,1,8,0:0:0:0:
256,192,73900,1,0,0:0:0:0:
256,192,74253,1,0,0:0:0:0:
256,192,74606,1,8,0:0:0:0:
256,192,74782,1,8,0:0:0:0:
256,192,74870,1,8,0:0:0:0:
256,192,74959,1,8,0:0:0:0:
256,192,75135,1,0,0:0:0:0:
256,192,75312,1,8,0:0:0:0:
256,192,75488,1,0,0:0:0:0:
256,192,75665,1,8,0:0:0:0:
256,192,76018,1,0,0:0:0:0:
256,192,76194,1,8,0:0:0:0:
256,192,76282,1,8,0:0:0:0:
256,192,76370,1,8,0:0:0:0:
256,192,76547,1,0,0:0:0:0:
256,192,76723,1,8,0:0:0:0:
256,192,77076,1,0,0:0:0:0:
256,192,77253,1,0,0:0:0:0:
256,192,77429,1,8,0:0:0:0:
256,192,77606,1,0,0:0:0:0:
256,192,77782,1,8,0:0:0:0:
256,192,78135,1,0,0:0:0:0:
256,192,78488,1,0,0:0:0:0:
256,192,78841,1,8,0:0:0:0:
256,192,79018,1,0,0:0:0:0:
256,192,79106,1,0,0:0:0:0:
256,192,79194,1,0,0:0:0:0:
256,192,79370,1,8,0:0:0:0:
256,192,79547,1,0,0:0:0:0:
256,192,79723,1,0,0:0:0:0:
256,192,79900,1,8,0:0:0:0:
256,192,80253,1,0,0:0:0:0:
256,192,80429,1,8,0:0:0:0:
256,192,80606,1,0,0:0:0:0:
256,192,80694,1,0,0:0:0:0:
256,192,80782,1,0,0:0:0:0:
256,192,80959,1,8,0:0:0:0:
256,192,81135,1,8,0:0:0:0:
256,192,81312,1,0,0:0:0:0:
256,192,81400,1,0,0:0:0:0:
256,192,81488,1,0,0:0:0:0:
256,192,81665,1,8,0:0:0:0:
256,192,81753,1,8,0:0:0:0:
256,192,81841,1,8,0:0:0:0:
256,192,82018,1,0,0:0:0:0:
256,192,82194,12,0,83253,0:0:0:0:
256,192,83429,5,12,0:0:0:0:
256,192,83606,12,0,84841,0:0:0:0:
