osu file format v14

[General]
AudioFilename: audio.mp3
AudioLeadIn: 0
PreviewTime: 37900
Countdown: 0
SampleSet: Normal
StackLeniency: 0.7
Mode: 1
LetterboxInBreaks: 0
WidescreenStoryboard: 1

[Editor]
Bookmarks: 136,4371,15665,26959,32606,35429,36841,38253,49547,59429,60841,72135,77782,80606,82018,84841
DistanceSpacing: 2
BeatDivisor: 4
GridSize: 16
TimelineZoom: 2.2

[Metadata]
Title:The Pressure (Cut Ver.)
TitleUnicode:The Pressure (Cut Ver.)
Artist:Stonebank
ArtistUnicode:Stonebank
Creator:MicSup08
Version:Kantan
Source:
Tags:featured artist fa mappers' guild mg mpg version instrumental dubstep english single monstercat release electronic electro hard dance hardcore bass upbeat happy core rave 022 contact mcs341
BeatmapID:4465935
BeatmapSetID:2124862

[Difficulty]
HPDrainRate:8
CircleSize:5
OverallDifficulty:3
ApproachRate:5
SliderMultiplier:1.4
SliderTickRate:1

[Events]
//Background and Video events
0,0,"bg.jpg",0,0
//Break Periods
//Storyboard Layer 0 (Background)
//Storyboard Layer 1 (Fail)
//Storyboard Layer 2 (Pass)
//Storyboard Layer 3 (Foreground)
//Storyboard Layer 4 (Overlay)
//Storyboard Sound Samples

[TimingPoints]
136,352.941176470588,4,1,0,60,1,0
136,-100,4,1,0,60,0,0
1542,-100,4,1,0,65,0,0
2954,-100,4,1,0,70,0,0
4371,352.941176470588,4,1,0,75,1,0
4371,-100,4,1,0,75,0,0
14248,-100,4,1,0,70,0,0
32601,-100,4,1,0,75,0,0
34013,-100,4,1,0,80,0,0
35424,-100,4,1,0,85,0,0
38253,-100,4,1,0,90,0,1
48135,-100,4,1,0,85,0,0
48836,-100,4,1,0,75,0,0
49547,-100,4,1,0,90,0,1
59429,-100,4,1,0,85,0,0
60841,-100,4,1,0,90,0,1
70723,-100,4,1,0,80,0,0
72135,-100,4,1,0,90,0,1
82018,-100,4,1,0,90,0,0
83424,-100,4,1,0,75,0,0
84130,-100,4,1,0,70,0,0
84836,-100,4,1,0,65,0,0

[HitObjects]
256,192,136,12,0,4018,0:0:0:0:
256,192,4371,5,0,0:0:0:0:
256,192,4723,1,8,0:0:0:0:
256,192,5076,1,0,0:0:0:0:
256,192,5782,1,8,0:0:0:0:
256,192,6488,1,0,0:0:0:0:
256,192,7194,1,8,0:0:0:0:
256,192,7547,1,8,0:0:0:0:
256,192,7900,1,0,0:0:0:0:
256,192,8606,1,8,0:0:0:0:
256,192,9312,1,0,0:0:0:0:
256,192,10018,1,0,0:0:0:0:
256,192,10370,1,0,0:0:0:0:
256,192,10723,1,8,0:0:0:0:
256,192,11429,1,0,0:0:0:0:
256,192,12135,1,8,0:0:0:0:
256,192,12841,1,8,0:0:0:0:
256,192,13194,1,0,0:0:0:0:
256,192,13547,1,8,0:0:0:0:
256,192,14253,1,0,0:0:0:0:
256,192,14959,1,0,0:0:0:0:
256,192,15665,1,8,0:0:0:0:
256,192,16723,1,0,0:0:0:0:
256,192,17076,1,8,0:0:0:0:
256,192,17782,1,0,0:0:0:0:
256,192,18488,1,8,0:0:0:0:
256,192,19194,1,0,0:0:0:0:
256,192,19900,1,8,0:0:0:0:
256,192,20606,1,0,0:0:0:0:
256,192,20959,1,0,0:0:0:0:
256,192,21312,1,8,0:0:0:0:
256,192,22370,1,0,0:0:0:0:
256,192,22723,1,8,0:0:0:0:
256,192,23429,1,0,0:0:0:0:
256,192,24135,1,8,0:0:0:0:
256,192,24841,1,0,0:0:0:0:
256,192,25547,1,8,0:0:0:0:
256,192,26253,1,0,0:0:0:0:
256,192,26606,1,0,0:0:0:0:
256,192,26959,1,8,0:0:0:0:
256,192,28018,1,0,0:0:0:0:
256,192,28370,1,8,0:0:0:0:
256,192,29076,1,0,0:0:0:0:
256,192,29782,1,8,0:0:0:0:
256,192,30135,1,8,0:0:0:0:
256,192,30488,1,0,0:0:0:0:
256,192,31194,1,8,0:0:0:0:
256,192,31900,1,0,0:0:0:0:
256,192,32253,1,0,0:0:0:0:
256,192,32606,1,8,0:0:0:0:
256,192,33312,1,0,0:0:0:0:
256,192,34018,1,8,0:0:0:0:
256,192,34370,1,0,0:0:0:0:
256,192,34723,1,0,0:0:0:0:
256,192,35429,1,8,0:0:0:0:
256,192,35782,1,8,0:0:0:0:
256,192,36135,1,0,0:0:0:0:
256,192,36488,1,0,0:0:0:0:
256,192,36841,12,0,37547,0:0:0:0:
256,192,37900,5,0,0:0:0:0:
256,192,38253,1,12,0:0:0:0:
256,192,39312,1,0,0:0:0:0:
256,192,39665,1,8,0:0:0:0:
256,192,40018,1,0,0:0:0:0:
256,192,40370,1,0,0:0:0:0:
256,192,41076,1,8,0:0:0:0:
256,192,41429,1,8,0:0:0:0:
256,192,41782,1,0,0:0:0:0:
256,192,42488,1,8,0:0:0:0:
256,192,43194,1,0,0:0:0:0:
256,192,43547,1,0,0:0:0:0:
256,192,43900,1,8,0:0:0:0:
256,192,44959,1,0,0:0:0:0:
256,192,45312,1,8,0:0:0:0:
256,192,45665,1,8,0:0:0:0:
256,192,46018,1,0,0:0:0:0:
256,192,46723,1,8,0:0:0:0:
256,192,47429,1,8,0:0:0:0:
256,192,48135,1,0,0:0:0:0:
256,192,48488,1,0,0:0:0:0:
256,192,49547,5,12,0:0:0:0:
256,192,50606,1,0,0:0:0:0:
256,192,50959,1,8,0:0:0:0:
256,192,51312,1,8,0:0:0:0:
256,192,51665,1,0,0:0:0:0:
256,192,52370,1,8,0:0:0:0:
256,192,52723,1,0,0:0:0:0:
256,192,53076,1,8,0:0:0:0:
256,192,53782,1,8,0:0:0:0:
256,192,54488,1,0,0:0:0:0:
256,192,54841,1,0,0:0:0:0:
256,192,55194,1,8,0:0:0:0:
256,192,56253,1,0,0:0:0:0:
256,192,56606,1,8,0:0:0:0:
256,192,56959,1,0,0:0:0:0:
256,192,57312,1,0,0:0:0:0:
256,192,58018,1,8,0:0:0:0:
256,192,58723,1,8,0:0:0:0:
256,192,59429,1,0,0:0:0:0:
256,192,60488,1,0,0:0:0:0:
256,192,60841,1,12,0:0:0:0:
256,192,61547,1,8,0:0:0:0:
256,192,61900,1,0,0:0:0:0:
256,192,62253,1,8,0:0:0:0:
256,192,62959,1,0,0:0:0:0:
256,192,63665,1,8,0:0:0:0:
256,192,64370,1,0,0:0:0:0:
256,192,64723,1,8,0:0:0:0:
256,192,65076,1,0,0:0:0:0:
256,192,66135,1,8,0:0:0:0:
256,192,66488,1,0,0:0:0:0:
256,192,67194,1,8,0:0:0:0:
256,192,67547,1,0,0:0:0:0:
256,192,67900,1,8,0:0:0:0:
256,192,68606,1,0,0:0:0:0:
256,192,69312,1,8,0:0:0:0:
256,192,70018,1,0,0:0:0:0:
256,192,70370,1,8,0:0:0:0:
256,192,70723,1,0,0:0:0:0:
256,192,70900,12,0,71429,0:0:0:0:
256,192,71782,5,0,0:0:0:0:
256,192,72135,1,12,0:0:0:0:
256,192,73194,1,0,0:0:0:0:
256,192,73547,1,8,0:0:0:0:
256,192,73900,1,0,0:0:0:0:
256,192,74253,1,0,0:0:0:0:
256,192,74959,1,8,0:0:0:0:
256,192,75312,1,0,0:0:0:0:
256,192,75665,1,8,0:0:0:0:
256,192,76370,1,8,0:0:0:0:
256,192,77076,1,0,0:0:0:0:
256,192,77429,1,0,0:0:0:0:
256,192,77782,1,8,0:0:0:0:
256,192,78488,1,0,0:0:0:0:
256,192,78841,1,0,0:0:0:0:
256,192,79194,1,8,0:0:0:0:
256,192,79547,1,8,0:0:0:0:
256,192,79900,1,0,0:0:0:0:
256,192,80606,1,8,0:0:0:0:
256,192,80959,1,0,0:0:0:0:
256,192,81312,1,8,0:0:0:0:
256,192,81665,1,8,0:0:0:0:
256,192,82018,1,0,0:0:0:0:
256,192,82194,12,0,83076,0:0:0:0:
256,192,83429,5,12,0:0:0:0:
256,192,83606,12,0,84841,0:0:0:0:
