osu file format v14

[General]
AudioFilename: audio.mp3
AudioLeadIn: 0
PreviewTime: 38174
Countdown: 1
SampleSet: Soft
StackLeniency: 0.2
Mode: 0
LetterboxInBreaks: 0
EpilepsyWarning: 1
WidescreenStoryboard: 1

[Editor]
Bookmarks: 42057
DistanceSpacing: 1.5
BeatDivisor: 4
GridSize: 4
TimelineZoom: 2.1

[Metadata]
Title:The Pressure
TitleUnicode:The Pressure
Artist:Stonebank
ArtistUnicode:Stonebank
Creator:[-Chocola-]
Version:Spices
Source:
Tags:
BeatmapID:1235844
BeatmapSetID:573178

[Difficulty]
HPDrainRate:7
CircleSize:4.3
OverallDifficulty:7
ApproachRate:9.2
SliderMultiplier:1.7
SliderTickRate:2

[Events]
//Background and Video events
0,0,"mai.png",0,0
//Break Periods
//Storyboard Layer 0 (Background)
//Storyboard Layer 1 (Fail)
//Storyboard Layer 2 (Pass)
//Storyboard Layer 3 (Foreground)
Sprite,Foreground,Centre,"SB\sq.png",240,424 C,0,70733,,128,255,255 C,0,70733,,128,255,255 C,0,70733,,128,255,255 C,0,70733,,128,255,255 C,0,70733,,128,255,255 C,0,70733,,128,255,255 M,0,70733,70768,240,424,231.5,424 F,2,70733,71559,1,0 S,2,70733,71559,0.6,0.36 P,0,70733,71559,A M,0,70768,70803,231.5,424,223,424 M,0,70803,70838,223,424,214.5,424 M,0,70838,70874,214.5,424,206,424 M,0,70874,70909,206,424,197.5,424
Sprite,Foreground,Centre,"SB\sq.png",165,336 C,0,70998,,128,255,255 F,2,70998,71648,1,0 S,2,70998,71648,0.6,0.36 P,0,70998,71648,A
Sprite,Foreground,Centre,"SB\sq.png",165,336 C,0,71086,,128,255,255 C,0,71086,,128,255,255 C,0,71086,,128,255,255 C,0,71086,,128,255,255 C,0,71086,,128,255,255 C,0,71086,,128,255,255 M,0,71086,71121,165,336,173.5,336 F,2,71086,71912,1,0 S,2,71086,71912,0.6,0.36 P,0,71086,71912,A M,0,71121,71156,173.5,336,182,336 M,0,71156,71191,182,336,190.5,336 M,0,71191,71227,190.5,336,199,336 M,0,71227,71262,199,336,207,336
Sprite,Foreground,Centre,"SB\sq.png",256,256 C,0,71351,,128,255,255 F,2,71351,72001,1,0 S,2,71351,72001,0.6,0.36 P,0,71351,72001,A
Sprite,Foreground,Centre,"SB\sq.png",256,256 C,0,71439,,0,64,128 C,0,71439,,0,64,128 C,0,71439,,0,64,128 C,0,71439,,0,64,128 M,0,71439,71474,256,256,243.3164,255.913 F,2,71439,72177,1,0 S,2,71439,72177,0.6,0.36 P,0,71439,72177,A M,0,71474,71509,243.3164,255.913,230.7366,254.1437 M,0,71509,71527,230.7366,254.1437,224.6655,252.2118
Sprite,Foreground,Centre,"SB\sq.png",224,168 C,0,71616,,214,206,54 C,0,71616,,214,206,54 C,0,71616,,214,206,54 C,0,71616,,214,206,54 M,0,71616,71651,224,168,211.5917,156.4216 F,2,71616,72354,1,0 S,2,71616,72354,0.6,0.36 P,0,71616,72354,A M,0,71651,71686,211.5917,156.4216,201.5939,142.7122 M,0,71686,71704,201.5939,142.7122,197.6148,135.2101
Sprite,Foreground,Centre,"SB\sq.png",272,100 C,0,71792,,214,206,54 C,0,71792,,214,206,54 C,0,71792,,214,206,54 C,0,71792,,214,206,54 M,0,71792,71827,272,100,268.4717,83.40991 F,2,71792,72530,1,0 S,2,71792,72530,0.6,0.36 P,0,71792,72530,A M,0,71827,71862,268.4717,83.40991,268.5915,66.45579 M,0,71862,71880,268.5915,66.45579,270.0235,58.09013
Sprite,Foreground,Centre,"SB\sq.png",369,57 C,0,71968,,214,206,54 C,0,71968,,214,206,54 C,0,71968,,214,206,54 C,0,71968,,214,206,54 M,0,71968,72003,369,57,370.5996,73.8679 F,2,71968,72706,1,0 S,2,71968,72706,0.6,0.36 P,0,71968,72706,A M,0,72003,72038,370.5996,73.8679,369.5215,90.73589 M,0,72038,72056,369.5215,90.73589,368.1873,99.11821
Sprite,Foreground,Centre,"SB\sq.png",432,92 C,0,59439,,0,64,128 F,2,59439,60089,1,0 S,2,59439,60089,0.6,0.36 P,0,59439,60089,A
Sprite,Foreground,Centre,"SB\sq.png",424,124 C,0,59616,,0,64,128 F,2,59616,60266,1,0 S,2,59616,60266,0.6,0.36 P,0,59616,60266,A
Sprite,Foreground,Centre,"SB\sq.png",416,156 C,0,59792,,0,64,128 F,2,59792,60442,1,0 S,2,59792,60442,0.6,0.36 P,0,59792,60442,A
Sprite,Foreground,Centre,"SB\sq.png",408,188 C,0,59968,,0,64,128 F,2,59968,60618,1,0 S,2,59968,60618,0.6,0.36 P,0,59968,60618,A
Sprite,Foreground,Centre,"SB\sq.png",400,220 C,0,60145,,214,206,54 F,2,60145,60795,1,0 S,2,60145,60795,0.6,0.36 P,0,60145,60795,A
Sprite,Foreground,Centre,"SB\sq.png",408,188 C,0,60233,,214,206,54 F,2,60233,60883,1,0 S,2,60233,60883,0.6,0.36 P,0,60233,60883,A
Sprite,Foreground,Centre,"SB\sq.png",416,156 C,0,60322,,214,206,54 F,2,60322,60972,1,0 S,2,60322,60972,0.6,0.36 P,0,60322,60972,A
Sprite,Foreground,Centre,"SB\sq.png",424,124 C,0,60410,,214,206,54 F,2,60410,61060,1,0 S,2,60410,61060,0.6,0.36 P,0,60410,61060,A
Sprite,Foreground,Centre,"SB\sq.png",432,92 C,0,60498,,255,255,255 C,0,60498,,255,255,255 C,0,60498,,255,255,255 C,0,60498,,255,255,255 C,0,60498,,255,255,255 C,0,60498,,255,255,255 C,0,60498,,255,255,255 C,0,60498,,255,255,255 C,0,60498,,255,255,255 M,0,60498,60533,432,92,423.5147,92.49914 F,2,60498,61412,1,0 S,2,60498,61412,0.6,0.36 P,0,60498,61412,A M,0,60533,60568,423.5147,92.49914,415.0293,92.99828 M,0,60568,60603,415.0293,92.99828,406.544,93.49741 M,0,60603,60639,406.544,93.49741,398.0587,93.99655 M,0,60639,60674,398.0587,93.99655,389.5733,94.49568 M,0,60674,60709,389.5733,94.49568,381.088,94.99483 M,0,60709,60745,381.088,94.99483,372.6027,95.49396 M,0,60745,60762,372.6027,95.49396,368.36,95.74353
Sprite,Foreground,Centre,"SB\sq.png",196,204 C,0,48321,,128,255,255 F,2,48321,48971,1,0 S,2,48321,48971,0.6,0.36 P,0,48321,48971,A
Sprite,Foreground,Centre,"SB\sq.png",219,203 C,0,48409,,128,255,255 F,2,48409,49059,1,0 S,2,48409,49059,0.6,0.36 P,0,48409,49059,A
Sprite,Foreground,Centre,"SB\sq.png",242,202 C,0,48497,,128,255,255 F,2,48497,49147,1,0 S,2,48497,49147,0.6,0.36 P,0,48497,49147,A
Sprite,Foreground,Centre,"SB\sq.png",266,201 C,0,48585,,128,255,255 F,2,48585,49235,1,0 S,2,48585,49235,0.6,0.36 P,0,48585,49235,A
Sprite,Foreground,Centre,"SB\sq.png",289,200 C,0,48673,,128,255,255 F,2,48673,49323,1,0 S,2,48673,49323,0.6,0.36 P,0,48673,49323,A
Sprite,Foreground,Centre,"SB\sq.png",320,180 C,0,48763,,128,255,255 F,2,48763,49413,1,0 S,2,48763,49413,0.6,0.36 P,0,48763,49413,A
Sprite,Foreground,Centre,"SB\sq.png",336,144 C,0,48851,,0,64,128 C,0,48851,,0,64,128 C,0,48851,,0,64,128 C,0,48851,,0,64,128 C,0,48851,,0,64,128 C,0,48851,,0,64,128 M,0,48851,48886,336,144,334.6777,134.744 F,2,48851,49677,1,0 S,2,48851,49677,0.6,0.36 P,0,48851,49677,A M,0,48886,48921,334.6777,134.744,333.3554,125.4879 M,0,48921,48956,333.3554,125.4879,332.0331,116.2319 M,0,48956,48992,332.0331,116.2319,330.7108,106.9759 M,0,48992,49027,330.7108,106.9759,329.3885,97.71986
Sprite,Foreground,Centre,"SB\sq.png",432,136 C,0,49116,,214,206,54 C,0,49116,,214,206,54 C,0,49116,,214,206,54 C,0,49116,,214,206,54 C,0,49116,,214,206,54 C,0,49116,,214,206,54 M,0,49116,49151,432,136,430.3882,152.9234 F,2,49116,49942,1,0 S,2,49116,49942,0.6,0.36 P,0,49116,49942,A M,0,49151,49186,430.3882,152.9234,428.7765,169.8468 M,0,49186,49221,428.7765,169.8468,427.1647,186.7703 M,0,49221,49257,427.1647,186.7703,425.553,203.6937 M,0,49257,49292,425.553,203.6937,424,220
Sprite,Foreground,Centre,"SB\sq.png",388,256 C,0,49380,,255,255,255 C,0,49380,,255,255,255 C,0,49380,,255,255,255 C,0,49380,,255,255,255 C,0,49380,,255,255,255 M,0,49380,49415,388,256,400.3889,253.2514 F,2,49380,50162,1,0 S,2,49380,50162,0.6,0.36 P,0,49380,50162,A M,0,49415,49450,400.3889,253.2514,413.0382,252.1002 M,0,49450,49485,413.0382,252.1002,425.5994,253.8719 M,0,49485,49512,425.5994,253.8719,434.7376,256.4685
Sprite,Foreground,Centre,"SB\sq.png",248,200 C,0,26968,,214,206,54 C,0,26968,,214,206,54 C,0,26968,,214,206,54 C,0,26968,,214,206,54 C,0,26968,,214,206,54 C,0,26968,,214,206,54 C,0,26968,,214,206,54 C,0,26968,,214,206,54 C,0,26968,,214,206,54 M,0,26968,27003,248,200,235.3133,198.7313 F,2,26968,27882,1,0 S,2,26968,27882,0.6,0.36 P,0,26968,27882,A M,0,27003,27038,235.3133,198.7313,222.6266,197.4627 M,0,27038,27073,222.6266,197.4627 M,0,27073,27109,222.6266,197.4627,235.3133,198.7313 M,0,27109,27144,235.3133,198.7313,248,200 M,0,27144,27179,248,200,235.3133,198.7313 M,0,27179,27215,235.3133,198.7313,222.6266,197.4627 M,0,27215,27232,222.6266,197.4627,216.2832,196.8283
Sprite,Foreground,Centre,"SB\sq.png",160,272 C,0,27321,,214,206,54 C,0,27321,,214,206,54 C,0,27321,,214,206,54 C,0,27321,,214,206,54 C,0,27321,,214,206,54 C,0,27321,,214,206,54 C,0,27321,,214,206,54 C,0,27321,,214,206,54 C,0,27321,,214,206,54 M,0,27321,27356,160,272,147.2748,272.7953 F,2,27321,28235,1,0 S,2,27321,28235,0.6,0.36 P,0,27321,28235,A M,0,27356,27391,147.2748,272.7953,134.5497,273.5906 M,0,27391,27426,134.5497,273.5906 M,0,27426,27462,134.5497,273.5906,147.2748,272.7953 M,0,27462,27497,147.2748,272.7953,160,272 M,0,27497,27532,160,272,147.2748,272.7953 M,0,27532,27568,147.2748,272.7953,134.5497,273.5906 M,0,27568,27585,134.5497,273.5906,128.1871,273.9883
Sprite,Foreground,Centre,"SB\sq.png",224,368 C,0,27674,,214,206,54 F,2,27674,28324,1,0 S,2,27674,28324,0.6,0.36 P,0,27674,28324,A
Sprite,Foreground,Centre,"SB\sq.png",252,354 C,0,27762,,214,206,54 F,2,27762,28412,1,0 S,2,27762,28412,0.6,0.36 P,0,27762,28412,A
Sprite,Foreground,Centre,"SB\sq.png",283,346 C,0,27850,,214,206,54 F,2,27850,28500,1,0 S,2,27850,28500,0.6,0.36 P,0,27850,28500,A
Sprite,Foreground,Centre,"SB\sq.png",315,344 C,0,27938,,214,206,54 F,2,27938,28588,1,0 S,2,27938,28588,0.6,0.36 P,0,27938,28588,A
Sprite,Foreground,Centre,"SB\sq.png",346,348 C,0,28027,,214,206,54 C,0,28027,,214,206,54 C,0,28027,,214,206,54 C,0,28027,,214,206,54 M,0,28027,28062,346,348,345.4692,360.739 F,2,28027,28765,1,0 S,2,28027,28765,0.6,0.36 P,0,28027,28765,A M,0,28062,28097,345.4692,360.739,344.9384,373.4779 M,0,28097,28115,344.9384,373.4779,344.673,379.8474
Sprite,Foreground,Centre,"SB\sq.png",448,384 C,0,28204,,214,206,54 C,0,28204,,214,206,54 C,0,28204,,214,206,54 C,0,28204,,214,206,54 M,0,28204,28239,448,384,448.8209,396.7235 F,2,28204,28942,1,0 S,2,28204,28942,0.6,0.36 P,0,28204,28942,A M,0,28239,28274,448.8209,396.7235,449.6418,409.4471 M,0,28274,28292,449.6418,409.4471,450,415
Sprite,Foreground,Centre,"SB\sq.png",516,300 C,0,28380,,255,255,255 C,0,28380,,255,255,255 C,0,28380,,255,255,255 C,0,28380,,255,255,255 C,0,28380,,255,255,255 C,0,28380,,255,255,255 C,0,28380,,255,255,255 C,0,28380,,255,255,255 C,0,28380,,255,255,255 M,0,28380,28415,516,300,521.7665,288.7927 F,2,28380,29294,1,0 S,2,28380,29294,0.6,0.36 P,0,28380,29294,A M,0,28415,28450,521.7665,288.7927,525.3474,276.6406 M,0,28450,28485,525.3474,276.6406 M,0,28485,28521,525.3474,276.6406,521.7665,288.7927 M,0,28521,28556,521.7665,288.7927,516,300 M,0,28556,28591,516,300,521.7665,288.7927 M,0,28591,28627,521.7665,288.7927,525.3474,276.6406 M,0,28627,28644,525.3474,276.6406,524.8358,270.3228
Sprite,Foreground,Centre,"SB\sq.png",432,204 C,0,28733,,255,255,255 C,0,28733,,255,255,255 C,0,28733,,255,255,255 C,0,28733,,255,255,255 C,0,28733,,255,255,255 C,0,28733,,255,255,255 C,0,28733,,255,255,255 C,0,28733,,255,255,255 C,0,28733,,255,255,255 M,0,28733,28768,432,204,426.2335,192.7927 F,2,28733,29647,1,0 S,2,28733,29647,0.6,0.36 P,0,28733,29647,A M,0,28768,28803,426.2335,192.7927,422.6526,180.6406 M,0,28803,28838,422.6526,180.6406 M,0,28838,28874,422.6526,180.6406,426.2335,192.7927 M,0,28874,28909,426.2335,192.7927,432,204 M,0,28909,28944,432,204,426.2335,192.7927 M,0,28944,28980,426.2335,192.7927,422.6526,180.6406 M,0,28980,28997,422.6526,180.6406,423.1642,174.3228
Sprite,Foreground,Centre,"SB\sq.png",480,120 C,0,29086,,255,255,255 F,2,29086,29736,1,0 S,2,29086,29736,0.6,0.36 P,0,29086,29736,A
Sprite,Foreground,Centre,"SB\sq.png",458,143 C,0,29174,,255,255,255 F,2,29174,29824,1,0 S,2,29174,29824,0.6,0.36 P,0,29174,29824,A
Sprite,Foreground,Centre,"SB\sq.png",431,159 C,0,29262,,255,255,255 F,2,29262,29912,1,0 S,2,29262,29912,0.6,0.36 P,0,29262,29912,A
Sprite,Foreground,Centre,"SB\sq.png",400,166 C,0,29350,,255,255,255 F,2,29350,30000,1,0 S,2,29350,30000,0.6,0.36 P,0,29350,30000,A
Sprite,Foreground,Centre,"SB\sq.png",368,162 C,0,29439,,128,255,255 C,0,29439,,128,255,255 C,0,29439,,128,255,255 C,0,29439,,128,255,255 M,0,29439,29474,368,162,369.0168,149.2906 F,2,29439,30177,1,0 S,2,29439,30177,0.6,0.36 P,0,29439,30177,A M,0,29474,29509,369.0168,149.2906,370.0335,136.5812 M,0,29509,29527,370.0335,136.5812,370.5419,130.2265
Sprite,Foreground,Centre,"SB\sq.png",272,132 C,0,29616,,128,255,255 C,0,29616,,128,255,255 C,0,29616,,128,255,255 C,0,29616,,128,255,255 M,0,29616,29651,272,132,271.0031,119.289 F,2,29616,30354,1,0 S,2,29616,30354,0.6,0.36 P,0,29616,30354,A M,0,29651,29686,271.0031,119.289,270.0061,106.5781 M,0,29686,29704,270.0061,106.5781,269.5077,100.2226
Sprite,Foreground,Centre,"SB\sq.png",296,224 C,0,29792,,128,255,255 C,0,29792,,128,255,255 C,0,29792,,128,255,255 C,0,29792,,128,255,255 M,0,29792,29827,296,224,296.7636,236.7271 F,2,29792,30530,1,0 S,2,29792,30530,0.6,0.36 P,0,29792,30530,A M,0,29827,29862,296.7636,236.7271,297.5273,249.4542 M,0,29862,29880,297.5273,249.4542,297.9091,255.8178
Sprite,Foreground,Centre,"SB\sq.png",192,200 C,0,29969,,128,255,255 C,0,29969,,128,255,255 C,0,29969,,128,255,255 C,0,29969,,128,255,255 M,0,29969,30004,192,200,190.9832,212.7094 F,2,29969,30707,1,0 S,2,29969,30707,0.6,0.36 P,0,29969,30707,A M,0,30004,30039,190.9832,212.7094,189.9665,225.4188 M,0,30039,30057,189.9665,225.4188,189.4581,231.7735
Sprite,Foreground,Centre,"SB\sq.png",116,336 C,0,30145,,0,64,128 F,2,30145,30795,1,0 S,2,30145,30795,0.6,0.36 P,0,30145,30795,A
Sprite,Foreground,Centre,"SB\sq.png",142,319 C,0,30233,,0,64,128 F,2,30233,30883,1,0 S,2,30233,30883,0.6,0.36 P,0,30233,30883,A
Sprite,Foreground,Centre,"SB\sq.png",173,313 C,0,30321,,0,64,128 F,2,30321,30971,1,0 S,2,30321,30971,0.6,0.36 P,0,30321,30971,A
Sprite,Foreground,Centre,"SB\sq.png",204,319 C,0,30409,,0,64,128 F,2,30409,31059,1,0 S,2,30409,31059,0.6,0.36 P,0,30409,31059,A
Sprite,Foreground,Centre,"SB\sq.png",231,336 C,0,30498,,0,64,128 C,0,30498,,0,64,128 C,0,30498,,0,64,128 C,0,30498,,0,64,128 C,0,30498,,0,64,128 C,0,30498,,0,64,128 C,0,30498,,0,64,128 C,0,30498,,0,64,128 C,0,30498,,0,64,128 M,0,30498,30533,231,336,228.9968,348.5916 F,2,30498,31412,1,0 S,2,30498,31412,0.6,0.36 P,0,30498,31412,A M,0,30533,30568,228.9968,348.5916,226.9936,361.1833 M,0,30568,30603,226.9936,361.1833 M,0,30603,30639,226.9936,361.1833,228.9968,348.5916 M,0,30639,30674,228.9968,348.5916,231,336 M,0,30674,30709,231,336,228.9968,348.5916 M,0,30709,30745,228.9968,348.5916,226.9936,361.1833 M,0,30745,30762,226.9936,361.1833,225.992,367.4791
Sprite,Foreground,Centre,"SB\sq.png",324,412 C,0,30851,,214,206,54 C,0,30851,,214,206,54 C,0,30851,,214,206,54 C,0,30851,,214,206,54 M,0,30851,30886,324,412,322.7313,399.3133 F,2,30851,31589,1,0 S,2,30851,31589,0.6,0.36 P,0,30851,31589,A M,0,30886,30921,322.7313,399.3133,321.4626,386.6266 M,0,30921,30939,321.4626,386.6266,320.8283,380.2832
Sprite,Foreground,Centre,"SB\sq.png",424,328 C,0,31027,,214,206,54 C,0,31027,,214,206,54 C,0,31027,,214,206,54 C,0,31027,,214,206,54 M,0,31027,31062,424,328,421.9039,340.5765 F,2,31027,31765,1,0 S,2,31027,31765,0.6,0.36 P,0,31027,31765,A M,0,31062,31097,421.9039,340.5765,419.8078,353.153 M,0,31097,31115,419.8078,353.153,418.7598,359.4413
Sprite,Foreground,Centre,"SB\sq.png",332,276 C,0,31204,,214,206,54 C,0,31204,,214,206,54 C,0,31204,,214,206,54 C,0,31204,,214,206,54 M,0,31204,31239,332,276,330.7313,263.3133 F,2,31204,31942,1,0 S,2,31204,31942,0.6,0.36 P,0,31204,31942,A M,0,31239,31274,330.7313,263.3133,329.4626,250.6266 M,0,31274,31292,329.4626,250.6266,328.8283,244.2832
Sprite,Foreground,Centre,"SB\sq.png",432,192 C,0,31380,,214,206,54 C,0,31380,,214,206,54 C,0,31380,,214,206,54 C,0,31380,,214,206,54 M,0,31380,31415,432,192,429.9039,204.5765 F,2,31380,32118,1,0 S,2,31380,32118,0.6,0.36 P,0,31380,32118,A M,0,31415,31450,429.9039,204.5765,427.8078,217.153 M,0,31450,31468,427.8078,217.153,426.7598,223.4413
Sprite,Foreground,Centre,"SB\sq.png",504,148 C,0,31557,,255,255,255 C,0,31557,,255,255,255 C,0,31557,,255,255,255 C,0,31557,,255,255,255 C,0,31557,,255,255,255 C,0,31557,,255,255,255 C,0,31557,,255,255,255 C,0,31557,,255,255,255 C,0,31557,,255,255,255 M,0,31557,31592,504,148,510.8884,137.3082 F,2,31557,32471,1,0 S,2,31557,32471,0.6,0.36 P,0,31557,32471,A M,0,31592,31627,510.8884,137.3082,516.5029,125.9086 M,0,31627,31662,516.5029,125.9086 M,0,31662,31698,516.5029,125.9086,510.8884,137.3082 M,0,31698,31733,510.8884,137.3082,504,148 M,0,31733,31768,504,148,510.8884,137.3082 M,0,31768,31804,510.8884,137.3082,516.5029,125.9086 M,0,31804,31821,516.5029,125.9086,518.8484,120.0114
Sprite,Foreground,Centre,"SB\sq.png",520,280 C,0,31910,,255,255,255 C,0,31910,,255,255,255 C,0,31910,,255,255,255 C,0,31910,,255,255,255 C,0,31910,,255,255,255 C,0,31910,,255,255,255 C,0,31910,,255,255,255 C,0,31910,,255,255,255 C,0,31910,,255,255,255 M,0,31910,31945,520,280,513.1116,269.3082 F,2,31910,32824,1,0 S,2,31910,32824,0.6,0.36 P,0,31910,32824,A M,0,31945,31980,513.1116,269.3082,507.4971,257.9086 M,0,31980,32015,507.4971,257.9086 M,0,32015,32051,507.4971,257.9086,513.1116,269.3082 M,0,32051,32086,513.1116,269.3082,520,280 M,0,32086,32121,520,280,513.1116,269.3082 M,0,32121,32157,513.1116,269.3082,507.4971,257.9086 M,0,32157,32174,507.4971,257.9086,505.1516,252.0114
Sprite,Foreground,Centre,"SB\sq.png",432,192 C,0,32263,,128,255,255 F,2,32263,32913,1,0 S,2,32263,32913,0.6,0.36 P,0,32263,32913,A
Sprite,Foreground,Centre,"SB\sq.png",406,210 C,0,32351,,128,255,255 F,2,32351,33001,1,0 S,2,32351,33001,0.6,0.36 P,0,32351,33001,A
Sprite,Foreground,Centre,"SB\sq.png",375,219 C,0,32439,,128,255,255 F,2,32439,33089,1,0 S,2,32439,33089,0.6,0.36 P,0,32439,33089,A
Sprite,Foreground,Centre,"SB\sq.png",344,220 C,0,32527,,128,255,255 F,2,32527,33177,1,0 S,2,32527,33177,0.6,0.36 P,0,32527,33177,A
Sprite,Foreground,Centre,"SB\sq.png",276,184 C,0,32616,,0,64,128 F,2,32616,33266,1,0 S,2,32616,33266,0.6,0.36 P,0,32616,33266,A
Sprite,Foreground,Centre,"SB\sq.png",235,166 C,0,32704,,0,64,128 F,2,32704,33354,1,0 S,2,32704,33354,0.6,0.36 P,0,32704,33354,A
Sprite,Foreground,Centre,"SB\sq.png",190,164 C,0,32792,,0,64,128 F,2,32792,33442,1,0 S,2,32792,33442,0.6,0.36 P,0,32792,33442,A
Sprite,Foreground,Centre,"SB\sq.png",148,177 C,0,32880,,0,64,128 F,2,32880,33530,1,0 S,2,32880,33530,0.6,0.36 P,0,32880,33530,A
Sprite,Foreground,Centre,"SB\sq.png",96,272 C,0,32968,,214,206,54 F,2,32968,33618,1,0 S,2,32968,33618,0.6,0.36 P,0,32968,33618,A
Sprite,Foreground,Centre,"SB\sq.png",142,264 C,0,33056,,214,206,54 F,2,33056,33706,1,0 S,2,33056,33706,0.6,0.36 P,0,33056,33706,A
Sprite,Foreground,Centre,"SB\sq.png",187,279 C,0,33144,,214,206,54 F,2,33144,33794,1,0 S,2,33144,33794,0.6,0.36 P,0,33144,33794,A
Sprite,Foreground,Centre,"SB\sq.png",233,289 C,0,33232,,214,206,54 F,2,33232,33882,1,0 S,2,33232,33882,0.6,0.36 P,0,33232,33882,A
Sprite,Foreground,Centre,"SB\sq.png",320,264 C,0,33321,,255,255,255 F,2,33321,33971,1,0 S,2,33321,33971,0.6,0.36 P,0,33321,33971,A
Sprite,Foreground,Centre,"SB\sq.png",379,258 C,0,33410,,255,255,255 F,2,33410,34060,1,0 S,2,33410,34060,0.6,0.36 P,0,33410,34060,A
Sprite,Foreground,Centre,"SB\sq.png",429,291 C,0,33498,,255,255,255 F,2,33498,34148,1,0 S,2,33498,34148,0.6,0.36 P,0,33498,34148,A
Sprite,Foreground,Centre,"SB\sq.png",448,347 C,0,33586,,255,255,255 F,2,33586,34236,1,0 S,2,33586,34236,0.6,0.36 P,0,33586,34236,A
Sprite,Foreground,Centre,"SB\sq.png",428,403 C,0,33674,,255,255,255 C,0,33674,,255,255,255 C,0,33674,,255,255,255 C,0,33674,,255,255,255 M,0,33674,33709,428,403,415.2795,402.1327 F,2,33674,34412,1,0 S,2,33674,34412,0.6,0.36 P,0,33674,34412,A M,0,33709,33744,415.2795,402.1327,402.5591,401.2654 M,0,33744,33762,402.5591,401.2654,396.1988,400.8317
Sprite,Foreground,Centre,"SB\sq.png",332,360 C,0,33851,,255,255,255 C,0,33851,,255,255,255 C,0,33851,,255,255,255 C,0,33851,,255,255,255 M,0,33851,33886,332,360,319.2748,360.7953 F,2,33851,34589,1,0 S,2,33851,34589,0.6,0.36 P,0,33851,34589,A M,0,33886,33921,319.2748,360.7953,306.5497,361.5906 M,0,33921,33939,306.5497,361.5906,300.1871,361.9883
Sprite,Foreground,Centre,"SB\sq.png",212,408 C,0,34027,,128,255,255 F,2,34027,34677,1,0 S,2,34027,34677,0.6,0.36 P,0,34027,34677,A
Sprite,Foreground,Centre,"SB\sq.png",231,382 C,0,34115,,128,255,255 F,2,34115,34765,1,0 S,2,34115,34765,0.6,0.36 P,0,34115,34765,A
Sprite,Foreground,Centre,"SB\sq.png",241,352 C,0,34203,,128,255,255 F,2,34203,34853,1,0 S,2,34203,34853,0.6,0.36 P,0,34203,34853,A
Sprite,Foreground,Centre,"SB\sq.png",241,321 C,0,34291,,128,255,255 F,2,34291,34941,1,0 S,2,34291,34941,0.6,0.36 P,0,34291,34941,A
Sprite,Foreground,Centre,"SB\sq.png",220,236 C,0,34380,,0,64,128 F,2,34380,35030,1,0 S,2,34380,35030,0.6,0.36 P,0,34380,35030,A
Sprite,Foreground,Centre,"SB\sq.png",202,188 C,0,34468,,0,64,128 F,2,34468,35118,1,0 S,2,34468,35118,0.6,0.36 P,0,34468,35118,A
Sprite,Foreground,Centre,"SB\sq.png",208,138 C,0,34556,,0,64,128 F,2,34556,35206,1,0 S,2,34556,35206,0.6,0.36 P,0,34556,35206,A
Sprite,Foreground,Centre,"SB\sq.png",234,95 C,0,34644,,0,64,128 F,2,34644,35294,1,0 S,2,34644,35294,0.6,0.36 P,0,34644,35294,A
Sprite,Foreground,Centre,"SB\sq.png",320,128 C,0,34733,,214,206,54 F,2,34733,35383,1,0 S,2,34733,35383,0.6,0.36 P,0,34733,35383,A
Sprite,Foreground,Centre,"SB\sq.png",358,130 C,0,34821,,214,206,54 F,2,34821,35471,1,0 S,2,34821,35471,0.6,0.36 P,0,34821,35471,A
Sprite,Foreground,Centre,"SB\sq.png",396,132 C,0,34909,,214,206,54 F,2,34909,35559,1,0 S,2,34909,35559,0.6,0.36 P,0,34909,35559,A
Sprite,Foreground,Centre,"SB\sq.png",434,134 C,0,34997,,214,206,54 F,2,34997,35647,1,0 S,2,34997,35647,0.6,0.36 P,0,34997,35647,A
Sprite,Foreground,Centre,"SB\sq.png",372,236 C,0,35086,,214,206,54 C,0,35086,,214,206,54 C,0,35086,,214,206,54 C,0,35086,,214,206,54 M,0,35086,35121,372,236,359.2782,236.8481 F,2,35086,35824,1,0 S,2,35086,35824,0.6,0.36 P,0,35086,35824,A M,0,35121,35156,359.2782,236.8481,346.5565,237.6962 M,0,35156,35174,346.5565,237.6962,340.1956,238.1203
Sprite,Foreground,Centre,"SB\sq.png",220,236 C,0,35263,,214,206,54 C,0,35263,,214,206,54 C,0,35263,,214,206,54 C,0,35263,,214,206,54 M,0,35263,35298,220,236,207.3057,234.8099 F,2,35263,36001,1,0 S,2,35263,36001,0.6,0.36 P,0,35263,36001,A M,0,35298,35333,207.3057,234.8099,194.6113,233.6198 M,0,35333,35351,194.6113,233.6198,188.2642,233.0248
Sprite,Foreground,Centre,"SB\sq.png",132,144 C,0,35439,,255,255,255 F,2,35439,36089,1,0 S,2,35439,36089,0.6,0.36 P,0,35439,36089,A
Sprite,Foreground,Centre,"SB\sq.png",166,116 C,0,35527,,255,255,255 F,2,35527,36177,1,0 S,2,35527,36177,0.6,0.36 P,0,35527,36177,A
Sprite,Foreground,Centre,"SB\sq.png",209,106 C,0,35615,,255,255,255 F,2,35615,36265,1,0 S,2,35615,36265,0.6,0.36 P,0,35615,36265,A
Sprite,Foreground,Centre,"SB\sq.png",252,116 C,0,35703,,255,255,255 F,2,35703,36353,1,0 S,2,35703,36353,0.6,0.36 P,0,35703,36353,A
Sprite,Foreground,Centre,"SB\sq.png",287,144 C,0,35791,,255,255,255 F,2,35791,36441,1,0 S,2,35791,36441,0.6,0.36 P,0,35791,36441,A
Sprite,Foreground,Centre,"SB\sq.png",306,184 C,0,35880,,255,255,255 F,2,35880,36530,1,0 S,2,35880,36530,0.6,0.36 P,0,35880,36530,A
Sprite,Foreground,Centre,"SB\sq.png",305,228 C,0,35968,,255,255,255 F,2,35968,36618,1,0 S,2,35968,36618,0.6,0.36 P,0,35968,36618,A
Sprite,Foreground,Centre,"SB\sq.png",286,268 C,0,36056,,255,255,255 F,2,36056,36706,1,0 S,2,36056,36706,0.6,0.36 P,0,36056,36706,A
Sprite,Foreground,Centre,"SB\sq.png",253,295 C,0,36144,,128,255,255 F,2,36144,36794,1,0 S,2,36144,36794,0.6,0.36 P,0,36144,36794,A
Sprite,Foreground,Centre,"SB\sq.png",218,268 C,0,36233,,128,255,255 F,2,36233,36883,1,0 S,2,36233,36883,0.6,0.36 P,0,36233,36883,A
Sprite,Foreground,Centre,"SB\sq.png",199,228 C,0,36321,,128,255,255 F,2,36321,36971,1,0 S,2,36321,36971,0.6,0.36 P,0,36321,36971,A
Sprite,Foreground,Centre,"SB\sq.png",198,184 C,0,36409,,128,255,255 F,2,36409,37059,1,0 S,2,36409,37059,0.6,0.36 P,0,36409,37059,A
Sprite,Foreground,Centre,"SB\sq.png",217,144 C,0,36498,,128,255,255 F,2,36498,37148,1,0 S,2,36498,37148,0.6,0.36 P,0,36498,37148,A
Sprite,Foreground,Centre,"SB\sq.png",252,116 C,0,36586,,128,255,255 F,2,36586,37236,1,0 S,2,36586,37236,0.6,0.36 P,0,36586,37236,A
Sprite,Foreground,Centre,"SB\sq.png",295,106 C,0,36674,,128,255,255 F,2,36674,37324,1,0 S,2,36674,37324,0.6,0.36 P,0,36674,37324,A
Sprite,Foreground,Centre,"SB\sq.png",338,116 C,0,36762,,128,255,255 F,2,36762,37412,1,0 S,2,36762,37412,0.6,0.36 P,0,36762,37412,A
Sprite,Foreground,Centre,"SB\sq.png",373,144 C,0,36851,,0,64,128 C,0,36851,,0,64,128 C,0,36851,,0,64,128 C,0,36851,,0,64,128 M,0,36851,36886,373,144,376.7176,177.7961 F,2,36851,37589,1,0 S,2,36851,37589,0.6,0.36 P,0,36851,37589,A M,0,36886,36921,376.7176,177.7961,380.4352,211.5923 M,0,36921,36939,380.4352,211.5923,382.2939,228.4904
Sprite,Foreground,Centre,"SB\sq.png",112,252 C,0,37027,,0,64,128 C,0,37027,,0,64,128 C,0,37027,,0,64,128 C,0,37027,,0,64,128 M,0,37027,37062,112,252,108.2824,218.2039 F,2,37027,37765,1,0 S,2,37027,37765,0.6,0.36 P,0,37027,37765,A M,0,37062,37097,108.2824,218.2039,104.5648,184.4077 M,0,37097,37115,104.5648,184.4077,102.7061,167.5096
Sprite,Foreground,Centre,"SB\sq.png",372,236 C,0,37204,,0,64,128 C,0,37204,,0,64,128 C,0,37204,,0,64,128 C,0,37204,,0,64,128 M,0,37204,37239,372,236,375.7176,269.7961 F,2,37204,37942,1,0 S,2,37204,37942,0.6,0.36 P,0,37204,37942,A M,0,37239,37274,375.7176,269.7961,379.4352,303.5923 M,0,37274,37292,379.4352,303.5923,381.2939,320.4904
Sprite,Foreground,Centre,"SB\sq.png",136,344 C,0,37380,,0,64,128 C,0,37380,,0,64,128 C,0,37380,,0,64,128 C,0,37380,,0,64,128 M,0,37380,37415,136,344,132.2824,310.2039 F,2,37380,38118,1,0 S,2,37380,38118,0.6,0.36 P,0,37380,38118,A M,0,37415,37450,132.2824,310.2039,128.5648,276.4077 M,0,37450,37468,128.5648,276.4077,126.7061,259.5096
Sprite,Foreground,Centre,"SB\sq.png",316,396 C,0,37557,,0,64,128 C,0,37557,,0,64,128 C,0,37557,,0,64,128 C,0,37557,,0,64,128 M,0,37557,37592,316,396,284.4318,408.6273 F,2,37557,38295,1,0 S,2,37557,38295,0.6,0.36 P,0,37557,38295,A M,0,37592,37627,284.4318,408.6273,251.3318,408.476 M,0,37627,37645,251.3318,408.476,234.5026,406.0718
Sprite,Foreground,Centre,"SB\sq.png",72,88 C,0,37733,,0,64,128 C,0,37733,,0,64,128 C,0,37733,,0,64,128 C,0,37733,,0,64,128 M,0,37733,37768,72,88,105.6417,83.07683 F,2,37733,38471,1,0 S,2,37733,38471,0.6,0.36 P,0,37733,38471,A M,0,37768,37803,105.6417,83.07683,137.6634,91.86536 M,0,37803,37821,137.6634,91.86536,153,98
Sprite,Foreground,Centre,"SB\sq.png",361,130 C,0,37910,,214,206,54 C,0,37910,,214,206,54 C,0,37910,,214,206,54 C,0,37910,,214,206,54 C,0,37910,,214,206,54 C,0,37910,,214,206,54 C,0,37910,,214,206,54 C,0,37910,,214,206,54 C,0,37910,,214,206,54 M,0,37910,37945,361,130,351.6852,129.19 F,2,37910,38824,1,0 S,2,37910,38824,0.6,0.36 P,0,37910,38824,A M,0,37945,37980,351.6852,129.19,342.3703,128.38 M,0,37980,38015,342.3703,128.38,333.0555,127.57 M,0,38015,38051,333.0555,127.57,323.7406,126.7601 M,0,38051,38086,323.7406,126.7601,314.4258,125.9501 M,0,38086,38121,314.4258,125.9501,305.1109,125.1401 M,0,38121,38157,305.1109,125.1401,295.7961,124.3301 M,0,38157,38174,295.7961,124.3301,292,124
//Storyboard Sound Samples

[TimingPoints]
2969,352.941176470588,4,2,0,100,1,0
4027,-133.333333333333,4,2,0,50,0,0
15674,-133.333333333333,4,2,0,70,0,0
26968,-133.333333333333,4,2,0,30,0,0
36851,-50,4,2,0,30,0,0
37910,-181.818181818181,4,2,0,100,0,0
38263,-66.6666666666667,4,2,0,100,0,0
46733,-90.9090909090909,4,2,0,100,0,0
48145,-181.818181818181,4,2,0,100,0,0
49116,-100,4,2,0,100,0,0
49380,-133.333333333333,4,2,0,100,0,0
49557,-66.6666666666667,4,2,0,100,0,0
52733,-200,4,2,0,100,0,0
53086,-66.6666666666667,4,2,0,100,0,0
54145,-200,4,2,0,100,0,0
54498,-66.6666666666667,4,2,0,100,0,0
57321,-90.9090909090909,4,2,0,100,0,0
60498,-200,4,2,0,100,0,0
60851,-66.6666666666667,4,2,0,100,0,0
64733,-90.9090909090909,4,2,0,100,0,0
65086,-66.6666666666667,4,2,0,100,0,0
70733,-200,4,2,0,100,0,0
71439,-133.333333333333,4,2,0,100,0,0
71616,-100,4,2,0,100,0,0
72145,-66.6666666666667,4,2,0,100,0,0
75321,-200,4,2,0,100,0,0
75674,-66.6666666666667,4,2,0,100,0,0
76733,-200,4,2,0,100,0,0
77086,-66.6666666666667,4,2,0,100,0,0
79557,-71.4285714285714,4,2,0,100,0,0
79910,-76.9230769230769,4,2,0,100,0,0
82027,-200,4,2,0,100,0,0
82733,-133.333333333333,4,2,0,100,0,0
82910,-100,4,2,0,100,0,0

[Colours]
Combo1 : 128,255,255
Combo2 : 0,64,128
Combo3 : 214,206,54
Combo4 : 255,255,255

[HitObjects]
52,140,4027,5,0,0:0:0:0:
52,140,4380,2,0,B|84:128|117:135|117:135|148:144|204:132,1,127.500004863739
252,84,4910,1,0,0:0:0:0:
192,8,5086,2,0,P|164:36|156:64,1,63.7500024318696
264,172,5439,2,0,L|348:164,1,63.7500024318696
404,52,5792,5,0,0:0:0:0:
400,300,6145,1,0,0:0:0:0:
440,60,6498,1,0,0:0:0:0:
360,296,6851,1,0,0:0:0:0:
360,296,7204,6,0,B|312:296|312:296|272:308|272:308|212:308,1,127.500004863739
164,264,7733,1,0,0:0:0:0:
140,184,7910,2,0,P|172:180|208:192,1,63.7500024318696
72,240,8263,2,0,P|56:212|56:160,1,63.7500024318696
103,100,8616,5,0,0:0:0:0:
200,356,8968,1,0,0:0:0:0:
100,108,9321,2,0,L|244:116,1,127.500004863739
312,84,9851,1,0,0:0:0:0:
380,148,10027,6,0,P|384:188|376:216,1,63.7500024318696
296,248,10380,2,0,P|289:216|294:185,1,63.7500024318696
368,296,10733,1,0,0:0:0:0:
140,328,11086,1,0,0:0:0:0:
378,210,11439,5,0,0:0:0:0:
150,242,11792,1,0,0:0:0:0:
150,242,12145,2,0,B|156:208|144:176|144:176|132:136|144:104,1,127.500004863739
200,52,12674,1,0,0:0:0:0:
256,132,12851,6,0,L|320:124,1,63.7500024318696
388,140,13204,2,0,L|324:148,1,63.7500024318696
248,60,13557,2,0,L|312:52,1,63.7500024318696
420,208,13910,2,0,L|356:216,1,63.7500024318696
184,67,14263,6,0,L|248:59,1,63.7500024318696
483,200,14616,2,0,L|419:208,1,63.7500024318696
268,180,14968,2,0,L|332:188,1,63.7500024318696
402,68,15321,2,0,L|338:60,1,63.7500024318696
332,188,15674,6,0,L|340:48,2,127.500004863739
328,200,16733,5,0,0:0:0:0:
236,224,16910,1,0,0:0:0:0:
144,248,17086,2,0,B|128:284|144:316|144:316|160:352|144:380,2,127.500004863739
144,248,18145,5,0,0:0:0:0:
236,224,18321,1,0,0:0:0:0:
172,156,18498,1,0,0:0:0:0:
264,132,18674,1,0,0:0:0:0:
356,108,18851,6,0,B|408:96|408:96|436:108|436:108|484:96,2,127.500004863739
352,96,19733,1,0,0:0:0:0:
260,120,19910,1,0,0:0:0:0:
168,144,20086,1,0,0:0:0:0:
332,188,20263,5,0,0:0:0:0:
192,48,20616,1,0,0:0:0:0:
232,216,20968,1,0,0:0:0:0:
296,32,21321,6,0,P|304:68|300:100,1,63.7500024318696
232,216,21674,2,0,P|224:252|228:284,1,63.7500024318696
296,320,22027,2,0,P|240:296|164:344,1,127.500004863739
240,380,22557,1,0,0:0:0:0:
368,356,22733,6,0,P|376:312|364:276,1,63.7500024318696
440,152,23086,2,0,P|466:168|485:194,1,63.7500024318696
340,28,23439,2,0,B|308:13|308:13|192:33,1,127.500004863739
261,100,23968,5,0,0:0:0:0:
165,100,24145,1,0,0:0:0:0:
69,100,24321,1,0,0:0:0:0:
217,28,24498,1,0,0:0:0:0:
109,184,24851,2,0,B|97:220|109:252|109:252|121:284|113:316,1,127.500004863739
185,216,25380,5,0,0:0:0:0:
257,180,25557,1,0,0:0:0:0:
333,212,25733,1,0,0:0:0:0:
185,132,25910,1,0,0:0:0:0:
261,312,26263,1,0,0:0:0:0:
325,132,26616,1,0,0:0:0:0:
184,144,26968,6,0,L|144:140,3,31.8750012159348
96,216,27321,2,0,L|64:218,3,31.8750012159348
160,312,27674,1,0,0:0:0:0:
188,298,27762,1,0,0:0:0:0:
219,290,27850,1,0,0:0:0:0:
251,288,27938,1,0,0:0:0:0:
282,292,28027,2,0,L|280:340,1,31.8750012159348
384,328,28204,2,0,L|386:359,1,31.8750012159348
452,244,28380,6,0,P|460:228|460:204,3,31.8750012159348
368,148,28733,2,0,P|360:132|360:108,3,31.8750012159348
416,64,29086,1,0,0:0:0:0:
394,87,29174,1,0,0:0:0:0:
367,103,29262,1,0,0:0:0:0:
336,110,29350,1,0,0:0:0:0:
304,106,29439,6,0,L|308:56,1,31.8750012159348
208,76,29616,2,0,L|204:25,1,31.8750012159348
232,168,29792,2,0,L|235:218,1,31.8750012159348
128,144,29969,2,0,L|124:194,1,31.8750012159348
52,280,30145,5,0,0:0:0:0:
78,263,30233,1,0,0:0:0:0:
109,257,30321,1,0,0:0:0:0:
140,263,30409,1,0,0:0:0:0:
167,280,30498,2,0,L|160:324,3,31.8750012159348
260,356,30851,6,0,L|256:316,1,31.8750012159348
360,272,31027,2,0,L|352:320,1,31.8750012159348
268,220,31204,2,0,L|264:180,1,31.8750012159348
368,136,31380,2,0,L|360:184,1,31.8750012159348
440,92,31557,6,0,P|452:72|460:44,3,31.8750012159348
456,224,31910,2,0,P|444:204|436:176,3,31.8750012159348
368,136,32263,5,0,0:0:0:0:
342,154,32351,1,0,0:0:0:0:
311,163,32439,1,0,0:0:0:0:
280,164,32527,1,0,0:0:0:0:
212,128,32616,5,0,0:0:0:0:
171,110,32704,1,0,0:0:0:0:
126,108,32792,1,0,0:0:0:0:
84,121,32880,1,0,0:0:0:0:
32,216,32968,5,0,0:0:0:0:
78,208,33056,1,0,0:0:0:0:
123,223,33144,1,0,0:0:0:0:
169,233,33232,1,0,0:0:0:0:
256,208,33321,5,0,0:0:0:0:
315,202,33410,1,0,0:0:0:0:
365,235,33498,1,0,0:0:0:0:
384,291,33586,1,0,0:0:0:0:
364,347,33674,2,0,L|320:344,1,31.8750012159348
268,304,33851,2,0,L|236:306,1,31.8750012159348
148,352,34027,5,0,0:0:0:0:
167,326,34115,1,0,0:0:0:0:
177,296,34203,1,0,0:0:0:0:
177,265,34291,1,0,0:0:0:0:
156,180,34380,5,0,0:0:0:0:
138,132,34468,1,0,0:0:0:0:
144,82,34556,1,0,0:0:0:0:
170,39,34644,1,0,0:0:0:0:
256,72,34733,5,0,0:0:0:0:
294,74,34821,1,0,0:0:0:0:
332,76,34909,1,0,0:0:0:0:
370,78,34997,1,0,0:0:0:0:
308,180,35086,2,0,L|248:184,1,31.8750012159348
156,180,35263,2,0,L|124:177,1,31.8750012159348
68,88,35439,5,0,0:0:0:0:
102,60,35527,1,0,0:0:0:0:
145,50,35615,1,0,0:0:0:0:
188,60,35703,1,0,0:0:0:0:
223,88,35791,1,0,0:0:0:0:
242,128,35880,1,0,0:0:0:0:
241,172,35968,1,0,0:0:0:0:
222,212,36056,1,0,0:0:0:0:
189,239,36144,5,0,0:0:0:0:
154,212,36233,1,0,0:0:0:0:
135,172,36321,1,0,0:0:0:0:
134,128,36409,1,0,0:0:0:0:
153,88,36498,1,0,0:0:0:0:
188,60,36586,1,0,0:0:0:0:
231,50,36674,1,0,0:0:0:0:
274,60,36762,1,0,0:0:0:0:
309,88,36851,6,0,L|320:188,1,85
48,196,37027,2,0,L|37:96,1,85
308,180,37204,2,0,L|319:280,1,85
72,288,37380,2,0,L|61:188,1,85
252,340,37557,2,0,B|212:356|212:356|156:348,1,85
8,32,37733,2,0,B|49:26|49:26|89:42,1,85
297,74,37910,6,0,L|228:68,1,70.1250021400452
304,88,38263,6,0,L|436:80,1,127.500004863739
204,160,38616,2,0,B|164:172|136:160|136:160|100:148|60:164,1,127.500004863739,8|0,0:0|0:0,0:0:0:0:
324,360,38969,2,0,B|336:232|336:232|296:172,1,191.250007295609
252,256,39322,1,8,0:0:0:0:
312,80,39498,1,0,0:0:0:0:
136,48,39675,6,0,L|148:192,1,127.500004863739
332,232,40028,2,0,B|340:272|324:304|324:304|312:328|320:368,1,127.500004863739,8|0,0:0|0:0,0:0:0:0:
432,140,40381,2,0,B|396:152|360:136|360:136|324:124|284:148|284:148|296:128|300:104|300:104|364:96,1,255.000009727478,0|8,0:0|0:0,0:0:0:0:
332,232,40910,5,0,0:0:0:0:
176,224,41086,1,0,0:0:0:0:
220,92,41263,1,0,0:0:0:0:
264,360,41439,1,8,0:0:0:0:
264,376,41793,6,0,L|120:360,1,127.500004863739
328,256,42145,5,8,0:0:0:0:
480,236,42322,1,0,0:0:0:0:
420,316,42498,1,0,0:0:0:0:
376,48,42675,1,0,0:0:0:0:
420,316,42851,1,8,0:0:0:0:
416,328,43204,6,0,L|276:312,1,127.500004863739
112,184,43557,2,0,B|184:120|184:120|272:208,1,191.250007295609,8|0,0:0|0:0,0:0:0:0:
152,260,43910,6,0,P|104:272|28:216,1,127.500004863739
262,60,44263,2,0,L|250:200,1,127.500004863739,8|0,0:0|0:0,0:0:0:0:
420,312,44616,2,0,L|409:184,1,127.500004863739
284,256,44968,1,8,0:0:0:0:
420,312,45145,1,0,0:0:0:0:
208,372,45321,6,0,B|172:340|104:368|104:368|52:392|4:360,1,191.250007295609
64,264,45674,2,0,B|96:208|96:208|152:256,1,127.500004863739,8|0,0:0|0:0,0:0:0:0:
388,104,46027,2,0,P|380:164|288:80,1,255.000009727478,0|8,0:0|0:0,0:0:0:0:
336,40,46557,1,0,0:0:0:0:
388,256,46733,6,0,P|348:268|288:260,1,93.5000028533936
186,86,47086,2,0,P|232:80|276:93,1,93.5000028533936,8|0,0:0|0:0,0:0:0:0:
136,252,47439,2,0,L|124:148,1,93.5000028533936
297,263,47792,2,0,L|286:355,1,93.5000028533936,8|0,0:0|0:0,0:0:0:0:
128,264,48145,5,0,0:0:0:0:
132,148,48321,1,0,0:0:0:0:
155,147,48409,1,0,0:0:0:0:
178,146,48497,1,0,0:0:0:0:
202,145,48585,1,0,0:0:0:0:
225,144,48673,1,0,0:0:0:0:
256,124,48763,1,0,0:0:0:0:
272,88,48851,6,0,L|264:32,1,46.7500014266968
368,80,49116,6,0,L|360:164,1,85
324,200,49380,6,0,P|348:196|380:204,1,47.8125018239022
344,280,49557,6,0,L|196:268,1,127.500004863739
60,104,49910,2,0,B|120:76|120:76|192:120,1,127.500004863739,8|0,0:0|0:0,0:0:0:0:
100,356,50263,2,0,B|80:312|108:264|108:264|136:208|108:160,1,191.250007295609
32,212,50616,1,8,0:0:0:0:
180,320,50792,1,0,0:0:0:0:
116,44,50968,6,0,B|64:60|64:60|100:80|140:60|140:60|176:44|224:64,1,191.250007295609
388,120,51321,2,0,P|336:116|272:168,1,127.500004863739,8|0,0:0|0:0,0:0:0:0:
84,312,51674,2,0,L|288:328,1,191.250007295609
344,380,52027,6,0,P|360:340|356:296,1,63.7500024318696,8|0,0:0|0:0,0:0:0:0:
440,232,52204,2,0,P|411:200|369:184,1,63.7500024318696
349,80,52380,2,0,P|307:92|275:122,1,63.7500024318696
173,95,52557,2,0,P|165:137|178:179,1,63.7500024318696
109,260,52733,6,0,P|143:285|187:291,1,63.7500024318696,8|0,0:0|0:0,0:0:0:0:
352,256,53086,6,0,B|304:248|304:248|264:260|264:260|208:248,1,127.500004863739
125,320,53439,6,0,P|111:291|108:259,1,63.7500024318696,8|0,0:0|0:0,0:0:0:0:
28,172,53616,2,0,P|47:147|74:130,1,63.7500024318696
119,19,53792,2,0,P|149:25|176:42,1,63.7500024318696
295,34,53969,2,0,P|302:64|298:96,1,63.7500024318696
360,199,54145,6,0,P|335:219|305:229,1,63.7500024318696,8|0,0:0|0:0,0:0:0:0:
112,188,54498,6,0,L|252:180,1,127.500004863739
432,348,54851,2,0,B|408:320|408:320|368:312|332:328|332:328|288:352|244:336,1,191.250007295609,8|0,0:0|0:0,0:0:0:0:
104,280,55204,6,0,P|164:264|200:184,1,127.500004863739
288,104,55557,2,0,L|160:88,1,127.500004863739,8|0,0:0|0:0,0:0:0:0:
304,244,55910,2,0,L|432:228,1,127.500004863739
344,48,56263,5,8,0:0:0:0:
300,256,56439,1,0,0:0:0:0:
496,188,56616,2,0,L|364:172,1,127.500004863739
176,240,56968,2,0,B|208:196|192:140|192:140|172:88|192:48,1,191.250007295609,8|0,0:0|0:0,0:0:0:0:
108,180,57321,2,0,P|80:148|28:136,1,93.5000028533936
20,248,57674,5,8,0:0:0:0:
108,180,57851,1,0,0:0:0:0:
132,292,58027,6,0,L|276:284,1,140.25000428009
326,328,58380,2,0,P|302:348|238:348,1,93.5000028533936,8|0,0:0|0:0,0:0:0:0:
336,160,58733,6,0,B|392:204|392:204|452:156,1,140.25000428009
502,117,59086,2,0,P|466:125|414:97,1,93.5000028533936,8|0,0:0|0:0,0:0:0:0:
368,36,59439,5,0,0:0:0:0:
360,68,59616,1,0,0:0:0:0:
352,100,59792,1,0,0:0:0:0:
344,132,59968,1,0,0:0:0:0:
336,164,60145,5,0,0:0:0:0:
344,132,60233,1,0,0:0:0:0:
352,100,60322,1,0,0:0:0:0:
360,68,60410,1,0,0:0:0:0:
368,36,60498,6,0,L|300:40,1,63.75
272,72,60851,6,0,B|136:60|136:60|168:80|184:112,1,191.250007295609
352,176,61204,2,0,B|216:188|216:188|248:168|255:150,1,191.250007295609,8|0,0:0|0:0,0:0:0:0:
204,276,61557,1,0,0:0:0:0:
254,150,61733,1,0,0:0:0:0:
340,264,61910,1,8,0:0:0:0:
68,292,62086,1,0,0:0:0:0:
244,16,62263,6,0,L|400:32,1,127.500004863739
408,256,62616,2,0,L|252:272,1,127.500004863739,8|0,0:0|0:0,0:0:0:0:
320,120,62968,1,0,0:0:0:0:
408,256,63145,1,0,0:0:0:0:
200,328,63321,2,0,B|164:332|132:320|132:320|96:308|64:320|64:320|92:340|128:336,1,191.250007295609,8|0,0:0|0:0,0:0:0:0:
168,208,63674,6,0,B|118:170|118:170|70:214,1,127.500004863739
312,244,64027,2,0,L|288:52,1,191.250007295609,8|0,0:0|0:0,0:0:0:0:
304,32,64380,1,0,0:0:0:0:
300,268,64557,1,0,0:0:0:0:
448,52,64733,2,0,P|396:64|372:144,1,140.25000428009,8|0,0:0|0:0,0:0:0:0:
424,336,65086,6,0,B|356:332|356:332|316:352|316:352|212:344,1,191.250007295609
152,276,65439,1,8,0:0:0:0:
276,148,65616,1,0,0:0:0:0:
48,24,65792,6,0,L|72:224,1,191.250007295609
152,276,66145,1,8,0:0:0:0:
276,148,66321,1,0,0:0:0:0:
48,24,66498,6,0,B|44:76|64:116|64:116|92:160|80:220,1,191.250007295609
34,291,66851,2,0,P|90:263|174:295,1,127.500004863739,8|0,0:0|0:0,0:0:0:0:
104,356,67204,1,0,0:0:0:0:
196,148,67380,1,0,0:0:0:0:
136,364,67557,1,8,0:0:0:0:
100,136,67733,1,0,0:0:0:0:
168,364,67910,6,0,L|312:352,1,127.500004863739
424,212,68263,2,0,B|388:196|356:206|356:206|320:216|280:196,1,127.500004863739,8|0,0:0|0:0,0:0:0:0:
332,92,68616,1,0,0:0:0:0:
392,324,68792,1,0,0:0:0:0:
304,72,68968,2,0,L|456:64,1,127.500004863739,8|0,0:0|0:0,0:0:0:0:
280,56,69321,6,0,L|128:48,1,127.500004863739
84,200,69674,2,0,B|140:168|140:168|204:200,1,127.500004863739,8|0,0:0|0:0,0:0:0:0:
144,280,70027,1,0,0:0:0:0:
140,48,70204,1,0,0:0:0:0:
352,304,70380,2,0,B|320:296|288:304|288:304|260:312|224:304|224:304|252:328|256:360,1,191.250007295609,8|0,0:0|0:0,0:0:0:0:
176,368,70733,6,0,L|128:368,1,42.5
101,280,70998,1,0,0:0:0:0:
101,280,71086,2,0,L|143:280,1,42.5
192,200,71351,1,0,0:0:0:0:
192,200,71439,6,0,P|176:200|160:196,1,31.8750012159348
160,112,71616,6,0,P|136:84|128:64,1,42.5
208,44,71792,2,0,P|205:7|211:-13,1,42.5
305,1,71968,2,0,P|307:23|304:44,1,42.5
352,112,72145,6,0,B|380:88|384:64|384:64|400:216,1,191.250007295609
260,316,72498,2,0,B|252:276|267:244|267:244|284:212|276:180,1,127.500004863739,8|0,0:0|0:0,0:0:0:0:
192,92,72851,2,0,B|96:60|96:60|44:164,1,191.250007295609
144,172,73204,1,8,0:0:0:0:
144,172,73380,1,0,0:0:0:0:
392,56,73557,6,0,L|252:48,1,127.500004863739
308,256,73910,2,0,B|348:260|372:240|372:240|400:256|448:248,1,127.500004863739,8|0,0:0|0:0,0:0:0:0:
236,124,74263,2,0,B|204:120|164:136|164:136|120:152|68:144|112:104|168:124,1,191.250007295609
40,172,74616,6,0,P|28:136|36:96,1,63.7500024318696,8|0,0:0|0:0,0:0:0:0:
72,280,74792,2,0,P|84:316|76:356,1,63.7500024318696
236,124,74968,2,0,B|224:94|224:94|226:62,1,63.7500024318696
264,256,75145,2,0,B|275:285|275:285|273:317,1,63.7500024318696
124,216,75321,6,0,P|153:204|185:206,1,63.7500024318696,8|0,0:0|0:0,0:0:0:0:
240,156,75674,6,0,B|288:152|320:188|320:188|372:232|432:204,1,191.250007295609
472,172,76027,6,0,P|484:136|476:96,1,63.7500024318696,8|0,0:0|0:0,0:0:0:0:
440,280,76203,2,0,P|428:316|436:356,1,63.7500024318696
276,124,76379,2,0,B|287:94|287:94|285:62,1,63.7500024318696
248,256,76556,2,0,B|236:285|236:285|238:317,1,63.7500024318696
388,216,76733,6,0,P|358:204|326:206,1,63.7500024318696,8|0,0:0|0:0,0:0:0:0:
248,256,77086,2,0,P|148:276|68:212,1,191.250007295609
152,68,77439,2,0,B|196:56|220:72|220:72|252:88|292:72,1,127.500004863739,8|0,0:0|0:0,0:0:0:0:
396,28,77792,6,0,L|380:164,1,127.500004863739
316,360,78145,2,0,B|320:320|300:292|300:292|280:264|288:228,1,127.500004863739,8|0,0:0|0:0,0:0:0:0:
408,24,78498,2,0,L|392:160,1,127.500004863739
236,344,78851,5,8,0:0:0:0:
367,243,79027,1,0,0:0:0:0:
204,80,79204,2,0,B|152:84|152:84|128:104|128:104|72:108,1,127.500004863739
256,213,79557,2,0,B|292:205|320:229|320:229|344:249|388:241,1,118.999996368408,8|0,0:0|0:0,0:0:0:0:
76,96,79910,2,0,L|72:220,1,110.499994941712
252,332,80263,5,8,0:0:0:0:
188,161,80439,1,0,0:0:0:0:
212,360,80616,2,0,B|256:372|295:348|295:348|336:324|372:336,1,165.749992412568
436,368,80968,5,8,0:0:0:0:
416,144,81145,1,0,0:0:0:0:
212,360,81321,2,0,B|256:368|256:368|336:328|336:328|368:336,1,165.749992412568
436,368,81674,1,8,0:0:0:0:
416,144,81851,1,0,0:0:0:0:
340,180,82027,6,0,P|351:197|370:215,1,42.5
492,184,82292,1,0,0:0:0:0:
492,184,82380,2,0,P|481:201|462:219,1,42.5
389,60,82645,1,0,0:0:0:0:
389,60,82733,6,0,P|410:57|432:60,1,31.8750012159348,0|0,2:0|2:0,0:0:0:0:
288,40,82910,2,0,P|304:26|332:16,1,42.5,0|0,2:0|2:0,0:0:0:0:
196,60,83086,2,0,P|203:39|221:16,1,42.5,0|0,2:0|2:0,0:0:0:0:
128,125,83263,2,0,P|123:104|126:74,1,42.5,0|0,2:0|2:0,0:0:0:0:
256,192,83439,1,0,0:0:0:0:
256,192,83527,12,0,84939,0:0:0:0:
