osu file format v14

[General]
AudioFilename: audio.mp3
AudioLeadIn: 0
PreviewTime: -1
Countdown: 1
SampleSet: Soft
StackLeniency: 0.2
Mode: 0
LetterboxInBreaks: 0
WidescreenStoryboard: 1

[Editor]
Bookmarks: 40027,42057
DistanceSpacing: 1
BeatDivisor: 4
GridSize: 4
TimelineZoom: 2.1

[Metadata]
Title:The Pressure
TitleUnicode:The Pressure
Artist:Stonebank
ArtistUnicode:Stonebank
Creator:[-Chocola-]
Version:Hard
Source:
Tags:
BeatmapID:1214284
BeatmapSetID:573178

[Difficulty]
HPDrainRate:5
CircleSize:4
OverallDifficulty:5
ApproachRate:8.2
SliderMultiplier:1.2
SliderTickRate:2

[Events]
//Background and Video events
0,0,"mai.png",0,0
//Break Periods
2,7580,37543
//Storyboard Layer 0 (Background)
//Storyboard Layer 1 (Fail)
//Storyboard Layer 2 (Pass)
//Storyboard Layer 3 (Foreground)
//Storyboard Sound Samples

[TimingPoints]
2969,352.941176470588,4,2,0,100,1,0
2969,-133.333333333333,4,2,0,100,0,0
38263,-66.6666666666667,4,2,0,100,0,0

[Colours]
Combo1 : 128,255,255
Combo2 : 0,64,128
Combo3 : 214,206,54
Combo4 : 255,255,255

[HitObjects]
76,96,4380,2,0,L|136:100,1,45.0000017166138
188,48,4733,2,0,L|244:44,1,45.0000017166138
324,88,5086,2,0,P|336:116|340:148,1,45.0000017166138
404,192,5439,2,0,P|392:224|372:244,1,45.0000017166138
308,280,5792,2,0,L|204:272,2,90.0000034332277
172,176,6851,1,0,0:0:0:0:
172,176,7204,2,0,P|136:180|112:188,1,45.0000017166138
92,148,38263,6,0,L|188:160,1,90.0000034332276
236,228,38616,2,0,B|284:244|328:224|328:224|372:204|424:228,2,180.000006866455
268,144,39498,1,0,0:0:0:0:
316,68,39674,2,0,P|360:64|424:88,1,90.0000034332276
232,20,40027,2,0,P|192:40|124:40,1,90.0000034332276
52,40,40380,2,0,B|24:84|24:84|48:236,1,180.000006866455
64,300,40910,1,0,0:0:0:0:
124,232,41086,1,0,0:0:0:0:
156,316,41263,1,0,0:0:0:0:
216,252,41439,2,0,L|368:240,1,135.000005149841
380,276,41792,2,0,B|368:228|384:184|384:184|404:136|384:76,1,180.000006866455
312,52,42321,1,0,0:0:0:0:
232,96,42498,1,0,0:0:0:0:
144,76,42674,1,0,0:0:0:0:
92,156,42851,2,0,L|88:292,1,135.000005149841
56,328,43204,2,0,B|108:308|156:328|156:328|204:352|256:336,1,180.000006866455
424,124,43910,2,0,P|372:120|324:148,1,90.0000034332277
292,212,44263,2,0,B|280:260|308:300|308:300|336:336|324:392,2,180.000006866455
338,135,45145,1,0,0:0:0:0:
340,44,45321,2,0,L|228:60,1,90.0000034332277
188,120,45674,2,0,P|132:128|80:104,1,90.0000034332277
24,64,46027,2,0,B|56:104|56:104|68:136|55:167|55:167|44:204|52:252,1,180.000006866455
96,308,46557,1,0,0:0:0:0:
168,256,46733,2,0,P|236:240|296:280,1,135.000005149841
324,300,47086,2,0,P|384:316|436:292,1,90.0000034332277
472,244,47439,2,0,P|463:174|405:131,1,135.000005149841
377,112,47792,2,0,P|341:61|346:4,1,90.0000034332277
428,40,48145,1,0,0:0:0:0:
372,112,48321,1,0,0:0:0:0:
358,111,48409,1,0,0:0:0:0:
345,110,48497,1,0,0:0:0:0:
331,110,48585,1,0,0:0:0:0:
318,109,48673,1,0,0:0:0:0:
304,108,48762,1,0,0:0:0:0:
291,108,48851,2,0,L|144:120,1,135.000005149841
40,48,49380,1,0,0:0:0:0:
40,48,49557,2,0,B|52:96|52:96|40:200,1,135.000005149841
20,220,49910,2,0,P|60:208|124:236,1,90.0000034332277
184,264,50263,2,0,B|224:292|224:292|360:284,1,180.000006866455
412,212,50792,1,0,0:0:0:0:
392,124,50968,2,0,P|340:156|328:200,1,90.0000034332277
480,152,51321,2,0,P|478:90|446:58,1,90.0000034332277
380,36,51674,2,0,B|312:44|312:44|276:68|276:68|176:76,1,180.000006866455
120,52,52204,1,0,0:0:0:0:
68,124,52380,1,0,0:0:0:0:
124,192,52557,1,0,0:0:0:0:
64,256,52733,2,0,L|72:368,1,90.0000034332277
160,360,53086,2,0,B|200:336|248:348|248:348|300:360|340:344,1,180.000006866455
400,280,53616,1,0,0:0:0:0:
340,212,53792,1,0,0:0:0:0:
392,140,53968,1,0,0:0:0:0:
324,84,54145,2,0,L|180:72,1,135.000005149841
156,44,54498,2,0,P|172:96|160:148,1,90.0000034332277
136,216,54851,2,0,P|124:264|136:328,1,90.0000034332277
204,352,55204,2,0,P|252:332|316:344,1,90.0000034332277
376,356,55557,2,0,L|384:188,1,135.000005149841
420,196,55910,2,0,L|408:88,1,90.0000034332277
336,56,56263,1,0,0:0:0:0:
272,116,56439,1,0,0:0:0:0:
192,76,56616,2,0,P|136:64|80:80,1,90.0000034332277
100,160,56968,2,0,P|152:172|196:160,1,90.0000034332277
272,136,57321,2,0,B|320:124|364:140|364:140|412:160|456:140,1,180.000006866455
412,60,57851,1,0,0:0:0:0:
448,143,58027,2,0,P|460:203|456:247,1,90.0000034332277
376,272,58380,2,0,P|372:212|352:160,1,90.0000034332277
292,128,58733,2,0,P|236:124|176:144,1,90.0000034332277
172,216,59086,2,0,P|228:220|272:244,1,90.0000034332277
192,332,59439,1,0,0:0:0:0:
100,336,59616,1,0,0:0:0:0:
12,340,59792,1,0,0:0:0:0:
16,324,59968,1,0,0:0:0:0:
20,312,60145,5,0,0:0:0:0:
25,290,60233,1,0,0:0:0:0:
30,268,60321,1,0,0:0:0:0:
36,246,60409,1,0,0:0:0:0:
41,224,60497,1,0,0:0:0:0:
