osu file format v14

[General]
AudioFilename: audio.mp3
AudioLeadIn: 0
PreviewTime: 113036
Countdown: 0
SampleSet: Soft
StackLeniency: 0.4
Mode: 0
LetterboxInBreaks: 0
WidescreenStoryboard: 0

[Editor]
Bookmarks: 11389,14212,18624,19859,22683,45271,67859,90447,101742,107389,107742,108094,108447,108800,109153,109506,109859,110212,111624,113036,124330,132800,134212,135624,146918,158212,180800,203389,209036,214683,220330,223153,224565,225977,237271,242918,248565,265506,268330,271153,282447,290918,293742,294271,297094,299918,302742,305565,308389,311212,313506,316330
DistanceSpacing: 1.3
BeatDivisor: 4
GridSize: 8
TimelineZoom: 2

[Metadata]
Title:Stronger (feat. Emel)
TitleUnicode:Stronger (feat. Emel)
Artist:Stonebank
ArtistUnicode:Stonebank
Creator:Zukoia
Version:Perseverance
Source:
Tags:monstercat dnb drumstep dubstep female vocal hardcore hard techno edm electro drum and bass marathon
BeatmapID:1939951
BeatmapSetID:928805

[Difficulty]
HPDrainRate:6
CircleSize:4.3
OverallDifficulty:8.5
ApproachRate:9.2
SliderMultiplier:1.6
SliderTickRate:2

[Events]
//Background and Video events
0,0,"Vibrating-energy-.jpg",0,0
//Break Periods
2,90647,99942
//Storyboard Layer 0 (Background)
//Storyboard Layer 1 (Fail)
//Storyboard Layer 2 (Pass)
//Storyboard Layer 3 (Foreground)
//Storyboard Layer 4 (Overlay)
//Storyboard Sound Samples

[TimingPoints]
95,352.941176470588,4,2,1,60,1,0
95,-142.857142857143,4,2,1,60,0,0
5742,-125,4,2,1,60,0,0
9977,-111.111111111111,4,2,1,70,0,0
11389,-100,4,2,1,80,0,0
14212,-58.8235294117647,4,2,1,80,0,0
14565,-100,4,2,1,80,0,0
17036,-66.6666666666667,4,2,1,80,0,0
17389,-100,4,2,1,80,0,0
22330,-100,4,2,1,30,0,0
22683,-200,4,2,0,50,0,0
23742,-142.857142857143,4,2,0,50,0,0
25506,-200,4,2,0,50,0,0
26565,-142.857142857143,4,2,0,50,0,0
28330,-200,4,2,0,50,0,0
29212,-142.857142857143,4,2,0,50,0,0
31153,-200,4,2,0,50,0,0
31506,-142.857142857143,4,2,0,50,0,0
33977,-200,4,2,0,50,0,0
34859,-142.857142857143,4,2,0,50,0,0
36800,-200,4,2,0,50,0,0
37683,-142.857142857143,4,2,0,50,0,0
39624,-200,4,2,0,50,0,0
39977,-142.857142857143,4,2,0,50,0,0
41742,-142.857142857143,4,2,0,10,0,0
42094,-142.857142857143,4,2,0,50,0,0
43859,-142.857142857143,4,2,0,10,0,0
45271,-125,4,2,0,60,0,0
48094,-142.857142857143,4,2,0,60,0,0
48800,-125,4,2,0,60,0,0
50742,-166.666666666667,4,2,0,60,0,0
53565,-166.666666666667,4,2,0,10,0,0
53742,-200,4,2,0,60,0,0
56565,-125,4,2,0,60,0,0
59389,-142.857142857143,4,2,0,60,0,0
60094,-125,4,2,0,60,0,0
61506,-166.666666666667,4,2,0,60,0,0
62036,-200,4,2,0,60,0,0
64859,-200,4,2,1,20,0,0
67506,-200,4,2,1,90,0,0
67859,-100,4,2,1,90,0,0
79153,-90.9090909090909,4,2,1,90,0,0
101742,-100,4,2,1,90,0,0
102800,-90.9090909090909,4,2,1,90,0,0
103330,-83.3333333333333,4,2,1,90,0,0
103859,-76.9230769230769,4,2,1,90,0,0
108094,-71.4285714285714,4,2,1,90,0,0
109859,-66.6666666666667,4,2,1,90,0,0
111624,-83.3333333333333,4,2,1,90,0,0
113036,-71.4285714285714,4,2,1,100,0,1
135271,-100,4,2,1,100,0,1
135624,-55.5555555555556,4,2,1,100,0,0
135977,-76.9230769230769,4,2,1,100,0,0
141271,-55.5555555555556,4,2,1,100,0,0
141624,-76.9230769230769,4,2,1,100,0,0
146212,-125,4,2,1,100,0,0
146477,-62.5,4,2,1,100,0,0
146918,-58.8235294117647,4,2,1,100,0,0
147447,-90.9090909090909,4,2,1,100,0,0
152565,-66.6666666666667,4,2,1,100,0,0
153094,-90.9090909090909,4,2,1,100,0,0
155918,-111.111111111111,4,2,1,70,0,0
156447,-125,4,2,1,70,0,0
156977,-142.857142857143,4,2,1,70,0,0
157330,-166.666666666666,4,2,1,70,0,0
157683,-200,4,2,1,70,0,0
158212,-200,4,2,0,50,0,0
159271,-142.857142857143,4,2,0,50,0,0
161036,-200,4,2,0,50,0,0
162094,-142.857142857143,4,2,0,50,0,0
163859,-200,4,2,0,50,0,0
164742,-142.857142857143,4,2,0,50,0,0
166683,-200,4,2,0,50,0,0
167036,-142.857142857143,4,2,0,50,0,0
169506,-200,4,2,0,50,0,0
170389,-142.857142857143,4,2,0,50,0,0
172330,-200,4,2,0,50,0,0
173212,-142.857142857143,4,2,0,50,0,0
175153,-200,4,2,0,50,0,0
175506,-142.857142857143,4,2,0,50,0,0
179389,-142.857142857143,4,2,0,10,0,0
180800,-100,4,2,0,60,0,0
183624,-200,4,2,0,60,0,0
184330,-100,4,2,0,60,0,0
185742,-125,4,2,0,60,0,0
186271,-200,4,2,0,60,0,0
189094,-200,4,2,0,20,0,0
189271,-166.666666666667,4,2,0,60,0,0
191742,-166.666666666667,4,2,0,30,0,0
192094,-100,4,2,0,60,0,0
194918,-166.666666666667,4,2,0,60,0,0
197036,-125,4,2,0,60,0,0
197565,-200,4,2,0,60,0,0
200389,-200,4,2,0,30,0,0
200565,-200,4,2,0,70,0,0
203389,-111.111111111111,4,2,1,70,0,0
209036,-99.9999999999999,4,2,1,70,0,0
214683,-71.4285714285714,4,2,1,70,0,0
215036,-100,4,2,1,70,0,0
217859,-83.3333333333333,4,2,1,70,0,0
224389,-83.3333333333333,4,2,1,20,0,0
224565,-66.6666666666667,4,2,1,90,0,0
225977,-58.8235294117647,4,2,1,90,0,1
226506,-71.4285714285714,4,2,1,90,0,1
242918,-62.5,4,2,1,90,0,1
248389,-62.5,4,2,1,90,0,0
248565,-58.8235294117647,4,2,1,90,0,1
249094,-71.4285714285714,4,2,1,90,0,1
254212,-90.9090909090909,4,2,1,90,0,1
254742,-71.4285714285714,4,2,1,90,0,1
258977,-62.5,4,2,1,90,0,1
260389,-71.4285714285714,4,2,1,90,0,1
262683,-83.3333333333333,4,2,1,90,0,1
263212,-76.9230769230769,4,2,1,90,0,1
265506,-62.5,4,2,1,90,0,0
271153,-71.4285714285714,4,2,1,90,0,1
293742,-100,4,2,1,90,0,0
304330,-125,4,2,1,90,0,0
304683,-166.666666666667,4,2,1,90,0,0
305036,-111.111111111111,4,2,1,90,0,0
305742,-125,4,2,1,90,0,0

[Colours]
Combo1 : 255,160,66
Combo2 : 255,128,128
Combo3 : 113,186,253

[HitObjects]
417,68,95,6,0,L|377:128,1,55.9999982910157,4|0,0:0|0:0,0:0:0:0:
316,65,447,2,0,L|298:135,1,55.9999982910157,0|0,0:0|0:0,0:0:0:0:
220,96,800,2,0,L|227:167,1,55.9999982910157,0|0,0:0|0:0,0:0:0:0:
140,157,1153,2,0,L|171:221,1,55.9999982910157,0|0,0:0|0:0,0:0:0:0:
131,357,1506,6,0,L|151:287,1,55.9999982910157,0|0,0:0|0:0,0:0:0:0:
63,281,1859,2,0,L|107:235,1,55.9999982910157
25,187,2212,2,0,L|89:146,1,55.9999982910157
21,87,2565,2,0,L|79:72,1,55.9999982910157
198,108,2918,6,0,L|163:45,1,55.9999982910157,4|0,0:0|0:0,0:0:0:0:
257,173,3271,2,0,L|294:111,1,55.9999982910157
191,231,3624,2,0,L|156:168,1,55.9999982910157,0|0,0:0|0:0,0:0:0:0:
250,296,3977,2,0,L|287:234,1,55.9999982910157,0|0,0:0|0:0,0:0:0:0:
416,305,4330,6,0,L|475:353,1,55.9999982910157,0|0,0:0|0:0,0:0:0:0:
406,225,4683,2,0,L|479:243,1,55.9999982910157,0|0,0:0|0:0,0:0:0:0:
363,156,5036,2,0,L|437:141,1,55.9999982910157
294,111,5389,2,0,L|355:66,1,55.9999982910157,0|0,0:0|0:0,0:0:0:0:
204,18,5742,6,0,P|179:53|178:93,1,64
104,40,6094,2,0,P|100:83|119:118,1,64,0|0,0:0|0:0,0:0:0:0:
30,110,6447,2,0,P|48:149|82:170,1,64,0|0,0:0|0:0,0:0:0:0:
1,207,6800,2,0,P|36:231|76:232,1,64,0|0,0:0|0:0,0:0:0:0:
216,303,7153,6,0,P|207:255|192:223,1,64,0|0,0:0|0:0,0:0:0:0:
280,240,7506,2,0,P|289:192|304:160,1,64,0|0,0:0|0:0,0:0:0:0:
216,155,7859,2,0,P|207:107|192:75,1,64,0|0,0:0|0:0,0:0:0:0:
280,92,8212,2,0,P|289:44|304:12,1,64,0|0,0:0|0:0,0:0:0:0:
469,57,8565,6,0,P|416:76|384:72,1,64
424,180,8918,2,0,P|369:165|345:143,1,64,0|0,0:0|0:0,0:0:0:0:
316,254,9271,2,0,P|280:210|272:179,1,64,0|0,0:0|0:0,0:0:0:0:
185,252,9624,2,0,P|180:195|192:166,1,64,0|0,0:0|0:0,0:0:0:0:
120,77,9977,6,0,L|219:40,1,71.9999978027344,0|0,0:0|0:0,0:0:0:0:
396,72,10330,2,0,L|297:35,2,71.9999978027344,0|0|0,0:0|0:0|0:0,0:0:0:0:
396,72,11389,6,0,P|413:158|384:231,1,160,6|0,0:0|0:0,0:0:0:0:
415,313,11918,1,0,0:0:0:0:
313,209,12094,1,0,0:0:0:0:
273,62,12271,5,0,0:0:0:0:
273,74,12359,1,0,0:0:0:0:
272,87,12447,2,0,P|214:107|167:94,1,80,0|2,0:0|0:0,0:0:0:0:
89,51,12800,1,0,0:0:0:0:
62,200,12977,5,0,0:0:0:0:
62,212,13065,1,0,0:0:0:0:
63,225,13153,2,0,P|121:245|168:232,1,80,0|2,0:0|0:0,0:0:0:0:
242,178,13506,1,0,0:0:0:0:
250,315,13683,5,0,0:0:0:0:
250,327,13771,1,0,0:0:0:0:
249,340,13859,2,0,P|191:360|144:347,1,80,0|2,0:0|0:0,0:0:0:0:
85,326,14212,2,0,P|92:264|165:274,1,136.000002593994,2|0,0:0|0:0,0:0:0:0:
197,182,14565,5,0,0:0:0:0:
316,320,14742,1,0,0:0:0:0:
197,182,14918,1,0,0:0:0:0:
259,82,15094,5,0,0:0:0:0:
267,91,15183,1,0,0:0:0:0:
276,99,15271,2,0,P|320:65|341:24,1,80,0|2,0:0|0:0,0:0:0:0:
175,98,15624,1,0,0:0:0:0:
285,181,15800,5,0,0:0:0:0:
291,191,15889,1,0,0:0:0:0:
299,200,15977,2,0,P|347:174|375:137,1,80,0|2,0:0|0:0,0:0:0:0:
204,204,16330,1,0,0:0:0:0:
310,283,16506,5,0,0:0:0:0:
313,294,16595,1,0,0:0:0:0:
320,304,16683,2,0,P|372:287|407:256,1,80,0|2,0:0|0:0,0:0:0:0:
443,184,17036,2,0,B|385:107|385:107|348:98,1,120.000004577637,2|0,0:0|0:0,0:0:0:0:
320,185,17389,5,0,0:0:0:0:
439,34,17565,1,0,0:0:0:0:
320,185,17742,1,0,0:0:0:0:
261,35,17918,5,0,0:0:0:0:
253,43,18006,1,0,0:0:0:0:
245,52,18094,2,0,P|188:62|153:54,1,80,0|2,0:0|0:0,0:0:0:0:
92,11,18447,1,0,0:0:0:0:
92,147,18624,5,0,0:0:0:0:
100,155,18712,1,0,0:0:0:0:
108,164,18800,2,0,P|165:174|200:166,1,80,0|2,0:0|0:0,0:0:0:0:
276,123,19153,1,0,0:0:0:0:
251,274,19330,5,0,0:0:0:0:
243,282,19418,1,0,0:0:0:0:
235,291,19506,2,0,P|178:301|143:293,1,80,0|2,0:0|0:0,0:0:0:0:
27,205,19859,1,4,0:0:0:0:
256,192,19947,12,0,22330,0:0:0:0:
233,78,22683,6,0,P|320:55|390:136,1,200,2|0,0:0|0:0,0:0:0:0:
374,224,23742,2,0,P|426:225|447:209,1,55.9999982910157,2|0,0:0|0:0,0:0:0:0:
481,142,24094,2,0,P|503:169|515:199,1,55.9999982910157,0|0,0:0|0:0,0:0:0:0:
296,278,24624,2,0,P|245:319|180:323,1,111.999996582031,0|0,0:0|0:0,0:0:0:0:
205,231,25153,1,0,0:0:0:0:
42,179,25506,6,0,P|18:90|111:43,1,200,2|0,0:0|0:0,0:0:0:0:
134,123,26565,2,0,P|167:100|184:69,1,55.9999982910157,2|0,0:0|0:0,0:0:0:0:
217,22,26918,1,0,0:0:0:0:
242,28,27094,2,0,P|270:83|256:145,1,111.999996582031
251,223,27624,2,0,B|350:222|317:161|421:161,1,167.999994873047,2|0,0:0|0:0,0:0:0:0:
512,172,28330,6,0,P|496:235|403:248,1,160,2|0,0:0|0:0,0:0:0:0:
348,199,29212,1,0,0:0:0:0:
291,254,29389,2,0,P|279:285|276:321,1,55.9999982910157,2|0,0:0|0:0,0:0:0:0:
90,334,29918,2,0,P|102:303|105:267,1,55.9999982910157,2|0,0:0|0:0,0:0:0:0:
3,94,30447,2,0,P|58:83|120:98,1,111.999996582031
284,237,31153,5,2,0:0:0:0:
284,237,31506,2,0,P|315:280|332:294,1,55.9999982910157
396,317,31859,2,0,P|425:270|442:260,1,55.9999982910157,2|0,0:0|0:0,0:0:0:0:
477,215,32212,2,0,P|442:174|421:158,1,55.9999982910157
452,85,32565,2,0,P|394:96|353:136,1,111.999996582031,2|0,0:0|0:0,0:0:0:0:
340,281,33271,2,0,P|276:262|244:226,1,111.999996582031,2|0,0:0|0:0,0:0:0:0:
64,100,33977,6,0,P|53:178|123:193,1,160,2|0,0:0|0:0,0:0:0:0:
174,121,34859,2,0,L|229:139,2,55.9999982910157,2|0|0,0:0|0:0|0:0,0:0:0:0:
161,197,35389,2,0,L|212:224,1,55.9999982910157,2|0,0:0|0:0,0:0:0:0:
135,269,35742,2,0,L|180:304,1,55.9999982910157,2|0,0:0|0:0,0:0:0:0:
255,349,36094,2,0,P|288:312|310:236,1,111.999996582031
445,165,36800,6,0,P|464:114|380:54,1,160,2|0,0:0|0:0,0:0:0:0:
320,85,37683,1,2,0:0:0:0:
320,85,37859,2,0,L|299:145,1,55.9999982910157,2|0,0:0|0:0,0:0:0:0:
234,102,38212,2,0,L|223:164,1,55.9999982910157,2|0,0:0|0:0,0:0:0:0:
152,133,38565,2,0,L|152:196,1,55.9999982910157,2|0,0:0|0:0,0:0:0:0:
76,177,38918,2,0,L|95:296,1,111.999996582031,2|0,0:0|0:0,0:0:0:0:
319,354,39624,5,2,0:0:0:0:
319,354,39977,2,0,L|345:278,1,55.9999982910157,2|0,0:0|0:0,0:0:0:0:
451,215,40330,2,0,L|372:230,1,55.9999982910157,2|0,0:0|0:0,0:0:0:0:
264,170,40683,2,0,L|316:230,1,55.9999982910157,2|0,0:0|0:0,0:0:0:0:
447,344,41036,2,0,B|366:336|356:262|356:262|391:222|361:166,1,223.999993164063
257,94,42094,6,0,L|190:122,1,55.9999982910157,2|0,0:0|0:0,0:0:0:0:
135,243,42447,2,0,L|144:170,1,55.9999982910157,2|0,0:0|0:0,0:0:0:0:
66,62,42800,2,0,L|123:106,1,55.9999982910157,2|0,0:0|0:0,0:0:0:0:
244,221,43153,2,0,B|215:173|155:159|155:159|203:123|179:50,1,223.999993164063
205,115,45271,6,0,P|260:69|331:68,1,128,6|0,0:0|0:0,0:0:0:0:
149,203,45800,2,0,P|94:157|28:155,1,128,2|0,0:0|0:0,0:0:0:0:
201,287,46330,2,0,P|256:241|385:278,1,192,2|0,0:0|0:0,0:0:0:0:
409,348,47036,1,2,0:0:0:0:
409,348,47389,6,0,L|335:338,1,64,2|0,0:0|0:0,0:0:0:0:
209,326,47742,1,2,0:0:0:0:
60,203,48094,6,0,P|87:143|186:167,1,167.999994873047,2|0,0:0|0:0,0:0:0:0:
169,234,48800,2,0,L|247:205,1,64,2|0,0:0|0:0,0:0:0:0:
382,163,49153,1,2,0:0:0:0:
382,163,50212,6,0,P|317:140|290:81,1,128,2|0,0:0|0:0,0:0:0:0:
245,27,50742,6,0,B|201:63|135:42|135:42|192:90|162:163|162:163|91:266|-10:175|69:81|161:167|161:167|223:226|172:290|172:290|232:269|283:303,1,767.999976562501,2|0,0:0|0:0,0:0:0:0:
357,346,53742,6,0,B|431:328|435:258|435:258|411:159|332:193|332:193|327:286|436:257|436:257|498:209|476:129,1,560,2|0,0:0|0:0,0:0:0:0:
338,56,56565,6,0,P|287:30|197:28,1,128,6|0,0:0|0:0,0:0:0:0:
61,141,57094,2,0,P|113:114|202:113,1,128,2|0,0:0|0:0,0:0:0:0:
331,238,57624,2,0,P|252:206|138:262,1,192,2|0,0:0|0:0,0:0:0:0:
109,334,58330,1,2,0:0:0:0:
109,334,58683,6,0,L|184:334,1,64,2|0,0:0|0:0,0:0:0:0:
298,330,59036,1,2,0:0:0:0:
419,205,59389,6,0,P|459:147|379:104,1,167.999994873047,2|0,0:0|0:0,0:0:0:0:
332,162,60094,2,0,L|264:163,1,64,2|0,0:0|0:0,0:0:0:0:
154,161,60447,1,2,0:0:0:0:
118,176,61506,6,0,L|28:128,1,95.9999970703126,2|2,0:0|0:0,0:0:0:0:
74,69,62036,6,0,B|171:-3|172:130|369:95|352:-5|352:-5|257:-2|247:184|384:138|345:251,1,640,2|0,0:0|0:0,0:0:0:0:
256,192,65036,12,0,67506,0:0:0:0:
201,93,67859,6,0,P|145:116|97:108,1,80,6|2,0:0|0:0,0:0:0:0:
76,210,68212,2,0,P|132:187|180:195,1,80,2|0,0:0|0:0,0:0:0:0:
139,272,68918,5,2,0:0:0:0:
365,247,69094,2,2,B|383:146|431:215|461:121,1,160,2|0,0:0|0:0,0:0:0:0:
357,40,69624,1,2,0:0:0:0:
357,40,69977,1,2,0:0:0:0:
357,40,70330,5,2,0:0:0:0:
167,118,70506,2,2,B|93:80|93:80|-4:85,1,160,2|0,0:0|0:0,0:0:0:0:
64,249,71036,1,2,0:0:0:0:
64,249,71389,1,2,0:0:0:0:
64,249,71742,5,2,0:0:0:0:
271,360,71918,2,2,L|418:243,1,160,2|0,0:0|0:0,0:0:0:0:
390,148,72447,1,2,0:0:0:0:
390,148,72800,1,2,0:0:0:0:
390,148,73153,5,2,0:0:0:0:
273,21,73330,1,2,0:0:0:0:
188,147,73506,2,2,P|259:200|283:276,1,160,2|0,0:0|0:0,0:0:0:0:
94,308,74036,1,2,0:0:0:0:
94,308,74565,5,2,0:0:0:0:
47,131,74742,2,2,B|96:63|144:140|192:39,1,160,2|0,0:0|0:0,0:0:0:0:
320,20,75271,1,2,0:0:0:0:
320,20,75624,1,2,0:0:0:0:
320,20,75977,5,2,0:0:0:0:
435,136,76153,1,2,0:0:0:0:
332,298,76330,2,2,L|292:221,1,80,2|0,0:0|0:0,0:0:0:0:
218,51,76683,1,2,0:0:0:0:
218,51,77036,5,2,0:0:0:0:
80,112,77212,1,2,0:0:0:0:
199,215,77389,1,2,0:0:0:0:
44,307,77565,2,2,B|102:362|102:362|199:367,1,160,2|2,0:0|0:0,0:0:0:0:
457,253,78271,5,2,0:0:0:0:
279,183,78447,1,2,0:0:0:0:
468,139,78624,1,2,0:0:0:0:
269,41,78800,2,2,L|352:79,1,80,2|2,0:0|0:0,0:0:0:0:
468,139,79153,6,2,B|439:200|375:190|375:190|376:228|342:252,1,176.000005371094,2|0,0:0|0:0,0:0:0:0:
499,340,79683,1,2,0:0:0:0:
499,340,80212,5,2,0:0:0:0:
279,323,80389,2,0,L|117:241,1,176.000005371094,2|0,0:0|0:0,0:0:0:0:
28,133,80918,1,2,0:0:0:0:
28,133,81271,1,2,0:0:0:0:
28,133,81624,5,2,0:0:0:0:
213,160,81800,2,2,P|292:114|273:30,1,176.000005371094,2|0,0:0|0:0,0:0:0:0:
140,60,82330,1,2,0:0:0:0:
140,60,82683,1,2,0:0:0:0:
140,60,83036,5,2,0:0:0:0:
122,242,83212,2,2,B|157:298|157:298|210:300|210:300|248:351,1,176.000005371094,2|0,0:0|0:0,0:0:0:0:
378,364,83742,1,2,0:0:0:0:
378,364,84094,1,2,0:0:0:0:
378,364,84447,5,2,0:0:0:0:
499,238,84624,1,2,0:0:0:0:
424,64,84800,2,2,P|383:124|270:108,1,176.000005371094,2|0,0:0|0:0,0:0:0:0:
110,20,85330,1,2,0:0:0:0:
110,20,85859,5,2,0:0:0:0:
115,249,86036,2,2,B|31:201|108:162|19:103,1,176.000005371094,2|0,0:0|0:0,0:0:0:0:
37,312,86565,1,2,0:0:0:0:
37,312,86918,1,2,0:0:0:0:
37,312,87271,5,2,0:0:0:0:
153,362,87447,1,2,0:0:0:0:
246,163,87624,2,2,B|286:112|286:112|279:52|279:52|321:5,1,176.000005371094
445,130,88330,5,2,0:0:0:0:
453,284,88506,1,2,0:0:0:0:
349,131,88683,1,2,0:0:0:0:
348,278,88859,2,2,P|235:263|184:214,1,176.000005371094
210,24,89565,5,2,0:0:0:0:
59,89,89742,1,2,0:0:0:0:
103,251,89918,1,2,0:0:0:0:
213,168,90094,1,2,0:0:0:0:
146,111,90271,1,2,0:0:0:0:
332,352,90447,5,6,0:0:0:0:
148,59,101742,5,0,0:0:0:0:
51,148,101918,1,0,0:0:0:0:
135,248,102094,5,0,0:0:0:0:
235,162,102271,2,0,B|272:129|272:129|336:122,1,80,2|0,0:0|0:0,0:0:0:0:
138,232,102624,5,0,0:0:0:0:
287,182,102801,2,0,B|337:164|337:164|403:180,1,88.000002685547,2|0,0:0|0:0,0:0:0:0:
141,215,103153,5,0,0:0:0:0:
318,226,103330,2,0,B|373:227|373:227|427:263,1,95.9999970703126,2|0,0:0|0:0,0:0:0:0:
144,196,103683,5,0,0:0:0:0:
329,283,103860,2,0,B|382:304|382:304|419:355,1,103.999995239258,2|0,0:0|0:0,0:0:0:0:
202,345,104212,5,0,0:0:0:0:
66,280,104389,2,0,P|32:221|36:156,1,103.999995239258
86,73,104742,5,0,0:0:0:0:
237,49,104918,2,2,P|301:31|354:51,1,103.999995239258,2|0,0:0|0:0,0:0:0:0:
78,89,105271,5,0,0:0:0:0:
250,91,105447,2,0,P|317:91|362:123,1,103.999995239258,2|0,0:0|0:0,0:0:0:0:
69,106,105800,5,0,0:0:0:0:
248,137,105977,2,0,P|312:154|348:197,1,103.999995239258,2|0,0:0|0:0,0:0:0:0:
61,126,106330,5,0,0:0:0:0:
239,183,106506,2,0,P|296:216|319:267,1,103.999995239258,2|0,0:0|0:0,0:0:0:0:
53,147,106859,5,0,0:0:0:0:
213,221,107036,2,0,P|260:268|269:323,1,103.999995239258,2|0,0:0|0:0,0:0:0:0:
411,313,107389,5,10,0:0:0:0:
429,295,107477,1,0,0:0:0:0:
441,272,107565,1,0,0:0:0:0:
446,246,107653,1,0,0:0:0:0:
439,222,107742,6,0,L|487:184,1,51.999997619629,10|0,0:0|0:0,0:0:0:0:
461,61,107918,2,0,L|409:106,1,51.999997619629
346,168,108094,5,10,0:0:0:0:
329,190,108182,1,0,0:0:0:0:
307,207,108270,1,0,0:0:0:0:
281,216,108358,1,0,0:0:0:0:
253,218,108447,5,10,0:0:0:0:
231,182,108535,1,0,0:0:0:0:
196,158,108623,1,0,0:0:0:0:
156,150,108711,1,0,0:0:0:0:
112,151,108800,6,2,L|103:222,1,55.9999982910157,10|2,0:0|0:0,0:0:0:0:
22,211,108977,2,0,L|54:278,1,55.9999982910157,8|0,0:0|0:0,0:0:0:0:
112,364,109153,2,0,L|121:293,1,55.9999982910157,8|0,0:0|0:0,0:0:0:0:
216,313,109330,2,0,L|184:246,1,55.9999982910157,8|0,0:0|0:0,0:0:0:0:
37,116,109506,5,8,0:0:0:0:
41,74,109594,1,0,0:0:0:0:
67,42,109683,1,8,0:0:0:0:
106,30,109770,1,0,0:0:0:0:
149,34,109859,5,8,0:0:0:0:
208,43,109947,1,0,0:0:0:0:
267,53,110035,1,8,0:0:0:0:
326,63,110123,1,0,0:0:0:0:
256,192,110212,12,0,111447,0:0:0:0:
256,192,111624,5,8,0:0:0:0:
313,49,111800,5,8,0:0:0:0:
331,72,111888,1,0,0:0:0:0:
350,95,111976,1,8,0:0:0:0:
312,48,112153,5,8,0:0:0:0:
336,80,112241,1,0,0:0:0:0:
360,111,112330,1,8,0:0:0:0:
385,143,112417,1,0,0:0:0:0:
409,175,112505,1,8,0:0:0:0:
433,207,112594,1,0,0:0:0:0:
456,242,112683,2,0,L|458:347,1,95.9999970703126,8|0,0:0|0:0,0:0:0:0:
359,346,113036,6,0,B|253:256|242:369|148:265,1,223.999993164063,6|0,0:0|0:0,0:0:0:0:
119,135,113565,1,0,0:0:0:0:
116,351,113742,1,0,0:0:0:0:
233,230,113918,1,0,0:0:0:0:
53,77,114094,1,2,0:0:0:0:
215,106,114271,6,2,B|266:114|278:67|317:80|317:80|370:102|422:77|432:41,1,223.999993164063
417,266,114800,1,0,0:0:0:0:
360,16,114977,1,0,0:0:0:0:
477,143,115153,2,0,L|356:190,1,111.999996582031
166,259,115506,5,2,0:0:0:0:
232,128,115683,1,2,0:0:0:0:
327,364,115859,1,0,0:0:0:0:
253,220,116036,1,0,0:0:0:0:
33,311,116212,2,0,L|103:221,1,111.999996582031,2|0,0:0|0:0,0:0:0:0:
80,43,116565,6,0,P|133:122|290:142,1,223.999993164063,2|0,0:0|0:0,0:0:0:0:
211,39,117094,1,0,0:0:0:0:
331,239,117271,1,2,0:0:0:0:
384,111,117447,1,0,0:0:0:0:
171,285,117624,1,2,0:0:0:0:
171,285,117977,6,2,L|60:210,1,111.999996582031
265,102,118330,2,2,L|368:16,1,111.999996582031
459,305,118683,6,0,B|368:303|368:303|340:268|340:268|233:267,1,223.999993164063,2|0,0:0|0:0,0:0:0:0:
248,343,119212,1,0,0:0:0:0:
170,102,119389,1,0,0:0:0:0:
281,165,119565,1,0,0:0:0:0:
73,344,119742,1,2,0:0:0:0:
39,214,119918,6,0,B|138:124|24:80|153:11,1,223.999993164063,2|0,0:0|0:0,0:0:0:0:
176,225,120447,1,0,0:0:0:0:
244,85,120624,1,0,0:0:0:0:
259,350,120800,2,0,L|127:300,1,111.999996582031,2|0,0:0|0:0,0:0:0:0:
20,181,121153,5,2,0:0:0:0:
74,45,121330,1,2,0:0:0:0:
90,292,121506,1,2,0:0:0:0:
171,179,121683,1,0,0:0:0:0:
364,343,121859,2,0,L|313:237,1,111.999996582031,2|0,0:0|0:0,0:0:0:0:
176,344,122212,5,2,0:0:0:0:
176,344,122389,1,2,0:0:0:0:
256,96,122565,2,2,L|256:227,1,111.999996582031,2|0,0:0|0:0,0:0:0:0:
260,371,122918,5,2,0:0:0:0:
136,261,123094,1,0,0:0:0:0:
349,60,123271,1,2,0:0:0:0:
345,237,123447,1,0,0:0:0:0:
134,25,123624,5,10,0:0:0:0:
60,122,123800,1,8,0:0:0:0:
71,147,123888,1,0,0:0:0:0:
83,174,123977,2,0,L|146:198,1,55.9999982910157,8|0,0:0|0:0,0:0:0:0:
336,133,124153,2,0,L|261:107,1,55.9999982910157,8|0,0:0|0:0,0:0:0:0:
221,32,124330,6,0,B|148:139|266:141|196:274,1,223.999993164063,6|0,0:0|0:0,0:0:0:0:
148,336,124859,1,0,0:0:0:0:
56,116,125036,1,2,0:0:0:0:
53,233,125212,1,0,0:0:0:0:
276,101,125389,1,2,0:0:0:0:
271,217,125565,6,0,B|409:210|337:121|467:93,1,223.999993164063,2|0,0:0|0:0,0:0:0:0:
417,335,126094,1,2,0:0:0:0:
476,189,126271,1,0,0:0:0:0:
290,338,126447,2,0,P|267:261|272:195,1,111.999996582031,2|0,0:0|0:0,0:0:0:0:
355,22,126800,5,2,0:0:0:0:
215,114,126977,1,0,0:0:0:0:
471,212,127153,1,2,0:0:0:0:
328,121,127330,1,0,0:0:0:0:
187,301,127506,1,2,0:0:0:0:
120,150,127683,1,0,0:0:0:0:
199,42,127859,6,0,P|123:18|-6:110,1,223.999993164063,2|0,0:0|0:0,0:0:0:0:
17,218,128389,1,0,0:0:0:0:
230,105,128565,1,2,0:0:0:0:
216,240,128742,1,0,0:0:0:0:
360,18,128918,1,2,0:0:0:0:
360,18,129271,6,2,L|382:170,1,111.999996582031
478,362,129624,2,2,L|453:231,1,111.999996582031
462,61,129977,6,0,B|447:173|447:173|334:238,1,223.999993164063,2|0,0:0|0:0,0:0:0:0:
233,290,130506,1,2,0:0:0:0:
231,54,130683,1,0,0:0:0:0:
320,150,130859,1,0,0:0:0:0:
94,259,131036,1,2,0:0:0:0:
71,43,131212,6,0,B|131:100|131:100|147:156|147:156|223:224,1,223.999993164063,2|0,0:0|0:0,0:0:0:0:
72,340,131742,1,2,0:0:0:0:
68,166,131918,1,0,0:0:0:0:
276,348,132094,2,0,P|332:298|339:237,1,111.999996582031,2|0,0:0|0:0,0:0:0:0:
325,64,132447,1,2,0:0:0:0:
229,213,132624,1,2,0:0:0:0:
221,45,132800,1,0,0:0:0:0:
347,284,132977,5,8,0:0:0:0:
434,333,133153,1,8,0:0:0:0:
482,244,133330,1,8,0:0:0:0:
392,199,133506,1,8,0:0:0:0:
358,82,133683,1,8,0:0:0:0:
351,285,133859,1,8,0:0:0:0:
297,175,134036,1,8,0:0:0:0:
241,340,134212,5,10,0:0:0:0:
251,309,134300,1,0,0:0:0:0:
247,277,134388,1,0,0:0:0:0:
228,251,134476,1,0,0:0:0:0:
199,236,134564,5,10,0:0:0:0:
167,228,134653,1,0,0:0:0:0:
135,220,134741,1,0,0:0:0:0:
105,207,134829,1,0,0:0:0:0:
81,186,134917,5,10,0:0:0:0:
68,156,135006,1,0,0:0:0:0:
73,124,135094,1,0,0:0:0:0:
94,100,135182,1,0,0:0:0:0:
126,98,135271,6,0,P|163:144|215:159,1,80,10|0,0:0|0:0,0:0:0:0:
253,11,135624,6,0,P|259:84|299:23,1,143.999995605469,2|0,0:0|0:0,0:0:0:0:
414,48,135977,1,0,0:0:0:0:
426,219,136153,2,0,L|440:331,1,103.999995239258,2|0,0:0|0:0,0:0:0:0:
297,322,136506,5,0,0:0:0:0:
309,151,136682,2,0,L|323:39,1,103.999995239258,2|0,0:0|0:0,0:0:0:0:
178,55,137036,5,0,0:0:0:0:
190,226,137212,2,0,L|204:338,1,103.999995239258,2|0,0:0|0:0,0:0:0:0:
62,334,137565,6,0,L|76:222,1,103.999995239258,2|0,0:0|0:0,0:0:0:0:
90,63,137918,5,0,0:0:0:0:
263,142,138094,1,2,0:0:0:0:
90,63,138271,1,0,0:0:0:0:
263,142,138447,6,0,B|229:220|229:220|264:246|264:246|230:329,1,207.999990478516,4|0,0:0|0:0,0:0:0:0:
342,74,138977,2,0,L|477:28,1,103.999995239258,2|0,0:0|0:0,0:0:0:0:
400,212,139330,5,0,0:0:0:0:
162,161,139506,2,0,L|27:115,1,103.999995239258,2|0,0:0|0:0,0:0:0:0:
104,299,139859,5,0,0:0:0:0:
301,245,140036,2,0,L|436:199,1,103.999995239258,2|0,0:0|0:0,0:0:0:0:
224,371,140389,6,0,L|359:325,1,103.999995239258,2|0,0:0|0:0,0:0:0:0:
468,284,140742,1,0,0:0:0:0:
377,86,140918,1,2,0:0:0:0:
468,284,141094,1,0,0:0:0:0:
212,118,141271,6,0,B|127:110|127:110|249:38,1,215.999993408203,4|0,0:0|0:0,0:0:0:0:
262,29,141624,5,0,0:0:0:0:
309,195,141800,2,0,L|248:318,1,103.999995239258,2|0,0:0|0:0,0:0:0:0:
89,31,142153,5,0,0:0:0:0:
42,197,142329,2,0,L|103:320,1,103.999995239258,2|0,0:0|0:0,0:0:0:0:
336,30,142683,5,0,0:0:0:0:
383,196,142859,2,0,L|322:319,1,103.999995239258,2|0,0:0|0:0,0:0:0:0:
442,280,143212,6,0,L|381:403,1,103.999995239258,2|0,0:0|0:0,0:0:0:0:
255,355,143565,1,0,0:0:0:0:
169,204,143742,1,2,0:0:0:0:
255,355,143918,1,0,0:0:0:0:
104,332,144094,6,0,L|328:216,1,207.999990478516,4|0,0:0|0:0,0:0:0:0:
383,43,144624,2,0,L|430:165,1,103.999995239258,2|0,0:0|0:0,0:0:0:0:
436,292,144977,5,0,0:0:0:0:
235,48,145153,2,0,L|302:159,1,103.999995239258,2|0,0:0|0:0,0:0:0:0:
361,299,145506,5,0,0:0:0:0:
79,57,145683,2,0,L|164:155,1,103.999995239258,2|0,0:0|0:0,0:0:0:0:
289,306,146036,5,0,0:0:0:0:
360,133,146212,6,0,L|435:81,1,64,6|0,0:0|0:0,0:0:0:0:
437,80,146477,2,2,B|420:48|420:48|377:32,3,64
367,226,146918,6,2,B|440:282|440:282|480:242,2,136.000002593994,2|2|0,0:0|0:0|0:0,0:0:0:0:
250,68,147447,2,0,P|182:25|136:20,1,88.000002685547,2|0,0:0|0:0,0:0:0:0:
44,69,147800,5,0,0:0:0:0:
230,181,147977,2,0,P|298:138|344:133,1,88.000002685547,2|0,0:0|0:0,0:0:0:0:
436,182,148330,5,0,0:0:0:0:
120,302,148506,2,0,P|52:259|6:254,1,88.000002685547,2|0,0:0|0:0,0:0:0:0:
288,338,148859,6,0,P|356:295|402:290,1,88.000002685547,2|0,0:0|0:0,0:0:0:0:
509,214,149212,1,0,0:0:0:0:
420,370,149389,1,2,0:0:0:0:
373,226,149565,1,0,0:0:0:0:
429,60,149742,6,0,B|437:134|499:136|511:227,1,176.000005371094,4|0,0:0|0:0,0:0:0:0:
294,54,150271,2,0,P|342:117|376:133,1,88.000002685547,2|0,0:0|0:0,0:0:0:0:
509,214,150624,5,0,0:0:0:0:
252,248,150800,2,0,P|329:265|365:255,1,88.000002685547,2|0,0:0|0:0,0:0:0:0:
509,214,151153,5,0,0:0:0:0:
248,140,151330,2,0,P|314:182|352:186,1,88.000002685547,2|0,0:0|0:0,0:0:0:0:
82,124,151683,6,0,P|105:199|132:226,1,88.000002685547,2|0,0:0|0:0,0:0:0:0:
240,334,152036,1,0,0:0:0:0:
164,147,152212,1,2,0:0:0:0:
114,282,152389,1,0,0:0:0:0:
403,270,152565,6,0,P|366:211|299:195,2,120.000004577637,2|2|0,0:0|0:0|0:0,0:0:0:0:
441,47,153094,2,0,L|425:166,1,88.000002685547,2|0,0:0|0:0,0:0:0:0:
273,72,153447,5,0,0:0:0:0:
98,198,153624,2,0,L|114:286,1,88.000002685547,2|0,0:0|0:0,0:0:0:0:
275,282,153977,5,0,0:0:0:0:
353,39,154153,2,0,L|336:156,1,88.000002685547,2|0,0:0|0:0,0:0:0:0:
189,250,154506,2,0,L|205:338,1,88.000002685547,2|0,0:0|0:0,0:0:0:0:
336,344,154859,5,0,0:0:0:0:
414,261,155036,1,2,0:0:0:0:
336,172,155212,1,0,0:0:0:0:
452,47,155389,1,4,0:0:0:0:
61,94,155918,6,0,L|61:173,1,71.9999978027344,2|0,0:0|0:0,0:0:0:0:
155,51,156447,2,0,L|122:113,1,64,2|0,0:0|0:0,0:0:0:0:
255,72,156977,6,0,L|191:111,1,55.9999982910157,2|0,0:0|0:0,0:0:0:0:
338,130,157330,6,0,L|280:131,1,47.9999985351563,2|0,0:0|0:0,0:0:0:0:
380,221,157683,6,2,L|335:197,2,40,2|2|2,0:3|0:3|0:3,0:3:0:0:
331,317,158212,6,0,P|268:259|220:336,1,200,2|0,0:0|0:0,0:0:0:0:
410,332,159271,2,0,L|448:274,1,55.9999982910157,2|0,0:0|0:0,0:0:0:0:
449,158,159624,2,0,L|411:216,1,55.9999982910157,2|0,0:0|0:0,0:0:0:0:
257,219,160153,2,0,L|149:157,1,111.999996582031
41,90,160683,2,0,L|101:127,1,55.9999982910157,2|0,0:0|0:0,0:0:0:0:
249,108,161036,6,0,P|333:143|395:62,1,200
214,29,162094,2,0,P|184:51|169:77,1,55.9999982910157,2|0,0:0|0:0,0:0:0:0:
152,156,162447,1,0,0:0:0:0:
127,160,162624,2,0,P|95:180|66:256,1,111.999996582031
71,341,163153,2,0,P|151:311|253:319,1,167.999994873047,2|0,0:0|0:0,0:0:0:0:
358,347,163859,6,0,P|341:294|432:274,1,160,2|0,0:0|0:0,0:0:0:0:
471,197,164742,2,0,L|470:120,2,55.9999982910157,2|0|0,0:0|0:0|0:0,0:0:0:0:
217,333,165447,2,0,L|240:270,1,55.9999982910157
43,220,165977,2,0,L|83:95,1,111.999996582031,2|0,0:0|0:0,0:0:0:0:
302,325,166683,5,2,0:0:0:0:
302,325,167036,2,0,B|359:293|359:293|391:237,1,111.999996582031,2|0,0:0|0:0,0:0:0:0:
407,112,167742,2,0,L|346:69,1,55.9999982910157,2|0,0:0|0:0,0:0:0:0:
250,36,168094,2,0,L|288:169,1,111.999996582031,2|0,0:0|0:0,0:0:0:0:
131,63,168800,2,0,L|161:170,1,111.999996582031,2|0,0:0|0:0,0:0:0:0:
170,334,169506,6,0,P|105:327|104:244,1,160,2|0,0:0|0:0,0:0:0:0:
247,303,170389,2,0,L|277:353,2,55.9999982910157,2|0|0,0:0|0:0|0:0,0:0:0:0:
295,239,170918,2,0,L|336:279,1,55.9999982910157,2|0,0:0|0:0,0:0:0:0:
324,164,171271,2,0,L|374:192,1,55.9999982910157,2|0,0:0|0:0,0:0:0:0:
332,84,171624,2,0,L|461:112,1,111.999996582031,2|0,0:0|0:0,0:0:0:0:
185,117,172330,6,0,P|162:178|117:124,1,160,2|0,0:0|0:0,0:0:0:0:
145,37,173212,1,2,0:0:0:0:
242,43,173389,2,0,L|295:14,1,55.9999982910157
270,121,173742,2,0,L|328:106,1,55.9999982910157,2|0,0:0|0:0,0:0:0:0:
276,203,174094,2,0,L|336:204,1,55.9999982910157,2|0,0:0|0:0,0:0:0:0:
441,210,174447,2,0,B|416:151|452:138|424:83,1,111.999996582031,2|0,0:0|0:0,0:0:0:0:
315,305,175153,5,2,0:0:0:0:
142,239,175506,2,0,L|81:263,1,55.9999982910157,2|0,0:0|0:0,0:0:0:0:
107,165,175859,2,0,L|55:124,1,55.9999982910157,2|0,0:0|0:0,0:0:0:0:
153,97,176212,2,0,L|162:32,1,55.9999982910157,2|0,0:0|0:0,0:0:0:0:
298,137,176565,2,0,P|245:120|280:217,1,223.999993164063,2|0,0:0|0:0,0:0:0:0:
434,79,177624,6,0,L|490:26,1,55.9999982910157,2|0,0:0|0:0,0:0:0:0:
386,176,177977,2,0,L|403:250,1,55.9999982910157,2|0,0:0|0:0,0:0:0:0:
325,85,178330,2,0,L|251:63,1,55.9999982910157,2|0,0:0|0:0,0:0:0:0:
196,18,178683,2,0,B|168:52|167:96|206:124|206:124|163:187|234:227,1,223.999993164063
194,46,180800,6,0,B|133:110|106:36|41:132,1,160,2|0,0:0|0:0,0:0:0:0:
287,107,181330,2,0,B|347:42|374:116|439:20,1,160,2|0,0:0|0:0,0:0:0:0:
227,197,181859,2,0,B|162:298|101:206|41:342,1,240,2|0,0:0|0:0,0:0:0:0:
138,349,182565,5,2,0:0:0:0:
138,349,182918,2,0,P|190:345|236:322,1,80,2|0,0:0|0:0,0:0:0:0:
358,225,183271,1,2,0:0:0:0:
168,141,183624,6,0,P|110:127|118:68,1,120,2|0,0:0|0:0,0:0:0:0:
185,31,184330,2,0,P|237:35|283:58,1,80,2|0,0:0|0:0,0:0:0:0:
405,155,184683,1,2,0:0:0:0:
405,155,185742,6,0,P|376:232|335:254,1,128,2|0,0:0|0:0,0:0:0:0:
265,286,186271,2,0,B|249:230|266:186|328:173|328:173|319:133|278:71|187:103|187:103|133:127|157:188|157:188|219:157|175:87|175:87|146:48|102:44,1,640,2|0,0:0|0:0,0:0:0:0:
46,57,189271,6,0,B|-1:117|96:154|32:241|32:241|117:232|133:327|133:327|186:255|186:255|177:201|242:155|242:155|296:233|251:278,1,671.999979492188,2|0,0:0|0:0,0:0:0:0:
394,117,192094,6,0,P|430:192|498:242,1,160,2|0,0:0|0:0,0:0:0:0:
302,245,192624,2,0,P|266:320|198:370,1,160,2|0,0:0|0:0,0:0:0:0:
37,229,193153,2,0,B|61:173|55:139|55:139|130:230|210:223,1,240,2|0,0:0|0:0,0:0:0:0:
302,245,193859,1,2,0:0:0:0:
302,245,194212,5,2,0:0:0:0:
362,169,194389,1,0,0:0:0:0:
422,93,194565,1,2,0:0:0:0:
471,288,194918,6,0,P|399:327|431:351,1,143.999995605469,2|0,0:0|0:0,0:0:0:0:
311,347,195624,1,2,0:0:0:0:
318,246,195800,1,0,0:0:0:0:
397,183,195977,1,2,0:0:0:0:
437,236,197036,6,0,P|388:198|322:208,1,128,2|0,0:0|0:0,0:0:0:0:
365,281,197565,6,0,B|321:384|84:390|81:159|190:103|190:103|224:139|293:117|288:30|228:25,1,640,2|0,0:0|0:0,0:0:0:0:
140,27,200565,1,2,0:0:0:0:
237,94,203389,6,0,L|381:159,1,143.999995605469,2|0,0:0|0:0,0:0:0:0:
225,204,203918,2,0,L|227:280,1,71.9999978027344,2|0,0:0|0:0,0:0:0:0:
420,67,204447,2,0,L|495:30,1,71.9999978027344,2|0,0:0|0:0,0:0:0:0:
113,160,204977,2,0,L|48:128,1,71.9999978027344,2|0,0:0|0:0,0:0:0:0:
147,79,205330,2,0,L|82:47,1,71.9999978027344,2|0,0:0|0:0,0:0:0:0:
185,281,205859,2,0,L|187:357,1,71.9999978027344,2|0,0:0|0:0,0:0:0:0:
266,355,206212,6,0,B|353:328|295:288|378:241,1,143.999995605469,4|0,0:0|0:0,0:0:0:0:
453,113,206742,2,0,P|474:152|496:175,1,71.9999978027344,2|0,0:0|0:0,0:0:0:0:
260,59,207271,2,0,P|210:33|192:8,1,71.9999978027344,2|0,0:0|0:0,0:0:0:0:
141,255,207800,2,2,P|101:296|93:322,1,71.9999978027344,2|0,0:0|0:0,0:0:0:0:
78,185,208153,2,0,P|38:226|30:252,1,71.9999978027344,2|0,0:0|0:0,0:0:0:0:
453,113,208683,2,0,P|474:152|496:175,1,71.9999978027344,2|0,0:0|0:0,0:0:0:0:
452,290,209036,5,4,0:0:0:0:
82,302,209389,2,0,L|154:244,2,80,2|2|0,0:0|0:0|0:0,0:0:0:0:
354,82,210094,1,2,0:0:0:0:
265,287,210624,1,2,0:0:0:0:
265,287,210977,1,2,0:0:0:0:
134,72,211506,1,2,0:0:0:0:
134,72,211859,6,0,B|101:144|101:144|130:242,1,160,4|0,0:0|0:0,0:0:0:0:
212,148,212389,1,2,0:0:0:0:
212,148,212918,1,2,0:0:0:0:
380,246,213447,1,2,0:0:0:0:
380,246,213800,1,2,0:0:0:0:
356,27,214330,1,2,0:0:0:0:
249,82,214506,5,0,0:0:0:0:
133,120,214683,2,0,B|199:120|173:165|235:165,1,111.999996582031
303,189,215036,5,0,0:0:0:0:
249,82,215212,2,0,L|206:4,1,80,2|0,0:0|0:0,0:0:0:0:
303,189,215565,5,0,0:0:0:0:
193,239,215742,2,0,L|115:282,1,80,2|0,0:0|0:0,0:0:0:0:
303,189,216094,5,0,0:0:0:0:
360,294,216271,2,0,L|403:372,1,80,2|0,0:0|0:0,0:0:0:0:
303,189,216624,5,0,0:0:0:0:
408,132,216801,2,0,L|486:89,1,80,2|0,0:0|0:0,0:0:0:0:
303,189,217153,5,0,0:0:0:0:
193,239,217330,2,0,L|115:282,1,80,2|0,0:0|0:0,0:0:0:0:
263,307,217683,5,0,0:0:0:0:
370,124,217859,2,0,P|329:149|304:189,1,95.9999970703126,2|0,0:0|0:0,0:0:0:0:
256,32,218212,5,0,0:0:0:0:
152,157,218389,2,0,P|193:182|219:222,1,95.9999970703126,2|0,0:0|0:0,0:0:0:0:
256,32,218742,5,0,0:0:0:0:
371,219,218918,2,0,P|329:243|304:283,1,95.9999970703126,2|0,0:0|0:0,0:0:0:0:
256,32,219271,5,0,0:0:0:0:
152,252,219448,2,0,P|193:276|218:316,1,95.9999970703126,2|0,0:0|0:0,0:0:0:0:
256,32,219800,5,0,0:0:0:0:
156,156,219977,2,0,L|242:209,1,95.9999970703126,2|0,0:0|0:0,0:0:0:0:
427,287,220330,5,10,0:0:0:0:
427,287,220418,1,0,0:0:0:0:
427,287,220506,2,0,L|385:221,1,47.9999985351563
369,139,220683,6,0,L|347:181,1,47.9999985351563,10|0,0:0|0:0,0:0:0:0:
330,309,220859,2,0,L|304:268,1,47.9999985351563
259,125,221036,6,0,L|237:167,1,47.9999985351563,10|0,0:0|0:0,0:0:0:0:
232,335,221212,2,0,L|206:294,1,47.9999985351563
155,112,221389,6,0,L|133:154,1,47.9999985351563,10|0,0:0|0:0,0:0:0:0:
136,360,221565,2,0,L|110:319,1,47.9999985351563
47,266,221742,5,10,0:0:0:0:
54,252,221830,1,0,0:0:0:0:
65,240,221918,1,8,0:0:0:0:
79,232,222006,1,0,0:0:0:0:
94,228,222094,5,10,0:0:0:0:
116,236,222182,1,0,0:0:0:0:
140,237,222270,1,8,0:0:0:0:
163,231,222358,1,0,0:0:0:0:
183,218,222447,5,10,0:0:0:0:
176,186,222535,1,0,0:0:0:0:
180,155,222623,1,8,0:0:0:0:
195,127,222711,1,0,0:0:0:0:
219,105,222800,5,10,0:0:0:0:
260,81,222888,1,0,0:0:0:0:
307,74,222976,1,8,0:0:0:0:
356,82,223065,1,0,0:0:0:0:
256,192,223153,12,0,224389,0:0:0:0:
437,36,224565,5,8,0:0:0:0:
256,88,224742,5,8,0:0:0:0:
256,119,224830,1,0,0:0:0:0:
257,150,224918,1,8,0:0:0:0:
256,88,225094,5,8,0:0:0:0:
256,119,225182,1,0,0:0:0:0:
257,150,225271,1,8,0:0:0:0:
254,181,225359,1,0,0:0:0:0:
254,212,225447,1,8,0:0:0:0:
255,243,225535,1,0,0:0:0:0:
256,279,225624,6,0,P|274:338|319:297,1,120.000004577637,10|0,0:0|0:0,0:0:0:0:
431,132,225977,6,2,B|444:32|444:32|487:68,2,136.000002593994,2|2|0,0:0|0:0|0:0,0:0:0:0:
437,318,226506,2,0,L|363:233,1,111.999996582031,2|0,0:0|0:0,0:0:0:0:
347,90,226859,1,0,0:0:0:0:
313,308,227036,1,2,0:0:0:0:
240,173,227212,1,0,0:0:0:0:
460,202,227389,1,0,0:0:0:0:
307,101,227565,6,0,P|343:40|386:17,1,111.999996582031,2|0,0:0|0:0,0:0:0:0:
240,173,227918,2,0,P|205:111|204:59,1,111.999996582031,2|0,0:0|0:0,0:0:0:0:
145,200,228271,1,0,0:0:0:0:
48,10,228447,1,2,0:0:0:0:
10,130,228624,1,0,0:0:0:0:
55,262,228800,6,0,B|141:297|141:297|164:338|164:338|267:365,1,223.999993164063,4|0,0:0|0:0,0:0:0:0:
455,251,229330,2,0,B|471:186|471:186|468:124,1,111.999996582031,2|0,0:0|0:0,0:0:0:0:
358,85,229683,1,0,0:0:0:0:
241,227,229859,1,2,0:0:0:0:
366,190,230036,1,0,0:0:0:0:
174,66,230212,1,0,0:0:0:0:
241,227,230389,6,0,L|322:324,1,111.999996582031,2|0,0:0|0:0,0:0:0:0:
366,190,230742,2,0,L|437:104,1,111.999996582031,2|0,0:0|0:0,0:0:0:0:
345,34,231094,1,0,0:0:0:0:
469,211,231271,1,2,0:0:0:0:
297,161,231447,1,0,0:0:0:0:
193,289,231624,6,0,P|235:364|253:279,1,223.999993164063,4|0,0:0|0:0,0:0:0:0:
129,156,232153,2,0,P|98:104|33:80,1,111.999996582031,2|0,0:0|0:0,0:0:0:0:
41,182,232506,1,0,0:0:0:0:
108,358,232683,1,2,0:0:0:0:
238,292,232859,1,0,0:0:0:0:
26,258,233036,1,0,0:0:0:0:
190,94,233212,6,0,L|153:208,1,111.999996582031,2|0,0:0|0:0,0:0:0:0:
342,251,233565,2,0,L|221:298,1,111.999996582031,2|0,0:0|0:0,0:0:0:0:
117,300,233918,1,0,0:0:0:0:
305,148,234094,1,2,0:0:0:0:
237,291,234271,1,0,0:0:0:0:
421,197,234447,6,0,B|389:157|389:157|390:88|320:64|320:64|294:21,1,223.999993164063,4|0,0:0|0:0,0:0:0:0:
163,184,234977,2,0,P|94:156|100:79,1,111.999996582031,2|0,0:0|0:0,0:0:0:0:
194,55,235330,1,0,0:0:0:0:
221,273,235506,1,2,0:0:0:0:
305,148,235683,1,0,0:0:0:0:
322,361,235859,1,0,0:0:0:0:
464,232,236036,6,0,P|503:178|503:112,1,111.999996582031,2|0,0:0|0:0,0:0:0:0:
408,152,236389,2,0,P|403:85|360:35,2,111.999996582031,2|2|0,0:0|0:0|0:0,0:0:0:0:
104,39,236918,1,2,0:0:0:0:
4,331,237271,6,0,B|60:299|60:299|100:355|100:355|156:323|228:363,1,223.999993164063,4|0,0:0|0:0,0:0:0:0:
286,184,237800,2,0,P|237:134|151:125,1,111.999996582031,2|0,0:0|0:0,0:0:0:0:
62,196,238153,1,0,0:0:0:0:
222,267,238330,2,0,P|271:317|357:326,1,111.999996582031,2|0,0:0|0:0,0:0:0:0:
446,255,238683,1,0,0:0:0:0:
391,98,238859,6,0,P|342:48|256:39,1,111.999996582031,2|0,0:0|0:0,0:0:0:0:
107,99,239212,2,0,P|156:49|242:40,1,111.999996582031,2|0,0:0|0:0,0:0:0:0:
195,119,239565,1,0,0:0:0:0:
254,290,239742,1,2,0:0:0:0:
309,122,239918,1,0,0:0:0:0:
443,272,240094,6,0,B|371:303|371:303|336:359|336:359|251:387,1,223.999993164063,4|0,0:0|0:0,0:0:0:0:
131,268,240624,2,0,B|166:240|166:240|176:205|176:205|214:173,1,111.999996582031,2|0,0:0|0:0,0:0:0:0:
326,71,240977,1,0,0:0:0:0:
56,165,241153,2,0,B|98:150|98:150|119:121|119:121|166:104,1,111.999996582031,2|0,0:0|0:0,0:0:0:0:
306,46,241506,1,0,0:0:0:0:
448,203,241683,6,0,L|432:82,1,111.999996582031,2|0,0:0|0:0,0:0:0:0:
332,315,242036,2,0,L|348:194,1,111.999996582031,2|0,0:0|0:0,0:0:0:0:
358,48,242389,1,0,0:0:0:0:
256,225,242565,1,2,0:0:0:0:
261,87,242742,1,0,0:0:0:0:
73,163,242918,6,0,B|46:103|46:103|105:73,2,128,4|4|0,0:0|0:0|0:0,0:0:0:0:
121,314,243447,2,0,B|173:363|173:363|220:303,1,128,2|0,0:0|0:0,0:0:0:0:
155,144,243800,1,0,0:0:0:0:
351,178,243977,2,0,B|391:122|391:122|330:83,1,128,2|0,0:0|0:0,0:0:0:0:
155,144,244330,1,0,0:0:0:0:
241,85,244506,6,0,B|229:20|229:20|168:4,1,128,2|0,0:0|0:0,0:0:0:0:
155,144,244859,2,0,B|146:82|146:82|82:63,1,128,2|0,0:0|0:0,0:0:0:0:
69,154,245212,1,0,0:0:0:0:
168,302,245389,1,2,0:0:0:0:
63,262,245565,1,0,0:0:0:0:
307,132,245742,5,0,0:0:0:0:
307,132,246094,5,0,0:0:0:0:
471,62,246271,2,0,P|498:128|464:215,1,128,2|0,0:0|0:0,0:0:0:0:
307,132,246624,1,0,0:0:0:0:
143,62,246801,2,0,P|116:128|150:215,1,128,2|0,0:0|0:0,0:0:0:0:
307,132,247153,1,0,0:0:0:0:
487,181,247330,6,0,P|497:119|471:62,1,128,2|0,0:0|0:0,0:0:0:0:
126,181,247683,2,0,P|116:119|143:62,1,128,2|0,0:0|0:0,0:0:0:0:
307,132,248036,1,0,0:0:0:0:
307,326,248212,1,2,0:0:0:0:
309,131,248389,1,0,0:0:0:0:
109,300,248565,6,4,B|79:266|79:266|104:225|104:225|165:237,2,136.000002593994,4|0|0,0:0|0:0|0:0,0:0:0:0:
208,146,249094,1,2,0:0:0:0:
230,363,249271,1,0,0:0:0:0:
320,237,249447,1,0,0:0:0:0:
31,189,249624,1,2,0:0:0:0:
32,337,249800,1,0,0:0:0:0:
177,115,249977,5,0,0:0:0:0:
320,237,250153,2,0,P|376:278|441:272,1,111.999996582031,2|0,0:0|0:0,0:0:0:0:
336,87,250506,2,0,P|374:144|437:161,1,111.999996582031,2|0,0:0|0:0,0:0:0:0:
438,56,250859,1,0,0:0:0:0:
320,237,251036,1,2,0:0:0:0:
249,139,251212,1,0,0:0:0:0:
465,241,251389,6,0,P|430:320|301:367,1,223.999993164063,4|0,0:0|0:0,0:0:0:0:
192,282,251918,1,2,0:0:0:0:
276,49,252094,1,0,0:0:0:0:
340,185,252271,1,0,0:0:0:0:
104,85,252447,1,2,0:0:0:0:
224,143,252624,1,0,0:0:0:0:
27,296,252800,5,0,0:0:0:0:
104,85,252977,2,0,B|86:126|86:126|92:173|92:173|77:209,1,111.999996582031,2|0,0:0|0:0,0:0:0:0:
318,89,253330,2,0,B|275:101|275:101|242:136|242:136|205:148,1,111.999996582031,2|0,0:0|0:0,0:0:0:0:
193,256,253683,1,0,0:0:0:0:
214,29,253859,1,2,0:0:0:0:
314,170,254036,1,0,0:0:0:0:
60,113,254212,6,0,P|61:30|112:59,1,176.000005371094,4|0,0:0|0:0,0:0:0:0:
152,204,254742,1,2,0:0:0:0:
274,10,254918,1,0,0:0:0:0:
347,136,255094,1,0,0:0:0:0:
111,57,255271,1,2,0:0:0:0:
222,154,255447,1,0,0:0:0:0:
426,46,255624,5,0,0:0:0:0:
423,212,255800,2,0,L|443:333,1,111.999996582031,2|0,0:0|0:0,0:0:0:0:
234,368,256153,2,0,L|254:247,1,111.999996582031,2|0,0:0|0:0,0:0:0:0:
279,118,256506,1,0,0:0:0:0:
340,330,256683,1,2,0:0:0:0:
423,212,256859,1,0,0:0:0:0:
278,117,257036,6,0,L|482:23,1,223.999993164063,4|0,0:0|0:0,0:0:0:0:
454,166,257565,1,2,0:0:0:0:
243,24,257742,1,0,0:0:0:0:
197,140,257918,1,0,0:0:0:0:
482,22,258094,1,2,0:0:0:0:
454,166,258271,1,0,0:0:0:0:
316,19,258447,5,0,0:0:0:0:
261,260,258624,2,0,P|289:325|355:361,1,111.999996582031,2|0,0:0|0:0,0:0:0:0:
368,217,258977,2,0,B|351:151|351:151|281:145,2,128,2|0|0,0:0|0:0|0:0,0:0:0:0:
177,245,259506,1,2,0:0:0:0:
396,112,259859,6,0,B|409:72|409:72|448:50|448:50|460:3,2,128,4|0|0,0:0|0:0|0:0,0:0:0:0:
168,168,260389,2,0,L|46:116,1,111.999996582031,2|0,0:0|0:0,0:0:0:0:
264,50,260742,1,0,0:0:0:0:
357,250,260918,2,0,L|479:198,1,111.999996582031,2|0,0:0|0:0,0:0:0:0:
261,132,261271,1,0,0:0:0:0:
181,271,261447,6,0,L|59:219,1,111.999996582031,2|0,0:0|0:0,0:0:0:0:
219,380,261800,2,0,L|97:328,1,111.999996582031,2|0,0:0|0:0,0:0:0:0:
261,200,262153,1,0,0:0:0:0:
362,352,262330,1,2,0:0:0:0:
181,271,262506,1,0,0:0:0:0:
358,189,262683,6,0,B|442:140|376:77|455:33,1,191.999994140625,4|0,0:0|0:0,0:0:0:0:
307,105,263212,2,0,P|242:126|169:117,1,103.999995239258,2|0,0:0|0:0,0:0:0:0:
76,43,263565,1,0,0:0:0:0:
204,237,263742,2,0,P|269:258|342:249,1,103.999995239258,2|0,0:0|0:0,0:0:0:0:
435,175,264095,1,0,0:0:0:0:
204,340,264271,6,0,P|139:361|66:352,1,103.999995239258,2|0,0:0|0:0,0:0:0:0:
331,338,264624,2,0,P|396:359|469:350,1,103.999995239258,2|0,0:0|0:0,0:0:0:0:
405,232,264977,1,0,0:0:0:0:
266,309,265153,1,2,0:0:0:0:
282,181,265330,1,0,0:0:0:0:
19,44,265506,6,0,B|57:97|57:97|119:110|119:110|171:184,1,192,4|0,0:0|0:0,0:0:0:0:
170,182,265859,5,0,0:0:0:0:
182,200,266212,1,0,0:0:0:0:
194,218,266565,5,0,0:0:0:0:
206,236,266918,1,0,0:0:0:0:
218,254,267271,5,0,0:0:0:0:
230,272,267624,1,0,0:0:0:0:
242,290,267977,5,0,0:0:0:0:
256,192,268330,12,0,270800,0:0:0:0:
145,77,271153,6,0,B|177:186|85:172|147:294,1,223.999993164063,6|0,0:0|0:0,0:0:0:0:
221,223,271683,1,2,0:0:0:0:
7,265,271859,1,0,0:0:0:0:
73,124,272036,1,0,0:0:0:0:
206,346,272212,1,2,0:0:0:0:
427,217,272389,6,0,P|323:167|292:39,1,223.999993164063,2|0,0:0|0:0,0:0:0:0:
458,43,272918,1,2,0:0:0:0:
427,217,273094,1,0,0:0:0:0:
288,70,273271,2,0,B|230:80|230:80|132:47,1,111.999996582031,2|0,0:0|0:0,0:0:0:0:
31,36,273624,5,2,0:0:0:0:
16,178,273800,1,2,0:0:0:0:
179,63,273977,1,0,0:0:0:0:
154,223,274153,1,0,0:0:0:0:
295,66,274330,2,0,P|265:130|214:148,1,111.999996582031,2|0,0:0|0:0,0:0:0:0:
60,248,274683,6,0,B|59:299|104:338|154:324|154:324|198:309|237:335,1,223.999993164063,2|0,0:0|0:0,0:0:0:0:
317,236,275212,1,2,0:0:0:0:
469,362,275389,1,0,0:0:0:0:
491,197,275565,1,0,0:0:0:0:
256,39,275742,1,2,0:0:0:0:
256,39,276094,6,2,L|207:159,1,111.999996582031
104,333,276447,2,2,L|61:229,1,111.999996582031
28,35,276800,2,0,B|70:120|70:120|118:125|118:125|170:224,1,223.999993164063,2|0,0:0|0:0,0:0:0:0:
221,336,277330,1,2,0:0:0:0:
336,130,277506,1,0,0:0:0:0:
227,200,277683,1,0,0:0:0:0:
114,34,277859,1,2,0:0:0:0:
278,19,278036,6,0,P|384:30|450:166,1,223.999993164063,2|0,0:0|0:0,0:0:0:0:
378,301,278565,1,2,0:0:0:0:
336,130,278742,1,0,0:0:0:0:
502,192,278918,6,0,L|363:219,1,111.999996582031,2|0,0:0|0:0,0:0:0:0:
109,285,279271,1,2,0:0:0:0:
282,148,279447,1,2,0:0:0:0:
44,63,279624,2,0,P|58:119|102:161,1,111.999996582031,2|0,0:0|0:0,0:0:0:0:
196,39,279977,5,2,0:0:0:0:
230,203,280153,1,0,0:0:0:0:
372,25,280330,2,2,L|425:165,1,111.999996582031
477,320,280683,5,2,0:0:0:0:
372,205,280859,1,0,0:0:0:0:
247,360,281036,1,2,0:0:0:0:
383,296,281212,1,0,0:0:0:0:
175,194,281389,1,2,0:0:0:0:
317,82,281565,1,0,0:0:0:0:
464,230,281742,1,2,0:0:0:0:
446,93,281918,5,8,0:0:0:0:
429,108,282006,1,0,0:0:0:0:
412,122,282094,2,0,L|348:172,1,55.9999982910157,8|0,0:0|0:0,0:0:0:0:
197,108,282271,2,0,L|241:73,1,55.9999982910157,8|0,0:0|0:0,0:0:0:0:
354,16,282447,6,0,B|353:72|353:72|224:181,1,223.999993164063,2|0,0:0|0:0,0:0:0:0:
120,116,282977,1,2,0:0:0:0:
140,310,283153,1,0,0:0:0:0:
26,189,283330,1,0,0:0:0:0:
273,277,283506,1,2,0:0:0:0:
318,85,283683,6,0,B|257:61|206:88|183:132|183:132|111:113,1,223.999993164063,2|0,0:0|0:0,0:0:0:0:
277,179,284212,1,2,0:0:0:0:
151,35,284389,1,0,0:0:0:0:
37,256,284565,2,0,P|89:281|158:277,1,111.999996582031,2|0,0:0|0:0,0:0:0:0:
119,115,284918,5,2,0:0:0:0:
228,224,285094,1,2,0:0:0:0:
335,11,285271,1,2,0:0:0:0:
203,121,285447,1,0,0:0:0:0:
433,246,285624,2,0,L|407:128,1,111.999996582031,2|0,0:0|0:0,0:0:0:0:
350,13,285977,6,0,B|291:52|291:52|300:213,1,223.999993164063,2|0,0:0|0:0,0:0:0:0:
326,353,286506,1,2,0:0:0:0:
408,136,286683,1,2,0:0:0:0:
476,273,286859,1,0,0:0:0:0:
201,197,287036,1,2,0:0:0:0:
201,197,287389,6,2,L|216:77,1,111.999996582031
62,260,287742,2,2,L|75:371,1,111.999996582031
34,103,288094,6,0,B|69:63|69:63|134:61|134:61|176:12|176:12|250:1,1,223.999993164063,2|0,0:0|0:0,0:0:0:0:
323,143,288624,1,2,0:0:0:0:
229,333,288800,1,0,0:0:0:0:
201,181,288977,1,0,0:0:0:0:
464,271,289153,1,2,0:0:0:0:
424,44,289330,6,0,B|380:166|302:89|262:232,1,223.999993164063,2|0,0:0|0:0,0:0:0:0:
305,360,289859,1,2,0:0:0:0:
141,290,290036,1,0,0:0:0:0:
216,36,290212,2,0,L|219:172,1,111.999996582031,2|0,0:0|0:0,0:0:0:0:
217,345,290565,1,2,0:0:0:0:
109,123,290742,1,2,0:0:0:0:
298,254,290918,1,2,0:0:0:0:
352,67,291094,5,8,0:0:0:0:
508,160,291271,1,8,0:0:0:0:
508,160,291447,1,8,0:0:0:0:
441,42,291624,1,8,0:0:0:0:
441,42,291800,1,8,0:0:0:0:
364,193,291977,1,8,0:0:0:0:
352,67,292153,1,8,0:0:0:0:
232,70,292330,5,10,0:0:0:0:
190,65,292418,1,0,0:0:0:0:
149,73,292506,1,8,0:0:0:0:
113,95,292594,1,0,0:0:0:0:
87,127,292682,5,10,0:0:0:0:
72,166,292771,1,0,0:0:0:0:
71,208,292859,1,8,0:0:0:0:
83,248,292947,1,0,0:0:0:0:
108,282,293036,5,10,0:0:0:0:
143,305,293124,1,0,0:0:0:0:
183,316,293212,1,8,0:0:0:0:
225,314,293300,1,0,0:0:0:0:
263,297,293389,6,0,L|364:192,1,111.999996582031,10|0,0:0|0:0,0:0:0:0:
441,36,293742,6,0,P|345:57|287:30,1,160,4|0,0:0|0:0,0:0:0:0:
215,237,294271,1,2,0:0:0:0:
160,153,294447,2,0,P|224:139|267:147,1,80
322,226,294800,2,0,P|361:225|399:213,1,80
349,136,295153,1,0,0:0:0:0:
445,79,295330,1,0,0:0:0:0:
337,45,295506,2,0,L|233:34,1,80
158,125,295859,2,0,L|262:136,1,80
145,40,296212,2,0,L|41:29,1,80
56,132,296565,6,0,P|34:217|121:253,1,160,4|0,0:0|0:0,0:0:0:0:
257,36,297094,1,2,0:0:0:0:
373,44,297271,2,0,P|350:94|305:129,1,80
288,198,297624,2,0,P|262:167|248:130,1,80
257,36,297977,2,0,L|154:36,1,80
90,94,298330,1,0,0:0:0:0:
160,169,298506,1,0,0:0:0:0:
192,267,298683,2,0,P|135:269|92:245,1,80
82,162,299036,2,0,P|139:160|182:184,1,80
261,147,299389,6,0,B|309:108|309:108|324:58|324:58|366:28,1,160,4|0,0:0|0:0,0:0:0:0:
427,314,299918,1,2,0:0:0:0:
485,230,300094,2,0,P|434:216|371:229,1,80
324,266,300447,2,0,P|307:302|304:341,1,80
201,342,300800,2,0,P|197:302|181:266,1,80
100,322,301153,1,0,0:0:0:0:
31,234,301330,1,0,0:0:0:0:
136,192,301506,2,0,P|183:166|200:131,1,80
102,89,301859,1,0,0:0:0:0:
194,28,302036,1,0,0:0:0:0:
286,102,302212,6,0,B|347:26|372:103|424:20,1,160,4|0,0:0|0:0,0:0:0:0:
279,294,302742,1,2,0:0:0:0:
197,245,302918,2,0,P|183:310|191:355,1,80
378,323,303271,2,0,P|376:283|364:245,1,80
284,179,303624,1,0,0:0:0:0:
364,106,303800,1,0,0:0:0:0:
267,21,303977,2,0,L|208:92,1,80
170,195,304330,2,0,L|126:139,1,64
58,62,304683,2,0,L|16:115,1,47.9999985351563
38,249,305036,6,0,B|48:293|48:293|102:321|102:321|160:296,1,143.999995605469,4|0,0:0|0:0,0:0:0:0:
209,78,305565,1,2,0:0:0:0:
335,42,305742,2,0,L|304:119,1,64
406,152,306094,2,0,L|345:208,1,64
423,281,306447,2,0,L|344:306,1,64
253,351,306800,2,0,L|244:287,1,64
136,291,307153,2,0,L|154:229,1,64
57,187,307506,2,0,L|114:138,1,64
137,36,307859,6,0,L|237:137,1,128,4|0,0:0|0:0,0:0:0:0:
464,29,308389,1,2,0:0:0:0:
358,51,308565,2,0,L|341:136,1,64
374,270,308918,2,0,L|344:191,1,64
254,55,309271,2,0,L|237:140,1,64
270,274,309624,2,0,L|240:195,1,64
141,64,309977,2,0,L|124:149,1,64
157,283,310330,2,0,L|127:204,1,64
34,109,310683,6,0,B|44:148|44:148|33:203|33:203|41:247,1,128,4|0,0:0|0:0,0:0:0:0:
329,349,311212,1,2,0:0:0:0:
433,327,311389,2,0,P|404:289|376:268,1,64
462,198,311742,2,0,P|415:187|380:189,1,64
263,262,312094,2,0,P|292:224|320:203,1,64
233,133,312447,2,0,P|279:122|314:124,1,64
461,107,312800,2,0,P|413:104|379:112,1,64
382,1,313153,2,0,P|344:30|322:57,1,64
256,192,313506,12,0,315977,0:0:0:0:
256,192,316330,5,4,0:0:0:0:
