osu file format v14

[General]
AudioFilename: audio.mp3
AudioLeadIn: 0
PreviewTime: 33092
Countdown: 0
SampleSet: Soft
StackLeniency: 0.5
Mode: 0
LetterboxInBreaks: 0
EpilepsyWarning: 1
WidescreenStoryboard: 1

[Editor]
Bookmarks: 1368,12402,23436,28436,28954,33092,34471,39988,45505,51023,53781,56540,67574,73092,75850,78609,89643,100678,122747,133781,139299,143436,144816,150333,155850,161368,164126,166885,177919,183436,186195,188954
DistanceSpacing: 1.5
BeatDivisor: 4
GridSize: 4
TimelineZoom: 1.7

[Metadata]
Title:Soldier
TitleUnicode:Soldier
Artist:Stonebank
ArtistUnicode:Stonebank
Creator:lazyboy007
Version:Brigadier
Source:
Tags:Monstercat Drumstep Lilyanna Ora Plaudible CyberX Phyloukz Flashtop [ KukiLoli ] Paranoid Grapes Spicy Salsa
BeatmapID:1028896
BeatmapSetID:482173

[Difficulty]
HPDrainRate:7
CircleSize:4
OverallDifficulty:8
ApproachRate:9
SliderMultiplier:1.6
SliderTickRate:1

[Events]
//Background and Video events
0,0,"anime-fantasy-war-line-1920x1080.jpg",0,0
//Break Periods
//Storyboard Layer 0 (Background)
//Storyboard Layer 1 (Fail)
//Storyboard Layer 2 (Pass)
//Storyboard Layer 3 (Foreground)
//Storyboard Sound Samples

[TimingPoints]
1368,344.827586206897,4,2,1,30,1,0
1368,-125,4,2,1,30,0,0
12402,-125,4,2,1,30,0,0
15161,-125,4,2,1,40,0,0
16885,-125,4,2,1,45,0,0
17920,-125,4,2,1,50,0,0
19644,-125,4,2,1,55,0,0
23005,-125,4,2,1,5,0,0
23092,-125,4,2,1,55,0,0
23350,-125,4,2,1,5,0,0
23437,-100,4,2,1,40,0,0
24816,-100,4,2,1,50,0,0
26195,-100,4,2,1,60,0,0
27575,-100,4,2,1,70,0,0
29299,-100,4,2,1,75,0,0
29644,-100,4,2,1,80,0,0
29989,-100,4,2,1,85,0,0
30333,-100,4,2,1,90,0,0
30678,-100,4,2,1,95,0,0
31713,-83.3333333333333,4,2,1,100,0,0
34471,-66.6666666666667,4,2,1,100,0,1
36885,-133.333333333333,4,2,1,100,0,1
37143,-133.333333333333,4,2,1,5,0,1
37230,-66.6666666666667,4,2,1,100,0,1
39643,-83.3333333333333,4,2,1,100,0,1
39988,-66.6666666666667,4,2,1,100,0,1
41712,-83.3333333333333,4,2,1,100,0,1
42057,-125,4,2,1,100,0,1
42316,-125,4,2,1,5,0,1
42402,-125,4,2,1,100,0,1
42661,-125,4,2,1,5,0,1
42747,-66.6666666666667,4,2,1,100,0,1
44126,-83.3333333333333,4,2,1,100,0,1
44471,-125,4,2,1,100,0,1
44730,-125,4,2,1,5,0,1
44816,-125,4,2,1,100,0,1
45161,-66.6666666666667,4,2,1,100,0,1
47919,-133.333333333333,4,2,1,100,0,1
48178,-133.333333333333,4,2,1,5,0,1
48264,-66.6666666666667,4,2,1,100,0,1
50678,-83.3333333333333,4,2,1,100,0,1
51023,-83.3333333333333,4,2,1,100,0,0
56540,-66.6666666666667,4,2,1,100,0,1
58609,-125,4,2,1,100,0,1
58868,-125,4,2,1,5,0,1
58954,-66.6666666666667,4,2,1,100,0,1
59557,-66.6666666666667,4,2,1,5,0,1
59643,-66.6666666666667,4,2,1,100,0,1
60419,-66.6666666666667,4,2,1,5,0,1
60505,-66.6666666666667,4,2,1,100,0,1
61712,-125,4,2,1,100,0,1
62057,-66.6666666666667,4,2,1,100,0,1
62316,-66.6666666666667,4,2,1,5,0,1
62402,-66.6666666666667,4,2,1,100,0,1
63695,-66.6666666666667,4,2,1,5,0,1
63781,-66.6666666666667,4,2,1,100,0,1
64126,-125,4,2,1,100,0,1
64385,-125,4,2,1,5,0,1
64471,-125,4,2,1,100,0,1
64816,-66.6666666666667,4,2,1,100,0,1
65074,-66.6666666666667,4,2,1,5,0,1
65161,-66.6666666666667,4,2,1,100,0,1
65678,-83.3333333333333,4,2,1,100,0,1
66195,-100,4,2,1,100,0,1
66712,-125,4,2,1,100,0,1
67057,-200,4,2,1,100,0,1
67574,-66.6666666666667,4,2,1,100,0,1
69988,-125,4,2,1,100,0,1
70247,-125,4,2,1,5,0,1
70333,-66.6666666666667,4,2,1,100,0,1
72747,-83.3333333333333,4,2,1,100,0,1
73092,-83.3333333333333,4,2,1,100,0,1
73350,-83.3333333333333,4,2,1,5,0,1
73436,-83.3333333333333,4,2,1,100,0,1
78609,-100,4,2,1,100,0,0
100678,-100,4,2,1,50,0,0
133781,-100,4,2,1,40,0,0
135161,-100,4,2,1,50,0,0
136540,-100,4,2,1,60,0,0
137919,-100,4,2,1,70,0,0
139299,-100,4,2,1,75,0,0
139643,-100,4,2,1,80,0,0
139988,-100,4,2,1,85,0,0
140333,-100,4,2,1,90,0,0
140678,-100,4,2,1,95,0,0
141023,-100,4,2,1,100,0,0
143436,-100,4,2,1,100,0,0
144816,-100,4,2,1,100,0,1
147230,-100,4,2,1,100,0,1
147574,-100,4,2,1,100,0,1
149988,-100,4,2,1,100,0,1
150333,-100,4,2,1,100,0,1
152057,-100,4,2,1,100,0,1
153092,-100,4,2,1,100,0,1
154816,-100,4,2,1,100,0,1
155505,-100,4,2,1,100,0,1
158264,-100,4,2,1,100,0,1
158609,-100,4,2,1,100,0,1
161023,-100,4,2,1,100,0,1
161368,-100,4,2,1,100,0,0
166885,-100,4,2,1,100,0,1
168609,-100,4,2,1,100,0,1
169643,-100,4,2,1,100,0,1
172057,-100,4,2,1,100,0,1
172402,-100,4,2,1,100,0,1
174816,-100,4,2,1,100,0,1
175161,-100,4,2,1,100,0,1
176540,-100,4,2,1,100,0,1
177057,-100,4,2,1,100,0,1
177919,-100,4,2,1,100,0,1
180333,-100,4,2,1,100,0,1
180678,-100,4,2,1,100,0,1
183092,-100,4,2,1,100,0,1
183436,-100,4,2,1,100,0,1
188954,-100,4,2,1,100,0,0

[Colours]
Combo1 : 231,176,197
Combo2 : 197,197,199
Combo3 : 21,189,204
Combo4 : 255,194,67

[HitObjects]
120,58,12402,6,0,B|114:121|114:121|122:152|122:152|119:187,1,128,0|0,3:0|0:0,0:0:0:0:
228,293,13092,1,8,0:3:0:0:
228,293,14126,5,0,3:0:0:0:
334,182,14471,1,8,0:3:0:0:
334,182,15161,6,0,B|291:178|291:178|250:188|250:188|206:184,1,128,0|0,3:0|0:0,0:0:0:0:
297,257,15678,1,0,0:0:0:0:
304,259,15764,1,0,0:0:0:0:
312,262,15850,1,8,0:3:0:0:
312,262,16885,5,0,3:0:0:0:
206,150,17230,1,8,0:3:0:0:
206,150,17919,6,0,B|236:141|236:141|270:144,1,64,0|0,3:0|0:0,0:0:0:0:
309,209,18264,2,0,B|278:217|278:217|244:214,1,64
206,150,18609,1,8,0:3:0:0:
170,214,18781,1,0,0:0:0:0:
205,278,18953,1,0,0:0:0:0:
278,283,19126,1,0,0:0:0:0:
333,337,19299,5,0,0:0:0:0:
353,262,19471,1,0,0:0:0:0:
299,209,19643,2,0,L|317:139,1,64,0|0,3:0|0:0,0:0:0:0:
370,92,19988,1,8,0:3:0:0:
299,72,20160,1,0,0:0:0:0:
243,121,20332,1,0,0:0:0:0:
255,194,20505,1,0,0:0:0:0:
382,310,20678,6,0,B|386:258|386:258|399:269,1,64,0|0,3:0|0:0,0:0:0:0:
445,160,21023,2,0,B|440:211|440:211|427:200,1,64
368,156,21281,1,0,0:0:0:0:
365,148,21368,1,8,0:3:0:0:
290,164,21540,1,0,0:0:0:0:
215,151,21712,1,2,0:2:0:0:
149,111,21885,1,0,3:0:0:0:
296,65,22057,5,2,0:2:0:0:
214,231,22230,1,0,3:0:0:0:
211,238,22316,1,0,3:0:0:0:
208,246,22402,1,0,3:0:0:0:
149,111,22574,1,0,3:0:0:0:
366,153,22747,2,0,P|349:193|365:253,1,96,8|0,0:3|0:0,0:0:0:0:
415,296,23092,2,0,P|432:256|416:196,1,96,8|0,0:3|0:0,0:0:0:0:
366,153,23437,6,0,P|325:132|303:98,1,80
282,36,23781,1,0,0:0:0:0:
120,64,23954,2,0,P|105:107|111:143,1,80
148,210,24299,1,0,0:0:0:0:
274,265,24471,2,0,B|276:235|276:235|262:184,1,80
322,33,24816,6,0,B|319:62|319:62|333:113,1,80
350,181,25161,1,0,0:0:0:0:
433,317,25333,2,0,B|430:287|430:287|444:236,1,80
460,169,25678,1,0,0:0:0:0:
346,60,25850,2,0,P|300:69|271:92,1,80
218,147,26109,1,0,0:0:0:0:
214,156,26195,6,0,P|187:192|154:208,1,80
85,200,26540,1,0,0:0:0:0:
187,74,26712,2,0,P|231:66|266:78,1,80
311,133,27057,1,0,0:0:0:0:
199,257,27230,2,0,B|169:264|169:264|117:259,1,80
285,232,27575,6,0,B|313:224|313:224|365:228,1,80
436,234,27919,1,0,0:0:0:0:
287,156,28092,2,0,B|258:163|258:163|206:159,1,80
136,154,28436,1,0,0:0:0:0:
294,80,28609,2,0,P|336:96|360:123,1,80
358,193,28868,1,0,0:0:0:0:
354,202,28954,6,0,L|338:244,3,40,0|0|0|0,3:0|0:0|0:0|0:0,0:0:0:0:
271,171,29299,2,0,L|255:129,3,40,0|0|0|0,3:0|0:0|0:0|0:0,0:0:0:0:
189,201,29643,2,0,L|173:242,3,40,0|0|0|0,3:0|0:0|0:0|0:0,0:0:0:0:
106,169,29988,2,0,L|90:127,3,40,0|0|0|0,3:0|0:0|0:0|0:0,0:0:0:0:
160,63,30333,5,0,3:0:0:0:
178,71,30419,1,0,0:0:0:0:
197,77,30505,1,0,0:0:0:0:
217,80,30591,1,0,0:0:0:0:
236,80,30677,1,0,3:0:0:0:
256,77,30764,1,0,0:0:0:0:
276,72,30850,1,0,0:0:0:0:
294,64,30936,1,0,0:0:0:0:
311,53,31022,5,0,3:0:0:0:
300,81,31109,1,0,0:0:0:0:
293,110,31195,1,0,0:0:0:0:
290,140,31281,1,0,0:0:0:0:
290,170,31367,1,0,3:0:0:0:
294,200,31454,1,0,0:0:0:0:
301,229,31540,1,0,0:0:0:0:
313,256,31626,1,0,0:0:0:0:
327,283,31713,6,0,P|315:319|316:355,1,47.9999985351563,0|0,3:0|3:0,0:0:0:0:
418,279,31885,2,0,P|427:242|423:206,1,47.9999985351563,0|0,3:0|3:0,0:0:0:0:
345,152,32057,2,0,P|338:189|346:224,1,47.9999985351563,0|0,3:0|3:0,0:0:0:0:
433,132,32229,2,0,P|435:94|425:59,1,47.9999985351563,0|0,3:0|3:0,0:0:0:0:
329,33,32402,5,0,3:0:0:0:
301,49,32488,1,0,3:0:0:0:
270,56,32574,1,0,3:0:0:0:
238,55,32660,1,0,3:0:0:0:
187,107,32747,5,0,3:0:0:0:
155,106,32833,1,0,3:0:0:0:
124,114,32919,1,0,3:0:0:0:
97,130,33005,1,0,3:0:0:0:
97,130,33695,6,0,L|87:156,2,23.9999992675781,0|0|8,0:0|0:0|0:3,0:0:0:0:
284,95,33954,1,0,0:0:0:0:
217,254,34126,1,0,0:0:0:0:
165,84,34299,1,0,0:0:0:0:
416,48,34471,6,0,B|412:87|412:87|422:126|422:126|418:166,1,120.000004577637,0|0,3:0|0:0,0:0:0:0:
464,341,34816,2,0,B|425:330|425:330|350:278,1,120.000004577637
487,81,35161,1,8,0:3:0:0:
363,225,35333,2,0,P|357:259|361:291,1,60.0000022888184
293,165,35505,2,0,B|280:117|280:117|286:40,1,120.000004577637
158,175,35850,6,0,B|154:219|154:219|159:238|159:238|153:298,1,120.000004577637
98,120,36195,2,0,P|153:94|219:119,1,120.000004577637,0|0,3:0|0:0,0:0:0:0:
278,275,36540,1,8,0:3:0:0:
396,155,36712,2,0,B|399:135|399:135|388:90,1,60.0000022888184
161,86,36885,6,0,B|157:113|157:113|162:137|162:137|156:161|157:192,1,90.0000034332277
92,239,37230,6,0,P|144:265|202:253,1,120.000004577637,0|0,3:0|0:0,0:0:0:0:
342,62,37574,2,0,B|338:101|338:101|348:140|348:140|344:191,1,120.000004577637
447,329,37919,1,8,0:3:0:0:
259,186,38092,2,0,P|255:149|243:124,1,60.0000022888184
172,181,38264,2,0,P|155:147|135:128,1,60.0000022888184
88,206,38436,2,0,P|61:180|35:168,1,60.0000022888184
226,48,38609,6,0,B|267:41|298:66|298:66|321:80|350:80,1,120.000004577637
450,206,38954,2,0,B|400:214|400:214|324:201,1,120.000004577637,0|0,3:0|0:0,0:0:0:0:
188,312,39299,1,8,0:3:0:0:
245,128,39471,2,0,P|261:94|281:75,1,60.0000022888184
203,196,39643,6,0,L|145:210,1,47.9999985351563,0|0,0:0|0:0,0:0:0:0:
110,220,39816,2,0,L|166:204,1,47.9999985351563,0|0,0:0|0:0,0:0:0:0:
329,147,39988,6,0,B|325:191|325:191|330:210|330:210|324:270,1,120.000004577637,0|0,3:0|0:0,0:0:0:0:
163,318,40333,2,0,B|152:279|152:279|144:266|144:266|144:250|144:250|127:183|127:183|101:237,1,180.000006866455
66,139,40678,2,0,P|109:111|180:129,1,120.000004577637,8|0,0:3|0:0,0:0:0:0:
301,251,41023,2,0,B|293:201|293:201|306:125,1,120.000004577637
432,4,41368,6,0,B|440:54|440:54|427:130,1,120.000004577637
386,259,41712,6,0,B|375:297|375:297|381:362,1,95.9999970703126,0|0,3:0|0:0,0:0:0:0:
297,303,42057,6,0,P|250:279|191:280,1,96,8|0,0:3|0:0,0:0:0:0:
168,305,42402,2,0,P|138:288|176:282,1,96
159,169,42747,6,0,B|155:213|155:213|160:232|160:232|154:292,1,120.000004577637,0|0,3:0|0:0,0:0:0:0:
312,199,43092,1,0,0:0:0:0:
327,162,43178,1,0,0:0:0:0:
357,136,43264,1,0,0:0:0:0:
395,127,43350,1,0,0:0:0:0:
485,136,43436,2,0,P|480:174|483:216,1,60.0000022888184,8|0,0:3|0:0,0:0:0:0:
417,311,43609,2,0,P|422:273|419:231,1,60.0000022888184
357,136,43781,2,0,P|352:174|355:216,1,60.0000022888184,0|0,0:0|0:0,0:0:0:0:
289,311,43954,2,0,P|294:273|291:231,1,60.0000022888184,0|0,0:0|0:0,0:0:0:0:
230,187,44126,6,0,P|186:202|125:198,1,95.9999970703126
47,165,44471,6,0,P|43:228|67:269,1,96
90,290,44816,2,0,P|127:275|166:277,1,64
253,315,45161,5,0,0:0:0:0:
263,286,45333,5,0,0:0:0:0:
273,258,45506,6,0,B|269:214|269:214|274:195|274:195|268:139,1,120.000004577637,0|0,3:0|0:0,0:0:0:0:
115,45,45850,2,0,B|106:87|119:135|119:135|106:125|100:112,1,120.000004577637
265,39,46195,1,8,0:3:0:0:
182,199,46368,2,0,B|179:219|179:219|190:264,1,60.0000022888184
119,135,46540,2,0,B|137:67|137:67|132:15,1,120.000004577637
387,112,46885,6,0,B|383:152|383:152|391:182|391:182|385:241,1,120.000004577637
451,63,47230,2,0,P|400:33|342:45,1,120.000004577637,0|0,3:0|0:0,0:0:0:0:
169,93,47574,1,8,0:3:0:0:
285,147,47747,2,0,P|291:181|287:213,1,60.0000022888184
435,94,47919,6,0,B|396:89|356:102|356:102|375:109,1,90.0000034332277
304,38,48264,6,0,P|274:98|298:165,1,120.000004577637,0|0,3:0|0:0,0:0:0:0:
453,212,48609,2,0,B|449:251|449:251|459:290|459:290|455:330,1,120.000004577637
288,206,48954,1,8,0:3:0:0:
90,151,49126,2,0,P|116:164|139:183,1,60.0000022888184
188,294,49298,2,0,P|158:288|131:275,1,60.0000022888184
228,202,49471,2,0,P|257:199|287:205,1,60.0000022888184
45,243,49643,6,0,P|81:197|139:183,1,120.000004577637
292,324,49988,2,0,B|288:280|288:280|293:261|293:261|287:205,1,120.000004577637,0|0,3:0|0:0,0:0:0:0:
160,75,50333,1,8,0:3:0:0:
338,95,50505,2,0,B|358:97|358:97|398:119,1,60.0000022888184
259,160,50678,6,0,L|199:143,1,47.9999985351563
166,135,50850,2,0,L|212:147,1,47.9999985351563
390,297,51023,6,0,B|387:265|387:265|400:235|400:235|397:193,1,95.9999970703126,0|0,3:0|0:0,0:0:0:0:
479,122,51368,1,0,0:0:0:0:
453,103,51454,1,0,0:0:0:0:
423,91,51540,1,0,0:0:0:0:
391,88,51626,1,0,0:0:0:0:
340,139,51712,6,0,L|284:124,1,47.9999985351563,8|0,0:2|0:0,0:0:0:0:
242,177,51885,2,0,L|180:193,1,47.9999985351563,0|0,0:0|0:0,0:0:0:0:
144,240,52057,5,0,3:0:0:0:
170,257,52143,1,0,0:0:0:0:
199,270,52229,1,0,3:0:0:0:
231,276,52315,1,0,0:0:0:0:
303,276,52402,6,0,L|318:219,1,47.9999985351563,0|0,0:0|0:0,0:0:0:0:
368,181,52574,2,0,B|380:132|380:132|369:88,1,95.9999970703126,0|0,0:0|3:0,0:0:0:0:
269,75,52833,1,0,0:0:0:0:
266,86,52919,2,0,B|253:134|253:134|264:178,1,95.9999970703126,0|8,0:0|0:2,0:0:0:0:
264,178,53781,6,0,B|232:180|232:180|212:175|212:175|161:179,1,95.9999970703126,0|2,3:0|0:2,0:0:0:0:
260,67,54126,1,8,0:2:0:0:
205,252,54298,1,2,0:2:0:0:
225,264,54384,1,2,0:2:0:0:
248,271,54470,1,2,0:2:0:0:
272,272,54556,1,2,0:2:0:0:
295,267,54642,1,8,0:2:0:0:
382,148,54816,1,2,0:2:0:0:
362,136,54902,1,2,0:2:0:0:
339,129,54988,1,2,0:2:0:0:
315,128,55074,1,2,0:2:0:0:
264,178,55160,5,0,3:0:0:0:
402,250,55333,1,0,0:0:0:0:
359,59,55505,1,8,0:2:0:0:
295,267,55678,1,0,0:0:0:0:
430,141,55850,6,0,L|458:148,7,23.9999992675781,0|0|0|0|8|0|0|0,0:0|0:0|0:0|0:0|0:2|0:0|0:0|0:0,0:0:0:0:
453,183,56195,2,0,L|473:203,7,23.9999992675781
469,245,56540,6,0,B|462:284|462:284|475:322|475:322|467:366,1,120.000004577637,0|0,3:0|0:0,0:0:0:0:
341,233,56885,2,0,B|351:204|351:204|344:168,1,60.0000022888184
276,272,57057,2,0,B|265:300|265:300|272:336,1,60.0000022888184
222,219,57230,1,8,0:3:0:0:
88,338,57402,2,0,B|113:311|112:271|105:239|90:212|61:195|33:187|33:187|85:187|107:193,1,240.000009155274,0|0,3:0|0:0,0:0:0:0:
253,32,57919,6,0,B|263:78|240:133|240:133|256:154|256:154|238:215|258:272,1,240.000009155274,0|0,3:0|0:0,0:0:0:0:
346,106,58436,1,0,3:0:0:0:
150,172,58609,2,0,B|152:140|152:140|149:125|149:125|153:71,1,96,8|0,0:3|0:0,0:0:0:0:
66,103,58954,2,0,P|24:100|66:101,1,120.000004577637
44,102,59299,6,0,B|47:131|40:169|40:169|53:186|53:186|48:219|50:287,1,180.000006866455,0|0,3:0|0:0,0:0:0:0:
9,356,59643,2,0,P|40:366|74:363,1,60.0000022888184
132,300,59816,2,0,P|161:298|190:307,1,60.0000022888184
253,370,59988,1,8,0:3:0:0:
380,242,60161,2,0,B|367:210|364:167|374:124|391:99|391:99|403:127|404:154,1,180.000006866455
455,200,60505,1,0,3:0:0:0:
293,53,60678,6,0,B|240:60|202:51|202:51|176:63|176:63|115:51|48:55,1,240.000009155274,0|0,3:0|0:0,0:0:0:0:
196,169,61195,2,0,P|205:199|202:233,1,60.0000022888184
139,291,61368,1,8,0:3:0:0:
172,311,61454,1,2,0:2:0:0:
212,316,61540,1,2,0:2:0:0:
249,304,61626,1,2,0:2:0:0:
313,240,61712,6,0,L|358:247,1,32
376,251,61885,2,0,L|330:243,1,32
391,324,62057,6,0,B|428:315|451:284|461:247|436:208|436:208|456:212|472:233,1,180.000006866455,0|0,3:0|0:0,0:0:0:0:
478,91,62402,2,0,B|428:99|428:99|410:92|410:92|356:102,1,120.000004577637
182,127,62747,1,8,0:3:0:0:
339,212,62919,2,0,B|313:218|285:237|270:280|270:280|238:291|200:336|200:336|205:307|217:283,1,240.000009155274
93,169,63436,6,0,B|128:155|155:130|171:75|171:75|188:109|179:146,1,180.000006866455
173,216,63781,1,0,3:0:0:0:
38,336,63954,2,0,P|44:289|41:251,1,60.0000022888184
22,189,64126,6,0,P|17:151|27:75,1,96,8|0,0:3|0:0,0:0:0:0:
56,59,64471,2,0,P|103:69|136:67,1,64
296,36,64816,6,0,B|303:75|295:109|295:109|311:139|311:139|300:175|303:224,1,180.000006866455,0|0,3:0|0:0,0:0:0:0:
366,274,65161,2,0,P|304:300|251:284,1,120.000004577637
128,159,65505,1,8,0:3:0:0:
247,77,65678,2,0,P|293:101|379:107,1,127.99999609375
448,215,66195,2,0,P|402:248|336:258,1,106.666666666667
250,229,66712,2,0,P|205:218|151:220,1,85.3333333333333
111,271,67057,2,0,P|79:281|57:283,2,40
155,96,67574,6,0,B|199:92|199:92|218:97|218:97|274:91,1,120.000004577637,0|0,3:0|0:0,0:0:0:0:
401,218,67919,2,0,B|365:237|365:237|275:254,1,120.000004577637
116,195,68264,1,8,0:3:0:0:
273,91,68436,2,0,P|310:95|335:107,1,60.0000022888184
451,110,68609,2,0,B|438:147|438:147|413:178|413:178|396:227,1,120.000004577637
271,344,68954,6,0,B|258:307|258:307|233:276|233:276|216:227,1,120.000004577637
95,106,69299,2,0,B|163:117|163:117|213:109,1,120.000004577637,0|0,3:0|0:0,0:0:0:0:
389,74,69643,1,8,0:3:0:0:
458,240,69816,2,0,B|461:260|461:260|450:305,1,60.0000022888184
255,342,69988,6,0,B|246:302|254:267|254:267|261:275|266:287,1,96
186,235,70333,6,0,P|218:203|297:205,1,120.000004577637,0|0,3:0|0:0,0:0:0:0:
417,328,70678,2,0,B|413:284|413:284|418:265|418:265|412:209,1,120.000004577637
392,29,71023,1,8,0:3:0:0:
225,95,71195,2,0,L|161:106,1,60.0000022888184,0|0,0:0|0:0,0:0:0:0:
101,169,71368,2,0,L|164:180,1,60.0000022888184,0|0,0:0|0:0,0:0:0:0:
223,242,71540,2,0,L|159:253,1,60.0000022888184,0|0,0:0|0:0,0:0:0:0:
57,102,71712,6,0,B|31:117|16:149|21:182|21:182|4:167|-4:148,1,120.000004577637
220,183,72057,2,0,B|179:182|179:182|101:169,1,120.000004577637,0|0,3:0|0:0,0:0:0:0:
191,325,72402,1,8,0:3:0:0:
301,167,72574,2,0,P|285:133|265:114,1,60.0000022888184
343,235,72747,6,0,L|401:249,1,47.9999985351563
436,259,72919,2,0,L|380:243,1,47.9999985351563
300,27,73092,6,0,B|308:74|308:74|291:119|291:119|302:179,1,143.999995605469,0|0,3:0|0:0,0:0:0:0:
249,217,73436,1,0,0:0:0:0:
275,234,73522,1,0,0:0:0:0:
307,238,73608,1,0,0:0:0:0:
337,229,73694,1,0,0:0:0:0:
388,177,73781,6,0,L|399:109,1,47.9999985351563,8|0,0:2|0:0,0:0:0:0:
447,78,73954,2,0,L|435:10,1,47.9999985351563
368,43,74126,5,0,3:0:0:0:
341,61,74212,1,0,0:0:0:0:
310,65,74298,1,0,3:0:0:0:
279,56,74384,1,0,0:0:0:0:
227,107,74471,6,0,L|217:162,1,47.9999985351563
167,205,74643,2,0,P|209:227|270:208,1,95.9999970703126,0|0,0:0|3:0,0:0:0:0:
340,136,74902,1,0,0:0:0:0:
357,116,74988,2,0,P|403:107|445:129,1,95.9999970703126,0|8,0:0|0:2,0:0:0:0:
445,129,75850,6,0,B|447:160|447:160|442:181|442:181|446:232,1,95.9999970703126,0|2,3:0|0:2,0:0:0:0:
326,141,76195,1,8,0:2:0:0:
424,312,76368,1,2,0:2:0:0:
400,307,76454,1,2,0:2:0:0:
376,303,76540,1,2,0:2:0:0:
353,299,76626,1,2,0:2:0:0:
329,295,76712,1,8,0:2:0:0:
227,193,76885,1,2,0:2:0:0:
250,189,76971,1,2,0:2:0:0:
274,185,77057,1,2,0:2:0:0:
298,181,77143,1,2,0:2:0:0:
348,130,77229,5,0,3:0:0:0:
329,295,77402,1,0,0:0:0:0:
246,100,77574,1,8,0:2:0:0:
404,228,77747,1,0,0:0:0:0:
208,242,77919,2,0,P|153:226|98:228,2,95.9999970703126,0|8|0,0:0|0:2|0:0,0:0:0:0:
208,242,78609,5,0,0:0:0:0:
