osu file format v14

[General]
AudioFilename: audio.mp3
AudioLeadIn: 0
PreviewTime: 101145
Countdown: 0
SampleSet: Soft
StackLeniency: 0.5
Mode: 0
LetterboxInBreaks: 0
WidescreenStoryboard: 0

[Editor]
Bookmarks: 22616,45204,67792,75733,90380
DistanceSpacing: 1.4
BeatDivisor: 4
GridSize: 4
TimelineZoom: 2.6

[Metadata]
Title:Ripped To Pieces (Feat. EMEL)
TitleUnicode:Ripped To Pieces (Feat. EMEL)
Artist:Stonebank
ArtistUnicode:Stonebank
Creator:Monstrata
Version:Fanteer's Hard
Source:
Tags:akitoshi corinn mentai fanteer haruto haruto_aizawa haruto- monstercat dnb happy hardcore hard dance electronic music collaboration
BeatmapID:1425722
BeatmapSetID:590385

[Difficulty]
HPDrainRate:5
CircleSize:4
OverallDifficulty:6
ApproachRate:8
SliderMultiplier:1.4
SliderTickRate:1

[Events]
//Background and Video events
0,0,"xjQxtor.jpg",0,0
//Break Periods
2,11522,21866
//Storyboard Layer 0 (Background)
//Storyboard Layer 1 (Fail)
//Storyboard Layer 2 (Pass)
//Storyboard Layer 3 (Foreground)
//Storyboard Sound Samples

[TimingPoints]
28,352.941176470588,4,2,3,60,1,0
8851,-111.111111111111,4,2,3,60,0,0
9204,-117.647058823529,4,2,3,60,0,0
9557,-125,4,2,3,60,0,0
9910,-125,4,2,69,70,0,0
22616,-125,4,2,3,50,0,0
45204,-111.111111111111,4,2,3,60,0,0
67439,-111.111111111111,4,2,3,60,0,0
67792,-111.111111111111,4,2,3,70,0,0
76439,-111.111111111111,4,2,3,35,0,0
78204,-111.111111111111,4,2,3,60,0,0
78557,-100,4,2,3,60,0,0
79086,-100,4,2,69,70,0,0
90380,-100,4,2,69,50,0,0
90645,-100,4,2,3,50,0,0
91792,-95.2380952380952,4,2,3,50,0,0
93204,-90.9090909090909,4,2,3,60,0,0
94616,-86.9565217391304,4,2,3,60,0,0
96027,-83.3333333333333,4,2,3,60,0,0
98851,-76.9230769230769,4,2,3,70,0,0
100263,-100,4,2,3,40,0,0
100792,-100,4,2,3,60,0,0
100969,-100,4,2,3,70,0,0
101322,-90.9090909090909,4,2,3,70,0,1
101675,-90.9090909090909,4,2,69,80,0,1
110322,-100,4,2,69,80,0,0
112616,-90.9090909090909,4,2,69,80,0,1
121616,-100,4,2,69,80,0,0
123380,-100,4,2,0,80,0,0
123910,-90.9090909090909,4,2,69,80,0,1
132910,-100,4,2,69,80,0,0
135204,-90.9090909090909,4,2,69,80,0,1
144027,-111.111111111111,4,2,3,50,0,0
146851,-111.111111111111,4,2,69,50,0,0

[Colours]
Combo1 : 134,157,98
Combo2 : 119,102,145
Combo3 : 226,156,156
Combo4 : 94,121,162

[HitObjects]
315,83,28,6,0,P|319:116|327:163,1,70,14|0,0:0|0:0,0:0:0:0:
390,215,380,2,0,P|385:249|380:284,1,70,2|0,0:0|0:0,0:0:0:0:
303,334,733,1,2,0:0:0:0:
139,253,1086,2,0,L|134:183,1,70,2|0,0:0|0:0,0:0:0:0:
142,162,1351,1,0,0:0:0:0:
158,146,1439,6,0,P|195:139|235:137,1,70,10|0,0:0|0:0,0:0:0:0:
281,64,1792,2,0,P|315:69|350:72,1,70,2|0,0:0|0:0,0:0:0:0:
437,45,2145,1,2,0:0:0:0:
478,126,2322,2,0,L|523:122,2,35,0|0|2,0:0|1:0|0:0,0:0:0:0:
402,177,2675,1,0,0:0:0:0:
461,245,2851,6,0,L|469:325,1,70,10|0,0:0|0:0,0:0:0:0:
376,310,3204,2,0,L|369:379,1,70,2|0,0:0|0:0,0:0:0:0:
286,341,3557,1,2,0:0:0:0:
198,181,3910,2,0,P|160:184|117:191,1,70,2|0,0:0|0:0,0:0:0:0:
108,199,4175,1,0,0:0:0:0:
91,214,4263,6,0,P|93:177|99:114,1,70,10|0,0:0|0:0,0:0:0:0:
16,98,4616,2,0,P|14:61|8:-2,1,70,2|0,0:0|0:0,0:0:0:0:
100,8,4969,1,2,0:0:0:0:
173,60,5145,2,0,L|169:95,2,35,0|0|2,1:0|0:0|0:0,0:0:0:0:
251,13,5498,1,0,1:0:0:0:
314,78,5675,6,0,L|322:151,1,70,10|0,0:0|0:0,0:0:0:0:
379,217,6027,2,0,L|371:286,1,70,2|0,0:0|0:0,0:0:0:0:
417,365,6380,1,2,0:0:0:0:
494,200,6733,2,0,L|486:130,1,70,2|0,0:0|0:0,0:0:0:0:
468,116,6998,1,0,0:0:0:0:
450,102,7086,6,0,P|414:108|378:111,1,70,10|0,0:0|0:0,0:0:0:0:
306,58,7439,2,0,P|271:51|236:48,1,70,2|0,0:0|0:0,0:0:0:0:
155,89,7792,1,2,0:0:0:0:
77,40,7969,2,0,L|73:5,2,35,0|0|2,0:0|3:0|0:0,0:0:0:0:
25,115,8322,1,0,0:0:0:0:
66,195,8498,6,0,P|100:198|134:206,1,70,10|0,0:0|0:0,0:0:0:0:
202,268,8851,6,0,P|236:264|268:258,1,62.9999980773926,2|0,0:0|0:0,0:0:0:0:
334,211,9204,6,0,P|368:214|399:225,1,59.5000011348725,2|0,0:0|0:0,0:0:0:0:
447,158,9557,6,0,P|484:155|513:148,1,56,2|0,0:0|0:0,0:0:0:0:
510,69,9910,6,0,P|493:43|463:22,1,56,8|0,0:0|0:0,0:0:0:0:
394,55,10263,2,0,L|285:46,1,84,8|8,0:0|0:0,0:0:0:0:
101,22,10969,1,8,0:0:0:0:
213,147,11322,5,6,0:0:0:0:
312,236,22616,5,4,3:0:0:0:
312,236,23145,1,8,0:0:0:0:
238,288,23322,2,0,P|186:276|110:284,1,112,0|8,0:0|0:0,0:0:0:0:
46,312,23851,1,0,0:0:0:0:
14,228,24027,6,0,P|14:176|38:112,1,112,8|0,0:0|0:0,0:0:0:0:
120,96,24557,2,0,L|178:92,2,56,8|0|0,0:0|0:0|0:0,0:0:0:0:
56,32,25086,1,8,0:0:0:0:
104,204,25439,5,8,0:0:0:0:
104,204,25969,2,0,P|169:202|220:296,1,168,8|8,0:0|0:0,0:0:0:0:
56,352,26851,1,8,0:0:0:0:
56,352,27380,1,8,0:0:0:0:
24,176,27733,2,0,L|32:116,2,56,0|8|0,0:0|0:0|0:0,0:0:0:0:
20,268,28263,5,8,0:0:0:0:
20,268,28792,1,8,0:0:0:0:
96,312,28969,2,0,L|224:304,1,112,0|8,0:0|0:0,0:0:0:0:
288,340,29498,1,0,0:0:0:0:
352,280,29675,6,0,P|352:230|328:174,1,112,8|0,0:0|0:0,0:0:0:0:
244,144,30204,2,0,L|184:148,2,56,8|0|0,0:0|0:0|0:0,0:0:0:0:
300,72,30733,2,0,L|360:76,1,56,8|0,0:0|0:0,0:0:0:0:
428,132,31086,5,8,0:0:0:0:
428,132,31616,2,0,B|440:196|440:196|432:244|432:304,1,168,8|8,0:0|0:0,0:0:0:0:
260,352,32498,1,8,0:0:0:0:
260,352,33027,1,8,0:0:0:0:
308,180,33380,2,0,L|300:116,2,56,0|8|0,0:0|0:0|0:0,0:0:0:0:
280,264,33910,5,8,0:0:0:0:
280,264,34439,1,8,0:0:0:0:
352,316,34616,2,0,P|404:316|452:280,1,112,0|8,0:0|0:0,0:0:0:0:
444,192,35145,1,0,0:0:0:0:
380,132,35322,6,0,L|252:120,1,112,8|0,0:0|0:0,0:0:0:0:
192,72,35851,2,0,L|136:75,2,56,8|0|0,0:0|0:0|0:0,0:0:0:0:
268,121,36380,1,8,0:0:0:0:
304,296,36733,5,8,0:0:0:0:
304,296,37263,2,0,P|239:298|188:204,1,168,8|8,0:0|0:0,0:0:0:0:
272,60,38145,1,8,0:0:0:0:
272,60,38674,1,8,0:0:0:0:
96,36,39027,2,0,L|40:44,2,56,0|8|0,0:0|0:0|0:0,0:0:0:0:
176,80,39557,5,8,0:0:0:0:
176,80,40086,1,8,0:0:0:0:
236,148,40263,2,0,P|252:196|260:276,1,112,0|8,0:0|0:0,0:0:0:0:
228,340,40792,1,0,0:0:0:0:
148,304,40969,6,0,L|20:296,1,112,8|0,0:0|0:0,0:0:0:0:
8,212,41498,2,0,P|12:188|24:156,2,56,8|0|0,0:0|0:0|0:0,0:0:0:0:
96,212,42027,2,0,L|156:216,1,56,8|0,0:0|0:0,0:0:0:0:
244,204,42380,5,8,0:0:0:0:
244,204,42910,2,0,B|240:168|228:132|228:132|237:98|244:24,1,168,8|8,0:0|0:0,0:0:0:0:
416,80,43792,1,8,0:0:0:0:
416,80,44321,1,8,0:0:0:0:
416,80,45204,5,4,3:0:0:0:
416,80,45733,2,0,P|384:80|336:76,1,62.9999980773926,8|0,0:0|0:0,0:0:0:0:
268,108,46086,1,0,0:0:0:0:
268,108,46263,2,0,P|237:105|206:105,1,62.9999980773926,8|0,0:0|0:0,0:0:0:0:
136,160,46616,6,0,P|116:228|124:304,1,125.999996154785,8|0,0:0|0:0,0:0:0:0:
192,328,47145,1,8,0:0:0:0:
192,328,47322,2,0,P|224:324|268:324,1,62.9999980773926,0|0,0:0|0:0,0:0:0:0:
332,280,47675,2,0,P|364:284|408:284,1,62.9999980773926,8|0,0:0|0:0,0:0:0:0:
468,236,48027,5,8,0:0:0:0:
468,236,48557,1,8,0:0:0:0:
468,236,49086,2,0,P|472:200|472:160,1,62.9999980773926,8|0,0:0|0:0,0:0:0:0:
456,88,49439,5,8,0:0:0:0:
456,88,49969,1,8,0:0:0:0:
288,28,50322,2,0,L|220:24,2,62.9999980773926,0|8|0,0:0|0:0|0:0,0:0:0:0:
344,96,50851,5,4,3:0:0:0:
344,96,51380,2,0,P|344:128|340:176,1,62.9999980773926,8|0,0:0|0:0,0:0:0:0:
288,228,51733,1,0,0:0:0:0:
288,228,51910,2,0,P|285:259|285:290,1,62.9999980773926,8|0,0:0|0:0,0:0:0:0:
224,356,52263,6,0,P|180:320|88:328,1,125.999996154785,8|0,0:0|0:0,0:0:0:0:
28,340,52792,1,8,0:0:0:0:
8,256,52969,2,0,P|8:228|16:180,1,62.9999980773926,0|0,0:0|0:0,0:0:0:0:
80,136,53322,2,0,P|111:136|142:140,1,62.9999980773926,8|0,0:0|0:0,0:0:0:0:
208,200,53674,5,8,0:0:0:0:
208,200,54204,1,8,0:0:0:0:
208,200,54733,2,0,P|204:232|204:276,1,62.9999980773926,8|0,0:0|0:0,0:0:0:0:
248,340,55086,5,8,0:0:0:0:
248,340,55616,1,8,0:0:0:0:
412,276,55969,2,0,L|474:279,2,62.9999980773926,0|8|0,0:0|0:0|0:0,0:0:0:0:
348,216,56498,5,8,0:0:0:0:
348,216,57027,2,0,P|316:216|268:220,1,62.9999980773926,8|0,0:0|0:0,0:0:0:0:
212,168,57380,1,0,0:0:0:0:
212,168,57557,2,0,P|180:168|149:165,1,62.9999980773926,8|0,0:0|0:0,0:0:0:0:
92,100,57910,6,0,P|64:148|92:232,1,125.999996154785,8|0,0:0|0:0,0:0:0:0:
46,297,58439,1,8,0:0:0:0:
114,352,58616,2,0,P|145:352|176:348,1,62.9999980773926,0|0,0:0|0:0,0:0:0:0:
258,313,58969,2,0,P|259:281|263:250,1,62.9999980773926,8|0,0:0|0:0,0:0:0:0:
280,164,59321,5,8,0:0:0:0:
280,164,59851,1,8,0:0:0:0:
280,164,60380,2,0,P|249:156|218:154,1,62.9999980773926,8|0,0:0|0:0,0:0:0:0:
132,176,60733,5,8,0:0:0:0:
132,176,61263,1,8,0:0:0:0:
288,28,61616,2,0,L|220:24,2,62.9999980773926,0|8|0,0:0|0:0|0:0,0:0:0:0:
344,96,62145,5,8,0:0:0:0:
344,96,62675,2,0,L|340:176,1,62.9999980773926,8|0,0:0|0:0,0:0:0:0:
360,244,63028,1,0,0:0:0:0:
360,244,63204,2,0,L|364:324,1,62.9999980773926,8|0,0:0|0:0,0:0:0:0:
292,360,63558,6,0,P|236:352|200:288,1,125.999996154785,8|0,0:0|0:0,0:0:0:0:
208,208,64087,1,8,0:0:0:0:
260,136,64264,2,0,P|260:105|256:74,1,62.9999980773926,0|0,0:0|0:0,0:0:0:0:
180,28,64617,2,0,P|148:28|117:32,1,62.9999980773926,8|0,0:0|0:0,0:0:0:0:
60,100,64969,5,4,3:0:0:0:
60,100,65498,1,8,0:0:0:0:
60,100,66027,2,0,P|56:128|56:168,1,62.9999980773926,8|0,0:0|0:0,0:0:0:0:
100,240,66380,6,0,L|164:236,1,62.9999980773926,8|0,0:0|0:0,0:0:0:0:
220,304,66733,2,0,L|282:307,1,62.9999980773926,8|8,0:0|0:0,0:0:0:0:
352,252,67086,2,0,P|352:220|348:189,1,62.9999980773926,8|8,0:0|0:0,0:0:0:0:
296,120,67439,5,8,0:0:0:0:
343,45,67616,2,0,P|377:40|417:39,1,62.9999980773926,8|4,0:0|3:0,0:0:0:0:
476,92,67969,2,0,P|472:126|471:165,1,62.9999980773926,0|0,0:0|0:0,0:0:0:0:
501,237,68322,1,0,0:0:0:0:
457,318,68498,2,0,P|420:324|388:335,1,62.9999980773926,8|0,0:0|0:0,0:0:0:0:
319,287,68851,1,0,0:0:0:0:
243,332,69027,6,0,P|206:326|174:315,1,62.9999980773926,8|0,0:0|0:0,0:0:0:0:
125,249,69380,2,0,L|130:172,1,62.9999980773926,8|0,0:0|0:0,0:0:0:0:
171,108,69733,2,0,L|166:45,2,62.9999980773926,0|8|8,0:0|0:0|0:0,0:0:0:0:
243,160,70263,1,0,3:0:0:0:
316,111,70439,6,0,P|346:106|385:102,1,62.9999980773926,8|0,0:0|0:0,0:0:0:0:
454,147,70792,2,0,L|466:214,2,62.9999980773926,8|8|0,0:0|0:0|0:0,0:0:0:0:
484,63,71322,1,8,0:0:0:0:
316,111,71675,1,0,0:0:0:0:
248,54,71851,6,0,P|216:58|185:61,1,62.9999980773926,8|0,0:0|0:0,0:0:0:0:
112,10,72204,2,0,P|80:5|49:2,2,62.9999980773926,8|8|0,0:0|0:0|0:0,0:0:0:0:
185,61,72733,2,0,L|194:138,2,62.9999980773926,8|8|8,0:0|0:0|0:0,0:0:0:0:
101,91,73263,6,0,L|92:168,1,62.9999980773926,8|0,0:0|0:0,0:0:0:0:
129,234,73616,2,0,P|159:239|189:249,1,62.9999980773926,8|0,0:0|0:0,0:0:0:0:
255,308,73969,2,0,P|329:305|375:269,1,125.999996154785,8|8,0:0|0:0,0:0:0:0:
347,100,74675,1,0,0:3:0:0:
271,54,74851,6,0,L|193:51,2,62.9999980773926,8|0|8,0:0|0:0|0:0,0:0:0:0:
347,100,75380,2,0,P|379:94|433:92,1,62.9999980773926,8|0,0:0|0:0,0:0:0:0:
450,168,75733,2,0,P|480:174|512:177,1,62.9999980773926,8|0,0:0|0:0,0:0:0:0:
472,256,76086,2,0,P|478:288|484:329,1,62.9999980773926,8|0,0:0|0:0,0:0:0:0:
256,192,76439,12,0,78027,0:0:0:0:
97,99,78557,6,0,L|102:57,2,35,0|0|8,1:0|0:0|0:0,0:0:0:0:
149,170,78910,6,0,P|183:165|226:165,1,70,0|6,1:0|0:0,0:0:0:0:
297,215,79263,2,0,P|328:219|367:223,1,70,0|0,0:0|1:0,0:0:0:0:
425,151,79616,1,0,0:0:0:0:
372,76,79792,2,0,P|374:40|379:1,1,70,0|0,0:0|0:0,0:0:0:0:
289,27,80145,1,0,1:0:0:0:
204,61,80321,6,0,P|165:55|134:52,1,70,0|0,0:0|0:0,0:0:0:0:
56,99,80674,2,0,L|43:169,1,70,0|0,0:0|1:0,0:0:0:0:
90,245,81027,2,0,L|102:313,2,70,0|0|0,0:0|0:0|0:0,0:0:0:0:
154,180,81557,1,0,1:0:0:0:
230,229,81733,6,0,L|305:236,1,70,0|0,0:0|0:0,0:0:0:0:
380,192,82086,2,0,P|416:185|450:183,2,70,0|0|0,0:0|1:0|0:0,0:0:0:0:
375,283,82616,1,0,0:0:0:0:
196,316,82969,1,0,1:0:0:0:
139,245,83145,6,0,L|59:238,1,70,0|0,0:0|0:0,0:0:0:0:
90,150,83498,2,0,L|159:143,2,70,0|0|0,0:0|1:0|0:0,0:0:0:0:
69,238,84027,2,0,L|77:320,2,70,0|0|0,0:3|0:0|1:0,0:0:0:0:
4,173,84557,6,0,P|4:140|17:102,1,70,0|0,0:0|0:0,0:0:0:0:
98,66,84910,2,0,L|167:59,1,70,0|0,0:0|1:0,0:0:0:0:
243,8,85263,2,0,P|210:63|271:87,1,140,0|0,0:0|0:0,0:0:0:0:
393,218,85969,2,0,P|426:235|454:257,1,70,0|0,0:0|0:0,0:0:0:0:
440,345,86322,2,0,P|412:366|381:382,1,70,0|0,0:0|1:0,0:0:0:0:
300,339,86675,2,0,L|216:332,1,70,0|0,0:0|0:0,0:0:0:0:
167,267,87027,2,0,P|136:277|97:276,2,70,0|0|0,0:0|1:0|0:0,0:0:0:0:
256,192,87557,12,0,88969,1:0:0:0:
375,277,89851,5,0,3:0:0:0:
375,277,89939,1,0,0:0:0:0:
375,277,90027,2,0,P|339:273|303:273,1,70,0|0,1:0|1:0,0:0:0:0:
222,325,90380,6,0,P|187:324|152:320,1,70,6|0,0:0|0:0,0:0:0:0:
132,305,90645,1,8,0:0:0:0:
113,289,90733,2,0,P|78:289|43:293,1,70,0|0,0:0|1:0,0:0:0:0:
91,207,91086,2,0,P|123:211|163:215,1,70,8|0,0:0|3:0,0:0:0:0:
180,199,91351,1,8,0:0:0:0:
198,182,91439,2,0,P|230:177|270:174,1,70,0|0,0:0|1:0,0:0:0:0:
360,129,91792,6,0,P|368:164|369:207,1,73.4999977569581,8|0,0:0|0:0,0:0:0:0:
357,224,92057,1,8,0:0:0:0:
341,244,92145,2,0,P|335:278|334:317,1,73.4999977569581,0|0,0:0|1:0,0:0:0:0:
242,364,92498,2,0,P|205:358|166:356,1,73.4999977569581,8|0,0:0|0:0,0:0:0:0:
147,343,92763,1,8,0:0:0:0:
125,330,92851,2,0,P|83:335|49:338,1,73.4999977569581,0|0,0:0|1:0,0:0:0:0:
1,242,93204,6,0,P|3:202|12:154,1,77.0000023498536,8|0,0:0|0:0,0:0:0:0:
23,143,93469,1,8,0:0:0:0:
42,124,93557,2,0,P|81:126|121:122,1,77.0000023498536,0|0,0:0|1:0,0:0:0:0:
206,59,93910,2,0,P|245:57|285:61,1,77.0000023498536,8|0,0:0|0:0,0:0:0:0:
304,78,94175,1,8,0:0:0:0:
323,96,94263,2,0,P|328:137|330:181,1,77.0000023498536,0|0,0:0|1:0,0:0:0:0:
270,267,94616,6,0,P|264:308|264:352,1,80.5000015354157,8|0,0:0|0:0,0:0:0:0:
284,367,94880,1,8,0:0:0:0:
309,381,94969,2,0,L|394:376,1,80.5000015354157,0|0,0:0|1:0,0:0:0:0:
477,304,95322,2,0,P|478:264|476:222,1,80.5000015354157,8|0,0:0|0:0,0:0:0:0:
456,203,95586,1,8,0:0:0:0:
435,184,95675,2,0,P|395:179|351:183,1,80.5000015354157,0|0,0:0|1:0,0:0:0:0:
276,268,96027,6,0,L|192:263,1,83.9999974365235,0|8,1:0|0:0,0:0:0:0:
102,186,96380,2,0,L|185:181,1,83.9999974365235,0|8,1:0|0:0,0:0:0:0:
279,108,96733,2,0,L|195:103,1,83.9999974365235,0|8,1:0|0:0,0:0:0:0:
103,29,97086,2,0,L|186:24,1,83.9999974365235,0|8,1:0|0:0,0:0:0:0:
306,27,97439,6,0,P|326:23|350:22,3,41.9999987182618,0|0|8|0,1:0|0:0|0:0|0:0,0:0:0:0:
356,102,97792,2,0,P|378:102|400:104,3,41.9999987182618,0|0|8|0,1:0|0:0|0:0|0:0,0:0:0:0:
402,184,98145,2,0,P|422:187|445:194,3,41.9999987182618,0|0|8|0,1:0|0:0|0:0|0:0,0:0:0:0:
432,273,98498,2,0,P|451:280|472:290,3,41.9999987182618,0|0|8|0,1:0|0:0|0:0|0:0,0:0:0:0:
414,356,98851,6,0,L|365:360,16,45.4999979171754,0|0|0|0|0|0|0|0|0|0|0|0|0|0|0|0|0,1:3|1:3|1:3|1:3|1:3|1:3|1:3|1:3|1:3|1:3|1:3|1:3|1:3|1:3|1:3|1:3|0:1,0:0:0:0:
414,356,101322,5,8,0:0:0:0:
338,302,101499,2,0,L|250:309,1,77.0000023498536,0|4,0:0|3:2,0:0:0:0:
182,356,101851,2,0,L|104:351,1,77.0000023498536,2|8,0:0|0:0,0:0:0:0:
22,307,102205,1,2,0:0:0:0:
60,223,102380,2,0,P|49:183|23:149,1,77.0000023498536,2|0,3:2|0:0,0:0:0:0:
107,104,102734,1,8,0:0:0:0:
191,141,102910,6,0,L|267:133,1,77.0000023498536,2|0,0:0|3:0,0:0:0:0:
344,82,103263,2,0,L|420:89,1,77.0000023498536,2|8,0:0|0:0,0:0:0:0:
491,149,103616,2,0,P|503:185|503:237,2,77.0000023498536,2|2|0,0:0|3:2|0:0,0:0:0:0:
412,199,104146,1,8,0:0:0:0:
359,274,104322,6,0,L|364:357,1,77.0000023498536,2|0,0:0|3:0,0:0:0:0:
274,377,104675,2,0,P|236:367|184:360,2,77.0000023498536,2|10|0,0:0|0:0|0:0,0:0:0:0:
363,350,105205,1,2,3:2:0:0:
313,172,105558,1,8,0:0:0:0:
236,222,105734,6,0,L|148:218,1,77.0000023498536,2|0,0:0|3:0,0:0:0:0:
104,144,106086,2,0,P|84:177|48:204,2,77.0000023498536,2|10|0,0:0|0:0|0:0,0:0:0:0:
18,115,106616,2,0,L|26:38,2,77.0000023498536,2|0|10,3:2|0:0|0:0,0:0:0:0:
104,144,107146,6,0,P|141:141|179:132,1,77.0000023498536,2|0,0:0|0:0,0:0:0:0:
250,73,107498,2,0,P|288:75|325:85,1,77.0000023498536,0|8,0:0|0:0,0:0:0:0:
397,144,107852,2,0,P|464:154|509:70,1,154.000004699707,2|2,0:0|0:0,0:0:0:0:
471,271,108558,1,2,0:0:0:0:
386,308,108734,6,0,L|392:393,2,77.0000023498536,2|0|10,3:2|0:0|0:0,0:0:0:0:
293,310,109263,2,0,P|257:323|218:325,1,77.0000023498536,2|0,0:0|3:0,0:0:0:0:
148,265,109616,2,0,P|153:231|163:187,1,77.0000023498536,2|8,0:0|0:0,0:0:0:0:
252,168,109969,2,0,P|292:172|336:180,1,77.0000023498536,2|0,0:0|3:0,0:0:0:0:
372,106,110322,5,2,0:0:0:0:
332,31,110498,2,0,L|262:34,1,70,8|2,0:0|0:0,0:0:0:0:
209,100,110851,2,0,L|139:96,1,70,0|2,3:0|0:0,0:0:0:0:
92,26,111204,2,0,L|22:30,1,70,8|2,0:0|0:0,0:0:0:0:
8,113,111557,5,8,0:0:0:0:
18,196,111733,1,0,3:0:0:0:
74,258,111910,2,0,L|78:297,2,35,8|0|0,0:0|3:0|0:0,0:0:0:0:
95,229,112175,2,0,P|145:226|195:257,1,105,8|0,0:0|3:0,0:0:0:0:
252,324,112616,5,0,1:0:0:0:
319,260,112792,2,0,L|312:172,1,77.0000023498536,4|4,0:0|0:0,0:0:0:0:
242,123,113145,2,0,L|247:45,1,77.0000023498536,2|8,0:0|0:0,0:0:0:0:
334,14,113499,1,2,0:0:0:0:
406,70,113674,2,0,P|446:69|489:58,1,77.0000023498536,2|0,3:2|0:0,0:0:0:0:
479,153,114028,1,10,0:0:0:0:
419,223,114204,6,0,L|411:299,1,77.0000023498536,2|0,0:0|3:3,0:0:0:0:
332,347,114557,2,0,L|324:270,1,77.0000023498536,2|8,0:0|0:0,0:0:0:0:
254,210,114910,2,0,B|214:217|185:242,2,77.0000023498536,2|2|0,0:0|3:2|0:0,0:0:0:0:
342,180,115440,1,10,0:0:0:0:
395,104,115616,6,0,P|389:64|374:29,1,77.0000023498536,2|0,0:0|3:0,0:0:0:0:
282,21,115969,2,0,P|244:30|206:36,2,77.0000023498536,2|10|0,0:0|0:0|0:0,0:0:0:0:
374,30,116499,1,2,3:2:0:0:
449,198,116852,1,10,0:0:0:0:
361,167,117028,6,0,P|320:169|284:175,1,77.0000023498536,2|0,0:0|3:0,0:0:0:0:
223,244,117380,2,0,P|184:242|146:236,2,77.0000023498536,2|10|0,0:0|0:0|0:0,0:0:0:0:
284,174,117910,2,0,L|275:97,2,77.0000023498536,2|0|10,3:2|0:0|0:0,0:0:0:0:
324,257,118440,6,0,P|361:266|399:269,1,77.0000023498536,2|0,0:0|0:0,0:0:0:0:
459,199,118792,2,0,L|448:122,1,77.0000023498536,0|10,0:0|0:0,0:0:0:0:
379,59,119146,2,0,B|340:63|306:50|306:50|306:59|306:59|271:45|207:44,1,154.000004699707,2|2,0:0|0:0,0:0:0:0:
61,102,119851,1,2,0:0:0:0:
119,174,120028,6,0,L|125:259,2,77.0000023498536,0|0|10,0:0|0:0|0:0,0:0:0:0:
205,139,120557,2,0,P|243:140|279:154,1,77.0000023498536,2|0,0:0|0:0,0:0:0:0:
307,242,120910,2,0,L|301:327,1,77.0000023498536,0|10,0:0|0:0,0:0:0:0:
385,358,121263,2,0,P|420:344|459:342,1,77.0000023498536,2|0,0:0|3:2,0:0:0:0:
496,266,121616,5,0,0:0:0:0:
453,193,121792,2,0,L|456:117,1,70,8|0,0:0|0:0,0:0:0:0:
382,80,122145,2,0,P|347:82|310:95,1,70,0|0,3:0|0:0,0:0:0:0:
250,38,122498,2,0,P|215:36|178:23,1,70,8|0,0:0|0:0,0:0:0:0:
107,64,122851,6,0,P|66:68|12:75,2,70,2|0|2,0:0|0:0|0:0,0:0:0:0:
157,131,123380,2,0,P|191:134|226:138,2,70,2|0|2,3:2|3:0|3:2,0:0:0:0:
81,185,123910,5,2,1:2:0:0:
134,261,124087,2,0,L|210:254,1,77.0000023498536,0|4,1:0|3:2,0:0:0:0:
283,311,124439,2,0,L|361:316,1,77.0000023498536,2|8,0:0|0:0,0:0:0:0:
437,367,124793,1,2,0:0:0:0:
502,303,124968,2,0,P|497:265|481:227,1,77.0000023498536,2|0,3:2|0:0,0:0:0:0:
389,230,125322,1,10,0:0:0:0:
343,150,125498,6,0,L|350:73,1,77.0000023498536,2|0,0:0|3:0,0:0:0:0:
430,27,125851,2,0,L|437:103,1,77.0000023498536,0|8,0:0|0:0,0:0:0:0:
350,73,126204,2,0,P|306:95|262:91,2,77.0000023498536,2|2|0,0:0|3:2|0:0,0:0:0:0:
286,4,126734,1,10,0:0:0:0:
197,30,126910,6,0,P|180:71|176:112,1,77.0000023498536,2|0,0:0|3:0,0:0:0:0:
216,186,127263,2,0,P|231:221|237:259,2,77.0000023498536,2|10|0,0:0|0:0|0:0,0:0:0:0:
123,192,127793,1,2,3:2:0:0:
278,95,128146,1,10,0:0:0:0:
351,149,128322,2,0,L|436:156,1,77.0000023498536,2|0,0:0|3:0,0:0:0:0:
409,246,128675,2,0,L|485:239,2,77.0000023498536,2|10|0,0:0|0:0|0:0,0:0:0:0:
363,326,129204,2,0,L|286:319,2,77.0000023498536,2|0|10,3:2|0:0|0:0,0:0:0:0:
323,242,129733,6,0,L|246:235,1,77.0000023498536,2|0,0:0|3:0,0:0:0:0:
201,316,130086,2,0,L|124:322,1,77.0000023498536,0|10,0:0|0:0,0:0:0:0:
49,267,130439,2,0,P|54:228|159:218,1,154.000004699707,2|2,0:0|0:0,0:0:0:0:
291,329,131145,1,2,0:0:0:0:
323,242,131322,6,0,L|317:165,2,77.0000023498536,2|0|10,3:2|0:0|0:0,0:0:0:0:
382,313,131851,2,0,P|417:326|456:328,1,77.0000023498536,2|0,0:0|3:0,0:0:0:0:
505,250,132204,2,0,L|499:173,1,77.0000023498536,2|8,0:0|0:0,0:0:0:0:
471,85,132557,2,0,P|435:98|396:100,1,77.0000023498536,2|0,0:0|3:0,0:0:0:0:
322,60,132910,5,2,0:0:0:0:
260,117,133086,2,0,P|255:151|253:186,1,70,8|2,0:0|0:0,0:0:0:0:
305,252,133439,2,0,P|309:286|311:321,1,70,0|2,3:0|0:0,0:0:0:0:
245,374,133792,2,0,P|210:372|175:359,1,70,8|0,0:0|0:0,0:0:0:0:
139,285,134145,5,8,0:0:0:0:
169,206,134321,1,0,3:0:0:0:
117,138,134498,2,0,L|69:146,2,35,8|0|0,0:0|3:0|0:0,0:0:0:0:
138,110,134763,2,0,P|192:108|227:74,1,105,8|0,0:0|3:0,0:0:0:0:
302,21,135204,5,0,1:0:0:0:
363,89,135380,2,0,P|400:101|443:104,1,77.0000023498536,0|4,0:0|3:2,0:0:0:0:
479,186,135733,2,0,P|440:189|404:201,1,77.0000023498536,2|8,0:0|0:0,0:0:0:0:
369,287,136087,1,2,0:0:0:0:
292,236,136262,2,0,P|288:191|297:152,1,77.0000023498536,2|0,3:2|0:0,0:0:0:0:
269,70,136616,1,10,0:0:0:0:
187,113,136792,6,0,L|110:105,1,77.0000023498536,2|0,0:0|3:0,0:0:0:0:
34,158,137145,2,0,P|44:195|41:234,1,77.0000023498536,2|8,0:0|0:0,0:0:0:0:
101,303,137498,2,0,P|91:340|93:379,2,77.0000023498536,2|2|0,0:0|3:2|0:0,0:0:0:0:
183,345,138028,1,10,0:0:0:0:
257,291,138204,6,0,L|349:282,1,77.0000023498536,2|0,0:0|3:0,0:0:0:0:
405,224,138557,2,0,P|420:259|426:297,2,77.0000023498536,2|10|0,0:0|0:0|0:0,0:0:0:0:
317,191,139087,1,2,3:2:0:0:
418,36,139440,1,10,0:0:0:0:
328,57,139616,2,0,L|251:50,1,77.0000023498536,2|0,0:0|3:0,0:0:0:0:
163,21,139969,2,0,L|86:27,2,77.0000023498536,2|10|0,0:0|0:0|0:0,0:0:0:0:
251,50,140498,2,0,L|257:126,2,77.0000023498536,2|0|10,3:2|0:0|0:0,0:0:0:0:
340,75,141027,6,0,P|374:86|419:90,1,77.0000023498536,2|0,0:0|3:0,0:0:0:0:
460,170,141380,2,0,P|421:173|385:185,1,77.0000023498536,2|10,0:0|0:0,0:0:0:0:
325,255,141733,2,0,P|314:334|384:349,1,154.000004699707,2|2,0:0|0:0,0:0:0:0:
206,269,142439,1,2,0:0:0:0:
119,300,142616,6,0,L|113:376,2,77.0000023498536,0|0|10,0:0|0:0|0:0,0:0:0:0:
92,211,143145,2,0,P|56:224|17:226,1,77.0000023498536,2|0,0:0|0:0,0:0:0:0:
36,135,143498,2,0,L|41:58,1,77.0000023498536,0|10,0:0|0:0,0:0:0:0:
123,14,143851,2,0,P|161:15|197:29,1,77.0000023498536,2|2,0:0|0:0,0:0:0:0:
194,235,145263,6,0,P|227:230|276:231,1,62.9999980773926,8|0,0:0|0:0,0:0:0:0:
339,263,145616,2,0,P|373:266|401:266,1,62.9999980773926,0|0,0:0|0:0,0:0:0:0:
460,199,145969,2,0,P|472:174|495:148,1,62.9999980773926,8|0,0:0|0:0,0:0:0:0:
462,65,146322,2,0,P|435:85|403:97,1,62.9999980773926,0|8,0:0|0:0,0:0:0:0:
240,38,146851,5,4,0:3:0:0:
