osu file format v14

[General]
AudioFilename: audio.mp3
AudioLeadIn: 0
PreviewTime: 101145
Countdown: 0
SampleSet: Soft
StackLeniency: 0.5
Mode: 0
LetterboxInBreaks: 0
WidescreenStoryboard: 0

[Editor]
Bookmarks: 22616,45204,67792,90380
DistanceSpacing: 1
BeatDivisor: 6
GridSize: 4
TimelineZoom: 1.9

[Metadata]
Title:Ripped To Pieces (Feat. EMEL)
TitleUnicode:Ripped To Pieces (Feat. EMEL)
Artist:Stonebank
ArtistUnicode:Stonebank
Creator:Monstrata
Version:Ashes
Source:
Tags:akitoshi corinn mentai fanteer haruto haruto_aizawa haruto- monstercat dnb happy hardcore hard dance electronic music collaboration
BeatmapID:1249502
BeatmapSetID:590385

[Difficulty]
HPDrainRate:6
CircleSize:4
OverallDifficulty:8
ApproachRate:9
SliderMultiplier:1.8
SliderTickRate:1

[Events]
//Background and Video events
0,0,"xjQxtor.jpg",0,0
//Break Periods
2,11522,22016
//Storyboard Layer 0 (Background)
//Storyboard Layer 1 (Fail)
//Storyboard Layer 2 (Pass)
//Storyboard Layer 3 (Foreground)
//Storyboard Sound Samples

[TimingPoints]
28,352.941176470588,4,2,3,60,1,0
9910,-100,4,2,69,70,0,0
22616,-166.666666666667,4,2,3,50,0,0
45204,-133.333333333333,4,2,3,60,0,0
67792,-133.333333333333,4,2,3,70,0,0
76439,-166.666666666667,4,2,3,35,0,0
78204,-166.666666666667,4,2,3,60,0,0
79086,-117.647058823529,4,2,69,70,0,0
90380,-142.857142857143,4,2,69,50,0,0
90645,-142.857142857143,4,2,3,50,0,0
91792,-125,4,2,3,50,0,0
93204,-111.111111111111,4,2,3,60,0,0
94616,-100,4,2,3,60,0,0
98851,-100,4,2,3,70,0,0
100263,-133.333333333333,4,2,3,40,0,0
100792,-133.333333333333,4,2,3,60,0,0
100969,-133.333333333333,4,2,3,70,0,0
101675,-100,4,2,69,80,0,1
110322,-125,4,2,69,80,0,1
112969,-100,4,2,69,80,0,1
121439,-125,4,2,69,80,0,1
123380,-125,4,2,0,80,0,1
123910,-125,4,2,69,80,0,1
124263,-100,4,2,69,80,0,1
132733,-125,4,2,69,80,0,1
135557,-100,4,2,69,80,0,1
144027,-125,4,2,3,50,0,0
146851,-125,4,2,69,50,0,0

[Colours]
Combo1 : 134,157,98
Combo2 : 119,102,145
Combo3 : 226,156,156
Combo4 : 94,121,162

[HitObjects]
229,192,28,6,0,L|213:304,1,90,14|0,0:0|0:0,0:0:0:0:
318,204,380,2,0,L|430:220,1,90,2|0,0:0|0:0,0:0:0:0:
423,128,645,1,0,0:0:0:0:
423,128,733,2,0,L|535:112,1,90,2|0,0:0|0:0,0:0:0:0:
410,38,1086,2,0,L|426:150,1,90,2|0,0:0|0:0,0:0:0:0:
333,139,1351,1,0,0:0:0:0:
333,139,1439,6,0,L|445:123,1,90,10|0,0:0|0:0,0:0:0:0:
274,70,1792,2,8,P|248:106|243:151,1,90,2|0,0:0|0:0,0:0:0:0:
213,232,2057,1,0,0:0:0:0:
213,232,2145,2,0,P|238:195|243:150,1,90,2|0,0:0|0:0,0:0:0:0:
154,164,2410,1,0,1:0:0:0:
154,164,2498,2,0,L|35:189,1,90,2|0,0:0|0:0,0:0:0:0:
43,278,2763,1,0,3:0:0:0:
43,278,2851,6,0,L|131:259,1,90,10|0,0:0|0:0,0:0:0:0:
64,365,3204,2,0,L|152:346,1,90,2|0,0:0|0:0,0:0:0:0:
216,279,3469,1,0,0:0:0:0:
216,279,3557,2,0,L|308:298,1,90,2|0,0:0|0:0,0:0:0:0:
278,124,3910,2,0,P|266:167|278:209,1,90,2|0,0:0|0:0,0:0:0:0:
357,165,4175,1,0,0:0:0:0:
357,165,4263,6,0,P|368:121|356:79,1,90,10|0,0:0|0:0,0:0:0:0:
360,253,4616,2,0,P|402:241|434:209,1,90,2|0,0:0|0:0,0:0:0:0:
451,120,4880,1,0,0:0:0:0:
451,120,4969,1,2,0:0:0:0:
279,209,5145,1,0,1:0:0:0:
279,209,5233,1,0,0:0:0:0:
279,209,5322,2,0,L|275:164,1,45,2|0,0:0|0:0,0:0:0:0:
194,92,5498,2,0,L|198:137,1,45,0|0,1:0|0:0,0:0:0:0:
278,43,5675,6,0,L|375:38,1,90,10|0,0:0|0:0,0:0:0:0:
442,119,6027,2,0,L|352:123,1,90,2|0,0:0|0:0,0:0:0:0:
383,208,6292,1,0,0:0:0:0:
383,208,6380,2,0,P|399:249|391:292,1,90,2|0,0:0|0:0,0:0:0:0:
301,300,6733,2,0,P|284:258|292:215,1,90,2|0,0:0|0:0,0:0:0:0:
215,144,6998,1,0,0:0:0:0:
215,144,7086,6,0,L|302:124,1,90,10|0,0:0|0:0,0:0:0:0:
302,34,7439,2,0,L|214:53,1,90,2|0,0:0|0:0,0:0:0:0:
136,98,7704,1,0,0:0:0:0:
136,98,7792,2,0,P|123:141|134:184,1,90,2|0,0:0|0:0,0:0:0:0:
197,248,8057,1,0,3:0:0:0:
197,248,8145,2,0,L|312:221,1,90,2|0,0:0|0:0,0:0:0:0:
355,134,8410,1,0,3:0:0:0:
355,134,8498,6,0,L|312:144,1,45,10|0,0:0|0:0,0:0:0:0:
252,75,8675,1,0,0:0:0:0:
433,90,8851,2,0,P|443:134|432:177,1,90,2|0,0:0|0:0,0:0:0:0:
371,242,9116,1,0,0:0:0:0:
371,242,9204,2,0,L|458:261,1,90,2|0,0:0|0:0,0:0:0:0:
355,134,9557,1,2,0:0:0:0:
310,308,9733,1,0,0:0:0:0:
310,308,9822,1,0,0:0:0:0:
310,308,9910,6,0,L|397:327,1,90,8|0,0:0|0:0,0:0:0:0:
281,211,10263,1,8,0:0:0:0:
281,211,10351,2,0,L|229:222,1,45,2|0,0:0|0:0,0:0:0:0:
266,317,10527,2,0,L|309:307,1,45,8|0,0:0|0:0,0:0:0:0:
277,120,10792,1,0,3:0:0:0:
137,160,10969,1,8,0:0:0:0:
171,17,11145,1,0,0:0:0:0:
195,99,11322,5,6,0:0:0:0:
250,103,22616,6,0,P|322:71|399:91,2,161.999995056153,4|8|8,3:0|0:0|0:0,0:0:0:0:
134,216,24027,6,0,L|157:335,1,107.999996704102,8|0,0:0|0:0,0:0:0:0:
234,339,24557,1,8,0:0:0:0:
234,339,24733,2,0,L|345:338,1,107.999996704102,0|8,0:0|0:0,0:0:0:0:
417,193,25439,6,0,P|327:194|250:150,2,161.999995056153,8|8|8,0:0|0:0|0:0,0:0:0:0:
321,61,26851,2,0,P|231:59|154:104,2,161.999995056153,8|8|8,0:0|0:0|0:0,0:0:0:0:
417,193,28263,6,0,L|409:320,1,107.999996704102,8|0,0:0|0:0,0:0:0:0:
330,313,28792,1,8,0:0:0:0:
330,313,28969,2,0,P|288:310|239:259,1,107.999996704102,0|8,0:0|0:0,0:0:0:0:
315,232,29498,1,0,0:0:0:0:
315,232,29675,6,0,L|321:124,1,107.999996704102,8|0,0:0|0:0,0:0:0:0:
251,84,30204,2,0,L|244:191,1,107.999996704102,8|0,0:0|0:0,0:0:0:0:
176,236,30733,2,0,L|123:236,1,53.9999983520508,8|0,0:0|0:0,0:0:0:0:
73,300,31086,6,0,P|43:227|87:163,2,161.999995056153,8|8|8,0:0|0:0|0:0,0:0:0:0:
136,99,32498,2,0,P|165:152|115:239,2,161.999995056153,8|8|8,0:0|0:0|0:0,0:0:0:0:
291,141,33910,6,0,P|342:158|395:150,1,107.999996704102,8|0,0:0|0:0,0:0:0:0:
460,101,34439,1,8,0:0:0:0:
460,101,34616,2,0,P|443:151|451:204,1,107.999996704102,0|8,0:0|0:0,0:0:0:0:
373,229,35145,1,0,0:0:0:0:
373,229,35322,6,0,P|389:279|381:332,1,107.999996704102,8|0,0:0|0:0,0:0:0:0:
308,367,35851,1,8,0:0:0:0:
308,367,36027,2,0,P|255:358|204:375,1,107.999996704102,0|8,0:0|0:0,0:0:0:0:
108,244,36733,6,0,P|158:260|211:252,1,107.999996704102,8|0,0:0|0:0,0:0:0:0:
219,171,37263,2,0,P|168:154|115:162,1,107.999996704102,8|0,0:0|0:0,0:0:0:0:
52,110,37792,2,0,L|63:42,1,53.9999983520508,8|0,0:0|0:0,0:0:0:0:
136,27,38145,6,0,P|186:43|239:35,1,107.999996704102,8|0,0:0|0:0,0:0:0:0:
273,110,38675,2,0,P|325:101|376:118,1,107.999996704102,8|0,0:0|0:0,0:0:0:0:
425,183,39204,2,0,L|415:253,1,53.9999983520508,8|0,0:0|0:0,0:0:0:0:
452,330,39557,6,0,P|451:277|417:236,1,107.999996704102,8|0,0:0|0:0,0:0:0:0:
375,306,40086,1,8,0:0:0:0:
375,306,40263,2,0,L|313:304,1,53.9999983520508
289,229,40616,2,0,L|342:230,1,53.9999983520508,8|0,0:0|0:0,0:0:0:0:
212,205,40969,6,0,P|213:258|247:298,1,107.999996704102,8|0,0:0|0:0,0:0:0:0:
289,229,41498,1,8,0:0:0:0:
289,229,41675,2,0,L|290:175,1,53.9999983520508
371,177,42027,2,0,L|369:230,1,53.9999983520508,8|0,0:0|0:0,0:0:0:0:
448,201,42380,6,0,P|446:147|412:107,1,107.999996704102,8|0,0:0|0:0,0:0:0:0:
318,142,42910,2,0,P|371:140|412:107,1,107.999996704102,8|0,0:0|0:0,0:0:0:0:
341,11,43439,2,0,L|342:65,1,53.9999983520508,8|0,0:0|0:0,0:0:0:0:
248,29,43792,6,0,P|301:30|341:64,1,107.999996704102,8|0,0:0|0:0,0:0:0:0:
288,203,44322,2,0,P|262:156|271:104,1,107.999996704102,8|0,0:0|0:0,0:0:0:0:
342,144,44851,2,0,L|395:143,1,53.9999983520508,8|0,0:0|0:0,0:0:0:0:
234,262,45204,6,0,L|85:263,1,135.000005149842,4|0,3:0|0:0,0:0:0:0:
36,204,45733,1,8,0:0:0:0:
97,139,45910,2,0,P|121:201|99:263,1,135.000005149842,0|8,0:0|0:0,0:0:0:0:
168,317,46439,1,0,0:0:0:0:
254,300,46616,6,0,P|229:238|252:176,1,135.000005149842,8|0,0:0|0:0,0:0:0:0:
315,237,47145,2,0,L|449:235,1,135.000005149842,8|0,0:0|0:0,0:0:0:0:
414,154,47675,2,0,L|318:155,1,67.5000025749208,8|0,0:0|0:0,0:0:0:0:
350,318,48027,6,0,L|494:316,1,135.000005149842,8|0,0:0|0:0,0:0:0:0:
449,235,48557,2,0,L|447:90,1,135.000005149842,8|0,0:0|0:0,0:0:0:0:
366,133,49086,2,0,L|366:200,1,67.5000025749208,8|0,0:0|0:0,0:0:0:0:
378,46,49439,6,0,P|329:54|280:125,1,135.000005149842,8|0,0:0|0:0,0:0:0:0:
366,133,49969,2,0,L|433:132,1,67.5000025749208,8|0,0:0|0:0,0:0:0:0:
311,202,50322,2,0,L|311:269,2,67.5000025749208,0|8|0,0:0|0:0|0:0,0:0:0:0:
186,199,50851,6,0,P|248:178|310:201,1,135.000005149842,4|0,3:0|0:0,0:0:0:0:
366,133,51380,1,8,0:0:0:0:
302,74,51557,2,0,B|283:139|283:139|310:200,1,135.000005149842,0|8,0:0|0:0,0:0:0:0:
366,133,52086,1,0,0:0:0:0:
420,64,52263,6,0,B|448:126|448:126|429:191,1,135.000005149842,8|0,0:0|0:0,0:0:0:0:
374,261,52792,1,8,0:0:0:0:
446,311,52969,2,0,P|461:247|429:190,1,135.000005149842,0|8,0:0|0:0,0:0:0:0:
374,261,53498,1,0,0:0:0:0:
319,332,53675,6,0,P|286:275|302:211,1,135.000005149842,8|0,0:0|0:0,0:0:0:0:
398,134,54204,2,0,P|364:191|301:210,1,135.000005149842,8|0,0:0|0:0,0:0:0:0:
244,108,54733,2,0,L|311:122,1,67.5000025749208,8|0,0:0|0:0,0:0:0:0:
254,20,55086,6,0,P|191:39|158:97,1,135.000005149842,8|0,0:0|0:0,0:0:0:0:
218,241,55616,2,0,L|244:108,1,135.000005149842,8|0,0:0|0:0,0:0:0:0:
115,174,56145,2,0,L|129:241,1,67.5000025749208,8|0,0:0|0:0,0:0:0:0:
238,312,56498,6,0,L|264:179,1,135.000005149842,8|0,0:0|0:0,0:0:0:0:
342,140,57027,1,8,0:0:0:0:
337,228,57204,2,0,L|471:218,1,135.000005149842,0|8,0:0|0:0,0:0:0:0:
484,305,57733,1,0,0:0:0:0:
395,317,57910,6,0,L|260:326,1,135.000005149842,8|0,0:0|0:0,0:0:0:0:
201,260,58439,1,8,0:0:0:0:
114,238,58616,2,0,P|122:304|175:344,1,135.000005149842,0|8,0:0|0:0,0:0:0:0:
201,260,59145,1,0,0:0:0:0:
260,193,59322,6,0,L|395:203,1,135.000005149842,8|0,0:0|0:0,0:0:0:0:
331,118,59851,2,0,P|383:78|391:13,1,135.000005149842,8|0,0:0|0:0,0:0:0:0:
237,26,60380,2,0,L|305:31,1,67.5000025749208,8|0,0:0|0:0,0:0:0:0:
248,133,60733,6,0,L|113:123,1,135.000005149842,8|0,0:0|0:0,0:0:0:0:
43,20,61263,2,0,P|97:58|112:123,1,135.000005149842,8|0,0:0|0:0,0:0:0:0:
20,176,61792,2,0,L|25:109,1,67.5000025749208,8|0,0:0|0:0,0:0:0:0:
79,241,62145,6,0,L|219:250,1,135.000005149842,8|0,0:0|0:0,0:0:0:0:
277,189,62675,1,8,0:0:0:0:
187,96,62851,2,0,L|192:164,1,67.5000025749208
316,111,63204,2,0,L|320:43,1,67.5000025749208,8|0,0:0|0:0,0:0:0:0:
201,29,63557,6,0,L|190:185,1,135.000005149842,8|0,0:0|0:0,0:0:0:0:
220,250,64086,1,8,0:0:0:0:
276,189,64263,2,0,P|309:182|350:193,1,67.5000025749208
371,269,64616,2,0,P|338:275|306:269,1,67.5000025749208,8|0,0:0|0:0,0:0:0:0:
427,201,64969,6,0,P|457:261|438:324,1,135.000005149842,4|0,3:0|0:0,0:0:0:0:
306,269,65498,2,0,P|276:209|295:146,1,135.000005149842,8|0,0:0|0:0,0:0:0:0:
360,24,66027,2,0,P|368:56|362:90,1,67.5000025749208,8|0,0:0|0:0,0:0:0:0:
210,115,66380,5,8,0:0:0:0:
279,60,66557,1,0,0:0:0:0:
128,83,66733,1,8,0:0:0:0:
141,170,66910,1,8,0:0:0:0:
308,233,67086,1,8,0:0:0:0:
295,146,67263,1,8,0:0:0:0:
157,256,67439,1,8,0:0:0:0:
226,201,67616,1,8,0:0:0:0:
72,225,67792,6,0,P|67:270|136:346,1,135.000005149842,4|0,3:0|0:0,0:0:0:0:
239,288,68322,1,0,0:0:0:0:
165,189,68498,2,0,L|157:256,1,67.5000025749208,8|0,0:0|0:0,0:0:0:0:
88,145,68851,1,0,0:0:0:0:
156,33,69027,6,0,L|165:100,1,67.5000025749208,8|0,0:0|0:0,0:0:0:0:
310,54,69380,2,0,L|244:63,1,67.5000025749208,8|0,0:0|0:0,0:0:0:0:
290,219,69733,1,0,0:0:0:0:
324,139,69910,1,8,0:0:0:0:
237,150,70086,1,8,0:0:0:0:
290,219,70263,1,0,3:0:0:0:
271,70,70439,6,0,P|335:52|404:106,1,135.000005149842,8|8,0:0|0:0,0:0:0:0:
376,208,70969,1,8,0:0:0:0:
324,139,71146,1,0,0:0:0:0:
290,219,71322,2,0,L|308:352,1,135.000005149842,8|0,0:0|0:0,0:0:0:0:
204,230,71851,6,0,L|222:363,1,135.000005149842,8|8,0:0|0:0,0:0:0:0:
70,347,72380,2,0,L|137:338,1,67.5000025749208,8|0,0:0|0:0,0:0:0:0:
124,164,72733,1,8,0:0:0:0:
113,253,72910,1,8,0:0:0:0:
42,199,73086,1,8,0:0:0:0:
206,129,73263,6,0,P|250:147|283:236,1,135.000005149842,8|8,0:0|0:0,0:0:0:0:
195,218,73792,1,0,0:0:0:0:
117,118,73969,2,0,L|110:23,1,67.5000025749208,8|0,0:0|0:0,0:0:0:0:
201,61,74322,2,0,L|205:128,1,67.5000025749208,8|0,0:0|0:0,0:0:0:0:
338,189,74675,5,0,0:3:0:0:
294,110,74851,1,8,0:0:0:0:
195,218,75027,1,0,0:0:0:0:
277,256,75204,1,8,0:0:0:0:
205,128,75380,1,8,0:0:0:0:
267,346,75733,1,8,0:0:0:0:
424,184,76086,1,8,0:0:0:0:
424,184,76439,6,0,P|419:233|427:258,1,53.9999983520508,8|0,0:0|0:0,0:0:0:0:
492,216,76792,2,0,P|495:156|451:112,2,107.999996704102,8|8|8,0:0|0:0|0:0,0:0:0:0:
288,329,77851,6,8,B|249:329|249:329|231:326|231:326|219:328|219:328|208:323|208:323|199:329|199:329|187:322|187:322|180:331|180:331|167:322|167:322|163:335|163:335|153:318|153:318|139:336|117:328,1,188.999994232178,8|0,0:0|0:0,0:0:0:0:
134,330,78557,1,0,1:0:0:0:
107,176,78733,1,8,0:0:0:0:
261,148,78910,1,0,1:0:0:0:
289,303,79086,6,0,P|357:314|424:252,1,153.000002918243,6|0,0:0|1:0,0:0:0:0:
336,223,79616,1,0,0:0:0:0:
209,256,79792,2,0,L|199:331,1,76.5000014591217
129,209,80145,1,0,1:0:0:0:
246,101,80322,6,0,L|256:177,1,76.5000014591217
412,142,80675,2,0,L|337:133,1,76.5000014591217,0|0,0:0|1:0,0:0:0:0:
336,223,81027,1,0,0:0:0:0:
423,314,81204,1,0,0:0:0:0:
425,225,81380,1,0,0:0:0:0:
334,312,81557,1,0,1:0:0:0:
183,219,81733,6,0,L|335:222,1,153.000002918243
260,52,82263,1,0,1:0:0:0:
258,141,82439,1,0,0:0:0:0:
403,48,82616,2,0,P|331:27|260:52,1,153.000002918243,0|0,0:0|1:0,0:0:0:0:
406,191,83145,6,0,P|427:118|402:47,1,153.000002918243
258,141,83675,1,0,1:0:0:0:
321,207,83851,1,0,0:0:0:0:
284,54,84027,1,0,0:3:0:0:
169,162,84204,1,0,0:0:0:0:
347,120,84380,1,0,1:0:0:0:
105,96,84557,6,0,P|78:165|111:232,1,153.000002918243
258,141,85086,1,0,1:0:0:0:
101,19,85263,2,0,L|106:132,1,76.5000014591217
245,18,85616,2,0,L|194:75,1,76.5000014591217,0|0,0:0|1:0,0:0:0:0:
423,115,85969,6,0,L|270:122,1,153.000002918243
245,18,86498,1,0,1:0:0:0:
343,42,86675,2,0,L|349:196,1,153.000002918243
261,219,87204,1,0,1:0:0:0:
194,125,87380,2,0,L|275:121,1,76.5000014591217,0|0,0:0|1:0,0:0:0:0:
174,319,87909,6,0,L|255:315,1,76.5000014591217,0|0,1:0|0:0,0:0:0:0:
117,267,88263,2,0,L|176:321,1,76.5000014591217
113,190,88616,2,0,L|116:271,1,76.5000014591217,0|0,1:0|0:0,0:0:0:0:
203,152,88969,2,0,L|200:229,1,76.5000014591217
287,115,89322,2,0,L|291:192,1,76.5000014591217,0|0,1:0|0:0,0:0:0:0:
370,77,89675,1,0,1:0:0:0:
213,61,89851,1,0,3:0:0:0:
365,244,90027,1,0,1:0:0:0:
287,115,90204,1,0,1:0:0:0:
279,281,90380,6,0,P|295:309|320:327,1,62.9999980773926,6|0,0:0|0:0,0:0:0:0:
425,233,90645,2,0,P|393:232|364:245,1,62.9999980773926,8|0,0:0|3:0,3:0:0:0:
409,355,90910,2,0,L|413:324,1,31.4999990386963,0|0,1:0|3:0,3:0:0:0:
272,219,91086,6,0,L|282:308,1,62.9999980773926,8|0,0:0|3:0,3:0:0:0:
417,170,91351,2,0,L|425:233,1,62.9999980773926,8|0,0:0|3:0,3:0:0:0:
323,108,91616,2,0,L|327:140,1,31.4999990386963,0|0,1:0|3:0,3:0:0:0:
169,148,91792,6,0,P|201:134|237:136,1,72,8|0,0:0|0:0,0:0:0:0:
279,281,92057,2,0,P|246:294|210:292,1,72,8|0,0:0|0:0,0:0:0:0:
108,230,92322,2,0,P|126:229|144:231,1,36,0|0,1:0|0:0,0:0:0:0:
53,376,92498,6,0,L|64:278,1,72,8|0,0:0|0:0,0:0:0:0:
116,159,92763,2,0,L|107:230,1,72,8|0,0:0|0:0,0:0:0:0:
0,181,93027,2,0,L|49:175,1,36,0|0,1:0|0:0,0:0:0:0:
249,97,93204,6,0,L|156:86,1,80.9999975280763,8|0,0:0|0:0,0:0:0:0:
285,250,93469,2,0,L|295:157,1,80.9999975280763,8|0,0:0|0:0,0:0:0:0:
198,178,93733,2,0,L|203:228,1,40.4999987640381,0|0,1:0|0:0,0:0:0:0:
332,90,93910,6,0,P|369:76|409:81,1,80.9999975280763,8|0,0:0|0:0,0:0:0:0:
386,238,94175,2,0,P|372:200|378:161,1,80.9999975280763,8|0,0:0|0:0,0:0:0:0:
497,192,94439,2,0,L|457:192,1,40.4999987640381,0|0,1:0|0:0,0:0:0:0:
225,285,94616,6,0,L|350:285,1,90,8|0,0:0|0:0,0:0:0:0:
332,90,94880,2,0,L|242:90,1,90,8|0,0:0|0:0,0:0:0:0:
386,238,95145,2,0,L|464:238,1,45,0|0,1:0|0:0,0:0:0:0:
323,0,95322,6,0,L|332:90,1,90,8|0,0:0|0:0,0:0:0:0:
503,292,95586,2,0,L|511:202,1,90,8|0,0:0|0:0,0:0:0:0:
416,13,95851,2,0,L|409:86,1,45,0|0,1:0|0:0,0:0:0:0:
222,264,96027,5,0,1:0:0:0:
321,184,96204,1,8,0:0:0:0:
311,273,96380,1,0,1:0:0:0:
232,173,96557,1,8,0:0:0:0:
132,254,96733,5,0,1:0:0:0:
53,154,96909,1,8,0:0:0:0:
43,244,97086,1,0,1:0:0:0:
143,165,97263,1,8,0:0:0:0:
211,354,97439,5,0,1:0:0:0:
232,173,97616,1,8,0:0:0:0:
132,254,97792,1,0,1:0:0:0:
311,273,97969,1,8,0:0:0:0:
143,165,98145,5,0,1:0:0:0:
321,184,98322,1,8,0:0:0:0:
132,254,98498,1,0,1:0:0:0:
242,85,98675,1,8,0:0:0:0:
386,238,98851,5,0,1:3:0:0:
400,220,98939,1,0,1:3:0:0:
411,201,99027,1,0,1:3:0:0:
417,180,99115,1,0,1:3:0:0:
419,157,99203,1,0,1:3:0:0:
414,135,99292,1,0,1:3:0:0:
406,114,99380,1,0,1:3:0:0:
394,96,99468,1,0,1:3:0:0:
377,81,99557,6,0,L|312:99,1,45,0|0,1:3|1:3,1:3:0:0:
343,335,99733,2,0,L|387:323,1,45,0|0,1:3|1:3,1:3:0:0:
303,9,99910,6,0,L|238:27,1,45,0|0,1:3|1:3,1:3:0:0:
268,263,100086,2,0,L|312:251,1,45,0|0,1:3|1:3,1:3:0:0:
398,164,100263,6,0,B|323:121|233:153|233:153|146:186|70:154,1,337.500012874604,0|0,0:1|0:1,0:1:0:0:
145,62,101322,1,8,0:0:0:0:
312,251,101498,1,0,0:0:0:0:
392,11,101675,5,4,3:2:0:0:
283,108,101851,2,8,L|202:180,1,90,2|8,0:0|0:0,0:0:0:0:
145,62,102204,1,2,0:0:0:0:
367,135,102380,2,8,L|469:169,1,90,2|0,3:2|0:0,0:0:0:0:
265,20,102733,1,8,0:0:0:0:
301,196,102910,6,8,L|319:284,1,90,2|0,0:0|3:0,0:0:0:0:
456,118,103263,2,0,L|367:136,1,90,2|8,0:0|0:0,0:0:0:0:
252,343,103616,1,2,0:0:0:0:
386,224,103793,1,2,3:2:0:0:
215,168,103969,1,0,0:0:0:0:
164,362,104145,1,8,0:0:0:0:
404,311,104322,6,0,P|443:291|469:255,1,90,2|0,0:0|3:0,0:0:0:0:
283,108,104675,1,2,0:0:0:0:
252,343,104851,1,10,0:0:0:0:
386,224,105027,1,0,0:0:0:0:
215,168,105204,2,0,L|240:287,1,90,2|0,3:2|0:0,0:0:0:0:
129,140,105557,1,8,0:0:0:0:
302,20,105733,6,0,L|276:139,1,90,2|0,0:0|3:0,0:0:0:0:
110,51,106086,1,2,0:0:0:0:
387,47,106263,2,0,L|361:166,1,90,10|0,0:0|0:0,0:0:0:0:
233,256,106616,1,2,3:2:0:0:
129,140,106792,1,0,0:0:0:0:
283,108,106969,1,10,0:0:0:0:
318,284,107145,6,0,P|272:338|156:304,1,180,2|0,0:0|0:0,0:0:0:0:
215,168,107675,1,8,0:0:0:0:
403,312,107851,2,0,L|421:223,1,90,2|0,0:0|3:0,0:0:0:0:
283,108,108204,2,0,L|301:196,1,90,2|8,0:0|0:0,0:0:0:0:
351,48,108557,1,2,0:0:0:0:
109,59,108733,5,2,3:2:0:0:
212,214,108910,1,0,0:0:0:0:
261,16,109086,1,10,0:0:0:0:
19,91,109263,2,0,L|19:211,1,90,2|0,0:0|3:0,0:0:0:0:
212,304,109616,2,0,L|212:214,1,90,2|8,0:0|0:0,0:0:0:0:
109,59,109969,2,0,L|109:179,1,90,2|0,0:0|3:0,0:0:0:0:
292,176,110322,6,0,L|292:104,1,72,2|8,0:0|0:0,0:0:0:0:
241,246,110675,2,0,L|241:318,1,72,2|0,0:0|3:0,0:0:0:0:
322,249,111027,2,0,L|384:213,1,72,2|8,0:0|0:0,0:0:0:0:
214,167,111380,1,2,0:0:0:0:
319,327,111557,5,8,0:0:0:0:
292,176,111733,1,0,3:0:0:0:
241,318,111910,1,8,0:0:0:0:
241,318,111998,2,0,L|176:316,1,36,0|0,3:0|0:0,0:0:0:0:
142,244,112175,2,0,L|207:242,1,36,8|0,0:0|0:0,0:0:0:0:
246,2,112439,5,0,3:0:0:0:
206,153,112616,1,0,1:0:0:0:
183,66,112792,1,0,0:0:0:0:
292,176,112968,5,4,3:2:0:0:
440,89,113145,2,0,L|354:113,1,90,2|8,0:0|0:0,0:0:0:0:
230,239,113498,1,2,0:0:0:0:
464,222,113675,2,0,L|378:199,1,90,2|0,3:2|0:0,0:0:0:0:
292,176,114027,1,10,0:0:0:0:
424,371,114204,6,0,L|401:285,1,90,2|0,0:0|3:3,0:0:0:0:
315,89,114557,2,0,L|291:175,1,90,2|8,0:0|0:0,0:0:0:0:
254,325,114910,1,2,0:0:0:0:
378,199,115086,1,2,3:2:0:0:
206,154,115263,1,0,0:0:0:0:
400,284,115439,1,10,0:0:0:0:
315,89,115616,6,0,L|291:175,1,90,2|0,0:0|3:0,0:0:0:0:
96,262,115969,1,2,0:0:0:0:
206,199,116145,1,10,0:0:0:0:
120,176,116322,1,0,0:0:0:0:
71,348,116498,2,0,P|33:325|11:286,1,90,2|0,3:2|0:0,0:0:0:0:
33,199,116851,1,10,0:0:0:0:
268,262,117027,6,0,P|295:208|283:157,1,90,2|0,0:0|3:0,0:0:0:0:
120,176,117380,1,2,0:0:0:0:
119,347,117557,1,10,0:0:0:0:
206,199,117733,1,0,0:0:0:0:
33,199,117910,1,2,3:2:0:0:
182,113,118086,1,0,0:0:0:0:
119,347,118263,1,10,0:0:0:0:
96,90,118439,6,0,P|147:30|241:46,1,180,2|0,0:0|0:0,0:0:0:0:
206,199,118969,1,10,0:0:0:0:
326,21,119145,2,0,L|239:44,1,90,2|0,0:0|3:0,0:0:0:0:
233,288,119498,2,0,L|320:265,1,90,2|8,0:0|0:0,0:0:0:0:
182,113,119851,6,0,L|144:314,1,180,2|0,0:0|0:0,0:0:0:0:
73,239,120380,1,10,0:0:0:0:
257,163,120557,2,0,L|223:339,1,180,2|0,0:0|0:0,0:0:0:0:
148,289,121086,1,10,0:0:0:0:
332,213,121263,2,0,L|309:331,1,90,2|0,0:0|3:2,0:0:0:0:
240,251,121616,5,0,0:0:0:0:
257,163,121792,1,8,0:0:0:0:
332,213,121969,2,0,L|414:228,1,72,0|0,0:0|3:0,0:0:0:0:
273,74,122322,1,0,0:0:0:0:
257,163,122498,1,8,0:0:0:0:
342,132,122675,1,0,0:0:0:0:
188,105,122851,5,2,0:0:0:0:
240,251,123027,1,0,0:0:0:0:
273,74,123204,1,2,0:0:0:0:
155,282,123380,5,2,3:2:0:0:
342,132,123557,1,0,3:0:0:0:
309,309,123733,1,2,3:2:0:0:
188,105,123910,5,2,1:2:0:0:
223,339,124086,1,0,1:0:0:0:
273,74,124263,5,4,3:2:0:0:
103,135,124439,2,0,L|85:236,1,90,2|8,0:0|0:0,0:0:0:0:
119,46,124792,1,2,0:0:0:0:
288,162,124969,2,0,L|304:251,1,90,2|0,3:2|0:0,0:0:0:0:
356,104,125322,1,10,0:0:0:0:
186,165,125498,6,0,L|168:265,1,90,2|0,0:0|3:0,0:0:0:0:
87,47,125851,2,0,L|102:135,1,90,0|8,0:0|0:0,0:0:0:0:
304,251,126204,1,2,0:0:0:0:
171,77,126380,1,2,3:2:0:0:
170,253,126557,1,0,0:0:0:0:
273,74,126733,1,10,0:0:0:0:
33,193,126910,6,0,L|17:281,1,90,2|0,0:0|3:0,0:0:0:0:
238,319,127263,1,2,0:0:0:0:
171,77,127439,1,10,0:0:0:0:
147,344,127616,1,0,0:0:0:0:
304,250,127792,2,0,P|325:211|327:167,1,90,2|0,3:2|0:0,0:0:0:0:
144,163,128145,1,10,0:0:0:0:
331,341,128322,6,0,L|459:328,1,90,2|0,0:0|3:0,0:0:0:0:
235,185,128675,1,2,0:0:0:0:
147,344,128851,2,0,L|19:331,1,90,10|0,0:0|0:0,0:0:0:0:
144,163,129204,1,2,3:2:0:0:
238,319,129380,1,0,0:0:0:0:
325,159,129557,1,10,0:0:0:0:
146,254,129733,6,0,L|56:244,1,90,2|0,0:0|3:0,0:0:0:0:
208,94,130086,1,0,0:0:0:0:
306,234,130263,1,10,0:0:0:0:
456,64,130439,2,0,L|328:77,1,90,2|0,0:0|3:2,0:0:0:0:
395,224,130792,2,0,L|484:214,1,90,2|8,0:0|0:0,0:0:0:0:
276,82,131145,1,2,0:0:0:0:
358,306,131322,5,2,3:2:0:0:
342,152,131498,1,0,0:0:0:0:
270,316,131675,1,10,0:0:0:0:
447,296,131851,2,0,L|536:286,1,90,2|0,0:0|3:0,0:0:0:0:
306,234,132204,2,0,L|216:243,1,90,2|8,0:0|0:0,0:0:0:0:
89,334,132557,2,0,L|178:324,1,90,2|0,0:0|3:0,0:0:0:0:
164,171,132910,5,2,0:0:0:0:
127,253,133086,1,8,0:0:0:0:
216,243,133263,2,0,L|305:233,1,72,2|0,0:0|3:0,0:0:0:0:
260,153,133616,2,0,L|332:161,1,72,2|8,0:0|0:0,0:0:0:0:
201,89,133969,1,0,0:0:0:0:
127,253,134145,5,8,0:0:0:0:
260,153,134322,1,0,3:0:0:0:
68,189,134498,1,8,0:0:0:0:
68,189,134586,2,0,L|42:240,1,36,0|0,3:0|0:0,0:0:0:0:
39,333,134763,2,0,L|55:300,1,36,8|0,0:0|0:0,0:0:0:0:
63,109,135027,5,0,3:0:0:0:
127,253,135204,1,0,1:0:0:0:
260,153,135380,1,0,0:0:0:0:
196,296,135557,5,4,3:2:0:0:
201,89,135733,2,0,P|261:65|320:90,1,90,2|8,0:0|0:0,0:0:0:0:
319,217,136086,1,2,0:0:0:0:
169,379,136263,2,0,P|118:339|110:275,1,90,2|0,3:2|0:0,0:0:0:0:
260,153,136616,1,10,0:0:0:0:
352,364,136792,6,0,P|414:360|445:336,1,90,2|0,0:0|3:0,0:0:0:0:
430,115,137145,2,0,P|368:119|337:143,1,90,2|8,0:0|0:0,0:0:0:0:
378,281,137498,1,2,0:0:0:0:
512,95,137675,1,2,3:2:0:0:
287,70,137851,1,0,0:0:0:0:
404,198,138027,1,10,0:0:0:0:
512,0,138204,6,0,L|386:32,1,90,2|0,0:0|3:0,0:0:0:0:
319,217,138557,1,2,0:0:0:0:
512,95,138733,1,10,0:0:0:0:
287,70,138909,1,0,0:0:0:0:
378,281,139086,2,0,P|423:283|476:248,1,90,2|0,3:2|0:0,0:0:0:0:
346,133,139439,1,10,0:0:0:0:
134,281,139616,6,0,P|89:283|36:248,1,90,2|0,0:0|3:0,0:0:0:0:
166,133,139969,1,2,0:0:0:0:
256,348,140145,1,10,0:0:0:0:
346,133,140322,1,0,0:0:0:0:
134,281,140498,1,2,3:2:0:0:
378,281,140675,1,0,0:0:0:0:
256,56,140851,1,10,0:0:0:0:
256,348,141027,6,0,P|296:366|340:364,1,90,2|0,0:0|3:0,0:0:0:0:
346,133,141380,1,2,0:0:0:0:
134,281,141557,1,10,0:0:0:0:
378,281,141733,2,0,L|480:281,1,90,2|0,0:0|3:0,0:0:0:0:
166,133,142086,2,0,L|76:133,1,90,2|8,0:0|0:0,0:0:0:0:
256,348,142439,6,0,L|299:146,1,180,2|0,0:0|0:0,0:0:0:0:
186,241,142969,1,10,0:0:0:0:
363,278,143145,2,0,L|406:76,1,180,2|0,0:0|0:0,0:0:0:0:
293,171,143675,1,10,0:0:0:0:
470,208,143851,2,0,L|492:100,1,90,2|2,0:0|0:0,0:0:0:0:
311,82,144204,5,0,0:0:0:0:
293,171,144380,2,0,L|278:241,1,72,8|0,0:0|0:0,0:0:0:0:
363,278,144733,2,0,L|377:348,1,72,8|0,0:0|0:0,0:0:0:0:
381,189,145086,1,0,0:0:0:0:
260,330,145263,6,0,L|114:331,1,144,8|0,0:0|0:0,0:0:0:0:
152,152,145792,1,0,0:0:0:0:
278,241,145969,2,0,L|132:242,1,144,8|0,0:0|0:0,0:0:0:0:
171,64,146498,2,0,L|261:63,1,72,8|0,0:0|0:0,0:0:0:0:
152,152,146851,5,4,0:3:0:0:
