osu file format v14

[General]
AudioFilename: audio.mp3
AudioLeadIn: 0
PreviewTime: 134327
Countdown: 0
SampleSet: None
StackLeniency: 0.7
Mode: 0
LetterboxInBreaks: 0
WidescreenStoryboard: 0

[Editor]
DistanceSpacing: 1.8
BeatDivisor: 4
GridSize: 4
TimelineZoom: 1

[Metadata]
Title:Be Alright (feat. EMEL)
TitleUnicode:Be Alright (feat. EMEL)
Artist:Stonebank
ArtistUnicode:Stonebank
Creator:alacat
Version:Insane
Source:
Tags:Monstercat Hard Dance EDM Electro Frey Asahina Momoko m_o_k_o_r_i mokori Marianna iyasine
BeatmapID:1558503
BeatmapSetID:461545

[Difficulty]
HPDrainRate:6
CircleSize:4
OverallDifficulty:7
ApproachRate:8
SliderMultiplier:1.6
SliderTickRate:1

[Events]
//Background and Video events
0,0,"BG.jpg",0,0
//Break Periods
//Storyboard Layer 0 (Background)
//Storyboard Layer 1 (Fail)
//Storyboard Layer 2 (Pass)
//Storyboard Layer 3 (Foreground)
//Storyboard Sound Samples

[TimingPoints]
122,352.941176470588,4,2,1,40,1,0
10886,-100,4,1,1,50,0,0
11416,-100,4,2,1,40,0,0
16533,-100,4,1,1,50,0,0
17063,-100,4,1,1,30,0,0
18474,-100,4,1,1,40,0,0
19886,-100,4,1,1,50,0,0
24121,-166.666666666667,4,2,2,30,0,0
45298,-125,4,2,2,40,0,0
67886,-100,4,2,2,60,0,0
78827,-100,4,2,2,40,0,0
79180,-100,4,2,2,50,0,0
84827,-100,4,2,2,60,0,0
87651,-100,4,1,1,50,0,0
89239,-100,4,2,2,50,0,0
89769,-100,4,1,1,50,0,0
90474,-100,4,1,1,70,0,1
100180,-100,4,1,1,60,0,0
101769,-100,4,1,1,70,0,1
113063,-100,4,1,1,60,0,0
135651,-100,4,1,1,70,0,1
145357,-100,4,1,1,50,0,0
146945,-100,4,1,1,70,0,1
152592,-100,4,1,1,60,0,0
152945,-133.333333333333,4,2,2,40,0,0
153827,-133.333333333333,4,2,2,30,0,0
158239,-133.333333333333,4,2,2,20,0,0

[Colours]
Combo1 : 202,149,149
Combo2 : 255,255,125
Combo3 : 111,255,255
Combo4 : 255,157,157

[HitObjects]
128,296,122,5,0,0:0:0:0:
256,176,474,1,0,0:0:0:0:
108,76,827,2,0,P|96:116|100:160,1,80
172,204,1180,1,0,0:0:0:0:
324,116,1533,6,0,L|484:132,1,160
368,264,2239,2,0,L|288:256,1,80
220,308,2592,1,0,0:0:0:0:
88,192,2945,5,0,0:0:0:0:
52,364,3297,1,0,0:0:0:0:
220,308,3650,2,0,P|232:268|228:224,1,80
172,164,4003,1,0,0:0:0:0:
144,340,4357,6,0,P|228:324|304:324,1,160
464,252,5062,2,0,L|384:244,1,80
296,236,5415,1,0,0:0:0:0:
180,104,5769,6,0,P|256:72|332:64,1,160
472,168,6474,2,0,L|392:160,1,80
304,152,6828,1,0,0:0:0:0:
172,268,7181,5,0,0:0:0:0:
344,236,7533,1,0,0:0:0:0:
220,112,7886,2,0,L|136:116,1,80
76,176,8239,1,0,0:0:0:0:
176,32,8593,6,0,L|336:24,1,160
452,156,9298,2,0,P|408:144|368:140,1,80
296,180,9651,1,0,0:0:0:0:
228,344,10004,6,0,L|388:336,1,160
232,252,10710,2,0,L|152:256,1,80
32,340,11063,2,0,L|112:336,1,80
232,252,11416,6,0,P|240:212|236:172,1,80
324,176,11769,2,0,P|310:137|287:104,1,80
212,64,12121,2,0,L|132:72,1,80
8,140,12474,2,0,L|88:148,1,80
156,204,12827,6,0,P|164:244|160:288,1,80
220,348,13180,2,0,P|260:340|304:344,1,80
380,372,13533,2,0,L|396:292,1,80
312,157,13886,2,0,L|328:236,1,80
244,256,14239,6,0,P|204:248|164:248,1,80
112,320,14592,2,0,P|72:328|32:328,1,80
0,244,14945,2,0,L|16:160,1,80
114,61,15298,2,0,L|100:140,1,80
176,184,15651,6,0,P|216:172|256:168,1,80
316,108,16004,2,0,P|356:120|396:124,1,80
480,100,16357,2,0,P|475:139|464:177,1,80
399,289,16710,2,0,P|395:250|384:212,1,80
240,164,17063,5,0,0:0:0:0:
152,188,17239,1,0,0:0:0:0:
216,248,17416,1,0,0:0:0:0:
301,227,17592,1,0,0:0:0:0:
152,188,17769,2,0,L|72:200,1,80
172,104,18121,2,0,L|252:116,1,80
408,167,18474,5,0,0:0:0:0:
384,251,18651,1,0,0:0:0:0:
301,227,18827,1,0,0:0:0:0:
325,142,19004,1,0,0:0:0:0:
384,251,19180,2,0,L|392:336,1,80
492,192,19533,2,0,L|499:112,1,80
309,46,19886,5,0,0:0:0:0:
313,70,19974,1,0,0:0:0:0:
317,94,20063,1,0,0:0:0:0:
321,118,20151,1,0,0:0:0:0:
325,142,20239,2,0,L|321:190,3,40
245,220,20592,5,0,0:0:0:0:
223,209,20680,1,0,0:0:0:0:
199,204,20769,1,0,0:0:0:0:
175,203,20857,1,0,0:0:0:0:
152,211,20945,2,0,L|104:215,3,40
336,312,21474,5,0,0:0:0:0:
193,291,21651,1,0,0:0:0:0:
336,312,21827,1,0,0:0:0:0:
216,204,22004,5,0,0:0:0:0:
260,364,22180,1,0,0:0:0:0:
425,324,22357,1,0,0:0:0:0:
384,161,22533,1,0,0:0:0:0:
193,291,22710,5,0,0:0:0:0:
