osu file format v14

[General]
AudioFilename: audio.mp3
AudioLeadIn: 0
PreviewTime: 134327
Countdown: 0
SampleSet: Soft
StackLeniency: 0.7
Mode: 0
LetterboxInBreaks: 0
WidescreenStoryboard: 0

[Editor]
DistanceSpacing: 2
BeatDivisor: 4
GridSize: 4
TimelineZoom: 1

[Metadata]
Title:Be Alright (feat. EMEL)
TitleUnicode:Be Alright (feat. EMEL)
Artist:Stonebank
ArtistUnicode:Stonebank
Creator:alacat
Version:Frey's Insane
Source:
Tags:Monstercat Hard Dance EDM Electro Frey Asahina Momoko m_o_k_o_r_i mokori Marianna iyasine
BeatmapID:1002715
BeatmapSetID:461545

[Difficulty]
HPDrainRate:7
CircleSize:4
OverallDifficulty:7
ApproachRate:9
SliderMultiplier:1.8
SliderTickRate:1

[Events]
//Background and Video events
0,0,"BG.jpg",0,0
//Break Periods
//Storyboard Layer 0 (Background)
//Storyboard Layer 1 (Fail)
//Storyboard Layer 2 (Pass)
//Storyboard Layer 3 (Foreground)
//Storyboard Sound Samples

[TimingPoints]
122,352.941176470588,4,1,0,60,1,0
22710,-133.333333333333,4,2,0,60,0,0
79180,-100,4,1,0,60,0,0
90474,-100,4,1,0,70,0,1
100180,-100,4,1,0,60,0,0
101769,-100,4,1,0,70,0,1
113063,-100,4,1,0,60,0,0
135651,-100,4,1,0,70,0,1
145357,-100,4,1,0,60,0,0
146945,-100,4,1,0,70,0,1
152592,-100,4,1,0,60,0,0
152945,-133.333333333333,4,2,0,60,0,0

[Colours]
Combo1 : 202,149,149
Combo2 : 255,255,125
Combo3 : 111,255,255
Combo4 : 255,157,157

[HitObjects]
48,44,122,5,0,0:0:0:0:
144,152,474,1,2,0:2:0:0:
56,136,827,1,0,0:0:0:0:
136,60,1179,1,2,0:2:0:0:
64,228,1533,1,0,0:0:0:0:
144,152,1885,1,2,0:2:0:0:
56,136,2238,1,0,0:0:0:0:
152,244,2590,1,2,0:2:0:0:
360,244,2945,5,0,0:0:0:0:
456,136,3297,1,2,0:2:0:0:
368,152,3650,1,0,0:0:0:0:
448,228,4002,1,2,0:2:0:0:
376,60,4356,1,0,0:0:0:0:
456,136,4708,1,2,0:2:0:0:
368,152,5061,1,0,0:0:0:0:
464,44,5413,1,2,0:2:0:0:
256,188,5769,5,0,0:0:0:0:
196,120,6121,1,2,0:2:0:0:
316,264,6474,1,0,0:0:0:0:
168,208,6827,1,2,0:2:0:0:
344,176,7180,1,0,0:0:0:0:
376,332,7533,1,2,0:2:0:0:
316,264,7886,1,0,0:0:0:0:
404,244,8239,1,2,0:2:0:0:
108,244,8592,5,0,0:0:0:0:
196,264,8945,1,2,0:2:0:0:
136,332,9298,1,0,0:0:0:0:
168,176,9651,1,2,0:2:0:0:
272,104,10004,1,0,0:0:0:0:
116,72,10357,1,2,0:2:0:0:
344,208,10710,2,0,P|388:201|456:192,1,90,0|8,0:0|0:3,0:0:0:0:
376,52,11063,2,0,P|331:58|286:65,1,90,2|0,0:2|0:0,0:0:0:0:
240,280,11416,6,0,P|246:324|256:392,1,90,4|0,0:2|0:0,0:0:0:0:
168,176,11769,2,0,P|124:182|56:192,1,90,2|0,0:2|0:0,0:0:0:0:
272,104,12121,2,0,P|266:60|256:-8,1,90
344,208,12474,2,0,P|388:202|456:192,1,90,2|0,0:2|0:0,0:0:0:0:
510,343,12827,6,0,P|516:298|504:256,1,90
426,108,13180,2,0,P|420:153|433:196,1,90,2|0,0:2|0:0,0:0:0:0:
464,24,13533,2,0,P|419:17|376:30,1,90
229,108,13886,2,0,P|273:114|316:101,1,90,2|0,0:2|0:0,0:0:0:0:
156,32,14239,6,0,L|56:16,1,90
4,136,14592,2,0,L|93:125,1,90,2|0,0:2|0:0,0:0:0:0:
93,258,14945,2,0,L|4:248,1,90
67,366,15298,2,0,L|156:352,1,90,2|0,0:2|0:0,0:0:0:0:
356,320,15651,6,0,P|360:256|380:212,1,90
435,108,16004,2,0,P|395:129|351:140,1,90,2|0,0:2|0:0,0:0:0:0:
76,108,16357,2,0,P|116:129|160:140,1,90,0|8,0:0|0:3,0:0:0:0:
155,320,16710,2,0,P|156:275|143:232,1,90,2|0,0:2|0:0,0:0:0:0:
60,196,17063,5,2,0:2:0:0:
68,288,17239,1,0,0:0:0:0:
156,320,17416,1,2,0:2:0:0:
228,264,17592,1,0,0:0:0:0:
452,52,17769,1,2,0:2:0:0:
444,144,17945,1,0,0:0:0:0:
356,176,18122,1,2,0:2:0:0:
280,120,18298,1,0,0:0:0:0:
444,144,18474,6,0,P|488:151|532:159,1,90,2|0,0:2|0:0,0:0:0:0:
412,324,18827,2,0,L|420:280|428:236,1,90,2|0,0:2|0:0,0:0:0:0:
256,192,19180,1,2,0:2:0:0:
332,140,19357,1,0,0:0:0:0:
340,232,19533,1,2,0:2:0:0:
172,232,19710,1,0,0:0:0:0:
180,140,19886,5,2,0:0:0:0:
181,117,19974,1,0,0:0:0:0:
180,95,20062,1,0,0:0:0:0:
177,72,20150,1,0,0:0:0:0:
171,51,20239,1,2,0:2:0:0:
189,63,20327,1,0,0:0:0:0:
210,72,20415,1,0,0:0:0:0:
232,77,20503,1,0,0:0:0:0:
254,79,20591,1,2,0:0:0:0:
277,78,20680,1,0,0:0:0:0:
298,73,20768,1,0,0:0:0:0:
319,64,20856,1,0,0:0:0:0:
338,52,20944,1,2,0:2:0:0:
334,72,21033,1,0,0:0:0:0:
331,95,21121,1,0,0:0:0:0:
330,117,21209,1,0,0:0:0:0:
332,140,21297,5,0,0:0:0:0:
256,272,21474,1,2,0:2:0:0:
180,140,21651,1,2,0:2:0:0:
424,212,21827,1,2,0:2:0:0:
372,324,22003,1,2,0:2:0:0:
256,376,22180,1,2,0:2:0:0:
140,324,22356,1,2,0:2:0:0:
88,212,22533,1,2,0:2:0:0:
256,112,22710,5,4,0:1:0:0:
460,56,24121,6,0,P|456:108|476:200,1,135.000005149842
444,272,24651,2,0,P|376:264|300:316,1,135.000005149842,2|0,0:0|0:0,0:0:0:0:
256,356,25180,2,0,P|186:352|96:344,1,135.000005149842
24,96,26769,5,0,0:0:0:0:
84,160,26945,2,0,P|112:100|92:38,1,135.000005149842,0|2,0:0|0:0,0:0:0:0:
40,236,27474,1,0,0:0:0:0:
180,220,27651,2,0,P|260:208|340:204,1,135.000005149842,0|2,0:0|0:0,0:0:0:0:
488,32,28357,1,0,0:0:0:0:
112,120,29416,6,0,L|101:53,1,67.5000025749208,2|0,0:0|0:0,0:0:0:0:
49,185,29769,2,0,P|110:209|172:185,1,135.000005149842
318,98,30298,2,0,P|257:74|196:99,1,135.000005149842,2|0,0:0|0:0,0:0:0:0:
339,185,30827,2,0,P|401:209|463:185,1,135.000005149842
204,336,32063,5,0,0:0:0:0:
116,348,32239,2,0,L|104:264,1,67.5000025749208,2|0,0:0|0:0,0:0:0:0:
227,122,32592,2,0,P|216:187|256:240,1,135.000005149842
260,24,33298,2,0,P|176:44|100:44,1,135.000005149842
304,168,34004,1,0,0:0:0:0:
32,320,35063,5,0,0:0:0:0:
32,320,35416,2,0,L|24:185,1,135.000005149842
116,113,35945,2,0,L|124:248,1,135.000005149842,2|0,0:0|0:0,0:0:0:0:
256,352,36474,2,0,B|232:292|280:276|256:220,1,135.000005149842,2|0,0:0|0:0,0:0:0:0:
396,113,37180,1,0,0:0:0:0:
116,113,38063,5,0,0:0:0:0:
40,68,38239,2,0,P|35:143|16:228,1,135.000005149842,0|2,0:0|0:0,0:0:0:0:
256,156,38945,2,0,P|260:80|280:-4,1,135.000005149842,0|2,0:0|0:0,0:0:0:0:
156,264,39651,1,0,0:0:0:0:
408,264,40710,6,0,L|483:275,1,67.5000025749208,2|0,0:0|0:0,0:0:0:0:
350,192,41063,2,0,P|318:249|333:314,1,135.000005149842
162,192,41592,2,0,P|193:134|178:69,1,135.000005149842,2|0,0:0|0:0,0:0:0:0:
104,120,42121,1,2,0:0:0:0:
256,192,42474,12,0,44945,0:0:0:0:
321,321,45298,6,0,L|456:328,1,135.000005149842,0|2,3:0|0:0,0:0:0:0:
320,216,45827,2,0,P|244:216|184:236,1,135.000005149842
76,284,46357,2,0,L|79:216,1,67.5000025749208,2|0,0:0|0:0,0:0:0:0:
0,88,46710,6,0,P|76:88|136:68,1,135.000005149842,0|2,0:0|0:0,0:0:0:0:
204,20,47239,1,0,0:0:0:0:
308,112,47416,2,0,L|316:268,1,135.000005149842,0|2,0:0|0:0,0:0:0:0:
198,246,47945,1,0,0:0:0:0:
314,246,48121,6,0,P|382:234|462:238,1,135.000005149842,0|2,0:0|0:0,0:0:0:0:
428,134,48651,2,0,P|363:146|307:111,1,135.000005149842
380,60,49180,1,2,0:0:0:0:
468,56,49357,1,0,0:0:0:0:
500,192,49533,6,0,P|483:270|472:344,1,135.000005149842,0|2,0:0|0:0,0:0:0:0:
328,344,50063,1,0,0:0:0:0:
280,268,50239,2,0,P|344:260|436:256,1,135.000005149842,0|2,0:0|0:0,0:0:0:0:
474,324,50769,1,0,0:0:0:0:
328,344,50945,6,0,P|264:352|172:356,1,135.000005149842,0|2,0:0|0:0,0:0:0:0:
60,360,51474,2,0,P|24:304|40:236,1,135.000005149842
178,279,52004,2,0,P|145:282|112:288,1,67.5000025749208,2|0,0:0|0:0,0:0:0:0:
100,148,52357,6,0,B|148:148|148:148|166:100|224:92,1,135.000005149842,0|2,0:0|0:0,0:0:0:0:
411,147,52886,2,0,B|363:147|363:147|345:99|300:94,1,135.000005149842
256,192,53416,1,2,0:0:0:0:
256,192,53592,1,0,0:0:0:0:
300,290,53769,6,0,B|345:284|363:236|363:236|411:236,1,135.000005149842,0|2,0:0|0:0,0:0:0:0:
211,289,54298,2,0,B|166:284|148:236|148:236|100:236,1,135.000005149842
256,192,54827,2,0,L|256:120,1,67.5000025749208,2|0,0:0|0:0,0:0:0:0:
200,48,55180,6,0,L|52:64,1,135.000005149842,0|2,0:0|0:0,0:0:0:0:
4,124,55710,1,0,0:0:0:0:
144,192,55886,2,0,L|211:185,1,67.5000025749208
368,192,56239,2,0,L|300:185,1,67.5000025749208,2|0,0:0|0:0,0:0:0:0:
435,136,56592,6,0,P|452:200|423:260,1,135.000005149842,0|2,3:0|0:0,0:0:0:0:
300,185,57121,2,0,P|300:115|312:37,1,135.000005149842
384,0,57651,2,0,P|444:4|476:12,1,67.5000025749208,2|0,0:0|0:0,0:0:0:0:
435,136,58004,6,0,P|434:205|423:284,1,135.000005149842,0|2,0:0|0:0,0:0:0:0:
312,292,58533,1,0,0:0:0:0:
198,313,58710,2,0,P|124:308|48:300,1,135.000005149842,0|2,0:0|0:0,0:0:0:0:
152,104,59239,1,0,0:0:0:0:
240,116,59416,6,0,P|264:184|244:256,1,135.000005149842,0|2,0:0|0:0,0:0:0:0:
198,313,59945,2,0,P|174:245|194:173,1,135.000005149842
314,71,60474,2,0,L|381:65,1,67.5000025749208,2|0,0:0|0:0,0:0:0:0:
240,116,60827,6,0,L|98:105,1,135.000005149842,0|2,0:0|0:0,0:0:0:0:
32,56,61357,1,0,0:0:0:0:
0,188,61533,2,0,P|20:276|20:352,1,135.000005149842,0|2,0:0|0:0,0:0:0:0:
92,376,62063,1,0,0:0:0:0:
172,340,62239,6,0,P|248:328|320:336,1,135.000005149842,0|2,0:0|0:0,0:0:0:0:
256,192,62769,2,0,P|323:196|389:184,1,135.000005149842
472,152,63298,1,2,0:0:0:0:
504,235,63474,1,0,0:0:0:0:
375,319,63651,6,0,L|391:171,1,135.000005149842,0|2,0:0|0:0,0:0:0:0:
256,212,64180,2,0,L|256:64,1,135.000005149842
122,184,64710,1,2,0:0:0:0:
256,192,65063,12,0,66474,0:0:0:0:
56,96,67886,5,4,0:0:0:0:
56,96,68239,2,0,P|127:91|208:80,1,135.000005149842,0|2,0:0|0:0,0:0:0:0:
20,220,68945,1,0,0:0:0:0:
20,220,69121,2,0,P|91:215|172:204,1,135.000005149842,0|2,0:0|0:0,0:0:0:0:
256,144,69651,1,0,0:0:0:0:
256,144,69827,2,0,P|260:216|232:280,1,135.000005149842
79,336,70357,2,0,P|37:284|19:219,1,135.000005149842,2|0,0:1|0:0,0:0:0:0:
180,48,71063,6,0,P|240:24|312:36,1,135.000005149842,0|2,0:0|0:0,0:0:0:0:
416,120,71769,1,0,0:0:0:0:
416,120,71945,2,0,L|392:268,1,135.000005149842,0|2,0:0|0:0,0:0:0:0:
464,360,72474,1,0,0:0:0:0:
464,360,72651,2,0,L|485:226,1,135.000005149842
324,168,73180,2,0,B|248:196|272:144|184:176,1,135.000005149842,2|0,0:1|0:0,0:0:0:0:
24,364,73886,6,0,P|44:296|4:216,1,135.000005149842,0|2,0:0|0:0,0:0:0:0:
124,52,74592,1,0,0:0:0:0:
124,52,74769,2,0,P|108:116|108:192,1,135.000005149842,0|2,0:0|0:0,0:0:0:0:
256,204,75298,1,0,0:0:0:0:
256,204,75474,2,0,P|272:140|272:64,1,135.000005149842
107,184,76004,2,0,L|119:340,1,135.000005149842,2|0,0:1|0:0,0:0:0:0:
394,318,76710,6,0,L|405:184,1,135.000005149842,0|2,0:0|0:0,0:0:0:0:
284,75,77416,1,0,0:0:0:0:
284,75,77592,2,0,P|346:98|411:84,2,135.000005149842,0|2|0,0:0|0:0|0:0,0:0:0:0:
208,20,78474,2,0,L|140:26,1,67.5000025749208
269,235,78827,2,0,L|276:168,1,67.5000025749208,2|0,0:0|0:0,0:0:0:0:
373,80,79180,6,0,L|284:75,1,90
452,32,79533,2,0,L|464:140,1,90,8|0,0:2|0:0,0:0:0:0:
356,260,79886,2,0,L|365:170,1,90
437,340,80239,2,0,L|348:352,1,90,8|0,0:2|0:0,0:0:0:0:
74,340,80592,6,0,L|164:352,1,90
9,273,80945,2,0,L|0:184,1,90,8|0,0:2|0:0,0:0:0:0:
153,124,81298,2,0,P|108:123|64:116,1,90
219,192,81651,2,0,P|221:236|228:281,1,90,8|0,0:2|0:0,0:0:0:0:
243,104,82004,6,0,P|229:62|191:40,1,90
308,172,82357,2,0,P|352:164|397:163,1,90,8|0,0:2|0:0,0:0:0:0:
512,84,82710,2,0,P|467:83|422:75,1,90
488,172,83063,2,0,P|496:260|504:292,1,90,8|0,0:2|0:0,0:0:0:0:
308,172,83416,6,0,P|314:127|316:82,1,90
180,31,83769,2,0,P|181:76|188:121,1,90,8|0,0:2|0:0,0:0:0:0:
332,352,84121,2,0,P|330:307|323:262,1,90
204,212,84474,2,0,P|197:256|195:301,1,90,8|0,0:2|0:0,0:0:0:0:
308,172,84827,5,8,0:2:0:0:
228,124,85004,1,0,0:0:0:0:
204,212,85180,1,8,0:2:0:0:
284,260,85357,1,0,0:0:0:0:
228,124,85533,5,8,0:2:0:0:
148,76,85710,1,0,0:0:0:0:
124,164,85886,1,8,0:2:0:0:
204,212,86063,1,0,0:0:0:0:
308,172,86239,5,8,0:2:0:0:
388,124,86416,1,0,0:0:0:0:
364,36,86592,1,8,0:2:0:0:
284,84,86769,1,0,0:0:0:0:
228,300,86945,5,8,0:2:0:0:
204,212,87122,1,0,0:0:0:0:
124,260,87299,1,8,0:2:0:0:
148,348,87475,1,0,0:0:0:0:
364,348,87651,5,8,0:2:0:0:
369,326,87739,1,0,0:0:0:0:
375,304,87827,1,0,0:0:0:0:
381,282,87915,1,0,0:0:0:0:
387,261,88003,1,8,0:0:0:0:
384,228,88092,5,0,0:0:0:0:
360,204,88180,1,0,0:0:0:0:
328,192,88269,1,0,0:0:0:0:
296,200,88357,1,8,0:2:0:0:
272,220,88445,1,0,0:0:0:0:
256,248,88533,1,0,0:0:0:0:
240,276,88622,1,0,0:0:0:0:
216,296,88710,1,8,0:0:0:0:
184,304,88798,1,0,0:0:0:0:
153,292,88886,2,0,P|129:272|121:248,1,45
256,68,89239,5,2,0:2:0:0:
256,192,89415,1,2,0:2:0:0:
256,316,89592,1,2,0:2:0:0:
144,376,89769,5,2,0:0:0:0:
368,252,89946,1,2,0:2:0:0:
144,132,90121,1,2,0:0:0:0:
368,8,90298,1,2,0:0:0:0:
460,80,90474,6,0,P|456:144|464:196,1,90,4|0,0:0|0:0,0:0:0:0:
492,340,90827,1,8,0:0:0:0:
388,252,91004,1,0,0:0:0:0:
256,276,91180,2,0,P|180:288|132:292,1,90,2|0,0:2|0:0,0:0:0:0:
256,108,91533,2,0,P|332:96|380:92,1,90,8|2,0:0|0:2,0:0:0:0:
420,176,91886,5,0,0:0:0:0:
328,184,92063,1,2,0:2:0:0:
436,86,92239,1,8,0:0:0:0:
500,216,92416,2,0,P|492:268|488:324,1,90,2|0,0:2|0:0,0:0:0:0:
328,184,92769,1,0,0:0:0:0:
256,252,92945,2,0,P|224:192|256:120,1,135,10|0,0:0|0:0,0:0:0:0:
243,131,93298,6,0,P|308:108|368:84,1,90
256,252,93651,2,0,P|191:275|131:299,1,90,8|0,0:0|0:0,0:0:0:0:
0,96,94004,1,2,0:2:0:0:
68,32,94180,1,0,0:0:0:0:
88,124,94357,2,0,P|64:200|64:232,1,90,8|2,0:0|0:2,0:0:0:0:
195,369,94710,6,0,P|188:324|171:283,1,90,0|2,0:0|0:2,0:0:0:0:
108,348,95063,1,8,0:0:0:0:
256,276,95239,1,2,0:2:0:0:
256,108,95416,1,0,0:0:0:0:
404,36,95592,1,0,0:0:0:0:
324,196,95769,2,0,P|256:192|188:196,1,135,10|0,0:0|0:0,0:0:0:0:
189,195,96121,6,0,P|168:112|160:76,1,90
56,176,96474,1,8,0:0:0:0:
37,309,96651,1,0,0:0:0:0:
170,328,96827,2,0,P|216:317|268:316,1,90,2|0,0:2|0:0,0:0:0:0:
456,208,97180,1,8,0:0:0:0:
475,75,97357,1,2,0:2:0:0:
342,56,97533,6,0,P|295:66|244:68,1,90,0|2,0:0|0:2,0:0:0:0:
168,104,97886,1,8,0:0:0:0:
184,12,98063,1,2,0:2:0:0:
343,280,98239,2,0,P|344:235|356:192,1,90
156,191,98592,2,0,P|167:235|160:328,1,135,10|0,0:0|0:0,0:0:0:0:
161,324,98945,6,0,L|40:336,1,90
0,176,99298,2,0,P|16:112|16:72,1,90,8|0,0:0|0:0,0:0:0:0:
240,152,99651,1,2,0:2:0:0:
232,244,99828,1,0,0:0:0:0:
156,191,100004,1,8,0:0:0:0:
256,68,100180,6,0,P|328:76|384:80,1,90,2|0,0:2|0:0,0:0:0:0:
345,306,100533,2,0,P|300:310|256:316,1,90,2|0,0:2|0:0,0:0:0:0:
88,160,100886,1,2,0:2:0:0:
167,306,101063,1,2,0:2:0:0:
304,220,101239,1,0,0:0:0:0:
208,220,101416,1,0,0:0:0:0:
345,306,101592,1,2,0:0:0:0:
424,160,101769,6,0,P|416:96|416:40,1,90,4|0,0:0|0:0,0:0:0:0:
247,10,102121,2,0,P|253:55|256:100,1,90,8|0,0:0|0:0,0:0:0:0:
344,264,102474,2,0,P|424:252|456:252,1,90,2|0,0:2|0:0,0:0:0:0:
508,200,102827,1,8,0:0:0:0:
424,160,103004,1,2,0:2:0:0:
256,340,103180,5,0,0:0:0:0:
368,380,103357,1,2,0:2:0:0:
344,264,103533,1,8,0:0:0:0:
232,224,103710,2,0,P|152:232|112:232,1,90,2|0,0:2|0:0,0:0:0:0:
256,340,104063,1,0,0:0:0:0:
340,125,104239,2,0,P|278:104|220:135,1,135,10|0,0:0|0:0,0:0:0:0:
220,135,104592,6,0,P|225:200|237:244,1,90
340,125,104945,2,0,P|348:80|351:36,1,90,8|0,0:0|0:0,0:0:0:0:
172,259,105298,2,0,P|163:303|160:347,1,90,2|0,0:2|0:0,0:0:0:0:
292,249,105651,1,8,0:0:0:0:
132,144,105827,1,2,0:2:0:0:
8,288,106004,5,0,0:0:0:0:
200,208,106180,1,2,0:2:0:0:
189,309,106357,2,0,P|144:305|100:300,1,90,8|2,0:0|0:2,0:0:0:0:
20,196,106710,1,0,0:0:0:0:
203,107,106886,1,0,0:0:0:0:
189,309,107063,2,0,P|264:280|340:304,1,135,10|0,0:0|0:0,0:0:0:0:
315,289,107416,6,0,P|392:304|436:292,1,90
506,60,107769,1,8,0:0:0:0:
418,88,107945,1,0,0:0:0:0:
468,236,108121,2,0,P|480:192|490:148,1,90,2|0,0:2|0:0,0:0:0:0:
439,0,108474,1,8,0:0:0:0:
256,52,108651,1,2,0:2:0:0:
256,242,108827,6,0,L|256:350,1,90,0|2,0:0|0:2,0:0:0:0:
136,236,109180,2,0,P|136:160|124:120,1,90,8|2,0:0|0:2,0:0:0:0:
68,84,109533,1,0,0:0:0:0:
16,160,109710,1,0,0:0:0:0:
192,52,109886,2,0,P|256:68|324:52,1,135,10|0,0:0|0:0,0:0:0:0:
322,52,110239,6,0,L|440:68,1,90
375,235,110592,2,0,P|372:191|378:146,1,90,8|0,0:0|0:0,0:0:0:0:
468,136,110945,1,2,0:2:0:0:
411,64,111121,1,0,0:0:0:0:
256,192,111298,1,8,0:0:0:0:
411,320,111474,1,2,0:2:0:0:
468,248,111651,5,2,0:0:0:0:
375,235,111827,1,0,0:0:0:0:
339,143,112004,1,10,0:2:0:0:
432,156,112180,1,2,0:2:0:0:
256,312,112357,1,2,0:0:0:0:
80,156,112533,1,0,0:0:0:0:
209,51,112710,1,10,0:2:0:0:
116,64,112886,1,2,0:2:0:0:
173,143,113063,6,0,P|184:196|188:260,1,90,4|0,0:0|0:0,0:0:0:0:
324,231,113416,2,0,P|329:186|338:143,1,90,8|0,0:0|0:0,0:0:0:0:
256,72,113769,1,2,0:2:0:0:
256,72,113945,1,0,0:0:0:0:
256,192,114121,1,8,0:0:0:0:
484,132,114297,1,0,0:0:0:0:
399,100,114474,6,0,P|393:144|411:185,1,90,2|0,0:2|0:0,0:0:0:0:
256,384,114827,1,8,0:0:0:0:
256,292,115004,1,0,0:0:0:0:
336,335,115180,2,0,P|336:290|345:246,1,90,2|0,0:2|0:0,0:0:0:0:
176,49,115533,2,0,P|175:93|166:137,1,90,8|0,0:0|0:0,0:0:0:0:
4,216,115886,5,2,0:2:0:0:
152,320,116063,1,0,0:0:0:0:
96,200,116240,1,8,0:0:0:0:
20,308,116416,1,0,0:0:0:0:
152,320,116592,2,0,L|248:308,1,90,2|0,0:2|0:0,0:0:0:0:
126,140,116945,2,0,L|36:128,1,90,8|0,0:0|0:0,0:0:0:0:
204,10,117298,5,2,0:2:0:0:
100,36,117474,1,0,0:0:0:0:
126,140,117651,1,8,0:0:0:0:
334,88,117827,1,0,0:0:0:0:
204,10,118003,1,2,0:2:0:0:
126,140,118180,1,0,0:0:0:0:
256,218,118357,2,0,P|252:160|256:128,1,90,8|0,0:0|0:0,0:0:0:0:
480,192,118710,6,0,P|484:250|480:282,1,90,2|0,0:2|0:0,0:0:0:0:
256,218,119063,1,8,0:0:0:0:
356,116,119239,1,0,0:0:0:0:
480,192,119416,1,2,0:2:0:0:
380,296,119592,1,0,0:0:0:0:
356,116,119769,2,0,P|348:56|344:-4,1,90,8|0,0:0|0:0,0:0:0:0:
90,102,120121,6,0,P|135:98|180:92,1,90,2|0,0:2|0:0,0:0:0:0:
268,76,120474,1,8,0:0:0:0:
152,236,120651,1,0,0:0:0:0:
0,112,120827,2,0,P|4:52|16:8,1,90,2|0,0:2|0:0,0:0:0:0:
216,168,121180,1,8,0:0:0:0:
152,236,121357,1,0,0:0:0:0:
124,148,121533,6,0,P|111:104|107:60,1,90,2|0,0:2|0:0,0:0:0:0:
360,148,121886,1,8,0:0:0:0:
296,216,122063,1,0,0:0:0:0:
404,323,122239,2,0,P|400:279|388:236,1,90,2|0,0:2|0:0,0:0:0:0:
256,64,122592,2,0,L|360:52,1,90,8|0,0:0|0:0,0:0:0:0:
484,116,122945,5,2,0:2:0:0:
388,235,123121,1,2,0:2:0:0:
296,216,123298,1,8,0:0:0:0:
360,148,123474,1,2,0:2:0:0:
256,344,123651,1,2,0:2:0:0:
124,235,123827,1,8,0:0:0:0:
128,191,123916,1,0,0:0:0:0:
132,147,124004,1,2,0:2:0:0:
380,147,124180,1,8,0:0:0:0:
384,191,124268,1,0,0:0:0:0:
388,235,124357,6,0,P|438:229|500:228,1,90,4|0,0:0|0:0,0:0:0:0:
372,60,124710,2,0,P|321:65|260:67,1,90,8|0,0:0|0:0,0:0:0:0:
60,72,125063,1,2,0:2:0:0:
204,16,125239,1,0,0:0:0:0:
273,156,125416,2,0,P|274:111|281:66,1,90,8|0,0:0|0:0,0:0:0:0:
71,162,125769,6,0,P|78:207|80:252,1,90,2|0,0:2|0:0,0:0:0:0:
76,344,126121,1,8,0:0:0:0:
0,292,126298,1,0,0:0:0:0:
156,304,126474,2,0,L|280:312,1,90,2|0,0:2|0:0,0:0:0:0:
356,80,126827,2,0,L|266:85,1,90,8|0,0:0|0:0,0:0:0:0:
256,192,127180,5,2,0:2:0:0:
368,292,127357,1,0,0:0:0:0:
468,180,127533,1,8,0:0:0:0:
356,80,127710,1,0,0:0:0:0:
256,192,127886,1,2,0:2:0:0:
156,304,128063,1,0,0:0:0:0:
44,204,128240,1,8,0:0:0:0:
144,92,128416,1,0,0:0:0:0:
256,192,128592,6,0,P|320:248|348:268,1,90,2|0,0:2|0:0,0:0:0:0:
400,304,128945,1,8,0:0:0:0:
256,384,129121,1,0,0:0:0:0:
112,304,129298,2,0,P|104:256|112:212,1,90,2|0,0:2|0:0,0:0:0:0:
284,16,129651,2,0,P|292:64|284:108,1,90,8|0,0:0|0:0,0:0:0:0:
256,192,130004,6,0,P|212:176|172:144,1,90,2|0,0:2|0:0,0:0:0:0:
256,192,130357,2,0,P|300:208|340:240,1,90,8|0,0:2|0:0,0:0:0:0:
456,108,130710,2,0,P|380:124|336:124,1,90,2|0,0:2|0:0,0:0:0:0:
399,304,131063,2,0,P|443:292|488:287,1,90,8|0,0:2|0:0,0:0:0:0:
319,342,131416,6,0,P|311:298|323:255,1,90,2|0,0:2|0:0,0:0:0:0:
371,37,131769,2,0,P|378:80|367:124,1,90,8|0,0:2|0:0,0:0:0:0:
144,124,132121,2,0,P|133:80|141:37,1,90,2|0,0:2|0:0,0:0:0:0:
188,255,132474,2,0,P|200:298|192:342,1,90,8|0,0:2|0:0,0:0:0:0:
112,304,132827,5,8,0:0:0:0:
108,212,133004,1,0,0:0:0:0:
256,16,133180,1,8,0:0:0:0:
256,108,133357,1,0,0:0:0:0:
400,304,133533,1,8,0:0:0:0:
404,212,133710,1,0,0:0:0:0:
180,160,133886,1,8,0:0:0:0:
332,160,134063,1,0,0:0:0:0:
256,340,134945,6,0,P|181:331|88:348,1,135,2|0,0:2|0:0,0:0:0:0:
32,360,135298,2,0,P|24:288|8:236,1,90,2|2,0:2|0:2,0:0:0:0:
132,127,135651,6,0,P|152:87|164:44,1,90,4|0,0:0|0:0,0:0:0:0:
40,144,136004,1,8,0:0:0:0:
196,276,136180,1,0,0:0:0:0:
316,108,136357,1,2,0:2:0:0:
256,36,136533,1,0,0:0:0:0:
196,108,136710,1,8,0:0:0:0:
316,276,136886,1,2,0:2:0:0:
472,144,137063,6,0,P|488:88|488:40,1,90,0|2,0:0|0:2,0:0:0:0:
306,186,137416,2,0,L|316:276,1,90,8|2,0:0|0:2,0:0:0:0:
328,368,137769,1,0,0:0:0:0:
400,312,137945,1,0,0:0:0:0:
112,312,138121,2,0,P|100:244|108:176,1,135,10|0,0:0|0:0,0:0:0:0:
107,178,138474,6,0,P|130:139|131:94,1,90
40,112,138827,1,8,0:0:0:0:
12,300,139004,1,0,0:0:0:0:
200,328,139180,1,2,0:2:0:0:
228,140,139357,1,0,0:0:0:0:
52,210,139533,1,8,0:0:0:0:
200,328,139710,1,2,0:2:0:0:
168,244,139886,6,0,L|132:152,1,90,0|2,0:0|0:2,0:0:0:0:
256,24,140239,1,8,0:0:0:0:
376,160,140416,2,0,L|344:244,1,90,2|0,0:2|0:0,0:0:0:0:
256,116,140769,1,0,0:0:0:0:
359,32,140945,2,0,P|425:32|473:78,1,135,10|0,0:0|0:0,0:0:0:0:
473,78,141298,6,0,P|480:160|488:200,1,90
248,308,141651,2,0,P|292:309|337:315,1,90,8|0,0:0|0:0,0:0:0:0:
428,336,142004,1,2,0:2:0:0:
392,160,142180,1,0,0:0:0:0:
304,128,142357,1,8,0:0:0:0:
320,220,142533,1,2,0:2:0:0:
176,312,142710,5,0,0:0:0:0:
104,252,142886,1,2,0:2:0:0:
192,220,143063,1,8,0:0:0:0:
32,192,143239,2,0,P|16:264|12:296,1,90,2|0,0:2|0:0,0:0:0:0:
176,312,143592,1,0,0:0:0:0:
208,128,143769,2,0,P|164:80|72:100,1,135,10|0,0:0|0:0,0:0:0:0:
98,80,144121,6,0,P|53:79|8:71,1,90
208,128,144474,2,0,P|252:120|297:119,1,90,8|0,0:0|0:0,0:0:0:0:
464,92,144827,1,2,0:2:0:0:
308,28,145003,1,0,0:0:0:0:
444,180,145180,1,8,0:0:0:0:
244,221,145357,5,2,0:2:0:0:
280,304,145710,1,2,0:2:0:0:
363,268,146063,1,2,0:2:0:0:
327,185,146239,5,2,0:2:0:0:
172,166,146416,1,0,0:0:0:0:
153,321,146592,1,0,0:0:0:0:
308,340,146769,1,2,0:0:0:0:
363,268,146945,6,0,P|328:252|272:256,1,90,4|0,0:0|0:0,0:0:0:0:
149,116,147298,2,0,P|184:132|240:128,1,90,8|0,0:0|0:0,0:0:0:0:
204,44,147651,1,2,0:2:0:0:
44,192,147827,1,0,0:0:0:0:
204,340,148004,2,0,L|316:332,1,90,8|2,0:0|0:2,0:0:0:0:
477,127,148357,6,0,L|387:120,1,90,0|2,0:0|0:2,0:0:0:0:
388,264,148710,2,0,L|477:257,1,90,8|2,0:0|0:2,0:0:0:0:
256,192,149063,1,0,0:0:0:0:
387,120,149239,1,0,0:0:0:0:
256,44,149416,2,0,P|180:72|112:52,1,135,10|0,0:0|0:0,0:0:0:0:
129,61,149769,6,0,L|111:155,1,90
256,360,150121,2,0,B|240:316|256:272,1,90,8|0,0:0|0:0,0:0:0:0:
304,192,150474,1,2,0:2:0:0:
380,244,150651,1,0,0:0:0:0:
256,360,150827,1,8,0:0:0:0:
132,244,151004,1,2,0:2:0:0:
256,112,151180,6,0,P|340:104|384:96,1,90,0|2,0:0|0:2,0:0:0:0:
512,84,151533,1,8,0:0:0:0:
396,224,151710,1,2,0:2:0:0:
256,112,151886,1,0,0:0:0:0:
412,132,152063,1,0,0:0:0:0:
240,204,152239,2,0,P|160:208|104:220,1,135,10|0,0:0|0:0,0:0:0:0:
106,219,152592,6,0,P|76:128|140:84,1,180
372,156,153298,2,0,L|380:236|388:316,1,135.000005149842,2|0,0:0|0:0,0:0:0:0:
126,290,153827,2,0,L|132:236|140:156,2,135.000005149842,0|2|0,0:0|0:0|0:0,0:0:0:0:
256,192,154886,5,0,0:0:0:0:
176,88,155063,2,0,P|116:80|64:148,1,135.000005149842,2|0,0:0|0:0,0:0:0:0:
336,88,155769,2,0,P|396:80|448:148,1,135.000005149842,0|2,0:0|0:0,0:0:0:0:
385,290,156474,1,0,0:0:0:0:
385,290,156651,1,2,0:0:0:0:
256,192,156827,12,0,158239,0:0:0:0:
