osu file format v14

[General]
AudioFilename: audio.mp3
AudioLeadIn: 0
PreviewTime: 134327
Countdown: 0
SampleSet: Normal
StackLeniency: 0.7
Mode: 0
LetterboxInBreaks: 0
WidescreenStoryboard: 0

[Editor]
DistanceSpacing: 0.8
BeatDivisor: 4
GridSize: 4
TimelineZoom: 1.7

[Metadata]
Title:Be Alright (feat. EMEL)
TitleUnicode:Be Alright (feat. EMEL)
Artist:Stonebank
ArtistUnicode:Stonebank
Creator:alacat
Version:Espoir
Source:
Tags:Monstercat Hard Dance EDM Electro Frey Asahina Momoko m_o_k_o_r_i mokori Marianna iyasine
BeatmapID:988476
BeatmapSetID:461545

[Difficulty]
HPDrainRate:6.6
CircleSize:4.2
OverallDifficulty:8.7
ApproachRate:9.3
SliderMultiplier:2
SliderTickRate:1

[Events]
//Background and Video events
0,0,"BG.jpg",0,0
//Break Periods
//Storyboard Layer 0 (Background)
//Storyboard Layer 1 (Fail)
//Storyboard Layer 2 (Pass)
//Storyboard Layer 3 (Foreground)
//Storyboard Layer 4 (Overlay)
//Storyboard Sound Samples

[TimingPoints]
122,352.941176470588,4,1,1,40,1,0
10886,-79.9999999999999,4,1,1,50,0,0
11416,-100,4,1,1,40,0,0
14239,-100,4,1,1,50,0,0
16533,-79.9999999999999,4,1,1,60,0,0
17063,-79.9999999999999,4,1,1,30,0,0
17769,-79.9999999999999,4,1,1,40,0,0
18474,-79.9999999999999,4,1,1,50,0,0
19180,-79.9999999999999,4,1,1,60,0,0
19886,-79.9999999999999,4,1,1,40,0,0
20239,-79.9999999999999,4,1,1,50,0,0
20592,-79.9999999999999,4,1,1,60,0,0
20945,-79.9999999999999,4,1,1,70,0,0
21474,-79.9999999999999,4,1,1,50,0,0
22710,-166.666666666667,4,2,1,40,0,0
24121,-166.666666666667,4,2,1,20,0,0
44945,-166.666666666667,4,2,1,5,0,0
45298,-125,4,2,1,40,0,0
56592,-125,4,2,2,40,0,0
56769,-125,4,2,1,40,0,0
67886,-125,4,2,2,40,0,0
78474,-125,4,2,2,30,0,0
78827,-125,4,2,2,20,0,0
79180,-100,4,1,1,40,0,0
82004,-100,4,1,1,50,0,0
84827,-100,4,1,1,60,0,0
86945,-100,4,1,1,70,0,0
87651,-100,4,1,1,50,0,0
88004,-100,4,1,1,60,0,0
88357,-100,4,1,1,70,0,0
88710,-100,4,1,1,80,0,0
89239,-100,4,1,1,60,0,0
90474,-100,4,1,1,80,0,1
100180,-100,4,1,1,60,0,0
100533,-100,4,1,1,50,0,0
100886,-100,4,1,1,40,0,0
101063,-100,4,1,1,30,0,0
101239,-100,4,1,1,50,0,0
101592,-100,4,1,1,70,0,0
101769,-100,4,1,1,80,0,1
111651,-100,4,1,1,60,0,1
113063,-100,4,1,1,70,0,0
123121,-100,4,1,2,50,0,0
124357,-100,4,1,1,70,0,0
130004,-100,4,1,1,40,0,0
131416,-100,4,1,1,30,0,0
131769,-100,4,1,1,40,0,0
132121,-100,4,1,1,50,0,0
132474,-100,4,1,1,60,0,0
132827,-100,4,1,1,50,0,0
133180,-100,4,1,1,60,0,0
133533,-100,4,1,1,70,0,0
133886,-100,4,1,1,80,0,0
134945,-100,4,1,1,60,0,0
135651,-100,4,1,1,80,0,1
145357,-100,4,1,1,60,0,0
145710,-100,4,1,1,50,0,0
146063,-100,4,1,1,40,0,0
146239,-100,4,1,1,30,0,0
146416,-100,4,1,1,40,0,0
146592,-100,4,1,1,50,0,0
146769,-100,4,1,1,60,0,0
146945,-100,4,1,1,80,0,1
152592,-100,4,1,1,60,0,0
152945,-142.857142857143,4,2,1,30,0,0
156827,-142.857142857143,4,2,1,10,0,0
157533,-142.857142857143,4,2,1,20,0,0
157886,-142.857142857143,4,2,1,40,0,0
158239,-142.857142857143,4,2,1,20,0,0

[Colours]
Combo1 : 255,179,142
Combo2 : 255,255,125
Combo3 : 111,255,255
Combo4 : 255,125,125

[HitObjects]
64,32,122,5,2,0:0:0:0:
40,128,474,1,2,0:0:0:0:
16,224,827,2,0,B|64:244|64:244|112:236,1,100,2|0,0:0|0:0,0:0:0:0:
200,144,1180,2,0,L|148:152,1,50,2|0,0:0|0:0,0:0:0:0:
80,332,1533,5,2,0:0:0:0:
176,308,1886,1,2,0:0:0:0:
272,288,2239,2,0,B|292:240|292:240|284:192,1,100,2|0,0:0|0:0,0:0:0:0:
192,94,2592,2,0,L|200:144,1,50,2|0,0:0|0:0,0:0:0:0:
388,232,2945,5,2,0:0:0:0:
388,232,3298,1,2,0:0:0:0:
388,232,3651,2,0,B|400:184|400:184|388:132,1,100,2|0,0:0|0:0,0:0:0:0:
308,48,4004,1,2,0:0:0:0:
308,48,4092,1,0,0:0:0:0:
178,201,4357,5,2,0:0:0:0:
178,201,4710,1,2,0:0:0:0:
178,201,5063,2,0,B|226:190|226:190|267:157,1,100,2|0,0:0|0:0,0:0:0:0:
308,48,5416,1,2,0:0:0:0:
308,48,5504,1,0,0:0:0:0:
256,272,5769,5,2,0:0:0:0:
160,300,6121,1,2,0:0:0:0:
178,201,6474,2,0,B|224:180|224:180|276:176,1,100,2|0,0:0|0:0,0:0:0:0:
160,300,6827,2,0,L|108:296,1,50,2|0,0:0|0:0,0:0:0:0:
100,130,7180,5,2,0:0:0:0:
196,102,7533,1,2,0:0:0:0:
178,201,7886,2,0,B|132:222|132:222|80:226,1,100,2|0,0:0|0:0,0:0:0:0:
196,102,8239,2,0,L|248:106,1,50,2|0,0:0|0:0,0:0:0:0:
424,192,8592,5,2,0:0:0:0:
328,212,8945,1,2,0:0:0:0:
424,192,9298,2,0,L|416:292,1,100,2|0,0:0|0:0,0:0:0:0:
236,232,9651,1,2,0:0:0:0:
236,232,9739,1,0,0:0:0:0:
72,180,10004,5,2,0:0:0:0:
168,160,10357,1,2,0:0:0:0:
72,180,10710,1,2,0:0:0:0:
167,303,10886,6,0,P|225:290|236:232,1,125,2|2,0:3|0:0,0:0:0:0:
72,180,11239,1,8,0:0:0:0:
248,340,11416,6,0,L|348:328,1,100,4|0,1:2|0:0,0:0:0:0:
480,244,11769,2,0,L|380:232,1,100,2|0,0:0|0:0,0:0:0:0:
256,148,12121,2,0,L|356:136,1,100,2|0,0:0|0:0,0:0:0:0:
488,52,12474,2,0,L|388:40,1,100,2|0,0:0|0:0,0:0:0:0:
180,92,12827,6,0,B|164:140|164:140|172:188,1,100,2|0,0:0|0:0,0:0:0:0:
248,336,13180,2,0,B|264:288|264:288|256:240,1,100,2|0,0:0|0:0,0:0:0:0:
80,132,13533,2,0,L|96:236,1,100,2|0,0:0|0:0,0:0:0:0:
348,292,13886,2,0,L|328:192,1,100,2|0,0:0|0:0,0:0:0:0:
220,32,14239,6,0,B|172:48|172:48|116:48,1,100,2|0,0:0|0:0,0:0:0:0:
312,112,14592,2,0,B|360:128|360:128|416:128,1,100,2|0,0:0|0:0,0:0:0:0:
200,144,14945,2,0,L|208:244,1,100,2|0,0:0|0:0,0:0:0:0:
48,328,15298,2,0,L|56:228,1,100,2|0,0:0|0:0,0:0:0:0:
200,144,15651,6,0,B|248:128|248:128|304:128,1,100,2|0,0:0|0:0,0:0:0:0:
228,340,16004,2,0,B|178:329|178:329|129:301,1,100,2|0,0:0|0:0,0:0:0:0:
108,156,16357,1,2,0:0:0:0:
312,220,16533,6,0,P|272:260|212:244,1,125,2|2,0:3|0:0,0:0:0:0:
352,56,16886,1,8,0:0:0:0:
412,212,17063,5,8,0:0:0:0:
276,124,17239,1,0,0:0:0:0:
444,116,17416,1,8,0:0:0:0:
312,220,17592,1,0,0:0:0:0:
352,56,17769,5,8,0:0:0:0:
148,180,17945,1,0,0:0:0:0:
312,220,18121,1,8,0:0:0:0:
188,16,18298,1,0,0:0:0:0:
4,244,18474,5,8,0:0:0:0:
228,204,18651,1,0,0:0:0:0:
32,148,18827,1,8,0:0:0:0:
112,344,19004,1,0,0:0:0:0:
392,236,19180,5,8,0:0:0:0:
132,264,19357,1,0,0:0:0:0:
168,96,19533,1,8,0:0:0:0:
272,348,19710,1,0,0:0:0:0:
512,168,19886,5,8,0:0:0:0:
487,124,19974,1,0,0:0:0:0:
449,93,20063,1,0,0:0:0:0:
401,79,20151,1,0,0:0:0:0:
352,84,20239,1,8,0:0:0:0:
308,107,20327,1,0,0:0:0:0:
276,145,20416,1,0,0:0:0:0:
264,192,20504,1,0,0:0:0:0:
272,240,20592,5,8,0:0:0:0:
256,288,20680,1,0,0:0:0:0:
218,319,20769,1,0,0:0:0:0:
170,333,20857,1,0,0:0:0:0:
121,328,20945,1,8,0:0:0:0:
77,305,21033,1,0,0:0:0:0:
45,267,21121,1,0,0:0:0:0:
33,220,21210,1,0,0:0:0:0:
168,96,21474,5,2,0:2:0:0:
33,220,21651,1,0,0:0:0:0:
184,12,21827,1,2,0:2:0:0:
312,200,22004,5,2,0:2:0:0:
152,176,22180,1,2,0:2:0:0:
344,36,22357,1,0,0:0:0:0:
400,304,22533,1,2,0:2:0:0:
152,176,22710,5,4,0:3:0:0:
218,319,24121,6,0,B|134:291|134:339|38:315,2,179.999994506836,2|0|0,0:0|0:0|0:0,0:0:0:0:
304,364,25533,1,2,0:0:0:0:
488,208,26769,5,0,0:0:0:0:
488,208,26945,2,0,L|368:192,1,119.999996337891,2|0,0:0|0:0,0:0:0:0:
444,280,27651,2,0,L|324:264,1,119.999996337891
228,252,28357,1,2,0:0:0:0:
228,252,29416,6,0,L|168:260,1,59.9999981689454
120,272,29769,2,0,L|300:296,2,179.999994506836,2|0|0,0:0|0:0|0:0,0:0:0:0:
24,260,31180,1,2,0:0:0:0:
148,56,32063,5,0,0:0:0:0:
148,56,32239,2,0,L|156:116,1,59.9999981689454
168,164,32592,2,0,L|288:148,2,119.999996337891,2|0|0,0:0|0:0|0:0,0:0:0:0:
24,184,34004,1,2,0:0:0:0:
288,224,35063,6,0,P|320:220|348:208,1,59.9999981689454
380,176,35416,2,0,L|368:356,2,179.999994506836,2|0|0,0:0|0:0|0:0,0:0:0:0:
388,80,36827,1,2,0:0:0:0:
244,64,38063,5,0,0:0:0:0:
244,64,38239,2,0,L|260:184,1,119.999996337891,2|0,0:0|0:0,0:0:0:0:
352,156,38945,2,0,L|336:276,1,119.999996337891
316,368,39651,1,2,0:0:0:0:
80,200,40710,6,0,L|144:208,1,59.9999981689454
184,184,41063,2,0,P|208:104|172:16,2,179.999994506836,2|0|0,0:0|0:0|0:0,0:0:0:0:
256,192,42474,12,0,44945,0:0:0:0:
312,256,45298,5,4,0:1:0:0:
192,196,45651,1,0,0:0:0:0:
200,220,45827,1,2,0:0:0:0:
312,256,46180,1,0,0:0:0:0:
288,252,46357,2,0,L|208:240,1,80,2|0,0:0|0:0,0:0:0:0:
280,88,46710,6,0,P|292:128|288:168,1,80
208,240,47063,2,0,P|167:230|134:206,1,80,2|0,0:0|0:0,0:0:0:0:
112,104,47416,1,0,0:0:0:0:
112,104,47592,2,0,P|140:73|177:57,1,80,2|0,0:0|0:0,0:0:0:0:
288,165,47945,1,0,0:0:0:0:
292,188,48121,5,2,0:0:0:0:
380,104,48474,1,0,0:0:0:0:
384,127,48651,1,2,0:0:0:0:
472,48,49004,1,0,0:0:0:0:
476,71,49180,1,2,0:0:0:0:
456,280,49533,6,0,L|464:200,1,80
384,127,49886,2,0,L|310:160,1,80,2|0,0:0|0:0,0:0:0:0:
264,268,50239,2,0,B|376:228|376:228|368:280,1,160,0|2,0:0|0:0,0:0:0:0:
352,360,50769,1,0,0:0:0:0:
352,360,50945,5,2,0:0:0:0:
128,296,51298,1,0,0:0:0:0:
128,296,51474,1,2,0:0:0:0:
311,159,51827,1,0,0:0:0:0:
311,159,52004,2,0,L|227:147,1,80,2|0,0:0|0:0,0:0:0:0:
132,184,52357,6,0,P|212:168|220:28,2,240,2|2|0,0:0|0:0|0:0,0:0:0:0:
40,116,53592,1,0,0:0:0:0:
17,120,53769,5,2,0:0:0:0:
28,244,54121,1,0,0:0:0:0:
5,248,54298,1,2,0:0:0:0:
24,360,54651,1,0,0:0:0:0:
1,364,54827,1,2,0:0:0:0:
176,276,55180,5,2,0:0:0:0:
176,276,55357,2,0,L|256:284,2,80
284,360,55886,2,0,L|364:352,1,80,2|0,0:0|0:0,0:0:0:0:
176,276,56239,2,0,L|96:284,1,80
4,292,56592,5,8,0:0:0:0:
272,268,56945,1,0,0:0:0:0:
272,268,57121,1,2,0:0:0:0:
4,292,57474,1,0,0:0:0:0:
4,292,57651,2,0,L|12:212,1,80,2|0,0:0|0:0,0:0:0:0:
64,120,58004,6,0,P|104:112|144:116,1,80
216,192,58357,2,0,P|256:200|296:196,1,80,2|0,0:0|0:0,0:0:0:0:
276,32,58710,2,0,L|260:112,2,80,0|2|0,0:0|0:0|0:0,0:0:0:0:
368,84,59239,1,0,0:0:0:0:
391,80,59416,5,2,0:0:0:0:
216,192,59769,1,0,0:0:0:0:
193,188,59945,1,2,0:0:0:0:
464,136,60298,1,0,0:0:0:0:
488,132,60474,2,0,L|480:212,1,80,2|0,0:0|0:0,0:0:0:0:
348,324,60827,6,0,B|352:284|352:284|372:248,1,80
292,174,61180,2,0,B|255:190|255:190|214:191,1,80,2|0,0:0|0:0,0:0:0:0:
72,104,61533,2,0,B|152:88|152:88|228:104,1,160,0|2,0:0|0:0,0:0:0:0:
200,276,62063,1,0,0:0:0:0:
200,276,62239,5,2,0:0:0:0:
72,104,62592,1,0,0:0:0:0:
72,104,62769,1,2,0:0:0:0:
184,368,63121,1,0,0:0:0:0:
184,368,63298,2,0,L|264:352,1,80,2|0,0:0|0:0,0:0:0:0:
284,256,63651,6,0,B|124:288|124:288|80:356,2,240,2|2|0,0:0|0:0|0:0,0:0:0:0:
256,192,65063,12,0,66474,0:0:0:0:
130,53,66651,5,0,0:0:0:0:
130,53,66739,1,0,0:0:0:0:
130,53,66827,2,0,B|120:93|120:93|130:133,1,80,2|0,0:0|0:0,0:0:0:0:
208,200,67180,1,2,0:0:0:0:
208,200,67357,2,0,B|192:320|192:320|160:296,1,160,2|2,0:0|0:0,0:0:0:0:
28,168,67886,5,6,0:1:0:0:
130,131,68063,1,0,0:0:0:0:
44,65,68239,1,2,0:1:0:0:
44,65,68592,1,2,0:1:0:0:
224,328,69121,6,0,B|248:220|248:220|232:172,2,160,2|2|2,0:1|0:1|0:1,0:0:0:0:
24,248,70180,1,2,0:1:0:0:
24,248,70357,2,0,B|48:208|48:208|164:224,1,160,2|0,0:1|0:0,0:0:0:0:
364,292,71063,6,0,B|445:273|445:273|498:215,1,160,2|2,0:1|0:1,0:0:0:0:
256,104,71945,2,0,L|232:264,2,160,2|2|2,0:1|0:1|0:1,0:0:0:0:
336,68,72827,1,0,0:0:0:0:
256,104,73004,1,2,0:1:0:0:
176,72,73180,2,0,L|336:68,1,160,2|0,0:1|0:0,0:0:0:0:
232,264,73886,6,0,L|72:260,1,160,2|2,0:1|0:1,0:0:0:0:
312,192,74769,2,0,B|328:276|328:276|300:348,2,160,2|2|2,0:1|0:1|0:1,0:0:0:0:
165,145,75827,1,2,0:1:0:0:
165,145,76004,2,0,B|289:165|289:165|313:193,1,160,2|0,0:1|0:0,0:0:0:0:
124,352,76710,5,2,0:1:0:0:
124,352,77063,1,2,0:1:0:0:
64,116,77592,2,0,B|48:156|48:156|88:268,2,160,2|2|2,0:1|0:1|0:1,0:0:0:0:
104,36,78474,1,2,0:1:0:0:
104,36,78651,1,0,0:0:0:0:
184,68,78827,1,2,0:0:0:0:
184,68,79004,1,0,0:0:0:0:
268,104,79180,6,0,L|368:88,1,100,4|0,0:0|0:0,0:0:0:0:
476,72,79533,1,8,0:0:0:0:
476,72,79886,1,8,0:0:0:0:
476,72,80239,2,0,L|456:172,1,100,8|0,0:0|0:0,0:0:0:0:
432,276,80592,5,8,0:0:0:0:
432,276,80945,1,8,0:0:0:0:
432,276,81298,2,0,L|332:288,1,100,8|0,0:0|0:0,0:0:0:0:
224,300,81651,1,8,0:0:0:0:
224,300,82004,6,0,B|208:252|208:252|212:200,1,100,8|0,0:0|0:0,0:0:0:0:
300,104,82357,2,0,B|316:152|316:152|312:204,1,100,8|0,0:0|0:0,0:0:0:0:
116,296,82710,2,0,L|16:284,1,100,8|0,0:0|0:0,0:0:0:0:
108,128,83063,2,0,L|208:116,1,100,8|0,0:0|0:0,0:0:0:0:
400,260,83416,6,0,L|500:248,1,100,8|0,0:0|0:0,0:0:0:0:
400,116,83769,2,0,L|300:104,1,100,8|0,0:0|0:0,0:0:0:0:
152,292,84121,1,8,0:0:0:0:
268,184,84298,1,0,0:0:0:0:
108,128,84474,2,0,L|92:232,1,100,8|0,0:0|0:0,0:0:0:0:
256,356,84827,6,0,B|404:328|404:328|360:304,1,200,8|8,0:0|0:0,0:0:0:0:
256,264,85357,1,0,0:0:0:0:
77,336,85533,2,0,B|124:344|124:344|176:336,1,100,8|0,0:0|0:0,0:0:0:0:
288,168,85886,2,0,B|240:168|240:168|192:188,1,100,8|0,0:0|0:0,0:0:0:0:
360,304,86239,5,8,0:0:0:0:
496,236,86416,1,0,0:0:0:0:
287,167,86592,1,8,0:0:0:0:
495,235,86769,1,0,0:0:0:0:
256,264,86945,5,8,0:0:0:0:
420,120,87121,1,0,0:0:0:0:
456,340,87298,1,8,0:0:0:0:
420,120,87474,1,0,0:0:0:0:
296,328,87651,5,8,0:0:0:0:
252,340,87739,1,0,0:0:0:0:
212,328,87827,1,0,0:0:0:0:
184,296,87916,1,0,0:0:0:0:
180,256,88004,1,8,0:0:0:0:
192,220,88092,1,0,0:0:0:0:
224,196,88180,1,0,0:0:0:0:
264,192,88269,1,0,0:0:0:0:
300,208,88357,5,8,0:0:0:0:
324,240,88445,1,0,0:0:0:0:
360,260,88533,1,0,0:0:0:0:
400,260,88621,1,0,0:0:0:0:
436,240,88710,1,8,0:0:0:0:
456,204,88798,1,0,0:0:0:0:
456,164,88886,1,0,0:0:0:0:
440,128,88974,1,0,0:0:0:0:
212,116,89239,5,2,0:2:0:0:
376,173,89416,1,0,0:0:0:0:
245,287,89592,1,2,0:2:0:0:
364,88,89769,1,8,0:0:0:0:
224,200,89945,1,0,0:0:0:0:
400,260,90121,1,0,0:0:0:0:
212,116,90298,1,2,0:2:0:0:
124,296,90474,5,6,0:0:0:0:
280,208,90651,1,0,0:0:0:0:
108,72,90827,2,0,B|92:120|92:120|100:172,1,100,10|0,0:0|0:0,0:0:0:0:
356,272,91180,2,0,B|280:208|280:208|180:216,1,200,2|10,0:0|0:0,0:0:0:0:
40,240,91710,5,0,0:0:0:0:
240,324,91886,1,2,0:0:0:0:
284,116,92063,2,0,L|184:124,1,100,0|10,0:0|0:0,0:0:0:0:
124,296,92416,1,0,0:0:0:0:
360,168,92592,5,2,0:0:0:0:
108,72,92769,1,0,0:0:0:0:
328,260,92945,2,0,B|378:261|378:261|428:244,1,100,10|0,0:0|0:0,0:0:0:0:
303,17,93298,6,0,L|284:116,1,100,2|0,0:0|0:0,0:0:0:0:
240,324,93651,1,10,0:0:0:0:
184,192,93827,1,0,0:0:0:0:
400,92,94004,2,0,B|451:92|451:92|500:108,1,100,2|0,0:0|0:0,0:0:0:0:
424,244,94357,1,10,0:0:0:0:
284,116,94533,5,0,0:0:0:0:
240,324,94710,1,2,0:0:0:0:
484,184,94886,2,0,B|438:168|438:168|386:168,1,100,0|10,0:0|0:0,0:0:0:0:
264,224,95239,1,0,0:0:0:0:
464,320,95416,5,2,0:0:0:0:
284,116,95592,1,0,0:0:0:0:
161,305,95769,2,0,P|189:365|240:324,1,150,10|0,0:0|0:0,0:0:0:0:
200,228,96121,6,0,B|148:224|148:224|100:236,1,100,2|0,0:0|0:0,0:0:0:0:
16,352,96474,1,10,0:0:0:0:
161,305,96651,1,0,0:0:0:0:
28,96,96827,2,0,L|12:196,1,100,2|0,0:0|0:0,0:0:0:0:
104,368,97180,1,10,0:0:0:0:
268,224,97357,6,0,B|320:220|320:220|368:232,1,100,0|2,0:0|0:0,0:0:0:0:
172,144,97710,2,0,L|272:132,1,100,0|10,0:0|0:0,0:0:0:0:
452,264,98063,1,0,0:0:0:0:
240,324,98239,5,2,0:0:0:0:
388,148,98416,1,0,0:0:0:0:
124,76,98592,2,0,B|72:76|72:76|28:96,1,100,10|0,0:0|0:0,0:0:0:0:
116,232,98945,5,2,0:0:0:0:
216,76,99121,1,0,0:0:0:0:
22,219,99298,2,0,B|54:239|54:239|116:232,1,100,10|0,0:0|0:0,0:0:0:0:
280,160,99651,2,0,B|132:184|132:184|116:232,1,200,2|10,0:0|0:0,0:0:0:0:
88,360,100180,5,2,0:0:0:0:
256,336,100533,1,0,0:0:0:0:
424,304,100886,1,0,0:0:0:0:
424,304,101063,5,0,0:0:0:0:
256,336,101239,1,0,0:0:0:0:
256,336,101327,1,0,0:0:0:0:
256,336,101416,2,0,B|248:274|248:274|268:242,1,100,2|8,0:0|0:0,0:0:0:0:
388,148,101769,5,2,0:0:0:0:
340,324,101945,1,0,0:0:0:0:
192,204,102121,2,0,L|92:216,1,100,10|0,0:0|0:0,0:0:0:0:
340,324,102474,2,0,B|376:300|376:300|402:189|402:189|388:148,1,200,2|10,0:0|0:0,0:0:0:0:
336,28,103004,5,0,0:0:0:0:
192,204,103180,1,2,0:0:0:0:
388,148,103357,2,0,L|492:136,1,100,0|10,0:0|0:0,0:0:0:0:
296,120,103710,1,0,0:0:0:0:
340,324,103886,5,2,0:0:0:0:
92,215,104063,1,0,0:0:0:0:
280,22,104239,2,0,B|297:70|297:70|296:120,1,100,10|0,0:0|0:0,0:0:0:0:
120,312,104592,6,0,L|20:292,1,100,2|0,0:0|0:0,0:0:0:0:
148,144,104945,1,10,0:0:0:0:
268,248,105121,1,0,0:0:0:0:
60,176,105298,2,0,B|56:124|56:124|76:80,1,100,2|0,0:0|0:0,0:0:0:0:
176,236,105651,1,10,0:0:0:0:
21,292,105827,5,0,0:0:0:0:
148,144,106004,1,2,0:0:0:0:
304,332,106180,2,0,L|204:320,1,100,0|10,0:0|0:0,0:0:0:0:
60,176,106533,1,0,0:0:0:0:
256,76,106710,5,2,0:0:0:0:
304,332,106886,1,0,0:0:0:0:
84,81,107063,2,0,P|26:116|60:176,1,150,10|0,0:0|0:0,0:0:0:0:
148,144,107416,6,0,B|252:160,1,100,2|0,0:0|0:0,0:0:0:0:
376,264,107769,1,10,0:0:0:0:
256,76,107945,1,0,0:0:0:0:
176,260,108121,2,0,B|276:244,1,100,2|0,0:0|0:0,0:0:0:0:
264,52,108474,1,10,0:0:0:0:
76,224,108651,6,0,B|68:272|68:272|84:328,1,100,0|2,0:0|0:0,0:0:0:0:
148,144,109004,2,0,B|48:128,1,100,0|10,0:0|0:0,0:0:0:0:
160,340,109357,1,0,0:0:0:0:
376,264,109533,5,2,0:0:0:0:
148,144,109710,1,0,0:0:0:0:
452,68,109886,2,0,B|452:120|452:120|432:164,1,100,8|0,0:0|0:0,0:0:0:0:
200,260,110239,5,2,0:0:0:0:
256,76,110416,1,0,0:0:0:0:
376,264,110592,2,0,B|344:284|344:284|280:276,1,100,10|0,0:0|0:0,0:0:0:0:
24,192,110945,2,0,L|224:168,1,200,2|10,0:0|0:0,0:0:0:0:
376,264,111474,1,0,0:0:0:0:
204,357,111651,6,0,B|192:309|192:309|200:260,1,100,10|0,0:0|0:0,0:0:0:0:
340,172,112004,1,8,0:0:0:0:
200,260,112180,1,0,0:0:0:0:
468,288,112357,5,8,0:0:0:0:
222,168,112533,1,0,0:0:0:0:
328,340,112710,1,2,0:0:0:0:
348,80,112886,1,0,0:0:0:0:
200,260,113063,6,0,L|208:316,2,50,6|0|0,0:0|0:0|0:0,0:0:0:0:
340,172,113416,2,0,L|336:224,2,50,8|0|0,0:0|0:0|0:0,0:0:0:0:
124,308,113769,6,0,L|132:364,2,50,2|0|0,0:0|0:0|0:0,0:0:0:0:
424,136,114121,2,0,L|420:188,2,50,8|0|0,0:0|0:0|0:0,0:0:0:0:
112,36,114474,5,2,0:0:0:0:
91,54,114563,1,0,0:0:0:0:
72,72,114651,1,0,0:0:0:0:
244,68,114827,5,8,0:0:0:0:
212,80,114916,1,0,0:0:0:0:
180,91,115004,1,0,0:0:0:0:
344,156,115180,5,2,0:0:0:0:
300,156,115269,1,0,0:0:0:0:
257,155,115357,1,0,0:0:0:0:
416,272,115533,5,8,0:0:0:0:
364,256,115621,1,0,0:0:0:0:
313,240,115710,1,0,0:0:0:0:
468,156,115886,6,0,L|488:209,2,50,2|0|0,0:0|0:0|0:0,0:0:0:0:
288,60,116239,1,8,0:0:0:0:
276,92,116328,1,0,0:0:0:0:
265,124,116416,1,0,0:0:0:0:
416,272,116592,6,0,L|436:325,2,50,2|0|0,0:0|0:0|0:0,0:0:0:0:
180,128,116945,1,8,0:0:0:0:
168,160,117034,1,0,0:0:0:0:
157,192,117122,1,0,0:0:0:0:
344,336,117298,6,0,L|360:384,2,50,2|0|0,0:0|0:0|0:0,0:0:0:0:
168,48,117651,2,0,L|152:0,2,50,8|0|0,0:0|0:0|0:0,0:0:0:0:
372,217,118004,5,2,0:0:0:0:
424,201,118092,1,0,0:0:0:0:
475,185,118180,1,0,0:0:0:0:
140,167,118357,1,8,0:0:0:0:
88,183,118445,1,0,0:0:0:0:
37,199,118533,1,0,0:0:0:0:
212,344,118710,5,2,0:0:0:0:
244,324,118798,1,0,0:0:0:0:
268,292,118886,1,0,0:0:0:0:
276,252,118974,1,0,0:0:0:0:
268,212,119063,1,8,0:0:0:0:
272,172,119151,1,0,0:0:0:0:
292,136,119239,1,0,0:0:0:0:
324,116,119327,1,0,0:0:0:0:
364,112,119416,6,0,L|416:120,3,50,2|0|0|0,0:0|0:0|0:0|0:0,0:0:0:0:
460,204,119769,2,0,L|408:212,3,50,8|0|0|0,0:0|0:0|0:0|0:0,0:0:0:0:
292,136,120121,5,2,0:0:0:0:
256,120,120210,1,0,0:0:0:0:
216,120,120298,1,0,0:0:0:0:
180,136,120386,1,0,0:0:0:0:
156,168,120474,1,8,0:0:0:0:
120,184,120563,1,0,0:0:0:0:
80,188,120651,1,0,0:0:0:0:
44,172,120739,1,0,0:0:0:0:
28,136,120827,6,0,L|36:84,1,50,2|0,0:0|0:0,0:0:0:0:
124,32,121004,2,0,L|116:81,1,50
148,217,121180,2,0,L|156:165,1,50,8|0,0:0|0:0,0:0:0:0:
256,120,121357,2,0,L|248:169,1,50
284,280,121533,5,2,0:0:0:0:
288,296,121621,1,0,0:0:0:0:
292,312,121710,1,0,0:0:0:0:
296,328,121798,1,0,0:0:0:0:
300,344,121886,2,0,P|328:356|352:360,3,50,8|0|0|0,0:0|0:0|0:0|0:0,0:0:0:0:
388,364,122239,5,2,0:0:0:0:
424,348,122327,1,0,0:0:0:0:
452,320,122416,1,0,0:0:0:0:
468,284,122504,1,0,0:0:0:0:
464,244,122592,2,0,P|456:220|456:192,3,50,8|0|0|0,0:0|0:0|0:0|0:0,0:0:0:0:
472,160,122945,6,0,L|372:176,1,100
264,160,123298,1,0,0:0:0:0:
156,144,123474,1,0,0:0:0:0:
284,52,123651,1,0,0:0:0:0:
244,260,123827,1,0,0:0:0:0:
244,260,123916,1,0,0:0:0:0:
244,260,124004,1,0,0:0:0:0:
48,124,124180,5,0,0:0:0:0:
48,124,124269,1,0,0:0:0:0:
48,124,124357,2,0,L|40:176,2,50,6|0|0,0:0|0:0|0:0,0:0:0:0:
291,101,124710,2,0,L|283:51,2,50,8|0|0,0:0|0:0|0:0,0:0:0:0:
136,244,125063,5,2,0:0:0:0:
136,244,125151,1,0,0:0:0:0:
136,244,125239,1,0,0:0:0:0:
176,52,125416,1,8,0:0:0:0:
176,52,125504,1,0,0:0:0:0:
176,52,125592,1,0,0:0:0:0:
32,260,125769,5,2,0:0:0:0:
38,293,125857,1,0,0:0:0:0:
44,326,125945,1,0,0:0:0:0:
240,160,126121,5,8,0:0:0:0:
228,204,126210,1,0,0:0:0:0:
219,247,126298,1,0,0:0:0:0:
88,48,126474,5,2,0:0:0:0:
100,104,126563,1,0,0:0:0:0:
112,156,126651,1,0,0:0:0:0:
336,352,126827,5,8,0:0:0:0:
352,288,126916,1,0,0:0:0:0:
368,224,127004,1,0,0:0:0:0:
244,20,127180,5,2,0:0:0:0:
228,56,127269,1,0,0:0:0:0:
228,96,127357,1,0,0:0:0:0:
248,132,127445,1,0,0:0:0:0:
284,152,127533,1,8,0:0:0:0:
324,152,127621,1,0,0:0:0:0:
360,132,127710,1,0,0:0:0:0:
384,100,127798,1,0,0:0:0:0:
420,84,127886,5,2,0:0:0:0:
460,88,127974,1,0,0:0:0:0:
492,112,128063,1,0,0:0:0:0:
504,148,128151,1,0,0:0:0:0:
500,188,128239,1,8,0:0:0:0:
472,220,128327,1,0,0:0:0:0:
432,232,128416,1,0,0:0:0:0:
404,260,128504,1,0,0:0:0:0:
384,296,128592,6,0,P|364:308|336:320,3,50,2|0|0|0,0:0|0:0|0:0|0:0,0:0:0:0:
256,296,128945,2,0,P|233:305|211:318,3,50,8|0|0|0,0:0|0:0|0:0|0:0,0:0:0:0:
148,376,129298,6,0,L|96:368,1,50,2|0,0:0|0:0,0:0:0:0:
4,296,129474,2,0,L|53:288,1,50
192,236,129651,2,0,L|136:224,1,50,8|0,0:0|0:0,0:0:0:0:
44,152,129827,2,0,L|96:144,1,50
200,68,130004,6,0,L|100:56,1,100,2|0,0:0|0:0,0:0:0:0:
20,224,130357,1,8,0:0:0:0:
252,176,130533,1,0,0:0:0:0:
100,56,130710,1,8,0:0:0:0:
192,236,130886,1,0,0:0:0:0:
312,116,131063,1,8,0:0:0:0:
44,152,131239,1,0,0:0:0:0:
212,320,131416,5,8,0:0:0:0:
252,176,131592,1,0,0:0:0:0:
100,212,131769,1,8,0:0:0:0:
296,264,131945,1,0,0:0:0:0:
301,4,132121,5,8,0:0:0:0:
252,176,132298,1,0,0:0:0:0:
430,133,132474,1,8,0:0:0:0:
195,71,132651,1,0,0:0:0:0:
296,264,132827,5,8,0:0:0:0:
312,48,133004,1,0,0:0:0:0:
128,284,133180,5,8,0:0:0:0:
388,252,133357,1,0,0:0:0:0:
312,48,133533,5,8,0:0:0:0:
200,336,133710,1,0,0:0:0:0:
468,232,133886,5,8,0:0:0:0:
44,152,134063,1,0,0:0:0:0:
44,152,134945,6,0,P|112:124|192:116,1,150,2|8,0:0|0:0,0:0:0:0:
235,180,135298,1,2,0:0:0:0:
147,40,135474,1,8,0:0:0:0:
104,284,135651,5,6,0:0:0:0:
352,276,135827,1,0,0:0:0:0:
188,116,136004,2,0,B|172:164|172:164|180:216,1,100,10|0,0:0|0:0,0:0:0:0:
420,328,136357,2,0,B|436:284|436:284|404:184|404:184|420:136,1,200,2|10,0:0|0:0,0:0:0:0:
328,32,136886,5,0,0:0:0:0:
492,184,137063,1,2,0:0:0:0:
288,232,137239,2,0,B|280:183|280:183|296:135,1,100,0|10,0:0|0:0,0:0:0:0:
448,52,137592,1,0,0:0:0:0:
288,232,137769,5,2,0:0:0:0:
96,76,137945,1,0,0:0:0:0:
28,288,138121,2,0,B|78:289|78:289|128:272,1,100,8|0,0:0|0:0,0:0:0:0:
96,76,138474,6,0,L|76:176,1,100,2|0,0:0|0:0,0:0:0:0:
256,320,138827,1,10,0:0:0:0:
184,188,139004,1,0,0:0:0:0:
44,368,139180,2,0,L|152:372,1,100,2|0,0:0|0:0,0:0:0:0:
280,224,139533,1,10,0:0:0:0:
164,88,139710,5,0,0:0:0:0:
256,320,139886,1,2,0:0:0:0:
468,200,140063,2,0,B|416:192|416:192|368:200,1,100,0|10,0:0|0:0,0:0:0:0:
188,248,140416,1,0,0:0:0:0:
424,304,140592,5,2,0:0:0:0:
176,168,140769,1,0,0:0:0:0:
388,36,140945,2,0,P|428:84|364:112,1,150,10|0,0:0|0:0,0:0:0:0:
284,56,141298,6,0,B|232:52|232:52|184:64,1,100,2|0,0:0|0:0,0:0:0:0:
56,220,141651,1,10,0:0:0:0:
256,192,141827,1,0,0:0:0:0:
28,36,142004,2,0,L|12:136,1,100,2|0,0:0|0:0,0:0:0:0:
156,208,142357,1,10,0:0:0:0:
284,56,142533,6,0,B|232:52|232:52|184:64,1,100,0|2,0:0|0:0,0:0:0:0:
256,192,142886,2,0,B|308:196|308:196|356:184,1,100,0|10,0:0|0:0,0:0:0:0:
284,56,143239,1,0,0:0:0:0:
156,208,143416,5,2,0:0:0:0:
428,296,143592,1,0,0:0:0:0:
464,76,143769,2,0,B|412:76|412:76|368:96,1,100,10|0,0:0|0:0,0:0:0:0:
224,280,144121,5,2,0:0:0:0:
388,176,144298,1,0,0:0:0:0:
208,36,144474,2,0,B|188:68|188:68|196:132,1,100,10|0,0:0|0:0,0:0:0:0:
388,300,144827,2,0,B|376:256|376:256|224:280,1,200,2|10,0:0|0:0,0:0:0:0:
32,304,145357,5,2,0:0:0:0:
208,204,145710,1,8,0:0:0:0:
0,156,146063,1,8,0:0:0:0:
0,156,146239,5,2,0:0:0:0:
208,204,146416,1,8,0:0:0:0:
32,304,146592,1,2,0:0:0:0:
240,352,146769,1,8,0:0:0:0:
100,86,146945,6,0,B|88:134|88:134|100:186,1,100,6|0,0:0|0:0,0:0:0:0:
272,268,147298,1,10,0:0:0:0:
192,112,147474,1,0,0:0:0:0:
32,304,147651,2,0,B|56:340|56:340|167:366|167:366|208:352,1,200,2|10,0:0|0:0,0:0:0:0:
336,176,148180,5,0,0:0:0:0:
168,260,148357,1,2,0:0:0:0:
312,364,148533,2,0,B|361:372|361:372|409:356,1,100,0|10,0:0|0:0,0:0:0:0:
436,136,148886,1,0,0:0:0:0:
312,364,149063,5,2,0:0:0:0:
100,184,149239,1,0,0:0:0:0:
420,38,149416,2,0,B|437:86|437:86|436:136,1,100,10|0,0:0|0:0,0:0:0:0:
234,347,149769,6,0,L|134:327,1,100,2|0,0:0|0:0,0:0:0:0:
256,176,150121,1,10,0:0:0:0:
408,280,150298,1,0,0:0:0:0:
100,184,150474,2,0,B|92:132|92:132|108:88,1,100,2|0,0:0|0:0,0:0:0:0:
256,44,150827,1,10,0:0:0:0:
180,216,151004,5,0,0:0:0:0:
24,76,151180,1,2,0:0:0:0:
12,288,151357,2,0,L|112:276,1,100,0|10,0:0|0:0,0:0:0:0:
220,128,151710,1,0,0:0:0:0:
12,180,151886,5,2,0:0:0:0:
256,340,152063,1,0,0:0:0:0:
296,68,152239,2,0,P|229:60|220:128,1,150,10|0,0:0|0:0,0:0:0:0:
272,204,152592,5,2,0:0:0:0:
272,204,152945,2,0,L|412:192,1,139.999995727539,0|2,0:0|0:0,0:0:0:0:
124,272,153827,2,0,L|264:284,1,139.999995727539,0|2,0:0|0:0,0:0:0:0:
200,120,154533,1,0,0:0:0:0:
340,352,154886,1,2,0:0:0:0:
340,352,155063,2,0,L|200:368,1,139.999995727539
24,176,155769,6,0,L|164:192,1,139.999995727539,0|2,0:0|0:0,0:0:0:0:
436,336,156651,1,2,0:0:0:0:
256,192,156827,12,2,158239,0:0:0:0:
