osu file format v14

[General]
AudioFilename: audio.mp3
AudioLeadIn: 0
PreviewTime: 134327
Countdown: 0
SampleSet: Soft
StackLeniency: 0.7
Mode: 0
LetterboxInBreaks: 0
WidescreenStoryboard: 0

[Editor]
DistanceSpacing: 1
BeatDivisor: 4
GridSize: 4
TimelineZoom: 1.7

[Metadata]
Title:Be Alright (feat. EMEL)
TitleUnicode:Be Alright (feat. EMEL)
Artist:Stonebank
ArtistUnicode:Stonebank
Creator:alacat
Version:Easy
Source:
Tags:Monstercat Hard Dance EDM Electro Frey Asahina Momoko m_o_k_o_r_i mokori Marianna iyasine
BeatmapID:1015775
BeatmapSetID:461545

[Difficulty]
HPDrainRate:2
CircleSize:2.5
OverallDifficulty:2
ApproachRate:3
SliderMultiplier:0.999999999999999
SliderTickRate:1

[Events]
//Background and Video events
0,0,"BG.jpg",0,0
//Break Periods
2,22910,43858
//Storyboard Layer 0 (Background)
//Storyboard Layer 1 (Fail)
//Storyboard Layer 2 (Pass)
//Storyboard Layer 3 (Foreground)
//Storyboard Sound Samples

[TimingPoints]
122,352.941176470588,4,1,1,40,1,0
10886,-100,4,1,1,50,0,0
11416,-100,4,1,1,40,0,0
14239,-100,4,1,1,50,0,0
16533,-100,4,1,1,60,0,0
17063,-100,4,1,1,30,0,0
17769,-100,4,1,1,40,0,0
18474,-100,4,1,1,50,0,0
19180,-100,4,1,1,60,0,0
19886,-100,4,1,1,40,0,0
20239,-100,4,1,1,50,0,0
20592,-100,4,1,1,60,0,0
20945,-100,4,1,1,70,0,0
21474,-100,4,1,1,50,0,0
22710,-100,4,2,1,40,0,0
45298,-100,4,2,1,40,0,0
56592,-100,4,2,2,40,0,0
56769,-100,4,2,1,40,0,0
67886,-100,4,2,2,40,0,0
78474,-100,4,2,2,30,0,0
78827,-100,4,2,2,20,0,0
79180,-100,4,1,1,40,0,0
82004,-100,4,1,1,50,0,0
84827,-100,4,1,1,60,0,0
86945,-100,4,1,1,70,0,0
87651,-100,4,1,1,50,0,0
88004,-100,4,1,1,60,0,0
88357,-100,4,1,1,70,0,0
88710,-100,4,1,1,80,0,0
88974,-100,4,1,1,40,0,0
89063,-100,4,1,1,10,0,0
90474,-100,4,1,1,80,0,1
100180,-100,4,1,1,60,0,0
100533,-100,4,1,1,50,0,0
100886,-100,4,1,1,40,0,0
101063,-100,4,1,1,30,0,0
101239,-100,4,1,1,50,0,0
101592,-100,4,1,1,70,0,0
101769,-100,4,1,1,80,0,1
111651,-100,4,1,1,60,0,1
113063,-100,4,1,1,70,0,0
123121,-100,4,1,2,50,0,0
124357,-100,4,1,1,70,0,0
130004,-100,4,1,1,40,0,0
131416,-100,4,1,1,30,0,0
131769,-100,4,1,1,40,0,0
132121,-100,4,1,1,50,0,0
132474,-100,4,1,1,60,0,0
132827,-100,4,1,1,50,0,0
133180,-100,4,1,1,60,0,0
133533,-100,4,1,1,70,0,0
133886,-100,4,1,1,80,0,0
134945,-100,4,1,1,60,0,0
135651,-100,4,1,1,80,0,1
145357,-100,4,1,1,60,0,0
145710,-100,4,1,1,50,0,0
146063,-100,4,1,1,40,0,0
146239,-100,4,1,1,30,0,0
146416,-100,4,1,1,40,0,0
146592,-100,4,1,1,50,0,0
146769,-100,4,1,1,60,0,0
146945,-100,4,1,1,80,0,1
152592,-100,4,1,1,60,0,0
152945,-100,4,2,1,30,0,0
156827,-100,4,2,1,10,0,0
157533,-100,4,2,1,20,0,0
157886,-100,4,2,1,40,0,0
158239,-100,4,2,1,20,0,0

[Colours]
Combo1 : 255,179,142
Combo2 : 255,255,125
Combo3 : 111,255,255
Combo4 : 255,125,125

[HitObjects]
352,352,122,6,0,P|444:352|464:260,1,200,2|2,0:0|0:0,0:0:0:0:
392,192,1180,1,2,0:0:0:0:
464,122,1533,2,0,P|444:32|352:32,2,200,2|2|2,0:0|0:0|0:0,0:0:0:0:
392,192,3298,5,2,0:0:0:0:
300,152,3651,2,0,L|196:152,1,99.9999999999999,2|2,0:0|0:0,0:0:0:0:
132,80,4357,2,0,P|40:104|12:200,1,200,2|2,0:0|0:0,0:0:0:0:
64,280,5416,1,2,0:0:0:0:
160,252,5769,6,0,P|260:252|348:308,2,200,2|2|2,0:0|0:0|0:0,0:0:0:0:
64,280,7533,1,2,0:0:0:0:
11,196,7886,2,0,L|31:96,1,99.9999999999999,2|2,0:0|0:0,0:0:0:0:
116,44,8592,6,0,B|212:16|212:76|312:52,1,200,2|2,0:0|0:0,0:0:0:0:
404,12,9651,1,2,0:0:0:0:
480,76,10004,2,0,P|500:176|456:264,1,200,2|2,0:0|0:0,0:0:0:0:
360,284,11063,1,2,0:0:0:0:
276,228,11416,6,0,L|72:228,2,200,4|2|2,1:2|0:0|0:0,0:0:0:0:
368,184,13180,2,0,L|468:184,2,99.9999999999999,2|2|2,0:0|0:0|0:0,0:0:0:0:
280,132,14239,6,0,B|256:88|272:32|272:32|232:8|176:12,1,200,2|2,0:0|0:0,0:0:0:0:
92,60,15298,1,2,0:0:0:0:
44,148,15651,2,0,L|72:348,1,200,2|2,0:0|0:0,0:0:0:0:
168,380,16710,1,2,0:0:0:0:
236,308,17063,6,0,P|284:308|336:320,1,99.9999999999999,8|8,0:0|0:0,0:0:0:0:
405,248,17769,2,0,P|405:200|417:148,1,99.9999999999999,8|8,0:0|0:0,0:0:0:0:
345,78,18474,2,0,P|297:78|245:66,1,99.9999999999999,8|8,0:0|0:0,0:0:0:0:
176,138,19180,2,0,P|176:186|164:238,1,99.9999999999999,8|8,0:0|0:0,0:0:0:0:
240,300,19886,6,0,B|332:300|332:300|408:372|408:372|448:332|432:276,1,300,8|8,0:0|0:0,0:0:0:0:
256,192,21298,12,4,22710,0:3:0:0:
88,192,45298,6,0,L|88:344,2,150,4|2|0,0:1|0:0|0:0,0:0:0:0:
28,111,46710,2,0,P|122:95|186:167,1,200,2|0,0:0|0:0,0:0:0:0:
340,296,48121,6,0,L|492:296,2,150,2|2|0,0:0|0:0|0:0,0:0:0:0:
259,356,49533,2,0,P|243:261|315:197,1,200,2|0,0:0|0:0,0:0:0:0:
184,48,50945,6,0,L|32:48,2,150,2|2|0,0:0|0:0|0:0,0:0:0:0:
268,100,52357,2,0,P|332:72|416:88,2,150,2|2|0,0:0|0:0|0:0,0:0:0:0:
228,192,53769,6,0,L|228:348,2,150,2|2|0,0:0|0:0|0:0,0:0:0:0:
144,140,55180,1,2,0:0:0:0:
316,244,55886,2,0,L|420:244,1,99.9999999999999,2|0,0:0|0:0,0:0:0:0:
428,144,56592,6,0,L|276:144,2,150,8|2|0,0:0|0:0|0:0,0:0:0:0:
509,204,58004,2,0,P|524:109|452:45,1,200,2|0,0:0|0:0,0:0:0:0:
276,140,59415,6,0,L|276:292,2,150,2|2|0,0:0|0:0|0:0,0:0:0:0:
336,60,60827,2,0,P|241:44|177:116,1,200,2|0,0:0|0:0,0:0:0:0:
152,316,62239,6,0,L|0:316,2,150,2|2|0,0:0|0:0|0:0,0:0:0:0:
224,244,63651,2,0,B|192:176|240:176|212:96,2,150,2|2|0,0:0|0:0|0:0,0:0:0:0:
316,200,65063,6,0,L|316:356,2,150,2|2|0,0:0|0:0|0:0,0:0:0:0:
396,140,66474,2,0,B|396:40|396:40|352:16|300:40,1,200,2|0,0:0|0:0,0:0:0:0:
168,192,67886,5,6,0:1:0:0:
168,192,68239,2,0,L|68:192,1,99.9999999999999,2|2,0:1|0:1,0:0:0:0:
120,332,69121,2,0,L|220:332,1,99.9999999999999,2|2,0:1|0:1,0:0:0:0:
300,272,69827,2,0,B|400:272|400:272|436:236,1,150,2|2,0:1|0:1,0:0:0:0:
308,80,71063,5,2,0:1:0:0:
308,80,71416,1,2,0:1:0:0:
208,192,71945,2,0,L|208:292,1,99.9999999999999,2|2,0:1|0:1,0:0:0:0:
116,336,72651,2,0,B|116:236|116:236|76:204,1,150,2|2,0:1|0:1,0:0:0:0:
208,52,73886,6,0,L|308:52,1,99.9999999999999,2|2,0:1|0:1,0:0:0:0:
360,192,74769,2,0,L|260:192,1,99.9999999999999,2|2,0:1|0:1,0:0:0:0:
212,280,75474,2,0,B|312:280|312:280|344:320,1,150,2|2,0:1|0:1,0:0:0:0:
500,196,76710,5,2,0:1:0:0:
500,196,77063,1,2,0:1:0:0:
388,96,77592,2,0,L|388:196,2,99.9999999999999,2|2|2,0:1|0:1|0:1,0:0:0:0:
356,56,78474,2,0,P|308:44|256:44,1,99.9999999999999,2|2,0:1|0:0,0:0:0:0:
196,124,79180,6,0,B|120:136|120:136|84:120|84:120|0:128,1,200,4|8,0:0|0:0,0:0:0:0:
104,300,80592,2,0,B|188:292|188:292|224:308|224:308|300:296,1,200,8|8,0:0|0:0,0:0:0:0:
476,200,82004,6,0,P|412:132|312:148,1,200,8|8,0:0|0:0,0:0:0:0:
256,228,83063,1,8,0:0:0:0:
197,146,83416,2,0,P|103:130|36:200,1,200,8|8,0:0|0:0,0:0:0:0:
76,292,84474,1,8,0:0:0:0:
172,264,84827,6,0,P|224:276|264:308,1,99.9999999999999,8|8,0:0|0:0,0:0:0:0:
356,268,85533,2,0,P|368:216|400:176,1,99.9999999999999,8|8,0:0|0:0,0:0:0:0:
488,144,86239,1,8,0:0:0:0:
408,84,86592,1,8,0:0:0:0:
316,120,86945,1,8,0:0:0:0:
228,72,87298,1,8,0:0:0:0:
256,192,87651,12,0,89063,0:0:0:0:
392,320,90474,6,0,L|492:320,2,99.9999999999999,6|10|2,0:0|0:0|0:0,0:0:0:0:
436,124,91886,2,0,B|337:124|337:124|265:196,1,200,2|2,0:0|0:0,0:0:0:0:
196,268,92945,1,10,0:0:0:0:
104,224,93298,6,0,L|104:120,2,99.9999999999999,2|10|2,0:0|0:0|0:0,0:0:0:0:
256,356,94710,2,0,B|356:356|356:356|428:288,1,200,2|2,0:0|0:0,0:0:0:0:
500,216,95769,1,10,0:0:0:0:
424,152,96121,5,2,0:0:0:0:
496,84,96474,2,0,B|452:56|452:56|400:56,1,99.9999999999999,10|2,0:0|0:0,0:0:0:0:
256,192,97533,2,0,B|180:192|180:192|148:168|148:168|60:168,1,200,2|2,0:0|0:0,0:0:0:0:
4,248,98592,1,10,0:0:0:0:
52,336,98945,6,0,L|152:336,1,99.9999999999999,2|10,0:0|0:0,0:0:0:0:
232,276,99651,2,0,P|248:208|220:132,1,150,2|2,0:0|0:0,0:0:0:0:
264,44,100533,2,0,L|420:44,1,150
496,100,101416,1,2,0:0:0:0:
496,200,101769,5,2,0:0:0:0:
420,264,102121,2,0,L|316:248,1,99.9999999999999,10|2,0:0|0:0,0:0:0:0:
232,68,103180,2,0,P|140:56|104:144,1,200,2|2,0:0|0:0,0:0:0:0:
168,220,104239,1,10,0:0:0:0:
264,192,104592,6,0,L|368:192,2,99.9999999999999,2|10|2,0:0|0:0|0:0,0:0:0:0:
80,268,106004,2,0,B|32:356|32:356|132:356,1,200,2|2,0:0|0:0,0:0:0:0:
232,356,107063,1,10,0:0:0:0:
308,292,107416,5,2,0:0:0:0:
256,208,107769,2,0,P|256:160|276:112,1,99.9999999999999,10|2,0:0|0:0,0:0:0:0:
92,36,108827,2,0,P|104:132|48:232,1,200,2|2,0:0|0:0,0:0:0:0:
104,312,109886,1,8,0:0:0:0:
200,280,110239,5,2,0:0:0:0:
272,348,110592,1,10,0:0:0:0:
364,308,110945,2,0,B|464:308|464:308|504:344,1,150,2|0,0:0|0:0,0:0:0:0:
176,28,113063,6,0,L|76:28,1,99.9999999999999,6|8,0:0|0:0,0:0:0:0:
32,120,113769,2,0,L|132:120,1,99.9999999999999,2|8,0:0|0:0,0:0:0:0:
212,180,114474,1,2,0:0:0:0:
308,152,114827,1,8,0:0:0:0:
404,132,115180,2,0,P|428:180|432:228,1,99.9999999999999,2|8,0:0|0:0,0:0:0:0:
368,300,115886,6,0,B|268:332|268:272|168:320,1,200,2|2,0:0|0:0,0:0:0:0:
84,364,116945,1,8,0:0:0:0:
4,304,117298,2,0,P|0:252|16:204,1,99.9999999999999,2|8,0:0|0:0,0:0:0:0:
100,156,118004,2,0,P|104:104|88:56,1,99.9999999999999,2|8,0:0|0:0,0:0:0:0:
188,48,118710,6,0,P|292:68|384:40,1,200,2|2,0:0|0:0,0:0:0:0:
464,100,119769,1,8,0:0:0:0:
404,180,120121,2,0,L|432:328,2,150,2|0|8,0:0|0:0|0:0,0:0:0:0:
312,144,121533,6,0,P|264:152|220:180,1,99.9999999999999,2|8,0:0|0:0,0:0:0:0:
172,268,122239,2,0,L|20:248,1,150,2|0,0:0|0:0,0:0:0:0:
40,348,123121,2,0,L|188:367,1,150,0|0,0:0|0:0,0:0:0:0:
288,344,124004,1,0,0:0:0:0:
384,312,124357,6,0,P|392:260|384:212,1,99.9999999999999,6|8,0:0|0:0,0:0:0:0:
460,148,125063,2,0,P|440:98|410:61,1,99.9999999999999,2|8,0:0|0:0,0:0:0:0:
312,84,125768,1,2,0:0:0:0:
216,56,126121,1,8,0:0:0:0:
120,28,126474,2,0,L|104:132,1,99.9999999999999,2|8,0:0|0:0,0:0:0:0:
20,180,127180,6,0,P|33:264|113:225,1,200,2|2,0:0|0:0,0:0:0:0:
196,172,128239,1,8,0:0:0:0:
288,212,128592,2,0,P|292:264|276:312,1,99.9999999999999,2|8,0:0|0:0,0:0:0:0:
356,372,129298,2,0,P|403:357|453:361,1,99.9999999999999,2|8,0:0|0:0,0:0:0:0:
504,276,130004,6,0,L|468:68,1,200,2|8,0:0|0:0,0:0:0:0:
380,36,131063,1,8,0:0:0:0:
348,132,131415,2,0,P|280:160|200:160,2,150,8|0|8,0:0|0:0|0:0,0:0:0:0:
256,192,132827,12,8,134063,0:0:0:0:
212,140,135651,6,0,L|212:40,2,99.9999999999999,6|10|2,0:0|0:0|0:0,0:0:0:0:
32,224,137063,2,0,B|60:296|60:296|120:272|180:296,1,200,2|2,0:0|0:0,0:0:0:0:
256,360,138122,1,8,0:0:0:0:
348,324,138475,6,0,L|452:324,2,99.9999999999999,2|10|2,0:0|0:0|0:0,0:0:0:0:
196,192,139887,2,0,B|96:192|96:192|24:124,1,200,2|2,0:0|0:0,0:0:0:0:
48,28,140946,1,10,0:0:0:0:
140,60,141298,5,2,0:0:0:0:
232,20,141651,2,0,B|279:20|279:20|323:48,1,99.9999999999999,10|2,0:0|0:0,0:0:0:0:
508,136,142710,2,0,L|488:336,1,200,2|2,0:0|0:0,0:0:0:0:
392,364,143769,1,10,0:0:0:0:
308,308,144122,6,0,P|257:303|212:320,1,99.9999999999999,2|10,0:0|0:0,0:0:0:0:
132,256,144828,2,0,P|148:188|120:112,1,150,2|2,0:0|0:0,0:0:0:0:
192,44,145710,2,0,L|344:44,1,150,0|2,0:0|0:0,0:0:0:0:
428,92,146592,1,2,0:0:0:0:
512,144,146946,5,6,0:0:0:0:
424,192,147298,2,0,L|324:192,1,99.9999999999999,10|2,0:0|0:0,0:0:0:0:
180,56,148357,2,0,P|88:44|52:132,1,200,2|2,0:0|0:0,0:0:0:0:
128,196,149416,1,10,0:0:0:0:
208,256,149769,6,0,L|208:360,2,99.9999999999999,2|10|2,0:0|0:0|0:0,0:0:0:0:
324,96,151180,2,0,B|324:200|324:200|396:268,1,200,2|2,0:0|0:0,0:0:0:0:
468,336,152240,1,10,0:0:0:0:
372,360,152593,5,2,0:0:0:0:
292,304,152945,2,0,L|188:312,1,99.9999999999999,0|2,0:0|0:0,0:0:0:0:
124,180,153827,2,0,L|223:171,1,99.9999999999999,0|2,0:0|0:0,0:0:0:0:
292,100,154533,2,0,P|368:88|428:132,1,150,0|2,0:0|0:0,0:0:0:0:
492,316,155769,5,0,0:0:0:0:
492,316,156121,2,0,L|344:292,1,150,2|2,0:0|0:0,0:0:0:0:
256,192,156827,12,2,158239,0:0:0:0:
