osu file format v14

[General]
AudioFilename: audio.mp3
AudioLeadIn: 0
PreviewTime: 134324
Countdown: 0
SampleSet: Normal
StackLeniency: 0.7
Mode: 0
LetterboxInBreaks: 0
EpilepsyWarning: 1
WidescreenStoryboard: 1

[Editor]
DistanceSpacing: 0.7
BeatDivisor: 4
GridSize: 32
TimelineZoom: 1

[Metadata]
Title:Be Alright (feat. EMEL) (Cut Ver.)
TitleUnicode:Be Alright (feat. EMEL) (Cut Ver.)
Artist:Stonebank
ArtistUnicode:Stonebank
Creator:Nhawak
Version:iyasine's Hard
Source:
Tags:english drum and bass dnb monstercat electronic cataclysm uncaged hard dance edm electro thekoala sylas iyasine plaudible frey asahina momoko m o k o r i alacat hokichi mune
BeatmapID:2856443
BeatmapSetID:1151309

[Difficulty]
HPDrainRate:5
CircleSize:4
OverallDifficulty:5
ApproachRate:8
SliderMultiplier:1.5
SliderTickRate:1

[Events]
//Background and Video events
0,0,"BG.jpg",0,0
//Break Periods
//Storyboard Layer 0 (Background)
//Storyboard Layer 1 (Fail)
//Storyboard Layer 2 (Pass)
//Storyboard Layer 3 (Foreground)
Sprite,Foreground,Centre,"sb\glow.png",0,0 F,0,29,,1 S,0,29,,1 M,16,30,,84,283 M,16,30,382,84,283 M,30,382,735,84,283,178,167 M,0,735,779,178,167,196.489,163.8832 M,0,779,823,196.489,163.8832,214.9409,160.5549 M,0,823,867,214.9409,160.5549,233.3535,157.0158 M,0,867,911,233.3535,157.0158,251.7279,153.2824 M,30,911,1088,251.7279,153.2824,326,203 M,16,1088,1177,326,203 M,0,1177,1221,326,203,334.3715,219.761 M,0,1221,1265,334.3715,219.761,341.0195,237.2708 M,0,1265,1309,341.0195,237.2708,345.8789,255.3555 M,0,1309,1353,345.8789,255.3555,348.9825,273.8237 M,0,1353,1397,348.9825,273.8237,350.0261,292.5247 M,0,1397,1441,350.0261,292.5247,349.1911,311.2325 M,30,1441,1794,349.1911,311.2325,349,311 M,30,1794,2147,349,311,477,388 M,0,2147,2191,477,388,471.2772,370.1447 M,0,2191,2235,471.2772,370.1447,465.5543,352.2894 M,0,2235,2279,465.5543,352.2894,459.8315,334.4341 M,0,2279,2323,459.8315,334.4341,454.1086,316.5788 M,30,2323,2500,454.1086,316.5788,426,230 M,16,2500,2588,426,230 M,0,2588,2632,426,230,443.8695,224.3218 M,0,2632,2676,443.8695,224.3218,461.7391,218.6436 M,0,2676,2720,461.7391,218.6436,479.6086,212.9655 M,0,2720,2764,479.6086,212.9655,497.4782,207.2873 M,0,2764,2808,497.4782,207.2873,515.3478,201.6091 M,0,2808,2852,515.3478,201.6091,533,196 M,30,2852,3206,533,196,533,195 M,30,3206,3559,533,195,393,140 M,0,3559,3603,393,140,375.0408,134.6122 M,0,3603,3647,375.0408,134.6122,357.0815,129.2245 M,0,3647,3691,357.0815,129.2245,339.1223,123.8367 M,0,3691,3735,339.1223,123.8367,321.163,118.4489 M,30,3735,3912,321.163,118.4489,233,141 M,16,3912,4000,233,141 M,0,4000,4044,233,141,223.9513,157.4146 M,0,4044,4088,223.9513,157.4146,216.0094,174.3896 M,0,4088,4132,216.0094,174.3896,209.104,191.8147 M,0,4132,4176,209.104,191.8147,203.547,209.7153 M,0,4176,4220,203.547,209.7153,199.187,227.9419 M,0,4220,4264,199.187,227.9419,195.9328,246.4008 M,30,4264,4618,195.9328,246.4008,195,246 M,0,4618,4662,195,246,197.2813,264.6107 M,0,4662,4706,197.2813,264.6107,199.5626,283.2214 M,0,4706,4750,199.5626,283.2214,201.8439,301.8321 M,0,4750,4794,201.8439,301.8321,204.1252,320.4428 M,0,4794,4838,204.1252,320.4428,206.4066,339.0535 M,0,4838,4882,206.4066,339.0535,208.6879,357.6642 M,0,4882,4926,208.6879,357.6642,210.9692,376.2749 M,0,4926,4970,210.9692,376.2749,213.2505,394.8856 M,0,4970,5015,213.2505,394.8856,210.9692,376.2749 M,0,5015,5059,210.9692,376.2749,208.6879,357.6642 M,0,5059,5103,208.6879,357.6642,206.4066,339.0535 M,0,5103,5147,206.4066,339.0535,204.1252,320.4428 M,0,5147,5191,204.1252,320.4428,201.8439,301.8321 M,0,5191,5235,201.8439,301.8321,199.5626,283.2214 M,0,5235,5279,199.5626,283.2214,197.2813,264.6107 M,0,5279,5323,197.2813,264.6107,195,246 M,30,5323,5677,195,246,75,154 M,16,5677,6029,75,154 M,30,6029,6382,75,154,195,246 M,0,6382,6426,195,246,213.4139,242.466 M,0,6426,6470,213.4139,242.466,231.8279,238.932 M,0,6470,6514,231.8279,238.932,250.2418,235.398 M,0,6514,6558,250.2418,235.398,268.6558,231.864 M,30,6558,6735,268.6558,231.864,356,209 M,16,6735,6824,356,209 M,0,6824,6868,356,209,363.5575,191.8455 M,0,6868,6912,363.5575,191.8455,370.1571,174.302 M,0,6912,6956,370.1571,174.302,375.7791,156.4222 M,0,6956,7000,375.7791,156.4222,380.4421,138.2686 M,0,7000,7044,380.4421,138.2686,383.9987,119.8654 M,0,7044,7088,383.9987,119.8654,386.5352,101.295 M,30,7088,7441,386.5352,101.295,386,101 M,30,7441,7794,386,101,263,187 M,0,7794,7838,263,187,268.3334,204.9755 M,0,7838,7882,268.3334,204.9755,273.6667,222.9509 M,0,7882,7926,273.6667,222.9509,279.0001,240.9264 M,0,7926,7970,279.0001,240.9264,284.3335,258.9019 M,30,7970,8147,284.3335,258.9019,341,328 M,16,8147,8235,341,328 M,0,8235,8279,341,328,359.1327,332.7718 M,0,8279,8323,359.1327,332.7718,377.2653,337.5435 M,0,8323,8367,377.2653,337.5435,395.3979,342.3152 M,0,8367,8411,395.3979,342.3152,413.5306,347.087 M,0,8411,8455,413.5306,347.087,431.6632,351.8587 M,0,8455,8499,431.6632,351.8587,449.7959,356.6305 M,30,8499,8853,449.7959,356.6305,449,356 M,30,8853,9206,449,356,308,409 M,0,9206,9250,308,409,289.9211,404.0283 M,0,9250,9294,289.9211,404.0283,271.8423,399.0566 M,0,9294,9338,271.8423,399.0566,253.7634,394.085 M,0,9338,9382,253.7634,394.085,235.6846,389.1133 M,30,9382,9559,235.6846,389.1133,182,316 M,16,9559,9647,182,316 M,0,9647,9691,182,316,163.9652,310.8708 M,0,9691,9735,163.9652,310.8708,145.9304,305.7417 M,0,9735,9779,145.9304,305.7417,127.8956,300.6125 M,0,9779,9823,127.8956,300.6125,109.8608,295.4833 M,0,9823,9867,109.8608,295.4833,91.82597,290.3542 M,0,9867,9911,91.82597,290.3542,73.79118,285.225 M,30,9911,10265,73.79118,285.225,73,285 M,30,10265,10618,73,285 M,16,10618,10794,73,285,97,206 M,0,10794,10838,97,206,103.4887,188.4095 M,0,10838,10882,103.4887,188.4095,109.4883,170.6466 M,0,10882,10926,109.4883,170.6466,114.9942,152.7248 M,0,10926,10970,114.9942,152.7248,120.0334,134.6658 M,0,10970,11014,120.0334,134.6658,114.9942,152.7248 F,15,10971,11324,1,0 S,15,10971,11324,1,0.2 M,0,11014,11058,114.9942,152.7248,109.4883,170.6466 M,0,11058,11102,109.4883,170.6466,103.4887,188.4095 M,0,11102,11146,103.4887,188.4095,97,206
Sprite,Foreground,Centre,"sb\glow.png",0,0 M,30,11146,11324,97,206,154,266 C,0,11146,11324,202,149,149,255,255,125 F,0,11147,,1 S,0,11147,,1 M,0,11324,11368,154,266,158.0423,284.3091 M,0,11368,11412,158.0423,284.3091,162.0845,302.6182 M,0,11412,11456,162.0845,302.6182,166.1268,320.9272 M,0,11456,11500,166.1268,320.9272,170.1691,339.2363 M,30,11500,11677,170.1691,339.2363,214,409 C,0,11500,11677,255,255,125 M,0,11677,11721,214,409,232.2815,404.8346 M,0,11721,11765,232.2815,404.8346,250.5629,400.6692 M,0,11765,11809,250.5629,400.6692,268.8444,396.5038 M,0,11809,11853,268.8444,396.5038,287.1259,392.3384 M,16,11853,12029,287.1259,392.3384,325,319 C,0,11853,12029,255,255,125 M,0,12029,12073,325,319,343.2815,314.8346 M,0,12073,12117,343.2815,314.8346,361.5629,310.6692 M,0,12117,12161,361.5629,310.6692,379.8444,306.5038 M,0,12161,12205,379.8444,306.5038,398.1259,302.3384 M,30,12205,12382,398.1259,302.3384,445,370 C,0,12205,12382,255,255,125 M,0,12382,12426,445,370,463.2815,365.8346 M,0,12426,12470,463.2815,365.8346,481.5629,361.6692 M,0,12470,12514,481.5629,361.6692,499.8444,357.5038 M,0,12514,12558,499.8444,357.5038,518.1259,353.3384 M,30,12558,12735,518.1259,353.3384,430,237 C,0,12558,12735,255,255,125,111,255,255 M,0,12735,12779,430,237,416.7752,250.2025 M,0,12779,12823,416.7752,250.2025,406.7525,265.9443 M,0,12823,12867,406.7525,265.9443,400.4015,283.4722 M,0,12867,12911,400.4015,283.4722,398.0183,301.9498 M,30,12911,13088,398.0183,301.9498,518,353 C,0,12911,13088,111,255,255 M,0,13088,13132,518,353,531.2249,339.7975 M,0,13132,13176,531.2249,339.7975,541.2474,324.0557 M,0,13176,13220,541.2474,324.0557,547.5985,306.5278 M,0,13220,13264,547.5985,306.5278,549.9817,288.0502 M,30,13264,13441,549.9817,288.0502,535,206 C,0,13264,13441,111,255,255 M,0,13441,13485,535,206,530.8634,187.712 M,0,13485,13529,530.8634,187.712,526.7269,169.424 M,0,13529,13573,526.7269,169.424,522.5903,151.136 M,0,13573,13617,522.5903,151.136,518.4537,132.848 M,30,13617,13794,518.4537,132.848,439,88 C,0,13617,13794,111,255,255 M,30,13794,14147,439,88 C,0,13794,14147,111,255,255,255,157,157 M,0,14147,14191,439,88,421.5966,94.93399 M,0,14191,14235,421.5966,94.93399,403.507,99.78342 M,0,14235,14279,403.507,99.78342,384.9792,102.483 M,0,14279,14323,384.9792,102.483,366.2598,103.1222 M,30,14323,14500,366.2598,103.1222,223,140 C,0,14323,14500,255,157,157 M,0,14500,14544,223,140,241.6189,141.9797 M,0,14544,14588,241.6189,141.9797,260.3219,141.3601 M,0,14588,14632,260.3219,141.3601,278.7512,138.1552 M,0,14632,14676,278.7512,138.1552,296.5541,132.4279 M,30,14676,14853,296.5541,132.4279,362,180 C,0,14676,14853,255,157,157 M,0,14853,14897,362,180,366.0143,198.3152 M,0,14897,14941,366.0143,198.3152,370.0286,216.6305 M,0,14941,14985,370.0286,216.6305,374.0429,234.9457 M,0,14985,15029,374.0429,234.9457,378,253 M,30,15029,15206,378,253,293,255 C,0,15029,15206,255,157,157 M,0,15206,15250,293,255,297.0143,273.3152 M,0,15250,15294,297.0143,273.3152,301.0286,291.6305 M,0,15294,15338,301.0286,291.6305,305.0429,309.9457 M,0,15338,15382,305.0429,309.9457,309,328 M,30,15382,15559,309,328,197,219 C,0,15382,15559,255,157,157,202,149,149 M,0,15559,15603,197,219,201.0143,237.3152 M,0,15603,15647,201.0143,237.3152,205.0286,255.6305 M,0,15647,15691,205.0286,255.6305,209.0429,273.9457 M,0,15691,15735,209.0429,273.9457,213,292 M,30,15735,15912,213,292,120,280 C,0,15735,15912,202,149,149 M,0,15912,15956,120,280,124.0143,298.3152 M,0,15956,16000,124.0143,298.3152,128.0286,316.6305 M,0,16000,16044,128.0286,316.6305,132.0429,334.9457 M,0,16044,16088,132.0429,334.9457,136,353 M,30,16088,16265,136,353 C,0,16088,16265,202,149,149 M,16,16265,16441,136,353,222,365 C,0,16265,16441,202,149,149 M,0,16441,16485,222,365,220.0624,383.6496 M,0,16485,16529,220.0624,383.6496,218.1248,402.2992 M,0,16529,16573,218.1248,402.2992,216.1871,420.9489 M,0,16573,16617,216.1871,420.9489,214.2495,439.5984 M,0,16617,16661,214.2495,439.5984,216.1871,420.9489 M,0,16661,16705,216.1871,420.9489,218.1248,402.2992 M,0,16705,16749,218.1248,402.2992,220.0624,383.6496 M,0,16749,16793,220.0624,383.6496,222,365 M,30,16793,16971,222,365,368,420 C,0,16793,16971,202,149,149,255,255,125 M,0,16971,17015,368,420,349.2774,420.3093 M,0,17015,17059,349.2774,420.3093,330.6902,418.1251 M,0,17059,17103,330.6902,418.1251,312.5656,413.4876 M,0,17103,17147,312.5656,413.4876,295.1183,406.6962 M,30,17147,17324,295.1183,406.6962,222,365 C,0,17147,17324,255,255,125 M,16,17324,17500,222,365 C,0,17324,17500,255,255,125 M,16,17500,17677,222,365,326,323 C,0,17500,17677,255,255,125 M,0,17677,17721,326,323,322.098,304.6605 M,0,17721,17765,322.098,304.6605,318.196,286.321 M,0,17765,17809,318.196,286.321,314.2939,267.9815 M,0,17809,17853,314.2939,267.9815,310.3919,249.6421 M,16,17853,18029,310.3919,249.6421,296,168 C,0,17853,18029,255,255,125 M,16,18029,18206,296,168 C,0,18029,18206,255,255,125 M,16,18206,18382,296,168,393,224 C,0,18206,18382,255,255,125,111,255,255 M,0,18382,18426,393,224,411.5901,221.6124 M,0,18426,18470,411.5901,221.6124,429.959,217.9022 M,0,18470,18514,429.959,217.9022,448.0137,212.8885 M,0,18514,18558,448.0137,212.8885,465,207 M,30,18558,18735,465,207,528,153 C,0,18558,18735,111,255,255 M,16,18735,18912,528,153 C,0,18735,18912,111,255,255 M,16,18912,19088,528,153,520,265 C,0,18912,19088,111,255,255 M,0,19088,19132,520,265,523.902,283.3395 M,0,19132,19176,523.902,283.3395,527.8041,301.679 M,0,19176,19220,527.8041,301.679,531.7061,320.0185 M,0,19220,19264,531.7061,320.0185,535.608,338.3579 M,30,19264,19441,535.608,338.3579,485,405 C,0,19264,19441,111,255,255 M,16,19441,19618,485,405 C,0,19441,19618,111,255,255 M,16,19618,19794,485,405,381,381 C,0,19618,19794,111,255,255,255,157,157 M,0,19794,19838,381,381,362.6965,385.0674 M,0,19838,19882,362.6965,385.0674,344.393,389.1349 M,0,19882,19926,344.393,389.1349,362.6965,385.0674 M,0,19926,19970,362.6965,385.0674,381,381 M,0,19970,20014,381,381,362.6965,385.0674 M,0,20014,20058,362.6965,385.0674,344.393,389.1349 M,30,20058,20147,344.393,389.1349,285,341 C,0,20058,20147,255,157,157 M,0,20147,20191,285,341,266.6965,345.0674 M,0,20191,20235,266.6965,345.0674,248.393,349.1349 M,0,20235,20279,248.393,349.1349,266.6965,345.0674 M,0,20279,20323,266.6965,345.0674,285,341 M,0,20323,20367,285,341,266.6965,345.0674 M,0,20367,20411,266.6965,345.0674,248.393,349.1349 M,30,20411,20500,248.393,349.1349,226,269 C,0,20411,20500,255,157,157 M,0,20500,20544,226,269,244.3035,264.9326 M,0,20544,20588,244.3035,264.9326,262.607,260.8651 M,0,20588,20632,262.607,260.8651,244.3035,264.9326 M,0,20632,20676,244.3035,264.9326,226,269 M,0,20676,20720,226,269,244.3035,264.9326 M,0,20720,20764,244.3035,264.9326,262.607,260.8651 M,30,20764,20853,262.607,260.8651,295,192 C,0,20764,20853,255,157,157 M,0,20853,20897,295,192,313.3035,187.9326 F,15,20853,21206,1,0 S,15,20853,21206,1,0.2 M,0,20897,20941,313.3035,187.9326,331.607,183.8651 M,0,20941,20985,331.607,183.8651,313.3035,187.9326 M,0,20985,21029,313.3035,187.9326,295,192 M,0,21029,21073,295,192,313.3035,187.9326 M,0,21073,21117,313.3035,187.9326,331.607,183.8651
Sprite,Foreground,Centre,"sb\glow.png",0,0 M,0,21382,,405,130 C,0,21382,,202,149,149 M,0,21382,21426,405,130,408.4801,148.4242 F,15,21382,21646,1,0 S,15,21382,21646,1,0.2 P,0,21382,21646,A M,0,21426,21470,408.4801,148.4242,411.9603,166.8484 M,0,21470,21514,411.9603,166.8484,415.4404,185.2726 M,0,21514,21558,415.4404,185.2726,418.9205,203.6968 M,0,21558,21602,418.9205,203.6968,415.4404,185.2726 M,0,21602,21646,415.4404,185.2726,411.9603,166.8484 M,0,21646,21690,411.9603,166.8484,408.4801,148.4242 M,0,21690,21734,408.4801,148.4242,405,130 M,0,21912,,335,70 C,0,21912,,202,149,149 F,15,21912,22176,1,0 S,15,21912,22176,1,0.2 P,0,21912,22176,A M,0,22265,,281,205 C,0,22265,,202,149,149 F,15,22265,22529,1,0 S,15,22265,22529,1,0.2 P,0,22265,22529,A
Sprite,Foreground,Centre,"sb\glow.png",0,0 M,0,22088,,257,116 C,0,22088,,202,149,149 F,15,22088,22352,1,0 S,15,22088,22352,1,0.2 P,0,22088,22352,A M,0,22441,,213,265 C,0,22441,,202,149,149 F,15,22441,22705,1,0 S,15,22441,22705,1,0.2 P,0,22441,22705,A
Sprite,Foreground,Centre,"sb\c.png",70,263 C,0,112971,,255,157,157 F,0,112971,113071,0,1 S,19,112971,113676,0.2,0.3 P,0,112971,113676,A F,16,113071,113676,1,0
Sprite,Foreground,Centre,"sb\c.png",253,373 C,0,113324,,255,157,157 F,0,113324,113424,0,1 S,19,113324,114029,0.2,0.3 P,0,113324,114029,A F,16,113424,114029,1,0
Sprite,Foreground,Centre,"sb\c.png",145,212 C,0,114029,,255,157,157 F,0,114029,114129,0,1 S,19,114029,114734,0.2,0.3 P,0,114029,114734,A F,16,114129,114734,1,0
Sprite,Foreground,Centre,"sb\c.png",307,251 C,0,114382,,255,157,157 F,0,114382,114482,0,1 S,19,114382,115087,0.2,0.3 P,0,114382,115087,A F,16,114482,115087,1,0
Sprite,Foreground,Centre,"sb\c.png",338,104 C,0,115088,,255,157,157 F,0,115088,115188,0,1 S,19,115088,115793,0.2,0.3 P,0,115088,115793,A F,16,115188,115793,1,0
Sprite,Foreground,Centre,"sb\c.png",531,205 C,0,115441,,255,157,157 F,0,115441,115541,0,1 S,19,115441,116146,0.2,0.3 P,0,115441,116146,A F,16,115541,116146,1,0
Sprite,Foreground,Centre,"sb\c.png",383,272 C,0,115794,,202,149,149 F,0,115794,115894,0,1 S,19,115794,116499,0.2,0.3 P,0,115794,116499,A F,16,115894,116499,1,0
Sprite,Foreground,Centre,"sb\c.png",554,370 C,0,116147,,202,149,149 F,0,116147,116247,0,1 S,19,116147,116852,0.2,0.3 P,0,116147,116852,A F,16,116247,116852,1,0
Sprite,Foreground,Centre,"sb\c.png",289,290 C,0,116853,,202,149,149 F,0,116853,116953,0,1 S,19,116853,117558,0.2,0.3 P,0,116853,117558,A F,16,116953,117558,1,0
Sprite,Foreground,Centre,"sb\c.png",86,234 C,0,117206,,202,149,149 F,0,117206,117306,0,1 S,19,117206,117911,0.2,0.3 P,0,117206,117911,A F,16,117306,117911,1,0
Sprite,Foreground,Centre,"sb\c.png",255,139 M,0,117559,,226.2,136.12 C,0,117559,,202,149,149 F,0,117559,117659,0,1 S,19,117559,118264,0.2,0.3 P,0,117559,118264,A F,16,117659,118264,1,0
Sprite,Foreground,Centre,"sb\c.png",215,302 C,0,117912,,202,149,149 F,0,117912,118012,0,1 S,19,117912,118617,0.2,0.3 P,0,117912,118617,A F,16,118012,118617,1,0
Sprite,Foreground,Centre,"sb\c.png",318,424 C,0,118265,,202,149,149 F,0,118265,118365,0,1 S,19,118265,118970,0.2,0.3 P,0,118265,118970,A F,16,118365,118970,1,0
Sprite,Foreground,Centre,"sb\c.png",332,290 C,0,118618,,255,255,125 F,0,118618,118718,0,1 S,19,118618,119323,0.2,0.3 P,0,118618,119323,A F,16,118718,119323,1,0
Sprite,Foreground,Centre,"sb\c.png",456,188 C,0,118971,,255,255,125 F,0,118971,119071,0,1 S,19,118971,119676,0.2,0.3 P,0,118971,119676,A F,16,119071,119676,1,0
Sprite,Foreground,Centre,"sb\c.png",512,320 C,0,119324,,255,255,125 F,0,119324,119424,0,1 S,19,119324,120029,0.2,0.3 P,0,119324,120029,A F,16,119424,120029,1,0
Sprite,Foreground,Centre,"sb\c.png",391,411 C,0,119677,,255,255,125 F,0,119677,119777,0,1 S,19,119677,120382,0.2,0.3 P,0,119677,120382,A F,16,119777,120382,1,0
Sprite,Foreground,Centre,"sb\c.png",223,397 C,0,120029,,255,255,125 F,0,120029,120129,0,1 S,19,120029,120734,0.2,0.3 P,0,120029,120734,A F,16,120129,120734,1,0
Sprite,Foreground,Centre,"sb\c.png",112,283 C,0,121088,,255,255,125 F,0,121088,121188,0,1 S,19,121088,121793,0.2,0.3 P,0,121088,121793,A F,16,121188,121793,1,0
Sprite,Foreground,Centre,"sb\c.png",423,217 C,0,121794,,111,255,255 F,0,121794,121894,0,1 S,19,121794,122499,0.2,0.3 P,0,121794,122499,A F,16,121894,122499,1,0
Sprite,Foreground,Centre,"sb\c.png",334,358 C,0,122147,,111,255,255 F,0,122147,122247,0,1 S,19,122147,122852,0.2,0.3 P,0,122147,122852,A F,16,122247,122852,1,0
Sprite,Foreground,Centre,"sb\c.png",471,304 C,0,122500,,111,255,255 F,0,122500,122600,0,1 S,19,122500,123205,0.2,0.3 P,0,122500,123205,A F,16,122600,123205,1,0
Sprite,Foreground,Centre,"sb\c.png",471,304 C,0,123029,,255,157,157 F,0,123029,123129,0,1 S,19,123029,123734,0.2,0.3 P,0,123029,123734,A F,16,123129,123734,1,0
Sprite,Foreground,Centre,"sb\c.png",381,288 C,0,123382,,255,157,157 F,0,123382,123482,0,1 S,19,123382,124087,0.2,0.3 P,0,123382,124087,A F,16,123482,124087,1,0
Sprite,Foreground,Centre,"sb\c.png",290,272 C,0,123559,,255,157,157 F,0,123559,123659,0,1 S,19,123559,124264,0.2,0.3 P,0,123559,124264,A F,16,123659,124264,1,0
Sprite,Foreground,Centre,"sb\c.png",198,256 C,0,123735,,255,157,157 F,0,123735,123835,0,1 S,19,123735,124440,0.2,0.3 P,0,123735,124440,A F,16,123835,124440,1,0
Sprite,Foreground,Centre,"sb\c.png",198,256 C,0,123824,,255,157,157 F,0,123824,123924,0,1 S,19,123824,124529,0.2,0.3 P,0,123824,124529,A F,16,123924,124529,1,0
Sprite,Foreground,Centre,"sb\c.png",198,256 C,0,123912,,255,157,157 F,0,123912,124012,0,1 S,19,123912,124617,0.2,0.3 P,0,123912,124617,A F,16,124012,124617,1,0
Sprite,Foreground,Centre,"sb\c.png",171,358 C,0,124177,,202,149,149 F,0,124177,124277,0,1 S,19,124177,124882,0.2,0.3 P,0,124177,124882,A F,16,124277,124882,1,0
Sprite,Foreground,Centre,"sb\c.png",171,358 C,0,124265,,202,149,149 F,0,124265,124365,0,1 S,19,124265,124970,0.2,0.3 P,0,124265,124970,A F,16,124365,124970,1,0
Sprite,Foreground,Centre,"sb\c.png",370,376 C,0,124618,,202,149,149 F,0,124618,124718,0,1 S,19,124618,125323,0.2,0.3 P,0,124618,125323,A F,16,124718,125323,1,0
Sprite,Foreground,Centre,"sb\c.png",481,212 C,0,125324,,202,149,149 F,0,125324,125424,0,1 S,19,125324,126029,0.2,0.3 P,0,125324,126029,A F,16,125424,126029,1,0
Sprite,Foreground,Centre,"sb\c.png",511,120 C,0,125677,,202,149,149 F,0,125677,125777,0,1 S,19,125677,126382,0.2,0.3 P,0,125677,126382,A F,16,125777,126382,1,0
Sprite,Foreground,Centre,"sb\c.png",252,193 C,0,126382,,202,149,149 F,0,126382,126482,0,1 S,19,126382,127087,0.2,0.3 P,0,126382,127087,A F,16,126482,127087,1,0
Sprite,Foreground,Centre,"sb\c.png",91,187 C,0,126735,,202,149,149 F,0,126735,126835,0,1 S,19,126735,127440,0.2,0.3 P,0,126735,127440,A F,16,126835,127440,1,0
Sprite,Foreground,Centre,"sb\c.png",298,288 C,0,127088,,255,255,125 F,0,127088,127188,0,1 S,19,127088,127793,0.2,0.3 P,0,127088,127793,A F,16,127188,127793,1,0
Sprite,Foreground,Centre,"sb\c.png",116,310 C,0,127441,,255,255,125 F,0,127441,127541,0,1 S,19,127441,128146,0.2,0.3 P,0,127441,128146,A F,16,127541,128146,1,0
Sprite,Foreground,Centre,"sb\c.png",325,378 C,0,128147,,255,255,125 F,0,128147,128247,0,1 S,19,128147,128852,0.2,0.3 P,0,128147,128852,A F,16,128247,128852,1,0
Sprite,Foreground,Centre,"sb\c.png",523,360 C,0,128500,,255,255,125 F,0,128500,128600,0,1 S,19,128500,129205,0.2,0.3 P,0,128500,129205,A F,16,128600,129205,1,0
Sprite,Foreground,Centre,"sb\c.png",414,284 C,0,128853,,255,255,125 F,0,128853,128953,0,1 S,19,128853,129558,0.2,0.3 P,0,128853,129558,A F,16,128953,129558,1,0
Sprite,Foreground,Centre,"sb\c.png",474,195 C,0,129206,,255,255,125 F,0,129206,129306,0,1 S,19,129206,129911,0.2,0.3 P,0,129206,129911,A F,16,129306,129911,1,0
Sprite,Foreground,Centre,"sb\c.png",347,95 C,0,129559,,255,255,125 F,0,129559,129659,0,1 S,19,129559,130264,0.2,0.3 P,0,129559,130264,A F,16,129659,130264,1,0
Sprite,Foreground,Centre,"sb\c.png",209,121 C,0,129912,,111,255,255 F,0,129912,130012,0,1 S,19,129912,130617,0.2,0.3 P,0,129912,130617,A F,16,130012,130617,1,0
Sprite,Foreground,Centre,"sb\c.png",144,201 C,0,130265,,111,255,255 F,0,130265,130365,0,1 S,19,130265,130970,0.2,0.3 P,0,130265,130970,A F,16,130365,130970,1,0
Sprite,Foreground,Centre,"sb\c.png",186,288 C,0,130618,,111,255,255 F,0,130618,130718,0,1 S,19,130618,131323,0.2,0.3 P,0,130618,131323,A F,16,130718,131323,1,0
Sprite,Foreground,Centre,"sb\c.png",262,390 C,0,130971,,111,255,255 F,0,130971,131071,0,1 S,19,130971,131676,0.2,0.3 P,0,130971,131676,A F,16,131071,131676,1,0
Sprite,Foreground,Centre,"sb\c.png",424,373 C,0,131324,,255,157,157 F,0,131324,131424,0,1 S,19,131324,132029,0.2,0.3 P,0,131324,132029,A F,16,131424,132029,1,0
Sprite,Foreground,Centre,"sb\c.png",396,214 C,0,131677,,255,157,157 F,0,131677,131777,0,1 S,19,131677,132382,0.2,0.3 P,0,131677,132382,A F,16,131777,132382,1,0
Sprite,Foreground,Centre,"sb\c.png",396,214 C,0,131853,,255,157,157 F,0,131853,131953,0,1 S,19,131853,132558,0.2,0.3 P,0,131853,132558,A F,16,131953,132558,1,0
Sprite,Foreground,Centre,"sb\c.png",505,152 C,0,132029,,255,157,157 F,0,132029,132129,0,1 S,19,132029,132734,0.2,0.3 P,0,132029,132734,A F,16,132129,132734,1,0
Sprite,Foreground,Centre,"sb\c.png",553,307 C,0,132382,,255,157,157 F,0,132382,132482,0,1 S,19,132382,133087,0.2,0.3 P,0,132382,133087,A F,16,132482,133087,1,0
Sprite,Foreground,Centre,"sb\c.png",553,307 C,0,132559,,255,157,157 F,0,132559,132659,0,1 S,19,132559,133264,0.2,0.3 P,0,132559,133264,A F,16,132659,133264,1,0
Sprite,Foreground,Centre,"sb\c.png",495,385 C,0,132735,,202,149,149 F,0,132735,132835,0,1 S,19,132735,133440,0.2,0.3 P,0,132735,133440,A F,16,132835,133440,1,0
Sprite,Foreground,Centre,"sb\c.png",291,293 C,0,133088,,202,149,149 F,0,133088,133188,0,1 S,19,133088,133793,0.2,0.3 P,0,133088,133793,A F,16,133188,133793,1,0
Sprite,Foreground,Centre,"sb\c.png",436,296 C,0,133441,,202,149,149 F,0,133441,133541,0,1 S,19,133441,134146,0.2,0.3 P,0,133441,134146,A F,16,133541,134146,1,0
Sprite,Foreground,Centre,"sb\c.png",505,152 C,0,133794,,202,149,149 F,0,133794,133894,0,1 S,19,133794,134499,0.2,0.3 P,0,133794,134499,A F,16,133894,134499,1,0
Sprite,Foreground,Centre,"sb\c.png",505,152 C,0,133971,,202,149,149 F,0,133971,134071,0,1 S,19,133971,134676,0.2,0.3 P,0,133971,134676,A F,16,134071,134676,1,0
Sprite,Foreground,Centre,"sb\cir.png",505,152 C,0,134853,,255,255,125 F,0,134853,134953,0,1 S,19,134853,135558,0.2,0.3 P,0,134853,135558,A F,16,134953,135558,1,0
Sprite,Foreground,Centre,"sb\cir.png",366,130 C,0,135206,,255,255,125 F,0,135206,135306,0,1 S,19,135206,135911,0.2,0.3 P,0,135206,135911,A F,16,135306,135911,1,0
Sprite,Foreground,Centre,"sb\hl.png",0,0 M,0,152853,,126,155 C,0,152853,,255,255,125 F,0,152853,152941,0,1 S,0,152853,154264,0.25,0.5 P,0,152853,154264,A F,0,152941,154264,1,0 M,0,154323,,286.7806,333.3638 C,0,154323,,255,255,125 F,0,154323,154411,0,1 S,0,154323,155735,0.25,0.5 P,0,154323,155735,A F,0,154411,155735,1,0 M,0,156029,,248,376 C,0,156029,,111,255,255 F,0,156029,156117,0,1 S,0,156029,157440,0.25,0.5 P,0,156029,157440,A F,0,156117,157440,1,0
Sprite,Foreground,Centre,"sb\hl.png",0,0 M,0,153206,,126,155 C,0,153206,,255,255,125 F,0,153206,153294,0,1 S,0,153206,154617,0.25,0.5 P,0,153206,154617,A F,0,153294,154617,1,0 M,0,154794,,324,166 C,0,154794,,255,255,125 F,0,154794,154882,0,1 S,0,154794,156205,0.25,0.5 P,0,154794,156205,A F,0,154882,156205,1,0 M,0,156264,,319.6688,395.1125 C,0,156264,,111,255,255 F,0,156264,156352,0,1 S,0,156264,157676,0.25,0.5 P,0,156264,157676,A F,0,156352,157676,1,0
Sprite,Foreground,Centre,"sb\hl.png",0,0 M,0,153735,,272,299 C,0,153735,,255,255,125 F,0,153735,153823,0,1 S,0,153735,155146,0.25,0.5 P,0,153735,155146,A F,0,153823,155146,1,0 M,0,155147,,191.3416,229.2593 C,0,155147,,255,255,125 F,0,155147,155235,0,1 S,0,155147,156559,0.25,0.5 P,0,155147,156559,A F,0,155235,156559,1,0 M,0,156735,,320,248 C,0,156735,,111,255,255 F,0,156735,156823,0,1 S,0,156735,159558,0.25,0.5 P,0,156735,159558,A F,0,158147,159558,1,0
Sprite,Foreground,Centre,"sb\hl.png",0,0 M,0,153735,,272,299 C,0,153735,,255,255,125 F,0,153735,153823,0,1 S,0,153735,155146,0.25,0.5 P,0,153735,155146,A F,0,153823,155146,1,0 M,0,155206,,174.1222,236.6791 C,0,155206,,255,255,125 F,0,155206,155294,0,1 S,0,155206,156618,0.25,0.5 P,0,155206,156618,A F,0,155294,156618,1,0
Sprite,Foreground,Centre,"sb\hl.png",0,0 M,0,153793,,280.3038,315.7926 C,0,153793,,255,255,125 F,0,153793,153882,0,1 S,0,153793,155205,0.25,0.5 P,0,153793,155205,A F,0,153882,155205,1,0 M,0,155265,,156.9027,244.0988 C,0,155265,,255,255,125 F,0,155265,155353,0,1 S,0,155265,156676,0.25,0.5 P,0,155265,156676,A F,0,155353,156676,1,0
Sprite,Foreground,Centre,"sb\hl.png",0,0 M,0,153852,,286.7806,333.3638 C,0,153852,,255,255,125 F,0,153852,153940,0,1 S,0,153852,155264,0.25,0.5 P,0,153852,155264,A F,0,153940,155264,1,0 M,0,155677,,248,376 C,0,155677,,111,255,255 F,0,155677,155765,0,1 S,0,155677,157088,0.25,0.5 P,0,155677,157088,A F,0,155765,157088,1,0
Sprite,Foreground,Centre,"sb\hl.png",0,0 M,0,153911,,291.3596,351.5188 C,0,153911,,255,255,125 F,0,153911,153999,0,1 S,0,153911,155323,0.25,0.5 P,0,153911,155323,A F,0,153999,155323,1,0 M,0,156029,,248,376 C,0,156029,,111,255,255 F,0,156029,156117,0,1 S,0,156029,157440,0.25,0.5 P,0,156029,157440,A F,0,156117,157440,1,0
Sprite,Foreground,Centre,"sb\hl.png",0,0 M,0,153970,,294.0701,370.0457 C,0,153970,,255,255,125 F,0,153970,154058,0,1 S,0,153970,155382,0.25,0.5 P,0,153970,155382,A F,0,154058,155382,1,0 M,0,156087,,264.8919,384.086 C,0,156087,,111,255,255 F,0,156087,156176,0,1 S,0,156087,157499,0.25,0.5 P,0,156087,157499,A F,0,156176,157499,1,0
Sprite,Foreground,Centre,"sb\hl.png",0,0 M,0,154029,,294.6028,388.7656 C,0,154029,,255,255,125 F,0,154029,154117,0,1 S,0,154029,155440,0.25,0.5 P,0,154029,155440,A F,0,154117,155440,1,0 M,0,156146,,282.6532,389.9951 C,0,156146,,111,255,255 F,0,156146,156234,0,1 S,0,156146,157558,0.25,0.5 P,0,156146,157558,A F,0,156234,157558,1,0
Sprite,Foreground,Centre,"sb\hl.png",0,0 M,0,154087,,293.1507,407.4329 C,0,154087,,255,255,125 F,0,154087,154176,0,1 S,0,154087,155499,0.25,0.5 P,0,154087,155499,A F,0,154176,155499,1,0 M,0,156205,,301.0084,393.6372 C,0,156205,,111,255,255 F,0,156205,156293,0,1 S,0,156205,157617,0.25,0.5 P,0,156205,157617,A F,0,156293,157617,1,0
Sprite,Foreground,Centre,"sb\hl.png",0,0 M,0,154146,,294.6028,388.7656 C,0,154146,,255,255,125 F,0,154146,154235,0,1 S,0,154146,155558,0.25,0.5 P,0,154146,155558,A F,0,154235,155558,1,0 M,0,156323,,338.3553,393.9579 C,0,156323,,111,255,255 F,0,156323,156411,0,1 S,0,156323,157734,0.25,0.5 P,0,156323,157734,A F,0,156411,157734,1,0
Sprite,Foreground,Centre,"sb\hl.png",0,0 M,0,154205,,294.0701,370.0457 C,0,154205,,255,255,125 F,0,154205,154293,0,1 S,0,154205,155617,0.25,0.5 P,0,154205,155617,A F,0,154293,155617,1,0 M,0,156381,,356.744,390.4786 C,0,156381,,111,255,255 F,0,156381,156470,0,1 S,0,156381,157793,0.25,0.5 P,0,156381,157793,A F,0,156470,157793,1,0
Sprite,Foreground,Centre,"sb\hl.png",0,0 M,0,154264,,291.3596,351.5188 C,0,154264,,255,255,125 F,0,154264,154352,0,1 S,0,154264,155676,0.25,0.5 P,0,154264,155676,A F,0,154352,155676,1,0 M,0,156440,,374.629,384.9305 C,0,156440,,111,255,255 F,0,156440,156529,0,1 S,0,156440,157852,0.25,0.5 P,0,156440,157852,A F,0,156529,157852,1,0
Sprite,Foreground,Centre,"sb\hl.png",0,0 M,0,154382,,280.3038,315.7926 C,0,154382,,255,255,125 F,0,154382,154470,0,1 S,0,154382,155793,0.25,0.5 P,0,154382,155793,A F,0,154470,155793,1,0 M,0,156499,,391.5351,376.8763 C,0,156499,,111,255,255 F,0,156499,156587,0,1 S,0,156499,157911,0.25,0.5 P,0,156499,157911,A F,0,156587,157911,1,0
Sprite,Foreground,Centre,"sb\hl.png",0,0 M,0,154971,,243,207 C,0,154971,,255,255,125 F,0,154971,155059,0,1 S,0,154971,156382,0.25,0.5 P,0,154971,156382,A F,0,155059,156382,1,0
Sprite,Foreground,Centre,"sb\hl.png",0,0 M,0,154971,,243,207 C,0,154971,,255,255,125 F,0,154971,155059,0,1 S,0,154971,156382,0.25,0.5 P,0,154971,156382,A F,0,155059,156382,1,0
Sprite,Foreground,Centre,"sb\hl.png",0,0 M,0,155029,,225.7805,214.4198 C,0,155029,,255,255,125 F,0,155029,155118,0,1 S,0,155029,156441,0.25,0.5 P,0,155029,156441,A F,0,155118,156441,1,0
Sprite,Foreground,Centre,"sb\hl.png",0,0 M,0,155088,,208.5611,221.8395 C,0,155088,,255,255,125 F,0,155088,155176,0,1 S,0,155088,156500,0.25,0.5 P,0,155088,156500,A F,0,155176,156500,1,0
Sprite,Foreground,Centre,"sb\d.png",0,0 M,19,158147,159873,320,248,255.9328,217.3994 F,0,158147,159873,1,0 S,0,158147,159873,0.071,0 P,0,158147,159873,A
Sprite,Foreground,Centre,"sb\d.png",0,0 M,19,158147,159911,320,248,291.7707,292.8565 F,0,158147,159911,1,0 S,0,158147,159911,0.053,0 P,0,158147,159911,A
Sprite,Foreground,Centre,"sb\d.png",0,0 M,19,158147,159911,320,248,328.234,240.7061 F,0,158147,159911,1,0 S,0,158147,159911,0.011,0 P,0,158147,159911,A
Sprite,Foreground,Centre,"sb\d.png",0,0 M,19,158147,159785,320,248,312.6355,229.4052 F,0,158147,159785,1,0 S,0,158147,159785,0.02,0 P,0,158147,159785,A
Sprite,Foreground,Centre,"sb\d.png",0,0 M,19,158147,159949,320,248,339.882,214.4484 F,0,158147,159949,1,0 S,0,158147,159949,0.039,0 P,0,158147,159949,A
Sprite,Foreground,Centre,"sb\d.png",0,0 M,19,158147,159902,320,248,316.4114,238.6661 F,0,158147,159902,1,0 S,0,158147,159902,0.01,0 P,0,158147,159902,A
Sprite,Foreground,Centre,"sb\d.png",0,0 M,19,158147,159962,320,248,308.7396,279.0194 F,0,158147,159962,1,0 S,0,158147,159962,0.033,0 P,0,158147,159962,A
Sprite,Foreground,Centre,"sb\d.png",0,0 M,19,158147,160260,320,248,326.7514,188.3811 F,0,158147,160260,1,0 S,0,158147,160260,0.06,0 P,0,158147,160260,A
Sprite,Foreground,Centre,"sb\d.png",0,0 M,19,158147,160234,320,248,348.5984,196.3945 F,0,158147,160234,1,0 S,0,158147,160234,0.059,0 P,0,158147,160234,A
Sprite,Foreground,Centre,"sb\d.png",0,0 M,19,158147,159739,320,248,309.3308,250.6773 F,0,158147,159739,1,0 S,0,158147,159739,0.011,0 P,0,158147,159739,A
Sprite,Foreground,Centre,"sb\d.png",0,0 M,19,158147,159590,320,248,298.0974,271.3297 F,0,158147,159590,1,0 S,0,158147,159590,0.032,0 P,0,158147,159590,A
Sprite,Foreground,Centre,"sb\d.png",0,0 M,19,158147,159884,320,248,325.6039,236.2698 F,0,158147,159884,1,0 S,0,158147,159884,0.013,0 P,0,158147,159884,A
Sprite,Foreground,Centre,"sb\d.png",0,0 M,19,158147,159690,320,248,376.0288,211.2608 F,0,158147,159690,1,0 S,0,158147,159690,0.067,0 P,0,158147,159690,A
Sprite,Foreground,Centre,"sb\d.png",0,0 M,19,158147,160080,320,248,377.355,198.1362 F,0,158147,160080,1,0 S,0,158147,160080,0.076,0 P,0,158147,160080,A
Sprite,Foreground,Centre,"sb\d.png",0,0 M,19,158147,159804,320,248,364.8898,251.1472 F,0,158147,159804,1,0 S,0,158147,159804,0.045,0 P,0,158147,159804,A
Sprite,Foreground,Centre,"sb\d.png",0,0 M,19,158147,159891,320,248,348.4237,233.3 F,0,158147,159891,1,0 S,0,158147,159891,0.032,0 P,0,158147,159891,A
Sprite,Foreground,Centre,"sb\d.png",0,0 M,19,158147,159817,320,248,356.9512,246.1006 F,0,158147,159817,1,0 S,0,158147,159817,0.037,0 P,0,158147,159817,A
Sprite,Foreground,Centre,"sb\d.png",0,0 M,19,158147,159758,320,248,294.6283,297.9227 F,0,158147,159758,1,0 S,0,158147,159758,0.056,0 P,0,158147,159758,A
Sprite,Foreground,Centre,"sb\d.png",0,0 M,19,158147,159673,320,248,254.0388,245.7367 F,0,158147,159673,1,0 S,0,158147,159673,0.066,0 P,0,158147,159673,A
Sprite,Foreground,Centre,"sb\d.png",0,0 M,19,158147,160208,320,248,276.9925,261.2421 F,0,158147,160208,1,0 S,0,158147,160208,0.045,0 P,0,158147,160208,A
Sprite,Foreground,Centre,"sb\d.png",0,0 M,19,158147,159559,320,248,282.4154,237.5885 F,0,158147,159559,1,0 S,0,158147,159559,0.039,0 P,0,158147,159559,A
Sprite,Foreground,Centre,"sb\d.png",0,0 M,19,158147,160145,320,248,321.1602,279.979 F,0,158147,160145,1,0 S,0,158147,160145,0.032,0 P,0,158147,160145,A
Sprite,Foreground,Centre,"sb\d.png",0,0 M,19,158147,159823,320,248,318.3277,257.8592 F,0,158147,159823,1,0 S,0,158147,159823,0.01,0 P,0,158147,159823,A
Sprite,Foreground,Centre,"sb\d.png",0,0 M,19,158147,159680,320,248,373.3241,283.3912 F,0,158147,159680,1,0 S,0,158147,159680,0.064,0 P,0,158147,159680,A
Sprite,Foreground,Centre,"sb\d.png",0,0 M,19,158147,159827,320,248,307.8305,285.0527 F,0,158147,159827,1,0 S,0,158147,159827,0.039,0 P,0,158147,159827,A
Sprite,Foreground,Centre,"sb\d.png",0,0 M,19,158147,159708,320,248,351.0218,194.319 F,0,158147,159708,1,0 S,0,158147,159708,0.062,0 P,0,158147,159708,A
Sprite,Foreground,Centre,"sb\d.png",0,0 M,19,158147,159825,320,248,275.4169,190.1956 F,0,158147,159825,1,0 S,0,158147,159825,0.073,0 P,0,158147,159825,A
Sprite,Foreground,Centre,"sb\d.png",0,0 M,19,158147,159992,320,248,278.1721,251.7986 F,0,158147,159992,1,0 S,0,158147,159992,0.042,0 P,0,158147,159992,A
Sprite,Foreground,Centre,"sb\d.png",0,0 M,19,158147,160025,320,248,330.0134,239.7096 F,0,158147,160025,1,0 S,0,158147,160025,0.013,0 P,0,158147,160025,A
Sprite,Foreground,Centre,"sb\d.png",0,0 M,19,158147,159728,320,248,322.5136,216.0989 F,0,158147,159728,1,0 S,0,158147,159728,0.032,0 P,0,158147,159728,A
Sprite,Foreground,Centre,"sb\d.png",0,0 M,19,158147,159783,320,248,307.6694,287.1019 F,0,158147,159783,1,0 S,0,158147,159783,0.041,0 P,0,158147,159783,A
Sprite,Foreground,Centre,"sb\d.png",0,0 M,19,158147,159933,320,248,316.6834,281.8379 F,0,158147,159933,1,0 S,0,158147,159933,0.034,0 P,0,158147,159933,A
Sprite,Foreground,Centre,"sb\d.png",0,0 M,19,158147,159690,320,248,315.3117,185.1747 F,0,158147,159690,1,0 S,0,158147,159690,0.063,0 P,0,158147,159690,A
Sprite,Foreground,Centre,"sb\d.png",0,0 M,19,158147,159779,320,248,265.2996,242.2675 F,0,158147,159779,1,0 S,0,158147,159779,0.055,0 P,0,158147,159779,A
Sprite,Foreground,Centre,"sb\d.png",0,0 M,19,158147,159993,320,248,379.1444,289.0602 F,0,158147,159993,1,0 S,0,158147,159993,0.072,0 P,0,158147,159993,A
Sprite,Foreground,Centre,"sb\d.png",0,0 M,19,158147,159730,320,248,323.84,258.308 F,0,158147,159730,1,0 S,0,158147,159730,0.011,0 P,0,158147,159730,A
Sprite,Foreground,Centre,"sb\d.png",0,0 M,19,158147,159591,320,248,366.5097,215.0479 F,0,158147,159591,1,0 S,0,158147,159591,0.057,0 P,0,158147,159591,A
Sprite,Foreground,Centre,"sb\d.png",0,0 M,19,158147,159983,320,248,382.8628,227.8936 F,0,158147,159983,1,0 S,0,158147,159983,0.066,0 P,0,158147,159983,A
Sprite,Foreground,Centre,"sb\d.png",0,0 M,19,158147,160232,320,248,306.5157,244.2354 F,0,158147,160232,1,0 S,0,158147,160232,0.014,0 P,0,158147,160232,A
Sprite,Foreground,Centre,"sb\d.png",0,0 M,19,158147,159752,320,248,294.3358,270.3014 F,0,158147,159752,1,0 S,0,158147,159752,0.034,0 P,0,158147,159752,A
Sprite,Foreground,Centre,"sb\d.png",0,0 M,19,158147,160051,320,248,341.6881,287.4288 F,0,158147,160051,1,0 S,0,158147,160051,0.045,0 P,0,158147,160051,A
Sprite,Foreground,Centre,"sb\d.png",0,0 M,19,158147,159790,320,248,363.3551,296.4286 F,0,158147,159790,1,0 S,0,158147,159790,0.065,0 P,0,158147,159790,A
Sprite,Foreground,Centre,"sb\d.png",0,0 M,19,158147,159612,320,248,327.283,238.4628 F,0,158147,159612,1,0 S,0,158147,159612,0.012,0 P,0,158147,159612,A
Sprite,Foreground,Centre,"sb\d.png",0,0 M,19,158147,160257,320,248,329.4425,235.0834 F,0,158147,160257,1,0 S,0,158147,160257,0.016,0 P,0,158147,160257,A
Sprite,Foreground,Centre,"sb\d.png",0,0 M,19,158147,159741,320,248,338.756,251.0356 F,0,158147,159741,1,0 S,0,158147,159741,0.019,0 P,0,158147,159741,A
Sprite,Foreground,Centre,"sb\d.png",0,0 M,19,158147,159961,320,248,353.9463,262.7191 F,0,158147,159961,1,0 S,0,158147,159961,0.037,0 P,0,158147,159961,A
Sprite,Foreground,Centre,"sb\d.png",0,0 M,19,158147,159573,320,248,377.9997,247.8197 F,0,158147,159573,1,0 S,0,158147,159573,0.058,0 P,0,158147,159573,A
Sprite,Foreground,Centre,"sb\d.png",0,0 M,19,158147,160012,320,248,258.9132,282.1819 F,0,158147,160012,1,0 S,0,158147,160012,0.07,0 P,0,158147,160012,A
Sprite,Foreground,Centre,"sb\d.png",0,0 M,19,158147,160016,320,248,331.5688,279.9713 F,0,158147,160016,1,0 S,0,158147,160016,0.034,0 P,0,158147,160016,A
Sprite,Foreground,Centre,"sb\d.png",0,0 M,19,158147,159760,320,248,307.4471,189.3278 F,0,158147,159760,1,0 S,0,158147,159760,0.06,0 P,0,158147,159760,A
Sprite,Foreground,Centre,"sb\d.png",0,0 M,19,158147,159850,320,248,289.7607,232.457 F,0,158147,159850,1,0 S,0,158147,159850,0.034,0 P,0,158147,159850,A
Sprite,Foreground,Centre,"sb\d.png",0,0 M,19,158147,159652,320,248,348.8351,229.985 F,0,158147,159652,1,0 S,0,158147,159652,0.034,0 P,0,158147,159652,A
Sprite,Foreground,Centre,"sb\d.png",0,0 M,19,158147,159632,320,248,261.8713,197.5019 F,0,158147,159632,1,0 S,0,158147,159632,0.077,0 P,0,158147,159632,A
Sprite,Foreground,Centre,"sb\d.png",0,0 M,19,158147,160257,320,248,312.4709,280.1296 F,0,158147,160257,1,0 S,0,158147,160257,0.033,0 P,0,158147,160257,A
Sprite,Foreground,Centre,"sb\d.png",0,0 M,19,158147,159965,320,248,326.5115,259.2517 F,0,158147,159965,1,0 S,0,158147,159965,0.013,0 P,0,158147,159965,A
Sprite,Foreground,Centre,"sb\d.png",0,0 M,19,158147,160037,320,248,389.423,273.6212 F,0,158147,160037,1,0 S,0,158147,160037,0.074,0 P,0,158147,160037,A
Sprite,Foreground,Centre,"sb\d.png",0,0 M,19,158147,160030,320,248,296.2456,283.8431 F,0,158147,160030,1,0 S,0,158147,160030,0.043,0 P,0,158147,160030,A
Sprite,Foreground,Centre,"sb\d.png",0,0 M,19,158147,160022,320,248,292.364,272.6019 F,0,158147,160022,1,0 S,0,158147,160022,0.037,0 P,0,158147,160022,A
Sprite,Foreground,Centre,"sb\d.png",0,0 M,19,158147,160020,320,248,318.4259,309.98 F,0,158147,160020,1,0 S,0,158147,160020,0.062,0 P,0,158147,160020,A
Sprite,Foreground,Centre,"sb\d.png",0,0 M,19,158147,159874,320,248,390.5142,273.5489 F,0,158147,159874,1,0 S,0,158147,159874,0.075,0 P,0,158147,159874,A
Sprite,Foreground,Centre,"sb\d.png",0,0 M,19,158147,159779,320,248,311.9799,230.7757 F,0,158147,159779,1,0 S,0,158147,159779,0.019,0 P,0,158147,159779,A
Sprite,Foreground,Centre,"sb\d.png",0,0 M,19,158147,160083,320,248,327.3107,219.9366 F,0,158147,160083,1,0 S,0,158147,160083,0.029,0 P,0,158147,160083,A
Sprite,Foreground,Centre,"sb\d.png",0,0 M,19,158147,160110,320,248,304.0803,239.5997 F,0,158147,160110,1,0 S,0,158147,160110,0.018,0 P,0,158147,160110,A
Sprite,Foreground,Centre,"sb\d.png",0,0 M,19,158147,159859,320,248,348.7835,277.1978 F,0,158147,159859,1,0 S,0,158147,159859,0.041,0 P,0,158147,159859,A
Sprite,Foreground,Centre,"sb\d.png",0,0 M,19,158147,159810,320,248,262.2988,260.3115 F,0,158147,159810,1,0 S,0,158147,159810,0.059,0 P,0,158147,159810,A
Sprite,Foreground,Centre,"sb\d.png",0,0 M,19,158147,160129,320,248,346.4748,253.2996 F,0,158147,160129,1,0 S,0,158147,160129,0.027,0 P,0,158147,160129,A
Sprite,Foreground,Centre,"sb\d.png",0,0 M,19,158147,159857,320,248,337.3605,255.721 F,0,158147,159857,1,0 S,0,158147,159857,0.019,0 P,0,158147,159857,A
Sprite,Foreground,Centre,"sb\d.png",0,0 M,19,158147,159731,320,248,355.3598,241.2409 F,0,158147,159731,1,0 S,0,158147,159731,0.036,0 P,0,158147,159731,A
Sprite,Foreground,Centre,"sb\d.png",0,0 M,19,158147,160240,320,248,302.9638,232.5478 F,0,158147,160240,1,0 S,0,158147,160240,0.023,0 P,0,158147,160240,A
Sprite,Foreground,Centre,"sb\d.png",0,0 M,19,158147,159979,320,248,321.7353,193.0274 F,0,158147,159979,1,0 S,0,158147,159979,0.055,0 P,0,158147,159979,A
Sprite,Foreground,Centre,"sb\d.png",0,0 M,19,158147,159575,320,248,271.4074,254.3055 F,0,158147,159575,1,0 S,0,158147,159575,0.049,0 P,0,158147,159575,A
Sprite,Foreground,Centre,"sb\d.png",0,0 M,19,158147,159701,320,248,291.3633,204.5956 F,0,158147,159701,1,0 S,0,158147,159701,0.052,0 P,0,158147,159701,A
Sprite,Foreground,Centre,"sb\d.png",0,0 M,19,158147,160106,320,248,303.987,215.7574 F,0,158147,160106,1,0 S,0,158147,160106,0.036,0 P,0,158147,160106,A
Sprite,Foreground,Centre,"sb\d.png",0,0 M,19,158147,160131,320,248,341.5533,210.7917 F,0,158147,160131,1,0 S,0,158147,160131,0.043,0 P,0,158147,160131,A
Sprite,Foreground,Centre,"sb\d.png",0,0 M,19,158147,159577,320,248,339.8535,232.8066 F,0,158147,159577,1,0 S,0,158147,159577,0.025,0 P,0,158147,159577,A
Sprite,Foreground,Centre,"sb\d.png",0,0 M,19,158147,160034,320,248,323.6194,321.9114 F,0,158147,160034,1,0 S,0,158147,160034,0.074,0 P,0,158147,160034,A
Sprite,Foreground,Centre,"sb\d.png",0,0 M,19,158147,159910,320,248,312.2217,271.7592 F,0,158147,159910,1,0 S,0,158147,159910,0.025,0 P,0,158147,159910,A
Sprite,Foreground,Centre,"sb\d.png",0,0 M,19,158147,160123,320,248,364.1652,182.4986 F,0,158147,160123,1,0 S,0,158147,160123,0.079,0 P,0,158147,160123,A
Sprite,Foreground,Centre,"sb\d.png",0,0 M,19,158147,160098,320,248,378.3271,256.8855 F,0,158147,160098,1,0 S,0,158147,160098,0.059,0 P,0,158147,160098,A
Sprite,Foreground,Centre,"sb\d.png",0,0 M,19,158147,159617,320,248,339.9803,257.2081 F,0,158147,159617,1,0 S,0,158147,159617,0.022,0 P,0,158147,159617,A
Sprite,Foreground,Centre,"sb\d.png",0,0 M,19,158147,159881,320,248,331.6754,182.0251 F,0,158147,159881,1,0 S,0,158147,159881,0.067,0 P,0,158147,159881,A
Sprite,Foreground,Centre,"sb\d.png",0,0 M,19,158147,160188,320,248,341.3135,298.7024 F,0,158147,160188,1,0 S,0,158147,160188,0.055,0 P,0,158147,160188,A
Sprite,Foreground,Centre,"sb\d.png",0,0 M,19,158147,159634,320,248,266.0116,285.9638 F,0,158147,159634,1,0 S,0,158147,159634,0.066,0 P,0,158147,159634,A
Sprite,Foreground,Centre,"sb\d.png",0,0 M,19,158147,160177,320,248,339.0865,276.1373 F,0,158147,160177,1,0 S,0,158147,160177,0.034,0 P,0,158147,160177,A
Sprite,Foreground,Centre,"sb\d.png",0,0 M,19,158147,160024,320,248,345.4544,253.2986 F,0,158147,160024,1,0 S,0,158147,160024,0.026,0 P,0,158147,160024,A
Sprite,Foreground,Centre,"sb\d.png",0,0 M,19,158147,159669,320,248,308.5579,238.3006 F,0,158147,159669,1,0 S,0,158147,159669,0.015,0 P,0,158147,159669,A
Sprite,Foreground,Centre,"sb\d.png",0,0 M,19,158147,159751,320,248,327.3959,283.2321 F,0,158147,159751,1,0 S,0,158147,159751,0.036,0 P,0,158147,159751,A
Sprite,Foreground,Centre,"sb\d.png",0,0 M,19,158147,159865,320,248,309.4032,287.6069 F,0,158147,159865,1,0 S,0,158147,159865,0.041,0 P,0,158147,159865,A
Sprite,Foreground,Centre,"sb\d.png",0,0 M,19,158147,159960,320,248,364.3466,278.812 F,0,158147,159960,1,0 S,0,158147,159960,0.054,0 P,0,158147,159960,A
Sprite,Foreground,Centre,"sb\d.png",0,0 M,19,158147,160190,320,248,329.0581,301.2349 F,0,158147,160190,1,0 S,0,158147,160190,0.054,0 P,0,158147,160190,A
Sprite,Foreground,Centre,"sb\d.png",0,0 M,19,158147,159701,320,248,271.8873,267.7274 F,0,158147,159701,1,0 S,0,158147,159701,0.052,0 P,0,158147,159701,A
Sprite,Foreground,Centre,"sb\d.png",0,0 M,19,158147,160022,320,248,315.4396,235.8261 F,0,158147,160022,1,0 S,0,158147,160022,0.013,0 P,0,158147,160022,A
Sprite,Foreground,Centre,"sb\d.png",0,0 M,19,158147,159961,320,248,284.2939,294.9689 F,0,158147,159961,1,0 S,0,158147,159961,0.059,0 P,0,158147,159961,A
Sprite,Foreground,Centre,"sb\d.png",0,0 M,19,158147,159635,320,248,365.2332,298.7735 F,0,158147,159635,1,0 S,0,158147,159635,0.068,0 P,0,158147,159635,A
Sprite,Foreground,Centre,"sb\d.png",0,0 M,19,158147,160171,320,248,301.7401,239.8405 F,0,158147,160171,1,0 S,0,158147,160171,0.02,0 P,0,158147,160171,A
Sprite,Foreground,Centre,"sb\d.png",0,0 M,19,158147,160092,320,248,272.6034,202.0701 F,0,158147,160092,1,0 S,0,158147,160092,0.066,0 P,0,158147,160092,A
Sprite,Foreground,Centre,"sb\d.png",0,0 M,19,158147,160008,320,248,344.0204,277.4452 F,0,158147,160008,1,0 S,0,158147,160008,0.038,0 P,0,158147,160008,A
Sprite,Foreground,Centre,"sb\d.png",0,0 M,19,158147,160122,320,248,266.2163,204.776 F,0,158147,160122,1,0 S,0,158147,160122,0.069,0 P,0,158147,160122,A
Sprite,Foreground,Centre,"sb\d.png",0,0 M,19,158147,159818,320,248,336.1798,207.0828 F,0,158147,159818,1,0 S,0,158147,159818,0.044,0 P,0,158147,159818,A
Sprite,Foreground,Centre,"sb\d.png",0,0 M,19,158147,159566,320,248,335.8354,250.2888 F,0,158147,159566,1,0 S,0,158147,159566,0.016,0 P,0,158147,159566,A
Sprite,Foreground,CentreLeft,"sb\f\c\0053.png",185.775,219.9075 F,0,67794,,1 V,19,67794,68499,0,0.35,0.35,0.35 F,0,70000,,0
Sprite,Foreground,CentreRight,"sb\f\c\0053.png",212.025,219.9075 F,0,70000,,1 V,18,70000,70706,0.35,0.35,0,0.35 F,0,70706,,0
Sprite,Foreground,CentreLeft,"sb\f\c\0054.png",212.025,219.9075 F,0,67823,,1 V,19,67823,68529,0,0.35,0.35,0.35 F,0,70029,,0
Sprite,Foreground,CentreRight,"sb\f\c\0054.png",236.525,219.9075 F,0,70029,,1 V,18,70029,70735,0.35,0.35,0,0.35 F,0,70735,,0
Sprite,Foreground,CentreLeft,"sb\f\c\004f.png",236.525,219.9075 F,0,67852,,1 V,19,67852,68558,0,0.35,0.35,0.35 F,0,70059,,0
Sprite,Foreground,CentreRight,"sb\f\c\004f.png",269.075,219.9075 F,0,70059,,1 V,18,70059,70765,0.35,0.35,0,0.35 F,0,70765,,0
Sprite,Foreground,CentreLeft,"sb\f\c\004e.png",269.075,219.9075 F,0,67882,,1 V,19,67882,68588,0,0.35,0.35,0.35 F,0,70088,,0
Sprite,Foreground,CentreRight,"sb\f\c\004e.png",300.575,219.9075 F,0,70088,,1 V,18,70088,70794,0.35,0.35,0,0.35 F,0,70794,,0
Sprite,Foreground,CentreLeft,"sb\f\c\0045.png",300.575,219.9075 F,0,67911,,1 V,19,67911,68617,0,0.35,0.35,0.35 F,0,70118,,0
Sprite,Foreground,CentreRight,"sb\f\c\0045.png",325.775,219.9075 F,0,70118,,1 V,18,70118,70823,0.35,0.35,0,0.35 F,0,70823,,0
Sprite,Foreground,CentreLeft,"sb\f\c\0042.png",325.775,219.9075 F,0,67941,,1 V,19,67941,68646,0,0.35,0.35,0.35 F,0,70147,,0
Sprite,Foreground,CentreRight,"sb\f\c\0042.png",353.425,219.9075 F,0,70147,,1 V,18,70147,70853,0.35,0.35,0,0.35 F,0,70853,,0
Sprite,Foreground,CentreLeft,"sb\f\c\0041.png",353.425,219.9075 F,0,67970,,1 V,19,67970,68676,0,0.35,0.35,0.35 F,0,70176,,0
Sprite,Foreground,CentreRight,"sb\f\c\0041.png",383.525,219.9075 F,0,70176,,1 V,18,70176,70882,0.35,0.35,0,0.35 F,0,70882,,0
Sprite,Foreground,CentreLeft,"sb\f\c\004e.png",383.525,219.9075 F,0,67999,,1 V,19,67999,68705,0,0.35,0.35,0.35 F,0,70206,,0
Sprite,Foreground,CentreRight,"sb\f\c\004e.png",415.025,219.9075 F,0,70206,,1 V,18,70206,70912,0.35,0.35,0,0.35 F,0,70912,,0
Sprite,Foreground,CentreLeft,"sb\f\c\004b.png",415.025,219.9075 F,0,68029,,1 V,19,68029,68735,0,0.35,0.35,0.35 F,0,70235,,0
Sprite,Foreground,CentreRight,"sb\f\c\004b.png",443.725,219.9075 F,0,70235,,1 V,18,70235,70941,0.35,0.35,0,0.35 F,0,70941,,0
Sprite,Foreground,CentreLeft,"sb\f\c\0042.png",85.54999,258.465 F,0,67794,,1 V,19,67794,68499,0,0.3,0.3,0.3 F,0,69676,,0
Sprite,Foreground,CentreRight,"sb\f\c\0042.png",109.25,258.465 F,0,69676,,1 V,18,69676,70382,0.3,0.3,0,0.3 F,0,70382,,0
Sprite,Foreground,CentreLeft,"sb\f\c\0065.png",109.25,258.465 F,0,67823,,1 V,19,67823,68529,0,0.3,0.3,0.3 F,0,69706,,0
Sprite,Foreground,CentreRight,"sb\f\c\0065.png",130.85,258.465 F,0,69706,,1 V,18,69706,70412,0.3,0.3,0,0.3 F,0,70412,,0
Sprite,Foreground,CentreLeft,"sb\f\c\0041.png",145.85,258.465 F,0,67852,,1 V,19,67852,68558,0,0.3,0.3,0.3 F,0,69735,,0
Sprite,Foreground,CentreRight,"sb\f\c\0041.png",171.65,258.465 F,0,69735,,1 V,18,69735,70441,0.3,0.3,0,0.3 F,0,70441,,0
Sprite,Foreground,CentreLeft,"sb\f\c\006c.png",171.65,258.465 F,0,67882,,1 V,19,67882,68588,0,0.3,0.3,0.3 F,0,69765,,0
Sprite,Foreground,CentreRight,"sb\f\c\006c.png",186.65,258.465 F,0,69765,,1 V,18,69765,70471,0.3,0.3,0,0.3 F,0,70471,,0
Sprite,Foreground,CentreLeft,"sb\f\c\0072.png",186.65,258.465 F,0,67911,,1 V,19,67911,68617,0,0.3,0.3,0.3 F,0,69794,,0
Sprite,Foreground,CentreRight,"sb\f\c\0072.png",205.55,258.465 F,0,69794,,1 V,18,69794,70500,0.3,0.3,0,0.3 F,0,70500,,0
Sprite,Foreground,CentreLeft,"sb\f\c\0069.png",205.55,258.465 F,0,67941,,1 V,19,67941,68646,0,0.3,0.3,0.3 F,0,69823,,0
Sprite,Foreground,CentreRight,"sb\f\c\0069.png",220.85,258.465 F,0,69823,,1 V,18,69823,70529,0.3,0.3,0,0.3 F,0,70529,,0
Sprite,Foreground,CentreLeft,"sb\f\c\0067.png",220.85,258.465 F,0,67970,,1 V,19,67970,68676,0,0.3,0.3,0.3 F,0,69853,,0
Sprite,Foreground,CentreRight,"sb\f\c\0067.png",243.65,258.465 F,0,69853,,1 V,18,69853,70559,0.3,0.3,0,0.3 F,0,70559,,0
Sprite,Foreground,CentreLeft,"sb\f\c\0068.png",243.65,258.465 F,0,67999,,1 V,19,67999,68705,0,0.3,0.3,0.3 F,0,69882,,0
Sprite,Foreground,CentreRight,"sb\f\c\0068.png",266.45,258.465 F,0,69882,,1 V,18,69882,70588,0.3,0.3,0,0.3 F,0,70588,,0
Sprite,Foreground,CentreLeft,"sb\f\c\0074.png",266.45,258.465 F,0,68029,,1 V,19,68029,68735,0,0.3,0.3,0.3 F,0,69912,,0
Sprite,Foreground,CentreRight,"sb\f\c\0074.png",284.15,258.465 F,0,69912,,1 V,18,69912,70618,0.3,0.3,0,0.3 F,0,70618,,0
Sprite,Foreground,CentreLeft,"sb\f\c\0028.png",299.15,258.465 F,0,68058,,1 V,19,68058,68764,0,0.3,0.3,0.3 F,0,69941,,0
Sprite,Foreground,CentreRight,"sb\f\c\0028.png",317.45,258.465 F,0,69941,,1 V,18,69941,70647,0.3,0.3,0,0.3 F,0,70647,,0
Sprite,Foreground,CentreLeft,"sb\f\c\0046.png",317.45,258.465 F,0,68088,,1 V,19,68088,68794,0,0.3,0.3,0.3 F,0,69971,,0
Sprite,Foreground,CentreRight,"sb\f\c\0046.png",338.45,258.465 F,0,69971,,1 V,18,69971,70676,0.3,0.3,0,0.3 F,0,70676,,0
Sprite,Foreground,CentreLeft,"sb\f\c\0065.png",338.45,258.465 F,0,68117,,1 V,19,68117,68823,0,0.3,0.3,0.3 F,0,70000,,0
Sprite,Foreground,CentreRight,"sb\f\c\0065.png",360.05,258.465 F,0,70000,,1 V,18,70000,70706,0.3,0.3,0,0.3 F,0,70706,,0
Sprite,Foreground,CentreLeft,"sb\f\c\0061.png",360.05,258.465 F,0,68146,,1 V,19,68146,68852,0,0.3,0.3,0.3 F,0,70029,,0
Sprite,Foreground,CentreRight,"sb\f\c\0061.png",383.45,258.465 F,0,70029,,1 V,18,70029,70735,0.3,0.3,0,0.3 F,0,70735,,0
Sprite,Foreground,CentreLeft,"sb\f\c\0074.png",383.45,258.465 F,0,68176,,1 V,19,68176,68882,0,0.3,0.3,0.3 F,0,70059,,0
Sprite,Foreground,CentreRight,"sb\f\c\0074.png",401.15,258.465 F,0,70059,,1 V,18,70059,70765,0.3,0.3,0,0.3 F,0,70765,,0
Sprite,Foreground,CentreLeft,"sb\f\c\002e.png",401.15,258.465 F,0,68205,,1 V,19,68205,68911,0,0.3,0.3,0.3 F,0,70088,,0
Sprite,Foreground,CentreRight,"sb\f\c\002e.png",416.75,258.465 F,0,70088,,1 V,18,70088,70794,0.3,0.3,0,0.3 F,0,70794,,0
Sprite,Foreground,CentreLeft,"sb\f\c\0045.png",431.75,258.465 F,0,68235,,1 V,19,68235,68941,0,0.3,0.3,0.3 F,0,70118,,0
Sprite,Foreground,CentreRight,"sb\f\c\0045.png",453.35,258.465 F,0,70118,,1 V,18,70118,70823,0.3,0.3,0,0.3 F,0,70823,,0
Sprite,Foreground,CentreLeft,"sb\f\c\004d.png",453.35,258.465 F,0,68264,,1 V,19,68264,68970,0,0.3,0.3,0.3 F,0,70147,,0
Sprite,Foreground,CentreRight,"sb\f\c\004d.png",484.55,258.465 F,0,70147,,1 V,18,70147,70853,0.3,0.3,0,0.3 F,0,70853,,0
Sprite,Foreground,CentreLeft,"sb\f\c\0045.png",484.55,258.465 F,0,68294,,1 V,19,68294,68999,0,0.3,0.3,0.3 F,0,70176,,0
Sprite,Foreground,CentreRight,"sb\f\c\0045.png",506.15,258.465 F,0,70176,,1 V,18,70176,70882,0.3,0.3,0,0.3 F,0,70882,,0
Sprite,Foreground,CentreLeft,"sb\f\c\004c.png",506.15,258.465 F,0,68323,,1 V,19,68323,69029,0,0.3,0.3,0.3 F,0,70206,,0
Sprite,Foreground,CentreRight,"sb\f\c\004c.png",527.15,258.465 F,0,70206,,1 V,18,70206,70912,0.3,0.3,0,0.3 F,0,70912,,0
Sprite,Foreground,CentreLeft,"sb\f\c\0029.png",527.15,258.465 F,0,68352,,1 V,19,68352,69058,0,0.3,0.3,0.3 F,0,70235,,0
Sprite,Foreground,CentreRight,"sb\f\c\0029.png",545.45,258.465 F,0,70235,,1 V,18,70235,70941,0.3,0.3,0,0.3 F,0,70941,,0
Sprite,Foreground,CentreLeft,"sb\f\c\004d.png",229.875,219.9075 F,0,70971,,1 V,19,70971,71676,0,0.35,0.35,0.35 F,0,72911,,0
Sprite,Foreground,CentreRight,"sb\f\c\004d.png",266.275,219.9075 F,0,72911,,1 V,18,72911,73617,0.35,0.35,0,0.35 F,0,73617,,0
Sprite,Foreground,CentreLeft,"sb\f\c\0041.png",266.275,219.9075 F,0,71000,,1 V,19,71000,71706,0,0.35,0.35,0.35 F,0,72941,,0
Sprite,Foreground,CentreRight,"sb\f\c\0041.png",296.375,219.9075 F,0,72941,,1 V,18,72941,73646,0.35,0.35,0,0.35 F,0,73646,,0
Sprite,Foreground,CentreLeft,"sb\f\c\0050.png",296.375,219.9075 F,0,71029,,1 V,19,71029,71735,0,0.35,0.35,0.35 F,0,72970,,0
Sprite,Foreground,CentreRight,"sb\f\c\0050.png",323.675,219.9075 F,0,72970,,1 V,18,72970,73676,0.35,0.35,0,0.35 F,0,73676,,0
Sprite,Foreground,CentreLeft,"sb\f\c\0053.png",323.675,219.9075 F,0,71059,,1 V,19,71059,71765,0,0.35,0.35,0.35 F,0,72999,,0
Sprite,Foreground,CentreRight,"sb\f\c\0053.png",349.925,219.9075 F,0,72999,,1 V,18,72999,73705,0.35,0.35,0,0.35 F,0,73705,,0
Sprite,Foreground,CentreLeft,"sb\f\c\0045.png",349.925,219.9075 F,0,71088,,1 V,19,71088,71794,0,0.35,0.35,0.35 F,0,73029,,0
Sprite,Foreground,CentreRight,"sb\f\c\0045.png",375.125,219.9075 F,0,73029,,1 V,18,73029,73735,0.35,0.35,0,0.35 F,0,73735,,0
Sprite,Foreground,CentreLeft,"sb\f\c\0054.png",375.125,219.9075 F,0,71118,,1 V,19,71118,71823,0,0.35,0.35,0.35 F,0,73058,,0
Sprite,Foreground,CentreRight,"sb\f\c\0054.png",399.625,219.9075 F,0,73058,,1 V,18,73058,73764,0.35,0.35,0,0.35 F,0,73764,,0
Sprite,Foreground,CentreLeft,"sb\f\c\004e.png",243.05,258.465 F,0,70971,,1 V,19,70971,71676,0,0.3,0.3,0.3 F,0,72911,,0
Sprite,Foreground,CentreRight,"sb\f\c\004e.png",270.05,258.465 F,0,72911,,1 V,18,72911,73617,0.3,0.3,0,0.3 F,0,73617,,0
Sprite,Foreground,CentreLeft,"sb\f\c\0068.png",270.05,258.465 F,0,71000,,1 V,19,71000,71706,0,0.3,0.3,0.3 F,0,72941,,0
Sprite,Foreground,CentreRight,"sb\f\c\0068.png",292.85,258.465 F,0,72941,,1 V,18,72941,73646,0.3,0.3,0,0.3 F,0,73646,,0
Sprite,Foreground,CentreLeft,"sb\f\c\0061.png",292.85,258.465 F,0,71029,,1 V,19,71029,71735,0,0.3,0.3,0.3 F,0,72970,,0
Sprite,Foreground,CentreRight,"sb\f\c\0061.png",316.25,258.465 F,0,72970,,1 V,18,72970,73676,0.3,0.3,0,0.3 F,0,73676,,0
Sprite,Foreground,CentreLeft,"sb\f\c\0077.png",316.25,258.465 F,0,71059,,1 V,19,71059,71765,0,0.3,0.3,0.3 F,0,72999,,0
Sprite,Foreground,CentreRight,"sb\f\c\0077.png",342.95,258.465 F,0,72999,,1 V,18,72999,73705,0.3,0.3,0,0.3 F,0,73705,,0
Sprite,Foreground,CentreLeft,"sb\f\c\0061.png",342.95,258.465 F,0,71088,,1 V,19,71088,71794,0,0.3,0.3,0.3 F,0,73029,,0
Sprite,Foreground,CentreRight,"sb\f\c\0061.png",366.35,258.465 F,0,73029,,1 V,18,73029,73735,0.3,0.3,0,0.3 F,0,73735,,0
Sprite,Foreground,CentreLeft,"sb\f\c\006b.png",366.35,258.465 F,0,71118,,1 V,19,71118,71823,0,0.3,0.3,0.3 F,0,73058,,0
Sprite,Foreground,CentreRight,"sb\f\c\006b.png",387.95,258.465 F,0,73058,,1 V,18,73058,73764,0.3,0.3,0,0.3 F,0,73764,,0
Sprite,Foreground,CentreLeft,"sb\f\c\0048.png",256.65,219.9075 F,0,73794,,1 V,19,73794,74499,0,0.35,0.35,0.35 F,0,75794,,0
Sprite,Foreground,CentreRight,"sb\f\c\0048.png",286.05,219.9075 F,0,75794,,1 V,18,75794,76500,0.35,0.35,0,0.35 F,0,76500,,0
Sprite,Foreground,CentreLeft,"sb\f\c\0041.png",286.05,219.9075 F,0,73823,,1 V,19,73823,74529,0,0.35,0.35,0.35 F,0,75823,,0
Sprite,Foreground,CentreRight,"sb\f\c\0041.png",316.15,219.9075 F,0,75823,,1 V,18,75823,76529,0.35,0.35,0,0.35 F,0,76529,,0
Sprite,Foreground,CentreLeft,"sb\f\c\0052.png",316.15,219.9075 F,0,73852,,1 V,19,73852,74558,0,0.35,0.35,0.35 F,0,75853,,0
Sprite,Foreground,CentreRight,"sb\f\c\0052.png",343.45,219.9075 F,0,75853,,1 V,18,75853,76559,0.35,0.35,0,0.35 F,0,76559,,0
Sprite,Foreground,CentreLeft,"sb\f\c\0044.png",343.45,219.9075 F,0,73882,,1 V,19,73882,74588,0,0.35,0.35,0.35 F,0,75882,,0
Sprite,Foreground,CentreRight,"sb\f\c\0044.png",372.85,219.9075 F,0,75882,,1 V,18,75882,76588,0.35,0.35,0,0.35 F,0,76588,,0
Sprite,Foreground,CentreLeft,"sb\f\c\0069.png",244.85,258.465 F,0,73794,,1 V,19,73794,74499,0,0.3,0.3,0.3 F,0,75706,,0
Sprite,Foreground,CentreRight,"sb\f\c\0069.png",260.15,258.465 F,0,75706,,1 V,18,75706,76412,0.3,0.3,0,0.3 F,0,76412,,0
Sprite,Foreground,CentreLeft,"sb\f\c\0079.png",260.15,258.465 F,0,73823,,1 V,19,73823,74529,0,0.3,0.3,0.3 F,0,75735,,0
Sprite,Foreground,CentreRight,"sb\f\c\0079.png",282.35,258.465 F,0,75735,,1 V,18,75735,76441,0.3,0.3,0,0.3 F,0,76441,,0
Sprite,Foreground,CentreLeft,"sb\f\c\0061.png",282.35,258.465 F,0,73852,,1 V,19,73852,74558,0,0.3,0.3,0.3 F,0,75765,,0
Sprite,Foreground,CentreRight,"sb\f\c\0061.png",305.75,258.465 F,0,75765,,1 V,18,75765,76470,0.3,0.3,0,0.3 F,0,76470,,0
Sprite,Foreground,CentreLeft,"sb\f\c\0073.png",305.75,258.465 F,0,73882,,1 V,19,73882,74588,0,0.3,0.3,0.3 F,0,75794,,0
Sprite,Foreground,CentreRight,"sb\f\c\0073.png",326.45,258.465 F,0,75794,,1 V,18,75794,76500,0.3,0.3,0,0.3 F,0,76500,,0
Sprite,Foreground,CentreLeft,"sb\f\c\0069.png",326.45,258.465 F,0,73911,,1 V,19,73911,74617,0,0.3,0.3,0.3 F,0,75823,,0
Sprite,Foreground,CentreRight,"sb\f\c\0069.png",341.75,258.465 F,0,75823,,1 V,18,75823,76529,0.3,0.3,0,0.3 F,0,76529,,0
Sprite,Foreground,CentreLeft,"sb\f\c\006e.png",341.75,258.465 F,0,73941,,1 V,19,73941,74646,0,0.3,0.3,0.3 F,0,75853,,0
Sprite,Foreground,CentreRight,"sb\f\c\006e.png",364.55,258.465 F,0,75853,,1 V,18,75853,76559,0.3,0.3,0,0.3 F,0,76559,,0
Sprite,Foreground,CentreLeft,"sb\f\c\0065.png",364.55,258.465 F,0,73970,,1 V,19,73970,74676,0,0.3,0.3,0.3 F,0,75882,,0
Sprite,Foreground,CentreRight,"sb\f\c\0065.png",386.15,258.465 F,0,75882,,1 V,18,75882,76588,0.3,0.3,0,0.3 F,0,76588,,0
Sprite,Foreground,CentreLeft,"sb\f\c\0053.png",171.25,219.9075 F,0,76618,,1 V,19,76618,77323,0,0.35,0.35,0.35 F,0,78088,,0
Sprite,Foreground,CentreRight,"sb\f\c\0053.png",197.5,219.9075 F,0,78088,,1 V,18,78088,78793,0.35,0.35,0,0.35 F,0,78793,,0
Sprite,Foreground,CentreLeft,"sb\f\c\0054.png",197.5,219.9075 F,0,76647,,1 V,19,76647,77353,0,0.35,0.35,0.35 F,0,78117,,0
Sprite,Foreground,CentreRight,"sb\f\c\0054.png",222,219.9075 F,0,78117,,1 V,18,78117,78823,0.35,0.35,0,0.35 F,0,78823,,0
Sprite,Foreground,CentreLeft,"sb\f\c\004f.png",222,219.9075 F,0,76676,,1 V,19,76676,77382,0,0.35,0.35,0.35 F,0,78146,,0
Sprite,Foreground,CentreRight,"sb\f\c\004f.png",254.55,219.9075 F,0,78146,,1 V,18,78146,78852,0.35,0.35,0,0.35 F,0,78852,,0
Sprite,Foreground,CentreLeft,"sb\f\c\0052.png",254.55,219.9075 F,0,76706,,1 V,19,76706,77412,0,0.35,0.35,0.35 F,0,78176,,0
Sprite,Foreground,CentreRight,"sb\f\c\0052.png",281.85,219.9075 F,0,78176,,1 V,18,78176,78882,0.35,0.35,0,0.35 F,0,78882,,0
Sprite,Foreground,CentreLeft,"sb\f\c\0059.png",281.85,219.9075 F,0,76735,,1 V,19,76735,77441,0,0.35,0.35,0.35 F,0,78205,,0
Sprite,Foreground,CentreRight,"sb\f\c\0059.png",311.25,219.9075 F,0,78205,,1 V,18,78205,78911,0.35,0.35,0,0.35 F,0,78911,,0
Sprite,Foreground,CentreLeft,"sb\f\c\0042.png",311.25,219.9075 F,0,76765,,1 V,19,76765,77470,0,0.35,0.35,0.35 F,0,78235,,0
Sprite,Foreground,CentreRight,"sb\f\c\0042.png",338.9,219.9075 F,0,78235,,1 V,18,78235,78940,0.35,0.35,0,0.35 F,0,78940,,0
Sprite,Foreground,CentreLeft,"sb\f\c\004f.png",338.9,219.9075 F,0,76794,,1 V,19,76794,77500,0,0.35,0.35,0.35 F,0,78264,,0
Sprite,Foreground,CentreRight,"sb\f\c\004f.png",371.45,219.9075 F,0,78264,,1 V,18,78264,78970,0.35,0.35,0,0.35 F,0,78970,,0
Sprite,Foreground,CentreLeft,"sb\f\c\0041.png",371.45,219.9075 F,0,76823,,1 V,19,76823,77529,0,0.35,0.35,0.35 F,0,78293,,0
Sprite,Foreground,CentreRight,"sb\f\c\0041.png",401.55,219.9075 F,0,78293,,1 V,18,78293,78999,0.35,0.35,0,0.35 F,0,78999,,0
Sprite,Foreground,CentreLeft,"sb\f\c\0052.png",401.55,219.9075 F,0,76853,,1 V,19,76853,77559,0,0.35,0.35,0.35 F,0,78323,,0
Sprite,Foreground,CentreRight,"sb\f\c\0052.png",428.8499,219.9075 F,0,78323,,1 V,18,78323,79029,0.35,0.35,0,0.35 F,0,79029,,0
Sprite,Foreground,CentreLeft,"sb\f\c\0044.png",428.8499,219.9075 F,0,76882,,1 V,19,76882,77588,0,0.35,0.35,0.35 F,0,78352,,0
Sprite,Foreground,CentreRight,"sb\f\c\0044.png",458.2499,219.9075 F,0,78352,,1 V,18,78352,79058,0.35,0.35,0,0.35 F,0,79058,,0
Sprite,Foreground,CentreLeft,"sb\f\c\0048.png",167.15,258.465 F,0,76618,,1 V,19,76618,77323,0,0.3,0.3,0.3 F,0,78029,,0
Sprite,Foreground,CentreRight,"sb\f\c\0048.png",192.35,258.465 F,0,78029,,1 V,18,78029,78735,0.3,0.3,0,0.3 F,0,78735,,0
Sprite,Foreground,CentreLeft,"sb\f\c\006f.png",192.35,258.465 F,0,76647,,1 V,19,76647,77353,0,0.3,0.3,0.3 F,0,78058,,0
Sprite,Foreground,CentreRight,"sb\f\c\006f.png",214.85,258.465 F,0,78058,,1 V,18,78058,78764,0.3,0.3,0,0.3 F,0,78764,,0
Sprite,Foreground,CentreLeft,"sb\f\c\006b.png",214.85,258.465 F,0,76676,,1 V,19,76676,77382,0,0.3,0.3,0.3 F,0,78088,,0
Sprite,Foreground,CentreRight,"sb\f\c\006b.png",236.45,258.465 F,0,78088,,1 V,18,78088,78793,0.3,0.3,0,0.3 F,0,78793,,0
Sprite,Foreground,CentreLeft,"sb\f\c\0069.png",236.45,258.465 F,0,76706,,1 V,19,76706,77412,0,0.3,0.3,0.3 F,0,78117,,0
Sprite,Foreground,CentreRight,"sb\f\c\0069.png",251.75,258.465 F,0,78117,,1 V,18,78117,78823,0.3,0.3,0,0.3 F,0,78823,,0
Sprite,Foreground,CentreLeft,"sb\f\c\0063.png",251.75,258.465 F,0,76735,,1 V,19,76735,77441,0,0.3,0.3,0.3 F,0,78146,,0
Sprite,Foreground,CentreRight,"sb\f\c\0063.png",273.05,258.465 F,0,78146,,1 V,18,78146,78852,0.3,0.3,0,0.3 F,0,78852,,0
Sprite,Foreground,CentreLeft,"sb\f\c\0068.png",273.05,258.465 F,0,76765,,1 V,19,76765,77470,0,0.3,0.3,0.3 F,0,78176,,0
Sprite,Foreground,CentreRight,"sb\f\c\0068.png",295.85,258.465 F,0,78176,,1 V,18,78176,78882,0.3,0.3,0,0.3 F,0,78882,,0
Sprite,Foreground,CentreLeft,"sb\f\c\0069.png",295.85,258.465 F,0,76794,,1 V,19,76794,77500,0,0.3,0.3,0.3 F,0,78205,,0
Sprite,Foreground,CentreRight,"sb\f\c\0069.png",311.15,258.465 F,0,78205,,1 V,18,78205,78911,0.3,0.3,0,0.3 F,0,78911,,0
Sprite,Foreground,CentreLeft,"sb\f\c\0026.png",326.15,258.465 F,0,76823,,1 V,19,76823,77529,0,0.3,0.3,0.3 F,0,78235,,0
Sprite,Foreground,CentreRight,"sb\f\c\0026.png",350.45,258.465 F,0,78235,,1 V,18,78235,78940,0.3,0.3,0,0.3 F,0,78940,,0
Sprite,Foreground,CentreLeft,"sb\f\c\004d.png",365.45,258.465 F,0,76853,,1 V,19,76853,77559,0,0.3,0.3,0.3 F,0,78264,,0
Sprite,Foreground,CentreRight,"sb\f\c\004d.png",396.65,258.465 F,0,78264,,1 V,18,78264,78970,0.3,0.3,0,0.3 F,0,78970,,0
Sprite,Foreground,CentreLeft,"sb\f\c\0075.png",396.65,258.465 F,0,76882,,1 V,19,76882,77588,0,0.3,0.3,0.3 F,0,78293,,0
Sprite,Foreground,CentreRight,"sb\f\c\0075.png",419.45,258.465 F,0,78293,,1 V,18,78293,78999,0.3,0.3,0,0.3 F,0,78999,,0
Sprite,Foreground,CentreLeft,"sb\f\c\006e.png",419.45,258.465 F,0,76912,,1 V,19,76912,77618,0,0.3,0.3,0.3 F,0,78323,,0
Sprite,Foreground,CentreRight,"sb\f\c\006e.png",442.2499,258.465 F,0,78323,,1 V,18,78323,79029,0.3,0.3,0,0.3 F,0,79029,,0
Sprite,Foreground,CentreLeft,"sb\f\c\0065.png",442.2499,258.465 F,0,76941,,1 V,19,76941,77647,0,0.3,0.3,0.3 F,0,78352,,0
Sprite,Foreground,CentreRight,"sb\f\c\0065.png",463.8499,258.465 F,0,78352,,1 V,18,78352,79058,0.3,0.3,0,0.3 F,0,79058,,0
//Storyboard Layer 4 (Overlay)
//Storyboard Sound Samples

[TimingPoints]
30,352.941176470588,4,2,1,40,1,0
10794,-100,4,1,1,50,0,0
11324,-100,4,2,1,40,0,0
16441,-100,4,1,1,50,0,0
16971,-100,4,1,1,30,0,0
18382,-100,4,1,1,40,0,0
19794,-100,4,1,1,50,0,0
24029,-166.666666666667,4,2,2,30,0,0
45206,-125,4,2,2,40,0,0
67794,-100,4,2,3,60,0,0
78735,-100,4,2,2,40,0,0
79088,-100,4,2,2,50,0,0
84735,-100,4,2,2,60,0,0
87559,-100,4,1,1,50,0,0
89147,-100,4,2,2,50,0,0
89677,-100,4,1,1,50,0,0
90382,-100,4,1,1,70,0,1
100088,-100,4,1,1,60,0,0
101677,-100,4,1,1,70,0,1
112971,-100,4,1,1,60,0,0
135559,-100,4,1,1,70,0,1
145265,-100,4,1,1,50,0,0
146853,-100,4,1,1,70,0,1
152500,-100,4,1,1,60,0,0
152853,-133.333333333333,4,2,2,40,0,0
153735,-133.333333333333,4,2,2,30,0,0
158147,-133.333333333333,4,2,2,20,0,0

[Colours]
Combo1 : 202,149,149
Combo2 : 255,255,125
Combo3 : 111,255,255
Combo4 : 255,157,157

[HitObjects]
20,227,30,5,6,0:0:0:0:
20,227,382,1,2,0:0:0:0:
114,111,735,2,0,P|154:104|203:94,1,75,2|0,0:0|0:0,0:0:0:0:
262,147,1088,1,2,0:0:0:0:
262,147,1177,2,0,P|283:204|283:272,1,112.5,0|2,0:0|0:0,0:0:0:0:
285,255,1794,5,2,0:0:0:0:
413,332,2147,2,0,L|388:254,1,75,2|0,0:0|0:0,0:0:0:0:
362,174,2500,1,2,0:0:0:0:
362,174,2588,2,0,L|469:140,1,112.5,0|2,0:0|0:0,0:0:0:0:
469,139,3206,5,2,0:0:0:0:
329,84,3559,2,0,L|249:60,1,75,2|0,0:0|0:0,0:0:0:0:
169,85,3912,1,2,0:0:0:0:
169,85,4000,2,0,P|144:139|131:198,1,112.5,0|2,0:0|0:0,0:0:0:0:
131,190,4618,6,0,L|150:345,2,150,2|2|2,0:0|0:0|0:0,0:0:0:0:
11,98,5677,5,2,0:0:0:0:
11,98,6029,1,2,0:0:0:0:
131,190,6382,2,0,L|230:171,1,75,2|0,0:0|0:0,0:0:0:0:
292,153,6735,1,2,0:0:0:0:
292,153,6824,2,0,P|312:100|324:29,1,112.5,0|2,0:0|0:0,0:0:0:0:
322,45,7441,5,2,0:0:0:0:
199,131,7794,2,0,L|226:222,1,75,2|0,0:0|0:0,0:0:0:0:
277,272,8147,1,2,0:0:0:0:
277,272,8235,2,0,L|391:302,1,112.5,0|2,0:0|0:0,0:0:0:0:
385,300,8853,5,2,0:0:0:0:
244,353,9206,2,0,L|164:331,1,75,2|0,0:0|0:0,0:0:0:0:
118,260,9559,1,2,0:0:0:0:
118,260,9647,2,0,L|9:229,1,112.5,0|2,0:0|0:0,0:0:0:0:
9,229,10265,5,2,0:0:0:0:
9,229,10618,1,2,0:0:0:0:
33,150,10794,2,0,P|47:110|57:75,2,75,2|2|8,0:3|0:0|0:0,0:0:0:0:
90,210,11324,6,0,L|107:287,1,75,6|0,0:0|0:0,0:0:0:0:
150,353,11677,2,0,L|229:335,1,75,2|0,0:0|0:0,0:0:0:0:
261,263,12029,2,0,L|340:245,1,75,2|0,0:0|0:0,0:0:0:0:
381,314,12382,2,0,L|460:296,1,75,2|0,0:0|0:0,0:0:0:0:
366,181,12735,6,0,P|341:213|334:256,1,75,2|0,0:0|0:0,0:0:0:0:
454,297,13088,2,0,P|479:265|486:222,1,75,2|0,0:0|0:0,0:0:0:0:
471,150,13441,2,0,L|452:66,1,75,2|0,0:0|0:0,0:0:0:0:
375,32,13794,1,2,0:0:0:0:
375,32,14147,6,0,P|339:44|298:47,1,75,2|0,0:0|0:0,0:0:0:0:
159,84,14500,2,0,P|201:85|241:73,1,75,2|0,0:0|0:0,0:0:0:0:
298,124,14853,2,0,L|314:197,1,75,2|0,0:0|0:0,0:0:0:0:
229,199,15206,2,0,L|245:272,1,75,2|0,0:0|0:0,0:0:0:0:
133,163,15559,6,0,L|149:236,1,75,2|0,0:0|0:0,0:0:0:0:
56,224,15912,2,0,L|72:297,1,75,2|0,0:0|0:0,0:0:0:0:
72,297,16265,1,2,0:0:0:0:
158,309,16441,2,0,L|150:386,2,75,2|2|8,0:3|0:0|0:0,0:0:0:0:
304,364,16971,6,0,P|265:362|224:347,1,75,8|0,0:0|0:0,0:0:0:0:
158,309,17324,1,8,0:0:0:0:
158,309,17500,1,0,0:0:0:0:
262,267,17677,2,0,L|242:173,1,75,8|0,0:0|0:0,0:0:0:0:
232,112,18029,1,8,0:0:0:0:
232,112,18206,1,0,0:0:0:0:
329,168,18382,6,0,P|366:162|401:151,1,75,8|0,0:0|0:0,0:0:0:0:
464,97,18735,1,8,0:0:0:0:
464,97,18912,1,0,0:0:0:0:
456,209,19088,2,0,L|476:303,1,75,8|0,0:0|0:0,0:0:0:0:
421,349,19441,1,8,0:0:0:0:
421,349,19618,1,0,0:0:0:0:
317,325,19794,6,0,L|272:335,3,37.5,8|0|0|0,0:0|0:0|0:0|0:0,0:0:0:0:
221,285,20147,2,0,L|176:295,3,37.5,8|0|0|0,0:0|0:0|0:0|0:0,0:0:0:0:
162,213,20500,2,0,L|207:203,3,37.5,8|0|0|0,0:0|0:0|0:0|0:0,0:0:0:0:
231,136,20853,2,0,L|276:126,3,37.5,8|0|0|0,0:0|0:0|0:0|0:0,0:0:0:0:
341,74,21382,6,0,L|358:164,2,75,2|0|2,0:2|0:0|0:2,0:0:0:0:
271,14,21912,1,2,0:2:0:0:
193,60,22088,1,2,0:2:0:0:
217,149,22265,1,2,0:2:0:0:
149,209,22441,1,2,0:2:0:0:
63,177,22618,5,4,0:3:0:0:
390,205,24029,6,0,P|410:272|425:346,2,134.999995880127,2|0|2,0:0|0:0|0:0,0:0:0:0:
107,136,26853,6,0,P|150:139|206:117,1,89.9999972534181,2|0,0:0|0:0,0:0:0:0:
195,125,27559,2,0,L|222:30,1,89.9999972534181,2|0,0:0|0:0,0:0:0:0:
219,38,28265,1,2,0:0:0:0:
118,287,29324,6,0,L|171:279,1,44.999998626709,2|0,0:0|0:0,0:0:0:0:
183,268,29677,2,0,L|197:368,1,89.9999972534181,2|0,0:0|0:0,0:0:0:0:
218,359,30206,2,0,P|266:338|312:339,1,89.9999972534181,2|0,0:0|0:0,0:0:0:0:
325,342,30735,2,0,L|420:363,1,89.9999972534181,2|0,0:0|0:0,0:0:0:0:
512,179,31971,5,0,0:0:0:0:
512,179,32147,2,0,L|458:197,1,44.999998626709,2|0,0:0|0:0,0:0:0:0:
447,199,32500,2,0,P|424:146|427:99,1,89.9999972534181,2|0,0:0|0:0,0:0:0:0:
423,114,33206,2,0,B|380:141|332:133|304:97|304:97|277:107|247:84,1,179.999994506836,2|2,0:0|0:0,0:0:0:0:
56,237,34971,5,0,0:0:0:0:
56,237,35324,2,0,P|101:253|153:258,1,89.9999972534181,2|0,0:0|0:0,0:0:0:0:
166,256,35853,2,0,L|250:220,1,89.9999972534181,2|0,0:0|0:0,0:0:0:0:
270,212,36382,2,0,P|296:262|308:314,1,89.9999972534181,2|0,0:0|0:0,0:0:0:0:
304,316,38147,6,0,L|358:301,2,44.999998626709,2|0|0,0:0|0:0|0:0,0:0:0:0:
225,252,38853,2,0,L|243:206,2,44.999998626709,2|0|0,0:0|0:0|0:0,0:0:0:0:
125,261,39559,6,0,L|97:159,2,89.9999972534181,2|0|0,0:0|0:0|0:0,0:0:0:0:
190,336,40618,2,0,L|242:345,1,44.999998626709,2|0,0:0|0:0,0:0:0:0:
258,348,40971,2,0,P|292:371|358:305,2,134.999995880127,2|2|2,0:0|0:0|0:0,0:0:0:0:
256,192,42382,12,4,45206,0:3:0:0:
386,118,45559,5,0,0:0:0:0:
386,118,45735,2,0,P|413:160|416:240,1,120,2|0,0:0|0:0,0:0:0:0:
341,244,46265,2,0,L|328:178,1,60,2|0,0:0|0:0,0:0:0:0:
252,169,46618,2,0,L|274:49,1,120,2|2,0:0|0:0,0:0:0:0:
124,97,47324,2,0,P|97:139|94:219,2,120,2|2|2,0:0|0:0|0:0,0:0:0:0:
272,47,48382,5,0,0:0:0:0:
272,47,48559,2,0,P|340:58|415:57,1,120,2|0,0:0|0:0,0:0:0:0:
453,105,49088,2,0,L|480:170,1,60,2|0,0:0|0:0,0:0:0:0:
481,237,49441,2,0,P|430:230|389:229,1,90,2|0,0:0|0:0,0:0:0:0:
361,235,49794,2,0,P|322:235|293:231,1,60,2|0,0:0|0:0,0:0:0:0:
231,196,50147,1,2,0:0:0:0:
231,196,50500,2,0,P|202:195|162:200,1,60,2|0,0:0|0:0,0:0:0:0:
94,213,50853,5,2,0:0:0:0:
40,66,51206,1,0,0:0:0:0:
40,66,51382,1,2,0:0:0:0:
184,124,51735,1,0,0:0:0:0:
184,124,51912,2,0,L|249:106,1,60,2|0,0:0|0:0,0:0:0:0:
298,54,52265,2,0,P|320:95|299:166,1,120,2|0,0:0|0:0,0:0:0:0:
246,217,52794,2,0,P|212:273|234:339,1,120,2|0,0:0|0:0,0:0:0:0:
290,283,53324,2,0,L|363:302,1,60,2|0,0:0|0:0,0:0:0:0:
424,314,53677,6,0,P|456:258|463:201,1,120,2|0,0:0|0:0,0:0:0:0:
405,152,54206,2,0,P|389:99|405:28,2,120,2|2|2,0:0|0:0|0:0,0:0:0:0:
262,72,55265,1,0,0:0:0:0:
262,72,55441,2,0,P|255:105|247:140,1,60,2|0,0:0|0:0,0:0:0:0:
176,93,55794,2,0,P|169:126|161:161,1,60,2|0,0:0|0:0,0:0:0:0:
90,114,56147,2,0,P|71:179|57:229,1,120,2|8,0:0|0:0,0:0:0:0:
164,342,56853,5,0,0:0:0:0:
164,342,57029,2,0,P|191:294|192:218,1,120,2|0,0:0|0:0,0:0:0:0:
186,152,57559,2,0,L|172:73,1,60,2|0,0:0|0:0,0:0:0:0:
315,90,57912,2,0,P|286:104|256:105,1,60,2|0,0:0|0:0,0:0:0:0:
372,150,58265,2,0,P|390:126|401:98,1,60,2|0,0:0|0:0,0:0:0:0:
465,27,58618,2,0,P|480:87|500:158,1,120,2|2,0:0|0:0,0:0:0:0:
495,143,59324,5,2,0:0:0:0:
434,286,59677,1,0,0:0:0:0:
434,286,59853,2,0,P|373:305|300:331,1,120,2|0,0:0|0:0,0:0:0:0:
246,296,60382,2,0,P|237:261|229:232,1,60,2|0,0:0|0:0,0:0:0:0:
123,194,60735,2,0,P|145:245|144:292,1,90,2|0,0:0|0:0,0:0:0:0:
136,307,61088,2,0,L|77:325,1,60,2|0,0:0|0:0,0:0:0:0:
5,296,61441,1,2,0:0:0:0:
123,194,61794,2,0,L|143:127,1,60,2|0,0:0|0:0,0:0:0:0:
163,61,62147,5,2,0:0:0:0:
16,114,62500,1,0,0:0:0:0:
16,114,62677,1,2,0:0:0:0:
131,218,63029,1,0,0:0:0:0:
131,218,63206,2,0,L|154:286,1,60,2|0,0:0|0:0,0:0:0:0:
196,338,63559,2,0,P|240:346|306:303,1,120,2|0,0:0|0:0,0:0:0:0:
385,324,64088,2,0,P|387:260|348:196,1,120,2|0,0:0|0:0,0:0:0:0:
307,146,64618,2,0,P|274:128|251:114,1,60,2|0,0:0|0:0,0:0:0:0:
256,192,64971,12,0,66382,0:0:0:0:
187,284,67794,6,0,B|256:256|256:256|331:284,2,150,6|2|2,0:1|0:1|0:1,0:0:0:0:
323,104,69029,2,0,B|254:132|254:132|179:104,2,150,2|2|2,0:1|0:1|0:1,0:0:0:0:
462,192,70088,1,2,0:1:0:0:
408,255,70265,2,0,P|380:191|415:123,1,150,2|0,0:1|0:0,0:0:0:0:
414,123,70971,5,2,0:1:0:0:
274,211,71324,1,2,0:1:0:0:
479,73,71853,2,0,P|408:107|328:93,1,150,2|2,0:1|0:1,0:0:0:0:
188,165,72559,2,0,B|87:44,1,150,2|2,0:1|0:1,0:0:0:0:
170,24,73088,2,0,L|27:70,1,150,2|0,0:1|0:0,0:0:0:0:
27,70,73794,5,2,0:1:0:0:
68,229,74147,1,2,0:1:0:0:
265,170,74677,2,0,L|114:139,2,150,2|2|2,0:1|0:1|0:1,0:0:0:0:
399,266,75735,1,2,0:1:0:0:
418,185,75912,2,0,P|432:122|431:33,1,150,2|0,0:1|0:0,0:0:0:0:
431,36,76618,5,2,0:1:0:0:
273,83,76971,1,2,0:1:0:0:
31,137,77500,2,0,P|117:122|177:105,1,150,2|2,0:1|0:1,0:0:0:0:
177,104,78206,5,2,0:1:0:0:
200,182,78382,1,2,0:1:0:0:
180,262,78559,1,2,0:1:0:0:
221,333,78735,2,0,L|296:347,1,75,2|0,0:0|0:0,0:0:0:0:
376,333,79088,6,0,P|389:293|391:243,1,75,4|0,0:1|0:0,0:0:0:0:
323,213,79441,2,0,P|324:175|334:138,1,75,8|0,0:0|0:0,0:0:0:0:
402,94,79794,1,8,0:0:0:0:
402,94,79971,2,0,P|446:83|485:73,1,75,0|8,0:0|0:0,0:0:0:0:
333,139,80324,2,0,L|248:120,1,75,0|8,0:0|0:0,0:0:0:0:
179,103,80677,5,0,0:0:0:0:
98,85,80853,2,0,L|13:66,1,75,8|0,0:0|0:0,0:0:0:0:
166,188,81206,2,0,L|245:203,1,75,8|0,0:0|0:0,0:0:0:0:
83,170,81559,2,0,L|68:249,1,75,8|0,0:0|0:0,0:0:0:0:
179,103,81912,5,8,0:0:0:0:
179,103,82265,2,0,L|194:24,1,75,8|0,0:0|0:0,0:0:0:0:
192,29,82618,1,8,0:0:0:0:
264,81,82794,2,0,P|306:90|344:97,1,75,0|8,0:0|0:0,0:0:0:0:
426,110,83147,1,0,0:0:0:0:
471,283,83500,5,0,0:0:0:0:
471,283,83677,2,0,P|430:274|389:267,1,75,8|0,0:0|0:0,0:0:0:0:
319,326,84029,2,0,L|286:252,1,75,8|0,0:0|0:0,0:0:0:0:
190,268,84382,2,0,L|208:184,1,75,8|0,0:0|0:0,0:0:0:0:
221,106,84735,5,8,0:0:0:0:
221,106,85088,2,0,L|238:27,1,75,8|0,0:0|0:0,0:0:0:0:
236,32,85441,1,8,0:0:0:0:
149,57,85618,2,0,P|106:68|57:72,1,75,0|8,0:0|0:0,0:0:0:0:
1,122,85971,1,0,0:0:0:0:
106,267,86324,5,0,0:0:0:0:
106,267,86500,2,0,P|113:307|116:344,1,75,8|0,0:0|0:0,0:0:0:0:
205,348,86853,2,0,P|201:297|194:260,1,75,8|0,0:0|0:0,0:0:0:0:
277,234,87206,2,0,P|286:280|290:317,1,75,8|0,0:0|0:0,0:0:0:0:
376,332,87559,6,0,L|369:275,3,37.5,8|0|0|0,0:0|0:0|0:0|0:0,0:0:0:0:
443,272,87912,2,0,L|436:215,3,37.5,8|0|0|0,0:0|0:0|0:0|0:0,0:0:0:0:
509,210,88265,2,0,L|502:153,3,37.5,8|0|0|0,0:0|0:0|0:0|0:0,0:0:0:0:
439,134,88618,2,0,L|432:77,3,37.5,8|0|0|0,0:0|0:0|0:0|0:0,0:0:0:0:
339,37,89147,6,0,P|297:45|262:48,2,75,2|0|2,0:0|0:0|0:0,0:0:0:0:
295,131,89677,2,0,P|284:196|311:247,1,112.5,2|0,0:2|0:0,0:0:0:0:
328,257,90029,2,0,L|406:285,1,75,10|0,0:0|0:0,0:0:0:0:
483,272,90382,6,0,L|454:361,1,75,6|0,0:0|0:0,0:0:0:0:
379,362,90735,1,10,0:0:0:0:
200,283,91088,2,0,P|139:306|48:286,1,150,2|10,0:0|0:0,0:0:0:0:
11,221,91618,2,0,P|35:178|55:136,1,75,0|2,0:0|0:0,0:0:0:0:
108,100,91971,2,0,L|187:84,1,75,0|10,0:0|0:0,0:0:0:0:
294,145,92324,2,0,P|257:161|220:162,1,75,0|2,0:0|0:0,0:0:0:0:
208,62,92677,1,0,0:0:0:0:
350,75,92853,2,0,P|420:93|486:103,1,112.5,10|0,0:0|0:0,0:0:0:0:
471,128,93206,6,0,P|470:170|461:212,1,75,2|0,0:0|0:0,0:0:0:0:
415,269,93559,1,10,0:0:0:0:
260,149,93912,2,0,P|263:215|278:301,1,150,2|10,0:0|0:0,0:0:0:0:
277,297,94441,2,0,P|288:339|292:371,1,75,0|2,0:0|0:0,0:0:0:0:
159,359,94794,2,0,P|174:325|184:289,1,75,0|10,0:0|0:0,0:0:0:0:
100,247,95147,2,0,P|79:278|51:304,1,75,0|2,0:0|0:0,0:0:0:0:
7,217,95500,1,0,0:0:0:0:
81,154,95677,2,0,L|60:31,1,112.5,10|0,0:0|0:0,0:0:0:0:
90,42,96029,6,0,P|133:38|164:31,1,75,2|0,0:0|0:0,0:0:0:0:
245,46,96382,1,10,0:0:0:0:
466,187,96735,2,0,P|387:202|309:151,1,150,2|10,0:0|0:0,0:0:0:0:
263,118,97265,2,0,P|254:83|241:31,1,75,0|2,0:0|0:0,0:0:0:0:
105,127,97618,2,0,L|187:105,1,75,0|10,0:0|0:0,0:0:0:0:
173,200,97971,2,0,P|185:237|193:281,1,75,0|2,0:0|0:0,0:0:0:0:
148,346,98324,1,0,0:0:0:0:
266,307,98500,2,0,L|404:334,1,112.5,10|0,0:0|0:0,0:0:0:0:
400,311,98853,6,0,P|414:272|419:230,1,75,2|0,0:0|0:0,0:0:0:0:
417,156,99206,1,10,0:0:0:0:
276,20,99559,2,0,P|260:87|249:172,1,150,2|10,0:0|0:0,0:0:0:0:
173,200,100088,1,2,0:2:0:0:
365,228,100441,1,2,0:2:0:0:
173,200,100794,5,2,0:2:0:0:
92,240,100971,1,0,0:0:0:0:
143,313,101147,1,8,0:0:0:0:
225,275,101324,1,2,0:0:0:0:
225,275,101500,1,0,0:0:0:0:
173,200,101677,6,0,L|198:114,1,75,6|0,0:0|0:0,0:0:0:0:
215,48,102029,1,10,0:0:0:0:
316,214,102382,2,0,P|383:251|460:230,1,150,2|10,0:0|0:0,0:0:0:0:
495,165,102912,2,0,L|420:153,1,75,0|2,0:0|0:0,0:0:0:0:
349,56,103265,2,0,P|397:57|424:68,1,75,0|10,0:0|0:0,0:0:0:0:
296,129,103618,2,0,L|213:114,1,75,0|2,0:0|0:0,0:0:0:0:
137,68,103971,1,0,0:0:0:0:
50,113,104147,2,0,P|14:168|13:219,1,112.5,10|0,0:0|0:0,0:0:0:0:
17,243,104500,6,0,P|30:286|38:334,1,75,2|0,0:0|0:0,0:0:0:0:
110,355,104853,1,10,0:0:0:0:
298,304,105206,2,0,P|222:291|132:272,1,150,2|10,0:0|0:0,0:0:0:0:
150,276,105735,2,0,L|128:189,1,75,0|2,0:0|0:0,0:0:0:0:
291,185,106088,2,0,P|247:201|216:209,1,75,0|10,0:0|0:0,0:0:0:0:
165,58,106441,2,0,L|183:130,1,75,0|2,0:0|0:0,0:0:0:0:
207,211,106794,1,0,0:0:0:0:
238,290,106971,2,0,P|299:325|358:307,1,112.5,10|0,0:0|0:0,0:0:0:0:
366,306,107324,6,0,L|444:319,1,75,2|0,0:0|0:0,0:0:0:0:
502,262,107677,1,10,0:0:0:0:
366,120,108029,2,0,P|286:133|204:123,1,150,2|10,0:0|0:0,0:0:0:0:
165,58,108559,2,0,L|72:40,1,75,0|2,0:0|0:0,0:0:0:0:
250,49,108912,2,0,L|327:19,1,75,0|10,0:0|0:0,0:0:0:0:
217,126,109265,2,0,L|232:203,1,75,0|2,0:0|0:0,0:0:0:0:
174,265,109618,1,0,0:0:0:0:
312,229,109794,2,0,P|335:290|300:350,1,112.5,10|0,0:0|0:0,0:0:0:0:
298,353,110147,6,0,P|261:362|212:376,1,75,2|0,0:0|0:0,0:0:0:0:
144,349,110500,1,10,0:0:0:0:
6,207,110853,2,0,P|86:155|165:165,1,150,2|10,0:0|0:0,0:0:0:0:
217,126,111382,2,0,L|298:143,1,75
383,123,111735,5,2,2:0:0:0:
321,28,111912,1,0,0:0:0:0:
321,28,112088,1,2,2:0:0:0:
207,40,112265,2,0,P|138:35|93:26,1,112.5,2|0,0:2|0:0,0:0:0:0:
66,36,112618,2,0,P|53:70|38:109,1,75,2|0,0:2|0:0,0:0:0:0:
6,207,112971,6,0,P|52:214|91:222,1,75,6|0,0:0|0:0,0:0:0:0:
189,317,113324,2,0,P|117:311|31:287,1,150,10|2,0:0|0:0,0:0:0:0:
6,207,113853,1,0,0:0:0:0:
81,156,114029,2,0,L|156:169,1,75,10|0,0:0|0:0,0:0:0:0:
243,195,114382,2,0,P|265:116|275:42,1,150,2|10,0:0|0:0,0:0:0:0:
184,36,114912,1,0,0:0:0:0:
274,48,115088,2,0,P|314:55|355:61,1,75,2|0,0:0|0:0,0:0:0:0:
467,149,115441,2,0,P|429:143|392:137,1,75,10|0,0:0|0:0,0:0:0:0:
319,216,115794,6,0,P|361:221|400:229,1,75,2|0,0:0|0:0,0:0:0:0:
490,314,116147,2,0,P|424:337|352:305,1,150,10|2,0:0|0:0,0:0:0:0:
319,216,116677,1,0,0:0:0:0:
225,234,116853,2,0,L|150:247,1,75,10|0,0:0|0:0,0:0:0:0:
22,178,117206,2,0,P|76:154|125:158,1,75,2|0,0:0|0:0,0:0:0:0:
163,84,117559,2,0,L|183:156,1,75,10|0,0:0|0:0,0:0:0:0:
151,246,117912,2,0,L|130:318,1,75,2|0,0:0|0:0,0:0:0:0:
254,368,118265,2,0,P|239:322|258:254,1,112.5,10|0,0:0|0:0,0:0:0:0:
268,234,118618,6,0,P|290:187|302:157,1,75,2|0,0:0|0:0,0:0:0:0:
392,132,118971,2,0,P|435:147|463:175,1,75,10|0,0:0|0:0,0:0:0:0:
448,264,119324,2,0,P|434:302|423:336,1,75,2|0,0:0|0:0,0:0:0:0:
327,355,119677,2,0,L|244:369,1,75,10|0,0:0|0:0,0:0:0:0:
159,341,120029,2,0,P|127:263|140:195,1,150,2|10,0:0|0:0,0:0:0:0:
217,82,120559,2,0,P|188:160|133:202,1,150
48,227,121088,1,8,0:0:0:0:
138,200,121265,6,0,L|293:223,1,150
359,161,121794,2,0,P|322:141|287:145,1,75,10|0,0:0|0:0,0:0:0:0:
270,302,122147,2,0,P|307:322|342:318,1,75,2|0,0:0|0:0,0:0:0:0:
407,248,122500,1,10,0:0:0:0:
407,248,122677,1,0,0:0:0:0:
407,248,123029,6,0,L|460:256,2,37.5,0|0|2,0:0|0:0|0:2,0:0:0:0:
317,232,123382,1,0,0:0:0:0:
226,216,123559,1,2,0:2:0:0:
134,200,123735,1,0,0:0:0:0:
134,200,123824,1,0,0:0:0:0:
134,200,123912,2,0,L|112:284,1,75,2|0,0:2|0:0,0:0:0:0:
107,302,124177,5,0,0:0:0:0:
107,302,124265,1,6,0:0:0:0:
306,320,124618,2,0,P|374:334|451:288,1,150,10|2,0:0|0:0,0:0:0:0:
485,218,125147,1,0,0:0:0:0:
417,156,125324,2,0,P|376:126|341:100,1,75,10|0,0:0|0:0,0:0:0:0:
447,64,125677,2,0,L|290:92,1,150,2|10,0:0|0:0,0:0:0:0:
218,51,126206,1,0,0:0:0:0:
188,137,126382,2,0,L|162:213,1,75,2|0,0:0|0:0,0:0:0:0:
27,131,126735,2,0,P|61:146|99:156,1,75,10|0,0:0|0:0,0:0:0:0:
234,232,127088,6,0,P|200:217|162:207,1,75,2|0,0:0|0:0,0:0:0:0:
52,254,127441,2,0,P|100:310|178:299,1,150,10|2,0:0|0:0,0:0:0:0:
261,322,127971,1,0,0:0:0:0:
261,322,128147,2,0,L|342:342,1,75,10|0,0:0|0:0,0:0:0:0:
459,304,128500,2,0,P|418:263|348:259,1,112.5,2|0,0:0|0:0,0:0:0:0:
350,228,128853,2,0,L|312:156,1,75,10|0,0:0|0:0,0:0:0:0:
410,139,129206,2,0,L|372:67,1,75,2|0,0:0|0:0,0:0:0:0:
283,39,129559,2,0,P|231:60|175:69,1,112.5,10|0,0:0|0:0,0:0:0:0:
145,65,129912,6,0,L|55:50,1,75,8|0,0:0|0:0,0:0:0:0:
80,145,130265,2,0,L|6:132,1,75,8|0,0:0|0:0,0:0:0:0:
122,232,130618,2,0,L|195:244,1,75,8|0,0:0|0:0,0:0:0:0:
198,334,130971,2,0,L|271:346,1,75,8|0,0:0|0:0,0:0:0:0:
360,317,131324,6,0,P|374:270|375:232,1,75,8|0,0:0|0:0,0:0:0:0:
332,158,131677,1,8,0:0:0:0:
332,158,131853,1,0,0:0:0:0:
441,96,132029,2,0,P|433:139|432:176,1,75,8|0,0:0|0:0,0:0:0:0:
489,251,132382,1,8,0:0:0:0:
489,251,132559,1,0,0:0:0:0:
431,329,132735,6,0,P|390:330|353:312,1,75,8|0,0:0|0:0,0:0:0:0:
227,237,133088,2,0,P|263:264|282:291,1,75,8|0,0:0|0:0,0:0:0:0:
372,240,133441,2,0,P|400:217|428:174,1,75,8|0,0:0|0:0,0:0:0:0:
441,96,133794,1,8,0:0:0:0:
441,96,133971,1,0,0:0:0:0:
441,96,134853,6,0,P|375:93|322:70,1,112.5,2|0,0:2|0:0,0:0:0:0:
302,74,135206,2,0,L|224:85,1,75,10|0,0:2|0:0,0:0:0:0:
58,108,135559,6,0,L|136:97,1,75,6|0,0:0|0:0,0:0:0:0:
215,87,135912,1,10,0:0:0:0:
379,244,136265,2,0,P|328:206|238:214,1,150,2|10,0:0|0:0,0:0:0:0:
170,253,136794,2,0,P|156:299|143:340,1,75,0|2,0:0|0:0,0:0:0:0:
10,252,137147,2,0,P|49:271|83:272,1,75,0|10,0:0|0:0,0:0:0:0:
152,169,137500,2,0,P|141:131|131:95,1,75,0|2,0:0|0:0,0:0:0:0:
52,16,137853,1,0,0:0:0:0:
127,79,138029,2,0,P|186:90|269:102,1,112.5,10|0,0:0|0:0,0:0:0:0:
268,103,138382,6,0,P|294:72|320:35,1,75,2|0,0:0|0:0,0:0:0:0:
402,42,138735,1,10,0:0:0:0:
262,202,139088,2,0,P|266:274|306:340,1,150,2|10,0:0|0:0,0:0:0:0:
305,339,139618,2,0,P|347:349|387:360,1,75,0|2,0:0|0:0,0:0:0:0:
465,286,139971,2,0,P|423:275|383:264,1,75,0|10,0:0|0:0,0:0:0:0:
335,188,140324,2,0,L|258:202,1,75,0|2,0:0|0:0,0:0:0:0:
164,211,140677,1,0,0:0:0:0:
239,107,140853,2,0,P|294:102|350:85,1,112.5,10|0,0:0|0:0,0:0:0:0:
378,80,141206,6,0,P|402:113|422:156,1,75,2|0,0:0|0:0,0:0:0:0:
447,222,141559,1,10,0:0:0:0:
275,320,141912,2,0,P|190:330|119:276,1,150,2|10,0:0|0:0,0:0:0:0:
79,238,142441,2,0,L|7:217,1,75,0|2,0:0|0:0,0:0:0:0:
137,115,142794,2,0,L|158:199,1,75,0|10,0:0|0:0,0:0:0:0:
0,130,143147,2,0,L|53:76,1,75,0|2,0:0|0:0,0:0:0:0:
120,16,143500,1,0,0:0:0:0:
205,51,143677,2,0,P|256:74|315:95,1,112.5,10|0,0:0|0:0,0:0:0:0:
336,106,144029,6,0,P|383:124|420:140,1,75,2|0,0:0|0:0,0:0:0:0:
483,167,144382,1,10,0:0:0:0:
319,311,144735,2,0,P|279:255|282:177,1,150,2|10,0:0|0:0,0:0:0:0:
336,106,145265,1,2,0:2:0:0:
456,261,145618,1,2,0:2:0:0:
456,261,145971,5,2,0:2:0:0:
377,217,146147,1,0,0:0:0:0:
287,227,146324,1,2,0:2:0:0:
228,294,146500,1,0,0:0:0:0:
228,294,146677,1,2,0:2:0:0:
118,238,146853,6,0,P|154:227|189:216,1,75,6|0,0:0|0:0,0:0:0:0:
244,147,147206,1,10,0:0:0:0:
86,326,147559,2,0,P|49:299|46:186,1,150,2|10,0:0|0:0,0:0:0:0:
75,126,148088,2,0,P|117:110|161:91,1,75,0|2,0:0|0:0,0:0:0:0:
273,215,148441,2,0,P|258:176|239:137,1,75,0|10,0:0|0:0,0:0:0:0:
360,17,148794,2,0,P|318:33|274:52,1,75,0|2,0:0|0:0,0:0:0:0:
202,38,149147,1,0,0:0:0:0:
323,123,149324,2,0,P|376:158|443:148,1,112.5,10|0,0:0|0:0,0:0:0:0:
451,167,149677,6,0,P|468:205|479:246,1,75,2|0,0:0|0:0,0:0:0:0:
486,322,150029,1,10,0:0:0:0:
232,249,150382,2,0,P|313:258|379:230,1,150,2|10,0:0|0:0,0:0:0:0:
375,232,150912,2,0,L|400:312,1,75,0|2,0:0|0:0,0:0:0:0:
451,167,151265,2,0,L|425:86,1,75,0|10,0:0|0:0,0:0:0:0:
283,155,151618,2,0,P|319:148|355:135,1,75,0|2,0:0|0:0,0:0:0:0:
423,73,151971,1,0,0:0:0:0:
375,232,152147,2,0,P|301:258|231:250,1,150,10|2,0:0|0:0,0:0:0:0:
62,99,152853,5,2,0:0:0:0:
62,99,153206,1,2,0:0:0:0:
208,243,153735,2,0,P|229:304|228:360,2,112.500004291535,2|2|2,0:0|0:0|0:0,0:0:0:0:
260,110,154794,1,2,0:0:0:0:
179,151,154971,2,0,L|56:204,1,112.500004291535,2|0,0:0|0:0,0:0:0:0:
184,320,155677,5,2,0:0:0:0:
184,320,156029,2,0,P|264:339|346:309,1,168.750006437302,2|2,0:0|0:0,0:0:0:0:
256,192,156735,12,4,158147,0:0:0:0:
