osu file format v14

[General]
AudioFilename: audio.mp3
AudioLeadIn: 0
PreviewTime: 134324
Countdown: 0
SampleSet: Soft
StackLeniency: 0.6
Mode: 0
LetterboxInBreaks: 0
EpilepsyWarning: 1
WidescreenStoryboard: 1

[Editor]
Bookmarks: 30,11324,22618,33912,45206,56500,67794,79088,90382,101677,112971,124265,135559,146853,158147
DistanceSpacing: 2.3
BeatDivisor: 4
GridSize: 32
TimelineZoom: 1

[Metadata]
Title:Be Alright (feat. EMEL) (Cut Ver.)
TitleUnicode:Be Alright (feat. EMEL) (Cut Ver.)
Artist:Stonebank
ArtistUnicode:Stonebank
Creator:Nhawak
Version:Nhawak & Plaudible's Insane
Source:
Tags:english drum and bass dnb monstercat electronic cataclysm uncaged hard dance edm electro thekoala sylas iyasine plaudible frey asahina momoko m o k o r i alacat hokichi mune
BeatmapID:2408682
BeatmapSetID:1151309

[Difficulty]
HPDrainRate:6
CircleSize:4
OverallDifficulty:7.5
ApproachRate:8.7
SliderMultiplier:1.6
SliderTickRate:1

[Events]
//Background and Video events
0,0,"BG.jpg",0,0
//Break Periods
//Storyboard Layer 0 (Background)
//Storyboard Layer 1 (Fail)
//Storyboard Layer 2 (Pass)
//Storyboard Layer 3 (Foreground)
Sprite,Foreground,Centre,"sb\p.png",0,0 F,0,30,,1 MX,0,30,,610 MY,0,30,,434.55 V,0,30,559,0,25,25,25 R,1,30,1088,0,8.726646 MX,1,471,647,610,536.45 V,0,559,735,25,25,18.75,18.75 V,1,735,1088,18.75,18.75,0,0 F,0,1088,,1 F,0,11324,,1 MX,0,11324,,610 MY,0,11324,,434.55 V,0,11324,11853,0,25,25,25 R,1,11324,12382,0,8.726646 MX,1,11765,11941,610,528.95 V,0,11853,12029,25,25,18.75,18.75 V,1,12029,12382,18.75,18.75,0,0 F,0,12382,,1 F,0,22618,,1 MX,0,22618,,610 MY,0,22618,,434.55 V,0,22618,23147,0,25,25,25 R,1,22618,23676,0,8.726646 MX,1,23059,23235,610,536.45 V,0,23147,23323,25,25,18.75,18.75 V,1,23323,23676,18.75,18.75,0,0 F,0,23676,,1 F,0,33912,,1 MX,0,33912,,610 MY,0,33912,,434.55 V,0,33912,34441,0,25,25,25 R,1,33912,34970,0,8.726646 MX,1,34353,34529,610,528.95 V,0,34441,34617,25,25,18.75,18.75 V,1,34617,34970,18.75,18.75,0,0 F,0,34970,,1 F,0,45206,,1 MX,0,45206,,610 MY,0,45206,,434.55 V,0,45206,45735,0,25,25,25 R,1,45206,46264,0,8.726646 MX,1,45647,45823,610,536.45 V,0,45735,45911,25,25,18.75,18.75 V,1,45911,46264,18.75,18.75,0,0 F,0,46264,,1 F,0,56500,,1 MX,0,56500,,610 MY,0,56500,,434.55 V,0,56500,57029,0,25,25,25 R,1,56500,57558,0,8.726646 MX,1,56941,57117,610,528.95 V,0,57029,57205,25,25,18.75,18.75 V,1,57205,57558,18.75,18.75,0,0 F,0,57558,,1 F,0,67794,,1 MX,0,67794,,610 MY,0,67794,,434.55 V,0,67794,68323,0,25,25,25 R,1,67794,68852,0,8.726646 MX,1,68235,68411,610,536.45 V,0,68323,68499,25,25,18.75,18.75 V,1,68499,68852,18.75,18.75,0,0 F,0,68852,,1 F,0,79088,,1 MX,0,79088,,610 MY,0,79088,,434.55 V,0,79088,79617,0,25,25,25 R,1,79088,80146,0,8.726646 MX,1,79529,79705,610,528.95 V,0,79617,79793,25,25,18.75,18.75 V,1,79793,80146,18.75,18.75,0,0 F,0,80146,,1 F,0,90382,,1 MX,0,90382,,610 MY,0,90382,,434.55 V,0,90382,90911,0,25,25,25 R,1,90382,91440,0,8.726646 MX,1,90823,90999,610,536.45 V,0,90911,91087,25,25,18.75,18.75 V,1,91087,91440,18.75,18.75,0,0 F,0,91440,,1 F,0,101677,,1 MX,0,101677,,610 MY,0,101677,,434.55 V,0,101677,102206,0,25,25,25 R,1,101677,102735,0,8.726646 MX,1,102118,102294,610,528.95 V,0,102206,102382,25,25,18.75,18.75 V,1,102382,102735,18.75,18.75,0,0 F,0,102735,,1 F,0,112971,,1 MX,0,112971,,610 MY,0,112971,,434.55 V,0,112971,113500,0,25,25,25 R,1,112971,114029,0,8.726646 MX,1,113412,113588,610,536.45 V,0,113500,113676,25,25,18.75,18.75 V,1,113676,114029,18.75,18.75,0,0 F,0,114029,,1 F,0,124265,,1 MX,0,124265,,610 MY,0,124265,,434.55 V,0,124265,124794,0,25,25,25 R,1,124265,125323,0,8.726646 MX,1,124706,124882,610,528.95 V,0,124794,124970,25,25,18.75,18.75 V,1,124970,125323,18.75,18.75,0,0 F,0,125323,,1 F,0,135559,,1 MX,0,135559,,610 MY,0,135559,,434.55 V,0,135559,136088,0,25,25,25 R,1,135559,136617,0,8.726646 MX,1,136000,136176,610,536.45 V,0,136088,136264,25,25,18.75,18.75 V,1,136264,136617,18.75,18.75,0,0 F,0,136617,,1 F,0,146853,,1 MX,0,146853,,610 MY,0,146853,,434.55 V,0,146853,147382,0,25,25,25 R,1,146853,147911,0,8.726646 MX,1,147294,147470,610,528.95 V,0,147382,147558,25,25,18.75,18.75 V,1,147558,147911,18.75,18.75,0,0 F,0,147911,,1
Sprite,Foreground,Centre,"sb\p.png",0,0 F,0,30,,1 MX,0,30,,610 MY,0,30,,434.55 V,0,30,559,0,25,25,25 R,1,30,1088,0,8.726646 MX,1,471,647,610,683.55 V,0,559,735,25,25,18.75,18.75 V,1,735,1088,18.75,18.75,0,0 F,0,1088,,1 F,0,11324,,1 MX,0,11324,,610 MY,0,11324,,434.55 V,0,11324,11853,0,25,25,25 R,1,11324,12382,0,8.726646 MX,1,11765,11941,610,691.05 V,0,11853,12029,25,25,18.75,18.75 V,1,12029,12382,18.75,18.75,0,0 F,0,12382,,1 F,0,22618,,1 MX,0,22618,,610 MY,0,22618,,434.55 V,0,22618,23147,0,25,25,25 R,1,22618,23676,0,8.726646 MX,1,23059,23235,610,683.55 V,0,23147,23323,25,25,18.75,18.75 V,1,23323,23676,18.75,18.75,0,0 F,0,23676,,1 F,0,33912,,1 MX,0,33912,,610 MY,0,33912,,434.55 V,0,33912,34441,0,25,25,25 R,1,33912,34970,0,8.726646 MX,1,34353,34529,610,691.05 V,0,34441,34617,25,25,18.75,18.75 V,1,34617,34970,18.75,18.75,0,0 F,0,34970,,1 F,0,45206,,1 MX,0,45206,,610 MY,0,45206,,434.55 V,0,45206,45735,0,25,25,25 R,1,45206,46264,0,8.726646 MX,1,45647,45823,610,683.55 V,0,45735,45911,25,25,18.75,18.75 V,1,45911,46264,18.75,18.75,0,0 F,0,46264,,1 F,0,56500,,1 MX,0,56500,,610 MY,0,56500,,434.55 V,0,56500,57029,0,25,25,25 R,1,56500,57558,0,8.726646 MX,1,56941,57117,610,691.05 V,0,57029,57205,25,25,18.75,18.75 V,1,57205,57558,18.75,18.75,0,0 F,0,57558,,1 F,0,67794,,1 MX,0,67794,,610 MY,0,67794,,434.55 V,0,67794,68323,0,25,25,25 R,1,67794,68852,0,8.726646 MX,1,68235,68411,610,683.55 V,0,68323,68499,25,25,18.75,18.75 V,1,68499,68852,18.75,18.75,0,0 F,0,68852,,1 F,0,79088,,1 MX,0,79088,,610 MY,0,79088,,434.55 V,0,79088,79617,0,25,25,25 R,1,79088,80146,0,8.726646 MX,1,79529,79705,610,691.05 V,0,79617,79793,25,25,18.75,18.75 V,1,79793,80146,18.75,18.75,0,0 F,0,80146,,1 F,0,90382,,1 MX,0,90382,,610 MY,0,90382,,434.55 V,0,90382,90911,0,25,25,25 R,1,90382,91440,0,8.726646 MX,1,90823,90999,610,683.55 V,0,90911,91087,25,25,18.75,18.75 V,1,91087,91440,18.75,18.75,0,0 F,0,91440,,1 F,0,101677,,1 MX,0,101677,,610 MY,0,101677,,434.55 V,0,101677,102206,0,25,25,25 R,1,101677,102735,0,8.726646 MX,1,102118,102294,610,691.05 V,0,102206,102382,25,25,18.75,18.75 V,1,102382,102735,18.75,18.75,0,0 F,0,102735,,1 F,0,112971,,1 MX,0,112971,,610 MY,0,112971,,434.55 V,0,112971,113500,0,25,25,25 R,1,112971,114029,0,8.726646 MX,1,113412,113588,610,683.55 V,0,113500,113676,25,25,18.75,18.75 V,1,113676,114029,18.75,18.75,0,0 F,0,114029,,1 F,0,124265,,1 MX,0,124265,,610 MY,0,124265,,434.55 V,0,124265,124794,0,25,25,25 R,1,124265,125323,0,8.726646 MX,1,124706,124882,610,691.05 V,0,124794,124970,25,25,18.75,18.75 V,1,124970,125323,18.75,18.75,0,0 F,0,125323,,1 F,0,135559,,1 MX,0,135559,,610 MY,0,135559,,434.55 V,0,135559,136088,0,25,25,25 R,1,135559,136617,0,8.726646 MX,1,136000,136176,610,683.55 V,0,136088,136264,25,25,18.75,18.75 V,1,136264,136617,18.75,18.75,0,0 F,0,136617,,1 F,0,146853,,1 MX,0,146853,,610 MY,0,146853,,434.55 V,0,146853,147382,0,25,25,25 R,1,146853,147911,0,8.726646 MX,1,147294,147470,610,691.05 V,0,147382,147558,25,25,18.75,18.75 V,1,147558,147911,18.75,18.75,0,0 F,0,147911,,1
Sprite,Foreground,Centre,"sb\f\c\_000.png",0,434.55 F,0,260,,1 V,1,471,735,0,0.3,0.3,0.3 F,0,10882,11324,1,0 MX,19,10882,11324,610,645
Sprite,Foreground,Centre,"sb\f\c\_001.png",0,434.55 F,0,260,,1 V,1,11765,12029,0,0.3,0.3,0.3 F,0,22176,22618,1,0 MX,19,22176,22618,610,645
Sprite,Foreground,Centre,"sb\f\c\_000.png",0,434.55 F,0,260,,1 V,1,23059,23323,0,0.3,0.3,0.3 F,0,33470,33912,1,0 MX,19,33470,33912,610,645
Sprite,Foreground,Centre,"sb\f\c\_001.png",0,434.55 F,0,260,,1 V,1,34353,34617,0,0.3,0.3,0.3 F,0,44764,45206,1,0 MX,19,44764,45206,610,645
Sprite,Foreground,Centre,"sb\f\c\_000.png",0,434.55 F,0,260,,1 V,1,45647,45911,0,0.3,0.3,0.3 F,0,56058,56500,1,0 MX,19,56058,56500,610,645
Sprite,Foreground,Centre,"sb\f\c\_001.png",0,434.55 F,0,260,,1 V,1,56941,57205,0,0.3,0.3,0.3 F,0,67352,67794,1,0 MX,19,67352,67794,610,645
Sprite,Foreground,Centre,"sb\f\c\_000.png",0,434.55 F,0,260,,1 V,1,68235,68499,0,0.3,0.3,0.3 F,0,78646,79088,1,0 MX,19,78646,79088,610,645
Sprite,Foreground,Centre,"sb\f\c\_001.png",0,434.55 F,0,260,,1 V,1,79529,79793,0,0.3,0.3,0.3 F,0,89940,90382,1,0 MX,19,89940,90382,610,645
Sprite,Foreground,Centre,"sb\f\c\_000.png",0,434.55 F,0,260,,1 V,1,90823,91087,0,0.3,0.3,0.3 F,0,101235,101677,1,0 MX,19,101235,101677,610,645
Sprite,Foreground,Centre,"sb\f\c\_001.png",0,434.55 F,0,260,,1 V,1,102118,102382,0,0.3,0.3,0.3 F,0,112529,112971,1,0 MX,19,112529,112971,610,645
Sprite,Foreground,Centre,"sb\f\c\_000.png",0,434.55 F,0,260,,1 V,1,113412,113676,0,0.3,0.3,0.3 F,0,123823,124265,1,0 MX,19,123823,124265,610,645
Sprite,Foreground,Centre,"sb\f\c\_001.png",0,434.55 F,0,260,,1 V,1,124706,124970,0,0.3,0.3,0.3 F,0,135117,135559,1,0 MX,19,135117,135559,610,645
Sprite,Foreground,Centre,"sb\f\c\_000.png",0,434.55 F,0,260,,1 V,1,136000,136264,0,0.3,0.3,0.3 F,0,146411,146853,1,0 MX,19,146411,146853,610,645
Sprite,Foreground,Centre,"sb\f\c\_001.png",0,434.55 F,0,260,,1 V,1,147294,147558,0,0.3,0.3,0.3 F,0,157705,158147,1,0 MX,19,157705,158147,610,645
Sprite,Foreground,Centre,"sb\glow.png",0,0 F,0,29,,1 S,0,29,,1 M,16,30,,310,319 M,16,30,382,310,319,142,220 M,30,382,735,142,220,142,419 M,16,735,912,142,419,226,271 M,16,912,1088,226,271 M,0,1088,1132,226,271,225.4879,280.9869 M,0,1132,1176,225.4879,280.9869,224.9757,290.9738 M,30,1176,1441,224.9757,290.9738,391,268 M,16,1441,1793,391,268,224,168 M,30,1793,2146,224,168,224,367 M,16,2146,2323,224,367,309,219 M,16,2323,2500,309,219 M,0,2500,2544,309,219,308.213,228.969 M,0,2544,2588,308.213,228.969,307.426,238.938 M,30,2588,2853,307.426,238.938,474,217 M,16,2853,3205,474,217,306,118 M,30,3205,3558,306,118,310,319 M,16,3558,3735,310,319,390,167 M,16,3735,3912,390,167 M,0,3912,3956,390,167,389.213,176.969 M,0,3956,4000,389.213,176.969,388.426,186.938 M,30,4000,4265,388.426,186.938,556,166 M,16,4265,4617,556,166,388,67 M,30,4617,4970,388,67,388,264 M,16,4970,5147,388,264,473,116 M,16,5147,5324,473,116 M,0,5324,5368,473,116,472.213,125.969 M,0,5368,5412,472.213,125.969,471.426,135.938 M,30,5412,5677,471.426,135.938,471,285 M,0,5677,5721,471,285,466.816,299.3361 M,0,5721,5765,466.816,299.3361,460.287,312.7169 M,0,5765,5809,460.287,312.7169,451.237,324.5497 M,0,5809,5853,451.237,324.5497,440.0174,334.3681 M,0,5853,5897,440.0174,334.3681,427.0639,341.7827 M,0,5897,5941,427.0639,341.7827,412.8808,346.4957 M,16,5941,6029,412.8808,346.4957,413,346 M,0,6029,6073,413,346,398.429,349.2906 M,0,6073,6117,398.429,349.2906,383.5585,350.1554 M,0,6117,6161,383.5585,350.1554,368.7883,348.1615 M,0,6161,6205,368.7883,348.1615,354.6591,343.3775 M,0,6205,6249,354.6591,343.3775,341.69,335.9724 M,0,6249,6293,341.69,335.9724,330.3597,326.2105 M,30,6293,6382,330.3597,326.2105,330,326 M,0,6382,6426,330,326,319.6411,315.3138 M,0,6426,6470,319.6411,315.3138,311.987,302.6435 M,0,6470,6514,311.987,302.6435,307.9152,288.3964 M,0,6514,6558,307.9152,288.3964,307.7182,273.5581 M,30,6558,6735,307.7182,273.5581,342,428 M,0,6735,6779,342,428,330.1054,436.5435 M,0,6779,6823,330.1054,436.5435,316.1413,440.262 M,30,6823,7088,316.1413,440.262,379,228 M,0,7088,7132,379,228,371.4519,240.8825 M,0,7132,7176,371.4519,240.8825,361.8439,252.2507 M,0,7176,7220,361.8439,252.2507,350.1449,261.4709 M,0,7220,7264,350.1449,261.4709,336.8213,268.1678 M,0,7264,7308,336.8213,268.1678,322.4047,272.0648 M,0,7308,7352,322.4047,272.0648,307.4722,272.9947 M,30,7352,7441,307.4722,272.9947,307,273 M,0,7441,7485,307,273,292.084,272.31 M,0,7485,7529,292.084,272.31,277.4976,269.2935 M,0,7529,7573,277.4976,269.2935,263.712,263.5725 M,0,7573,7617,263.712,263.5725,251.5238,254.959 M,0,7617,7661,251.5238,254.959,241.0331,244.4063 M,0,7661,7705,241.0331,244.4063,232.7073,232.0545 M,30,7705,7794,232.7073,232.0545,232,232 M,0,7794,7838,232,232,224.8617,218.9543 M,0,7838,7882,224.8617,218.9543,220.892,204.7081 M,0,7882,7926,220.892,204.7081,220.8781,189.8884 M,0,7926,7970,220.8781,189.8884,224.8441,175.5612 M,16,7970,8146,224.8441,175.5612,216,333 M,0,8146,8190,216,333,202.4243,338.3672 M,0,8190,8234,202.4243,338.3672,188.0302,338.3301 M,30,8234,8500,188.0302,338.3301,306,151 M,0,8500,8544,306,151,294.9605,161.0619 M,0,8544,8588,294.9605,161.0619,282.4579,169.1565 M,0,8588,8632,282.4579,169.1565,268.6251,174.7047 M,0,8632,8676,268.6251,174.7047,253.9706,177.497 M,0,8676,8720,253.9706,177.497,239.0334,177.4236 M,0,8720,8764,239.0334,177.4236,224.3649,174.4783 M,30,8764,8853,224.3649,174.4783,224,174 M,0,8853,8897,224,174,209.7925,169.3795 M,0,8897,8941,209.7925,169.3795,196.5338,162.5813 M,0,8941,8985,196.5338,162.5813,184.7659,153.4253 M,0,8985,9029,184.7659,153.4253,174.9003,142.2249 M,0,9029,9073,174.9003,142.2249,167.2849,129.3638 M,0,9073,9117,167.2849,129.3638,162.1925,115.2841 M,16,9117,9205,162.1925,115.2841,162,115 M,0,9205,9249,162,115,158.195,100.6168 M,0,9249,9293,158.195,100.6168,157.7933,85.82809 M,0,9293,9337,157.7933,85.82809,161.3668,71.45645 M,0,9337,9381,161.3668,71.45645,168.6673,58.54575 M,30,9381,9558,168.6673,58.54575,119,211 M,0,9558,9602,119,211,104.3392,211.7271 M,0,9602,9646,104.3392,211.7271,90.49048,207.4476 M,30,9646,9912,90.49048,207.4476,305,151 M,0,9912,9956,305,151,316.0395,140.9381 M,0,9956,10000,316.0395,140.9381,328.5421,132.8435 M,0,10000,10044,328.5421,132.8435,342.3748,127.2953 M,0,10044,10088,342.3748,127.2953,357.0294,124.503 M,0,10088,10132,357.0294,124.503,371.9666,124.5764 M,0,10132,10176,371.9666,124.5764,386.6351,127.5217 M,16,10176,10264,386.6351,127.5217,387,128 M,0,10264,10308,387,128,401.2075,132.6205 M,0,10308,10352,401.2075,132.6205,414.4662,139.4187 M,0,10352,10396,414.4662,139.4187,426.2341,148.5747 M,0,10396,10440,426.2341,148.5747,436.0997,159.7751 M,0,10440,10484,436.0997,159.7751,443.7151,172.6362 M,0,10484,10528,443.7151,172.6362,448.8075,186.7159 M,30,10528,10618,448.8075,186.7159,449,187 M,16,10618,10794,449,187,468,373 M,16,10794,10971,468,373,297,297 M,16,10971,11147,297,297,403,283 F,15,10971,11324,1,0 S,15,10971,11324,1,0.2
Sprite,Foreground,Centre,"sb\glow.png",0,0 M,16,10971,11147,297,297,403,283 C,0,10971,11147,255,125,125 F,0,11147,,1 S,0,11147,,1 M,16,11147,11324,403,283,357,399 C,0,11147,11324,255,125,125,255,179,142 M,0,11324,11368,357,399,342.0414,400.1139 M,0,11368,11412,342.0414,400.1139,327.0828,401.2279 M,0,11412,11456,327.0828,401.2279,312.1243,402.3418 M,0,11456,11500,312.1243,402.3418,297.1657,403.4557 M,0,11500,11544,297.1657,403.4557,282.2071,404.5697 M,0,11544,11588,282.2071,404.5697,267.2485,405.6836 M,30,11588,11677,267.2485,405.6836,267,405 C,0,11588,11677,255,179,142 M,0,11677,11721,267,405,252.0442,406.1505 M,0,11721,11765,252.0442,406.1505,237.0884,407.3009 M,0,11765,11809,237.0884,407.3009,222.1325,408.4514 M,0,11809,11853,222.1325,408.4514,207.1767,409.6018 M,16,11853,12029,207.1767,409.6018,138,283 C,0,11853,12029,255,179,142,255,255,125 M,0,12029,12073,138,283,153.951,284.251 M,0,12073,12117,153.951,284.251,169.902,285.5021 M,0,12117,12161,169.902,285.5021,185.853,286.7532 M,0,12161,12205,185.853,286.7532,201.804,288.0042 M,0,12205,12249,201.804,288.0042,217.7551,289.2553 M,0,12249,12293,217.7551,289.2553,233.7061,290.5063 M,30,12293,12382,233.7061,290.5063,233,291 C,0,12293,12382,255,255,125 M,0,12382,12426,233,291,248.942,292.3609 M,0,12426,12470,248.942,292.3609,264.884,293.7218 M,0,12470,12514,264.884,293.7218,280.826,295.0827 M,0,12514,12558,280.826,295.0827,296.7681,296.4436 M,30,12558,12735,296.7681,296.4436,473,214 C,0,12558,12735,255,255,125,111,255,255 M,0,12735,12779,473,214,480.0457,198.5533 M,0,12779,12823,480.0457,198.5533,484.7551,182.2497 M,0,12823,12867,484.7551,182.2497,487.0293,165.4392 M,0,12867,12911,487.0293,165.4392,486.8212,148.4825 M,0,12911,12955,486.8212,148.4825,484.1366,131.743 M,0,12955,12999,484.1366,131.743,479.0342,115.5793 M,30,12999,13088,479.0342,115.5793,478,116 C,0,12999,13088,111,255,255 M,0,13088,13132,478,116,461.1207,117.5561 M,0,13132,13176,461.1207,117.5561,444.9978,122.7355 M,0,13176,13220,444.9978,122.7355,430.397,131.2853 M,0,13220,13264,430.397,131.2853,417.8605,142.6777 M,30,13264,13441,417.8605,142.6777,442,364 C,0,13264,13441,111,255,255,255,125,125 M,0,13441,13485,442,364,459.523,367.975 M,0,13485,13529,459.523,367.975,477.4529,368.9592 M,0,13529,13573,477.4529,368.9592,495.2848,366.9283 M,0,13573,13617,495.2848,366.9283,512.5173,361.942 M,0,13617,13661,512.5173,361.942,528.6658,354.143 M,0,13661,13705,528.6658,354.143,543.2764,343.7523 M,30,13705,13794,543.2764,343.7523,543,345 C,0,13705,13794,255,125,125 M,0,13794,13838,543,345,535.2023,328.8198 M,0,13838,13882,535.2023,328.8198,524.384,314.4952 M,0,13882,13926,524.384,314.4952,510.9697,302.5819 M,0,13926,13970,510.9697,302.5819,495.5287,293.4236 M,30,13970,14147,495.5287,293.4236,264,322 C,0,13970,14147,255,125,125,255,179,142 M,0,14147,14191,264,322,263.8268,340.9409 M,0,14191,14235,263.8268,340.9409,267.3461,359.5295 M,0,14235,14279,267.3461,359.5295,274.1559,377.1992 M,0,14279,14323,274.1559,377.1992,284.7306,392.9076 M,0,14323,14367,284.7306,392.9076,298.1512,406.238 M,0,14367,14411,298.1512,406.238,313.7666,416.9502 M,30,14411,14500,313.7666,416.9502,314,418 C,0,14411,14500,255,179,142 M,0,14500,14544,314,418,327.1932,404.386 M,0,14544,14588,327.1932,404.386,337.691,388.6195 M,0,14588,14632,337.691,388.6195,345.1514,371.2229 M,0,14632,14676,345.1514,371.2229,349.5809,352.798 M,30,14676,14853,349.5809,352.798,205,159 C,0,14676,14853,255,179,142,255,255,125 M,0,14853,14897,205,159,186.0033,165.0655 M,0,14897,14941,186.0033,165.0655,168.5152,174.6018 M,0,14941,14985,168.5152,174.6018,152.9855,187.0909 M,0,14985,15029,152.9855,187.0909,140.4822,202.6127 M,0,15029,15073,140.4822,202.6127,131.1467,220.2032 M,0,15073,15117,131.1467,220.2032,125.0701,239.185 M,30,15117,15206,125.0701,239.185,125,239 C,0,15117,15206,255,255,125 M,0,15206,15250,125,239,142.9395,247.7137 M,0,15250,15294,142.9395,247.7137,162.1582,252.9637 M,0,15294,15338,162.1582,252.9637,182.0028,254.7696 M,0,15338,15382,182.0028,254.7696,201.8436,252.6276 M,30,15382,15559,201.8436,252.6276,382,121 C,0,15382,15559,255,255,125,111,255,255 M,0,15559,15603,382,121,369.5528,104.1716 M,0,15603,15647,369.5528,104.1716,354.2742,89.84717 M,0,15647,15691,354.2742,89.84717,336.1581,79.36455 M,0,15691,15735,336.1581,79.36455,316.4386,72.31727 M,0,15735,15779,316.4386,72.31727,295.648,69.91217 M,0,15779,15823,295.648,69.91217,274.7516,71.29099 M,30,15823,15912,274.7516,71.29099,274,71 C,0,15823,15912,111,255,255 M,0,15912,15956,274,71,270.0327,91.51292 M,0,15956,16000,270.0327,91.51292,271.2359,112.3322 M,0,16000,16044,271.2359,112.3322,277.3359,132.2719 M,0,16044,16088,277.3359,132.2719,288.4191,150.0087 M,30,16088,16265,288.4191,150.0087,473,214 C,0,16088,16265,111,255,255,255,125,125 M,16,16265,16441,473,214,531,67 C,0,16265,16441,255,125,125 M,16,16441,16618,531,67,382,121 C,0,16441,16618,255,125,125 M,16,16618,16794,382,121,545,156 C,0,16618,16794,255,125,125 M,16,16794,16971,545,156,382,121 C,0,16794,16971,255,125,125,255,179,142 M,0,16971,17015,382,121,372.519,140.7901 M,0,17015,17059,372.519,140.7901,366.5012,161.8768 M,0,17059,17103,366.5012,161.8768,364.3841,183.7261 M,0,17103,17147,364.3841,183.7261,366.6331,205.5513 M,30,17147,17324,366.6331,205.5513,224,211 C,0,17147,17324,255,179,142 M,0,17324,17368,224,211,225.7666,189.1273 M,0,17368,17412,225.7666,189.1273,224.0162,167.2464 M,0,17412,17456,224.0162,167.2464,217.935,146.1644 M,0,17456,17500,217.935,146.1644,209,127 M,30,17500,17677,209,127,430,276 C,0,17500,17677,255,179,142,255,255,125 M,0,17677,17721,430,276,420.519,295.7901 M,0,17721,17765,420.519,295.7901,414.5012,316.8768 M,0,17765,17809,414.5012,316.8768,412.3841,338.7261 M,0,17809,17853,412.3841,338.7261,414.6331,360.5513 M,30,17853,18030,414.6331,360.5513,185,368 C,0,17853,18030,255,255,125 M,0,18030,18074,185,368,186.7666,346.1273 M,0,18074,18118,186.7666,346.1273,185.0162,324.2464 M,0,18118,18162,185.0162,324.2464,178.935,303.1644 M,0,18162,18206,178.935,303.1644,170,284 M,16,18206,18382,170,284,318,144 C,0,18206,18382,255,255,125,111,255,255 M,16,18382,18559,318,144,430,276 C,0,18382,18559,111,255,255 M,16,18559,18735,430,276,440,154 C,0,18559,18735,111,255,255 M,16,18735,18912,440,154,307,266 C,0,18735,18912,111,255,255 M,16,18912,19088,307,266,207,205 C,0,18912,19088,111,255,255,255,125,125 M,16,19088,19265,207,205,82,350 C,0,19088,19265,255,125,125 M,16,19265,19441,82,350,72,215 C,0,19265,19441,255,125,125 M,16,19441,19618,72,215,218,338 C,0,19441,19618,255,125,125 M,16,19618,19794,218,338,307,266 C,0,19618,19794,255,125,125,255,179,142 M,0,19794,19838,307,266,328.7957,268.9916 M,0,19838,19882,328.7957,268.9916,350.5913,271.9831 M,0,19882,19926,350.5913,271.9831,328.7957,268.9916 M,0,19926,19970,328.7957,268.9916,307,266 M,0,19970,20014,307,266,328.7957,268.9916 M,0,20014,20058,328.7957,268.9916,350.5913,271.9831 M,30,20058,20147,350.5913,271.9831,406,331 C,0,20058,20147,255,179,142 M,0,20147,20191,406,331,427.7957,328.0085 M,0,20191,20235,427.7957,328.0085,449.5913,325.0169 M,0,20235,20279,449.5913,325.0169,427.7957,328.0085 M,0,20279,20323,427.7957,328.0085,406,331 M,0,20323,20367,406,331,427.7957,328.0085 M,0,20367,20411,427.7957,328.0085,449.5913,325.0169 M,30,20411,20500,449.5913,325.0169,530,318 C,0,20411,20500,255,179,142,255,255,125 M,16,20500,20588,530,318,554,298 C,0,20500,20588,255,255,125 M,16,20588,20677,554,298,571,272 C,0,20588,20677,255,255,125 M,16,20677,20765,571,272,572,241 C,0,20677,20765,255,255,125 M,16,20765,20853,572,241,562,211 C,0,20765,20853,255,255,125 M,16,20853,20941,562,211,531,206 C,0,20853,20941,255,255,125 F,15,20853,21206,1,0 S,15,20853,21206,1,0.2 M,16,20941,21029,531,206,500,201 C,0,20941,21029,255,255,125 M,16,21029,21118,500,201,469,196 C,0,21029,21118,255,255,125
Sprite,Foreground,Centre,"sb\glow.png",0,0 M,0,21382,,314,171 C,0,21382,,111,255,255 F,15,21382,21646,1,0 S,15,21382,21646,1,0.2 P,0,21382,21646,A M,0,21735,,381,238 C,0,21735,,111,255,255 F,15,21735,21999,1,0 S,15,21735,21999,1,0.2 P,0,21735,21999,A M,0,22088,,381,238 C,0,22088,,255,125,125 F,15,22088,22352,1,0 S,15,22088,22352,1,0.2 P,0,22088,22352,A M,0,22441,,314,171 C,0,22441,,255,125,125 F,15,22441,22705,1,0 S,15,22441,22705,1,0.2 P,0,22441,22705,A
Sprite,Foreground,Centre,"sb\glow.png",0,0 M,0,21559,,454,100 C,0,21559,,111,255,255 F,15,21559,21823,1,0 S,15,21559,21823,1,0.2 P,0,21559,21823,A M,0,21912,,358,83 C,0,21912,,255,125,125 F,15,21912,22176,1,0 S,15,21912,22176,1,0.2 P,0,21912,22176,A M,0,22265,,454,100 C,0,22265,,255,125,125 F,15,22265,22529,1,0 S,15,22265,22529,1,0.2 P,0,22265,22529,A
Sprite,Foreground,Centre,"sb\c.png",236,233 C,0,112971,,255,179,142 F,0,112971,113071,0,1 S,19,112971,113676,0.2,0.3 P,0,112971,113676,A F,16,113071,113676,1,0
Sprite,Foreground,Centre,"sb\c.png",98,170 C,0,113324,,255,179,142 F,0,113324,113424,0,1 S,19,113324,114029,0.2,0.3 P,0,113324,114029,A F,16,113424,114029,1,0
Sprite,Foreground,Centre,"sb\c.png",233,119 C,0,113677,,255,179,142 F,0,113677,113777,0,1 S,19,113677,114382,0.2,0.3 P,0,113677,114382,A F,16,113777,114382,1,0
Sprite,Foreground,Centre,"sb\c.png",95,56 C,0,114030,,255,179,142 F,0,114030,114130,0,1 S,19,114030,114735,0.2,0.3 P,0,114030,114735,A F,16,114130,114735,1,0
Sprite,Foreground,Centre,"sb\c.png",329,71 C,0,114382,,255,255,125 F,0,114382,114482,0,1 S,19,114382,115087,0.2,0.3 P,0,114382,115087,A F,16,114482,115087,1,0
Sprite,Foreground,Centre,"sb\c.png",329,71 C,0,114735,,255,255,125 F,0,114735,114835,0,1 S,19,114735,115440,0.2,0.3 P,0,114735,115440,A F,16,114835,115440,1,0
Sprite,Foreground,Centre,"sb\c.png",517,188 C,0,115088,,255,255,125 F,0,115088,115188,0,1 S,19,115088,115793,0.2,0.3 P,0,115088,115793,A F,16,115188,115793,1,0
Sprite,Foreground,Centre,"sb\c.png",371,231 C,0,115441,,255,255,125 F,0,115441,115541,0,1 S,19,115441,116146,0.2,0.3 P,0,115441,116146,A F,16,115541,116146,1,0
Sprite,Foreground,Centre,"sb\c.png",473,277 C,0,115794,,111,255,255 F,0,115794,115894,0,1 S,19,115794,116499,0.2,0.3 P,0,115794,116499,A F,16,115894,116499,1,0
Sprite,Foreground,Centre,"sb\c.png",372,364 C,0,116147,,111,255,255 F,0,116147,116247,0,1 S,19,116147,116852,0.2,0.3 P,0,116147,116852,A F,16,116247,116852,1,0
Sprite,Foreground,Centre,"sb\c.png",294,277 C,0,116500,,111,255,255 F,0,116500,116600,0,1 S,19,116500,117205,0.2,0.3 P,0,116500,117205,A F,16,116600,117205,1,0
Sprite,Foreground,Centre,"sb\c.png",192,363 C,0,116853,,111,255,255 F,0,116853,116953,0,1 S,19,116853,117558,0.2,0.3 P,0,116853,117558,A F,16,116953,117558,1,0
Sprite,Foreground,Centre,"sb\c.png",114,276 C,0,117206,,255,125,125 F,0,117206,117306,0,1 S,19,117206,117911,0.2,0.3 P,0,117206,117911,A F,16,117306,117911,1,0
Sprite,Foreground,Centre,"sb\c.png",130,58 C,0,117559,,255,125,125 F,0,117559,117659,0,1 S,19,117559,118264,0.2,0.3 P,0,117559,118264,A F,16,117659,118264,1,0
Sprite,Foreground,Centre,"sb\c.png",203,268 C,0,117912,,255,125,125 F,0,117912,118012,0,1 S,19,117912,118617,0.2,0.3 P,0,117912,118617,A F,16,118012,118617,1,0
Sprite,Foreground,Centre,"sb\c.png",228,94 C,0,118265,,255,125,125 F,0,118265,118365,0,1 S,19,118265,118970,0.2,0.3 P,0,118265,118970,A F,16,118365,118970,1,0
Sprite,Foreground,Centre,"sb\c.png",329,143 C,0,118618,,255,179,142 F,0,118618,118718,0,1 S,19,118618,119323,0.2,0.3 P,0,118618,119323,A F,16,118718,119323,1,0
Sprite,Foreground,Centre,"sb\c.png",467,206 C,0,118971,,255,179,142 F,0,118971,119071,0,1 S,19,118971,119676,0.2,0.3 P,0,118971,119676,A F,16,119071,119676,1,0
Sprite,Foreground,Centre,"sb\c.png",332,257 C,0,119324,,255,179,142 F,0,119324,119424,0,1 S,19,119324,120029,0.2,0.3 P,0,119324,120029,A F,16,119424,120029,1,0
Sprite,Foreground,Centre,"sb\c.png",470,320 C,0,119677,,255,179,142 F,0,119677,119777,0,1 S,19,119677,120382,0.2,0.3 P,0,119677,120382,A F,16,119777,120382,1,0
Sprite,Foreground,Centre,"sb\c.png",335,371 C,0,120029,,255,255,125 F,0,120029,120129,0,1 S,19,120029,120734,0.2,0.3 P,0,120029,120734,A F,16,120129,120734,1,0
Sprite,Foreground,Centre,"sb\c.png",261,412 C,0,120382,,255,255,125 F,0,120382,120482,0,1 S,19,120382,121087,0.2,0.3 P,0,120382,121087,A F,16,120482,121087,1,0
Sprite,Foreground,Centre,"sb\c.png",327,183 C,0,120735,,255,255,125 F,0,120735,120835,0,1 S,19,120735,121440,0.2,0.3 P,0,120735,121440,A F,16,120835,121440,1,0
Sprite,Foreground,Centre,"sb\c.png",167,237 C,0,121088,,255,255,125 F,0,121088,121188,0,1 S,19,121088,121793,0.2,0.3 P,0,121088,121793,A F,16,121188,121793,1,0
Sprite,Foreground,Centre,"sb\c.png",457,123 C,0,121441,,111,255,255 F,0,121441,121541,0,1 S,19,121441,122146,0.2,0.3 P,0,121441,122146,A F,16,121541,122146,1,0
Sprite,Foreground,Centre,"sb\c.png",393,63 C,0,121794,,111,255,255 F,0,121794,121894,0,1 S,19,121794,122499,0.2,0.3 P,0,121794,122499,A F,16,121894,122499,1,0
Sprite,Foreground,Centre,"sb\c.png",542,134 C,0,122147,,111,255,255 F,0,122147,122247,0,1 S,19,122147,122852,0.2,0.3 P,0,122147,122852,A F,16,122247,122852,1,0
Sprite,Foreground,Centre,"sb\c.png",429,204 C,0,122500,,111,255,255 F,0,122500,122600,0,1 S,19,122500,123205,0.2,0.3 P,0,122500,123205,A F,16,122600,123205,1,0
Sprite,Foreground,Centre,"sb\c.png",516,219 C,0,122853,,111,255,255 F,0,122853,122953,0,1 S,19,122853,123558,0.2,0.3 P,0,122853,123558,A F,16,122953,123558,1,0
Sprite,Foreground,Centre,"sb\c.png",467,364 C,0,123029,,255,125,125 F,0,123029,123129,0,1 S,19,123029,123734,0.2,0.3 P,0,123029,123734,A F,16,123129,123734,1,0
Sprite,Foreground,Centre,"sb\c.png",397,419 C,0,123206,,255,125,125 F,0,123206,123306,0,1 S,19,123206,123911,0.2,0.3 P,0,123206,123911,A F,16,123306,123911,1,0
Sprite,Foreground,Centre,"sb\c.png",449,278 C,0,123382,,255,125,125 F,0,123382,123482,0,1 S,19,123382,124087,0.2,0.3 P,0,123382,124087,A F,16,123482,124087,1,0
Sprite,Foreground,Centre,"sb\c.png",548,393 C,0,123559,,255,125,125 F,0,123559,123659,0,1 S,19,123559,124264,0.2,0.3 P,0,123559,124264,A F,16,123659,124264,1,0
Sprite,Foreground,Centre,"sb\c.png",380,330 C,0,123736,,255,179,142 F,0,123736,123836,0,1 S,19,123736,124441,0.2,0.3 P,0,123736,124441,A F,16,123836,124441,1,0
Sprite,Foreground,Centre,"sb\c.png",365,323 C,0,123824,,255,179,142 F,0,123824,123924,0,1 S,19,123824,124529,0.2,0.3 P,0,123824,124529,A F,16,123924,124529,1,0
Sprite,Foreground,Centre,"sb\c.png",351,317 C,0,123912,,255,179,142 F,0,123912,124012,0,1 S,19,123912,124617,0.2,0.3 P,0,123912,124617,A F,16,124012,124617,1,0
Sprite,Foreground,Centre,"sb\c.png",528,305 C,0,124089,,255,179,142 F,0,124089,124189,0,1 S,19,124089,124794,0.2,0.3 P,0,124089,124794,A F,16,124189,124794,1,0
Sprite,Foreground,Centre,"sb\c.png",540,294 C,0,124177,,255,179,142 F,0,124177,124277,0,1 S,19,124177,124882,0.2,0.3 P,0,124177,124882,A F,16,124277,124882,1,0
Sprite,Foreground,Centre,"sb\c.png",551,283 C,0,124265,,255,255,125 F,0,124265,124365,0,1 S,19,124265,124970,0.2,0.3 P,0,124265,124970,A F,16,124365,124970,1,0
Sprite,Foreground,Centre,"sb\c.png",468,191 C,0,124618,,255,255,125 F,0,124618,124718,0,1 S,19,124618,125323,0.2,0.3 P,0,124618,125323,A F,16,124718,125323,1,0
Sprite,Foreground,Centre,"sb\c.png",329,207 C,0,124971,,255,255,125 F,0,124971,125071,0,1 S,19,124971,125676,0.2,0.3 P,0,124971,125676,A F,16,125071,125676,1,0
Sprite,Foreground,Centre,"sb\c.png",290,324 C,0,125324,,255,255,125 F,0,125324,125424,0,1 S,19,125324,126029,0.2,0.3 P,0,125324,126029,A F,16,125424,126029,1,0
Sprite,Foreground,Centre,"sb\c.png",366,434 C,0,125677,,111,255,255 F,0,125677,125777,0,1 S,19,125677,126382,0.2,0.3 P,0,125677,126382,A F,16,125777,126382,1,0
Sprite,Foreground,Centre,"sb\c.png",366,434 C,0,126029,,111,255,255 F,0,126029,126129,0,1 S,19,126029,126734,0.2,0.3 P,0,126029,126734,A F,16,126129,126734,1,0
Sprite,Foreground,Centre,"sb\c.png",405,309 C,0,126382,,111,255,255 F,0,126382,126482,0,1 S,19,126382,127087,0.2,0.3 P,0,126382,127087,A F,16,126482,127087,1,0
Sprite,Foreground,Centre,"sb\c.png",351,193 C,0,126735,,111,255,255 F,0,126735,126835,0,1 S,19,126735,127440,0.2,0.3 P,0,126735,127440,A F,16,126835,127440,1,0
Sprite,Foreground,Centre,"sb\c.png",283,284 C,0,127088,,255,125,125 F,0,127088,127188,0,1 S,19,127088,127793,0.2,0.3 P,0,127088,127793,A F,16,127188,127793,1,0
Sprite,Foreground,Centre,"sb\c.png",127,266 C,0,127441,,255,125,125 F,0,127441,127541,0,1 S,19,127441,128146,0.2,0.3 P,0,127441,128146,A F,16,127541,128146,1,0
Sprite,Foreground,Centre,"sb\c.png",174,376 C,0,127794,,255,125,125 F,0,127794,127894,0,1 S,19,127794,128499,0.2,0.3 P,0,127794,128499,A F,16,127894,128499,1,0
Sprite,Foreground,Centre,"sb\c.png",194,213 C,0,128147,,255,125,125 F,0,128147,128247,0,1 S,19,128147,128852,0.2,0.3 P,0,128147,128852,A F,16,128247,128852,1,0
Sprite,Foreground,Centre,"sb\c.png",283,284 C,0,128500,,255,179,142 F,0,128500,128600,0,1 S,19,128500,129205,0.2,0.3 P,0,128500,129205,A F,16,128600,129205,1,0
Sprite,Foreground,Centre,"sb\c.png",194,213 C,0,128853,,255,179,142 F,0,128853,128953,0,1 S,19,128853,129558,0.2,0.3 P,0,128853,129558,A F,16,128953,129558,1,0
Sprite,Foreground,Centre,"sb\c.png",336,358 C,0,129206,,255,255,125 F,0,129206,129306,0,1 S,19,129206,129911,0.2,0.3 P,0,129206,129911,A F,16,129306,129911,1,0
Sprite,Foreground,Centre,"sb\c.png",419,310 C,0,129559,,255,255,125 F,0,129559,129659,0,1 S,19,129559,130264,0.2,0.3 P,0,129559,130264,A F,16,129659,130264,1,0
Sprite,Foreground,Centre,"sb\c.png",535,316 C,0,129912,,111,255,255 F,0,129912,130012,0,1 S,19,129912,130617,0.2,0.3 P,0,129912,130617,A F,16,130012,130617,1,0
Sprite,Foreground,Centre,"sb\c.png",428,224 C,0,130265,,111,255,255 F,0,130265,130365,0,1 S,19,130265,130970,0.2,0.3 P,0,130265,130970,A F,16,130365,130970,1,0
Sprite,Foreground,Centre,"sb\c.png",238,177 C,0,130618,,255,125,125 F,0,130618,130718,0,1 S,19,130618,131323,0.2,0.3 P,0,130618,131323,A F,16,130718,131323,1,0
Sprite,Foreground,Centre,"sb\c.png",352,85 C,0,130971,,255,125,125 F,0,130971,131071,0,1 S,19,130971,131676,0.2,0.3 P,0,130971,131676,A F,16,131071,131676,1,0
Sprite,Foreground,Centre,"sb\c.png",271,272 C,0,131324,,255,179,142 F,0,131324,131424,0,1 S,19,131324,132029,0.2,0.3 P,0,131324,132029,A F,16,131424,132029,1,0
Sprite,Foreground,Centre,"sb\c.png",283,376 C,0,131677,,255,179,142 F,0,131677,131777,0,1 S,19,131677,132382,0.2,0.3 P,0,131677,132382,A F,16,131777,132382,1,0
Sprite,Foreground,Centre,"sb\c.png",422,231 C,0,132029,,255,255,125 F,0,132029,132129,0,1 S,19,132029,132734,0.2,0.3 P,0,132029,132734,A F,16,132129,132734,1,0
Sprite,Foreground,Centre,"sb\c.png",449,377 C,0,132382,,255,255,125 F,0,132382,132482,0,1 S,19,132382,133087,0.2,0.3 P,0,132382,133087,A F,16,132482,133087,1,0
Sprite,Foreground,Centre,"sb\c.png",422,231 C,0,132735,,111,255,255 F,0,132735,132835,0,1 S,19,132735,133440,0.2,0.3 P,0,132735,133440,A F,16,132835,133440,1,0
Sprite,Foreground,Centre,"sb\c.png",379,146 C,0,132912,,111,255,255 F,0,132912,133012,0,1 S,19,132912,133617,0.2,0.3 P,0,132912,133617,A F,16,133012,133617,1,0
Sprite,Foreground,Centre,"sb\c.png",369,311 C,0,133088,,111,255,255 F,0,133088,133188,0,1 S,19,133088,133793,0.2,0.3 P,0,133088,133793,A F,16,133188,133793,1,0
Sprite,Foreground,Centre,"sb\c.png",517,236 C,0,133265,,111,255,255 F,0,133265,133365,0,1 S,19,133265,133970,0.2,0.3 P,0,133265,133970,A F,16,133365,133970,1,0
Sprite,Foreground,Centre,"sb\c.png",327,226 C,0,133441,,255,125,125 F,0,133441,133541,0,1 S,19,133441,134146,0.2,0.3 P,0,133441,134146,A F,16,133541,134146,1,0
Sprite,Foreground,Centre,"sb\c.png",475,152 C,0,133618,,255,125,125 F,0,133618,133718,0,1 S,19,133618,134323,0.2,0.3 P,0,133618,134323,A F,16,133718,134323,1,0
Sprite,Foreground,Centre,"sb\c.png",369,311 C,0,133794,,255,125,125 F,0,133794,133894,0,1 S,19,133794,134499,0.2,0.3 P,0,133794,134499,A F,16,133894,134499,1,0
Sprite,Foreground,Centre,"sb\c.png",283,140 C,0,133971,,255,125,125 F,0,133971,134071,0,1 S,19,133971,134676,0.2,0.3 P,0,133971,134676,A F,16,134071,134676,1,0
Sprite,Foreground,Centre,"sb\cir.png",283,140 C,0,134854,,255,179,142 F,0,134854,134954,0,1 S,19,134854,135559,0.2,0.3 P,0,134854,135559,A F,16,134954,135559,1,0
Sprite,Foreground,Centre,"sb\cir.png",208,277 C,0,135030,,255,179,142 F,0,135030,135130,0,1 S,19,135030,135735,0.2,0.3 P,0,135030,135735,A F,16,135130,135735,1,0
Sprite,Foreground,Centre,"sb\cir.png",208,277 C,0,135118,,255,179,142 F,0,135118,135218,0,1 S,19,135118,135823,0.2,0.3 P,0,135118,135823,A F,16,135218,135823,1,0
Sprite,Foreground,Centre,"sb\cir.png",208,277 C,0,135206,,255,179,142 F,0,135206,135306,0,1 S,19,135206,135911,0.2,0.3 P,0,135206,135911,A F,16,135306,135911,1,0
Sprite,Foreground,Centre,"sb\hl.png",0,0 M,0,152853,,282,267 C,0,152853,,255,179,142 F,0,152853,152941,0,1 S,0,152853,154264,0.25,0.5 P,0,152853,154264,A F,0,152941,154264,1,0 M,0,154441,,282,267 C,0,154441,,111,255,255 F,0,154441,154529,0,1 S,0,154441,155852,0.25,0.5 P,0,154441,155852,A F,0,154529,155852,1,0 M,0,156029,,209,296 C,0,156029,,255,125,125 F,0,156029,156117,0,1 S,0,156029,157440,0.25,0.5 P,0,156029,157440,A F,0,156117,157440,1,0 M,0,157441,,453.9228,235.8008 C,0,157441,,255,179,142 F,0,157441,157529,0,1 S,0,157441,158853,0.25,0.5 P,0,157441,158853,A F,0,157529,158853,1,0
Sprite,Foreground,Centre,"sb\hl.png",0,0 M,0,153206,,457,235 C,0,153206,,255,179,142 F,0,153206,153294,0,1 S,0,153206,154617,0.25,0.5 P,0,153206,154617,A F,0,153294,154617,1,0 M,0,154794,,277,379 C,0,154794,,111,255,255 F,0,154794,154882,0,1 S,0,154794,156205,0.25,0.5 P,0,154794,156205,A F,0,154882,156205,1,0 M,0,156559,,282,267 C,0,156559,,255,179,142 F,0,156559,156647,0,1 S,0,156559,157970,0.25,0.5 P,0,156559,157970,A F,0,156647,157970,1,0 M,0,157970,,440.0117,164.4125 C,0,157970,,255,179,142 F,0,157970,158059,0,1 S,0,157970,159382,0.25,0.5 P,0,157970,159382,A F,0,158059,159382,1,0
Sprite,Foreground,Centre,"sb\hl.png",0,0 M,0,153735,,282,267 C,0,153735,,255,255,125 F,0,153735,153823,0,1 S,0,153735,155146,0.25,0.5 P,0,153735,155146,A F,0,153823,155146,1,0 M,0,155677,,282,267 C,0,155677,,255,125,125 F,0,155677,155765,0,1 S,0,155677,157088,0.25,0.5 P,0,155677,157088,A F,0,155765,157088,1,0 M,0,157147,,383.4229,239.7989 C,0,157147,,255,179,142 F,0,157147,157235,0,1 S,0,157147,158559,0.25,0.5 P,0,157147,158559,A F,0,157235,158559,1,0
Sprite,Foreground,Centre,"sb\hl.png",0,0 M,0,154088,,394,328 C,0,154088,,255,255,125 F,0,154088,154176,0,1 S,0,154088,155499,0.25,0.5 P,0,154088,155499,A F,0,154176,155499,1,0 M,0,156559,,282,267 C,0,156559,,255,179,142 F,0,156559,156647,0,1 S,0,156559,157970,0.25,0.5 P,0,156559,157970,A F,0,156647,157970,1,0 M,0,158029,,433.7081,177.6183 C,0,158029,,255,179,142 F,0,158029,158117,0,1 S,0,158029,159441,0.25,0.5 P,0,158029,159441,A F,0,158117,159441,1,0
Sprite,Foreground,Centre,"sb\hl.png",0,0 M,0,154794,,277,379 C,0,154794,,111,255,255 F,0,154794,154882,0,1 S,0,154794,156205,0.25,0.5 P,0,154794,156205,A F,0,154882,156205,1,0 M,0,156617,,295.8664,262.2615 C,0,156617,,255,179,142 F,0,156617,156706,0,1 S,0,156617,158029,0.25,0.5 P,0,156617,158029,A F,0,156706,158029,1,0 M,0,158088,,429.8852,191.7649 C,0,158088,,255,179,142 F,0,158088,158176,0,1 S,0,158088,159500,0.25,0.5 P,0,158088,159500,A F,0,158176,159500,1,0
Sprite,Foreground,Centre,"sb\hl.png",0,0 M,0,154852,,275.5111,393.5909 C,0,154852,,111,255,255 F,0,154852,154941,0,1 S,0,154852,156264,0.25,0.5 P,0,154852,156264,A F,0,154941,156264,1,0 M,0,156676,,308.7671,255.3269 C,0,156676,,255,179,142 F,0,156676,156764,0,1 S,0,156676,158088,0.25,0.5 P,0,156676,158088,A F,0,156764,158088,1,0
Sprite,Foreground,Centre,"sb\hl.png",0,0 M,0,154911,,274.0223,408.1818 C,0,154911,,111,255,255 F,0,154911,154999,0,1 S,0,154911,156323,0.25,0.5 P,0,154911,156323,A F,0,154999,156323,1,0 M,0,156735,,320.0479,245.9967 C,0,156735,,255,179,142 F,0,156735,156823,0,1 S,0,156735,158147,0.25,0.5 P,0,156735,158147,A F,0,156823,158147,1,0
Sprite,Foreground,Centre,"sb\hl.png",0,0 M,0,156794,,329.0656,234.4663 C,0,156794,,255,179,142 F,0,156794,156882,0,1 S,0,156794,158206,0.25,0.5 P,0,156794,158206,A F,0,156882,158206,1,0
Sprite,Foreground,Centre,"sb\hl.png",0,0 M,0,156853,,335.5213,221.3226 C,0,156853,,255,179,142 F,0,156853,156941,0,1 S,0,156853,158264,0.25,0.5 P,0,156853,158264,A F,0,156941,158264,1,0
Sprite,Foreground,Centre,"sb\hl.png",0,0 M,0,156911,,339.5635,207.24 C,0,156911,,255,179,142 F,0,156911,157000,0,1 S,0,156911,158323,0.25,0.5 P,0,156911,158323,A F,0,157000,158323,1,0
Sprite,Foreground,Centre,"sb\hl.png",0,0 M,0,156970,,347.7527,214.6468 C,0,156970,,255,179,142 F,0,156970,157059,0,1 S,0,156970,158382,0.25,0.5 P,0,156970,158382,A F,0,157059,158382,1,0
Sprite,Foreground,Centre,"sb\hl.png",0,0 M,0,157029,,358.3786,224.7372 C,0,157029,,255,179,142 F,0,157029,157117,0,1 S,0,157029,158441,0.25,0.5 P,0,157029,158441,A F,0,157117,158441,1,0
Sprite,Foreground,Centre,"sb\hl.png",0,0 M,0,157088,,370.3403,233.201 C,0,157088,,255,179,142 F,0,157088,157176,0,1 S,0,157088,158500,0.25,0.5 P,0,157088,158500,A F,0,157176,158500,1,0
Sprite,Foreground,Centre,"sb\hl.png",0,0 M,0,157206,,397.379,244.2541 C,0,157206,,255,179,142 F,0,157206,157294,0,1 S,0,157206,158617,0.25,0.5 P,0,157206,158617,A F,0,157294,158617,1,0
Sprite,Foreground,Centre,"sb\hl.png",0,0 M,0,157264,,411.8849,246.2833 C,0,157264,,255,179,142 F,0,157264,157353,0,1 S,0,157264,158676,0.25,0.5 P,0,157264,158676,A F,0,157353,158676,1,0
Sprite,Foreground,Centre,"sb\hl.png",0,0 M,0,157323,,426.515,245.6422 C,0,157323,,255,179,142 F,0,157323,157411,0,1 S,0,157323,158735,0.25,0.5 P,0,157323,158735,A F,0,157411,158735,1,0
Sprite,Foreground,Centre,"sb\hl.png",0,0 M,0,157382,,440.7339,242.1511 C,0,157382,,255,179,142 F,0,157382,157470,0,1 S,0,157382,158794,0.25,0.5 P,0,157382,158794,A F,0,157470,158794,1,0
Sprite,Foreground,Centre,"sb\hl.png",0,0 M,0,157500,,465.4182,226.7417 C,0,157500,,255,179,142 F,0,157500,157588,0,1 S,0,157500,158911,0.25,0.5 P,0,157500,158911,A F,0,157588,158911,1,0
Sprite,Foreground,Centre,"sb\hl.png",0,0 M,0,157559,,474.574,215.3265 C,0,157559,,255,179,142 F,0,157559,157647,0,1 S,0,157559,158970,0.25,0.5 P,0,157559,158970,A F,0,157647,158970,1,0
Sprite,Foreground,Centre,"sb\hl.png",0,0 M,0,157617,,480.8018,202.0882 C,0,157617,,255,179,142 F,0,157617,157706,0,1 S,0,157617,159029,0.25,0.5 P,0,157617,159029,A F,0,157706,159029,1,0
Sprite,Foreground,Centre,"sb\hl.png",0,0 M,0,157676,,483.5435,187.7233 C,0,157676,,255,179,142 F,0,157676,157764,0,1 S,0,157676,159088,0.25,0.5 P,0,157676,159088,A F,0,157764,159088,1,0
Sprite,Foreground,Centre,"sb\hl.png",0,0 M,0,157735,,482.2134,173.1745 C,0,157735,,255,179,142 F,0,157735,157823,0,1 S,0,157735,159147,0.25,0.5 P,0,157735,159147,A F,0,157823,159147,1,0
Sprite,Foreground,Centre,"sb\hl.png",0,0 M,0,157794,,476.0269,159.9889 C,0,157794,,255,179,142 F,0,157794,157882,0,1 S,0,157794,159206,0.25,0.5 P,0,157794,159206,A F,0,157882,159206,1,0
Sprite,Foreground,Centre,"sb\hl.png",0,0 M,0,157853,,464.2484,151.7085 C,0,157853,,255,179,142 F,0,157853,157941,0,1 S,0,157853,159264,0.25,0.5 P,0,157853,159264,A F,0,157941,159264,1,0
Sprite,Foreground,Centre,"sb\hl.png",0,0 M,0,157911,,450.1693,154.0071 C,0,157911,,255,179,142 F,0,157911,158000,0,1 S,0,157911,159323,0.25,0.5 P,0,157911,159323,A F,0,158000,159323,1,0
Sprite,Foreground,Centre,"sb\d.png",0,0 M,19,158147,159873,427.7669,205.9609,363.6997,175.3602 F,0,158147,159873,1,0 S,0,158147,159873,0.071,0 P,0,158147,159873,A
Sprite,Foreground,Centre,"sb\d.png",0,0 M,19,158147,159911,427.7669,205.9609,399.5376,250.8174 F,0,158147,159911,1,0 S,0,158147,159911,0.053,0 P,0,158147,159911,A
Sprite,Foreground,Centre,"sb\d.png",0,0 M,19,158147,159911,427.7669,205.9609,436.0009,198.667 F,0,158147,159911,1,0 S,0,158147,159911,0.011,0 P,0,158147,159911,A
Sprite,Foreground,Centre,"sb\d.png",0,0 M,19,158147,159785,427.7669,205.9609,420.4024,187.3661 F,0,158147,159785,1,0 S,0,158147,159785,0.02,0 P,0,158147,159785,A
Sprite,Foreground,Centre,"sb\d.png",0,0 M,19,158147,159949,427.7669,205.9609,447.6488,172.4093 F,0,158147,159949,1,0 S,0,158147,159949,0.039,0 P,0,158147,159949,A
Sprite,Foreground,Centre,"sb\d.png",0,0 M,19,158147,159902,427.7669,205.9609,424.1783,196.627 F,0,158147,159902,1,0 S,0,158147,159902,0.01,0 P,0,158147,159902,A
Sprite,Foreground,Centre,"sb\d.png",0,0 M,19,158147,159962,427.7669,205.9609,416.5065,236.9803 F,0,158147,159962,1,0 S,0,158147,159962,0.033,0 P,0,158147,159962,A
Sprite,Foreground,Centre,"sb\d.png",0,0 M,19,158147,160260,427.7669,205.9609,434.5183,146.3419 F,0,158147,160260,1,0 S,0,158147,160260,0.06,0 P,0,158147,160260,A
Sprite,Foreground,Centre,"sb\d.png",0,0 M,19,158147,160234,427.7669,205.9609,456.3653,154.3554 F,0,158147,160234,1,0 S,0,158147,160234,0.059,0 P,0,158147,160234,A
Sprite,Foreground,Centre,"sb\d.png",0,0 M,19,158147,159739,427.7669,205.9609,417.0977,208.6381 F,0,158147,159739,1,0 S,0,158147,159739,0.011,0 P,0,158147,159739,A
Sprite,Foreground,Centre,"sb\d.png",0,0 M,19,158147,159590,427.7669,205.9609,405.8643,229.2906 F,0,158147,159590,1,0 S,0,158147,159590,0.032,0 P,0,158147,159590,A
Sprite,Foreground,Centre,"sb\d.png",0,0 M,19,158147,159884,427.7669,205.9609,433.3708,194.2307 F,0,158147,159884,1,0 S,0,158147,159884,0.013,0 P,0,158147,159884,A
Sprite,Foreground,Centre,"sb\d.png",0,0 M,19,158147,159690,427.7669,205.9609,483.7957,169.2217 F,0,158147,159690,1,0 S,0,158147,159690,0.067,0 P,0,158147,159690,A
Sprite,Foreground,Centre,"sb\d.png",0,0 M,19,158147,160080,427.7669,205.9609,485.1219,156.097 F,0,158147,160080,1,0 S,0,158147,160080,0.076,0 P,0,158147,160080,A
Sprite,Foreground,Centre,"sb\d.png",0,0 M,19,158147,159804,427.7669,205.9609,472.6567,209.108 F,0,158147,159804,1,0 S,0,158147,159804,0.045,0 P,0,158147,159804,A
Sprite,Foreground,Centre,"sb\d.png",0,0 M,19,158147,159891,427.7669,205.9609,456.1906,191.2608 F,0,158147,159891,1,0 S,0,158147,159891,0.032,0 P,0,158147,159891,A
Sprite,Foreground,Centre,"sb\d.png",0,0 M,19,158147,159817,427.7669,205.9609,464.7181,204.0614 F,0,158147,159817,1,0 S,0,158147,159817,0.037,0 P,0,158147,159817,A
Sprite,Foreground,Centre,"sb\d.png",0,0 M,19,158147,159758,427.7669,205.9609,402.3952,255.8836 F,0,158147,159758,1,0 S,0,158147,159758,0.056,0 P,0,158147,159758,A
Sprite,Foreground,Centre,"sb\d.png",0,0 M,19,158147,159673,427.7669,205.9609,361.8057,203.6975 F,0,158147,159673,1,0 S,0,158147,159673,0.066,0 P,0,158147,159673,A
Sprite,Foreground,Centre,"sb\d.png",0,0 M,19,158147,160208,427.7669,205.9609,384.7593,219.2029 F,0,158147,160208,1,0 S,0,158147,160208,0.045,0 P,0,158147,160208,A
Sprite,Foreground,Centre,"sb\d.png",0,0 M,19,158147,159559,427.7669,205.9609,390.1823,195.5493 F,0,158147,159559,1,0 S,0,158147,159559,0.039,0 P,0,158147,159559,A
Sprite,Foreground,Centre,"sb\d.png",0,0 M,19,158147,160145,427.7669,205.9609,428.927,237.9398 F,0,158147,160145,1,0 S,0,158147,160145,0.032,0 P,0,158147,160145,A
Sprite,Foreground,Centre,"sb\d.png",0,0 M,19,158147,159823,427.7669,205.9609,426.0946,215.8201 F,0,158147,159823,1,0 S,0,158147,159823,0.01,0 P,0,158147,159823,A
Sprite,Foreground,Centre,"sb\d.png",0,0 M,19,158147,159680,427.7669,205.9609,481.091,241.3521 F,0,158147,159680,1,0 S,0,158147,159680,0.064,0 P,0,158147,159680,A
Sprite,Foreground,Centre,"sb\d.png",0,0 M,19,158147,159827,427.7669,205.9609,415.5974,243.0136 F,0,158147,159827,1,0 S,0,158147,159827,0.039,0 P,0,158147,159827,A
Sprite,Foreground,Centre,"sb\d.png",0,0 M,19,158147,159708,427.7669,205.9609,458.7886,152.2799 F,0,158147,159708,1,0 S,0,158147,159708,0.062,0 P,0,158147,159708,A
Sprite,Foreground,Centre,"sb\d.png",0,0 M,19,158147,159825,427.7669,205.9609,383.1837,148.1565 F,0,158147,159825,1,0 S,0,158147,159825,0.073,0 P,0,158147,159825,A
Sprite,Foreground,Centre,"sb\d.png",0,0 M,19,158147,159992,427.7669,205.9609,385.939,209.7595 F,0,158147,159992,1,0 S,0,158147,159992,0.042,0 P,0,158147,159992,A
Sprite,Foreground,Centre,"sb\d.png",0,0 M,19,158147,160025,427.7669,205.9609,437.7803,197.6704 F,0,158147,160025,1,0 S,0,158147,160025,0.013,0 P,0,158147,160025,A
Sprite,Foreground,Centre,"sb\d.png",0,0 M,19,158147,159728,427.7669,205.9609,430.2805,174.0598 F,0,158147,159728,1,0 S,0,158147,159728,0.032,0 P,0,158147,159728,A
Sprite,Foreground,Centre,"sb\d.png",0,0 M,19,158147,159783,427.7669,205.9609,415.4363,245.0627 F,0,158147,159783,1,0 S,0,158147,159783,0.041,0 P,0,158147,159783,A
Sprite,Foreground,Centre,"sb\d.png",0,0 M,19,158147,159933,427.7669,205.9609,424.4503,239.7987 F,0,158147,159933,1,0 S,0,158147,159933,0.034,0 P,0,158147,159933,A
Sprite,Foreground,Centre,"sb\d.png",0,0 M,19,158147,159690,427.7669,205.9609,423.0786,143.1356 F,0,158147,159690,1,0 S,0,158147,159690,0.063,0 P,0,158147,159690,A
Sprite,Foreground,Centre,"sb\d.png",0,0 M,19,158147,159779,427.7669,205.9609,373.0664,200.2284 F,0,158147,159779,1,0 S,0,158147,159779,0.055,0 P,0,158147,159779,A
Sprite,Foreground,Centre,"sb\d.png",0,0 M,19,158147,159993,427.7669,205.9609,486.9113,247.0211 F,0,158147,159993,1,0 S,0,158147,159993,0.072,0 P,0,158147,159993,A
Sprite,Foreground,Centre,"sb\d.png",0,0 M,19,158147,159730,427.7669,205.9609,431.6069,216.2688 F,0,158147,159730,1,0 S,0,158147,159730,0.011,0 P,0,158147,159730,A
Sprite,Foreground,Centre,"sb\d.png",0,0 M,19,158147,159591,427.7669,205.9609,474.2766,173.0087 F,0,158147,159591,1,0 S,0,158147,159591,0.057,0 P,0,158147,159591,A
Sprite,Foreground,Centre,"sb\d.png",0,0 M,19,158147,159983,427.7669,205.9609,490.6297,185.8545 F,0,158147,159983,1,0 S,0,158147,159983,0.066,0 P,0,158147,159983,A
Sprite,Foreground,Centre,"sb\d.png",0,0 M,19,158147,160232,427.7669,205.9609,414.2825,202.1963 F,0,158147,160232,1,0 S,0,158147,160232,0.014,0 P,0,158147,160232,A
Sprite,Foreground,Centre,"sb\d.png",0,0 M,19,158147,159752,427.7669,205.9609,402.1027,228.2623 F,0,158147,159752,1,0 S,0,158147,159752,0.034,0 P,0,158147,159752,A
Sprite,Foreground,Centre,"sb\d.png",0,0 M,19,158147,160051,427.7669,205.9609,449.455,245.3896 F,0,158147,160051,1,0 S,0,158147,160051,0.045,0 P,0,158147,160051,A
Sprite,Foreground,Centre,"sb\d.png",0,0 M,19,158147,159790,427.7669,205.9609,471.122,254.3895 F,0,158147,159790,1,0 S,0,158147,159790,0.065,0 P,0,158147,159790,A
Sprite,Foreground,Centre,"sb\d.png",0,0 M,19,158147,159612,427.7669,205.9609,435.0499,196.4237 F,0,158147,159612,1,0 S,0,158147,159612,0.012,0 P,0,158147,159612,A
Sprite,Foreground,Centre,"sb\d.png",0,0 M,19,158147,160257,427.7669,205.9609,437.2094,193.0443 F,0,158147,160257,1,0 S,0,158147,160257,0.016,0 P,0,158147,160257,A
Sprite,Foreground,Centre,"sb\d.png",0,0 M,19,158147,159741,427.7669,205.9609,446.5228,208.9964 F,0,158147,159741,1,0 S,0,158147,159741,0.019,0 P,0,158147,159741,A
Sprite,Foreground,Centre,"sb\d.png",0,0 M,19,158147,159961,427.7669,205.9609,461.7131,220.68 F,0,158147,159961,1,0 S,0,158147,159961,0.037,0 P,0,158147,159961,A
Sprite,Foreground,Centre,"sb\d.png",0,0 M,19,158147,159573,427.7669,205.9609,485.7666,205.7806 F,0,158147,159573,1,0 S,0,158147,159573,0.058,0 P,0,158147,159573,A
Sprite,Foreground,Centre,"sb\d.png",0,0 M,19,158147,160012,427.7669,205.9609,366.6801,240.1428 F,0,158147,160012,1,0 S,0,158147,160012,0.07,0 P,0,158147,160012,A
Sprite,Foreground,Centre,"sb\d.png",0,0 M,19,158147,160016,427.7669,205.9609,439.3356,237.9322 F,0,158147,160016,1,0 S,0,158147,160016,0.034,0 P,0,158147,160016,A
Sprite,Foreground,Centre,"sb\d.png",0,0 M,19,158147,159760,427.7669,205.9609,415.214,147.2887 F,0,158147,159760,1,0 S,0,158147,159760,0.06,0 P,0,158147,159760,A
Sprite,Foreground,Centre,"sb\d.png",0,0 M,19,158147,159850,427.7669,205.9609,397.5276,190.4178 F,0,158147,159850,1,0 S,0,158147,159850,0.034,0 P,0,158147,159850,A
Sprite,Foreground,Centre,"sb\d.png",0,0 M,19,158147,159652,427.7669,205.9609,456.6019,187.9459 F,0,158147,159652,1,0 S,0,158147,159652,0.034,0 P,0,158147,159652,A
Sprite,Foreground,Centre,"sb\d.png",0,0 M,19,158147,159632,427.7669,205.9609,369.6382,155.4628 F,0,158147,159632,1,0 S,0,158147,159632,0.077,0 P,0,158147,159632,A
Sprite,Foreground,Centre,"sb\d.png",0,0 M,19,158147,160257,427.7669,205.9609,420.2378,238.0905 F,0,158147,160257,1,0 S,0,158147,160257,0.033,0 P,0,158147,160257,A
Sprite,Foreground,Centre,"sb\d.png",0,0 M,19,158147,159965,427.7669,205.9609,434.2784,217.2126 F,0,158147,159965,1,0 S,0,158147,159965,0.013,0 P,0,158147,159965,A
Sprite,Foreground,Centre,"sb\d.png",0,0 M,19,158147,160037,427.7669,205.9609,497.1899,231.5821 F,0,158147,160037,1,0 S,0,158147,160037,0.074,0 P,0,158147,160037,A
Sprite,Foreground,Centre,"sb\d.png",0,0 M,19,158147,160030,427.7669,205.9609,404.0125,241.804 F,0,158147,160030,1,0 S,0,158147,160030,0.043,0 P,0,158147,160030,A
Sprite,Foreground,Centre,"sb\d.png",0,0 M,19,158147,160022,427.7669,205.9609,400.1309,230.5627 F,0,158147,160022,1,0 S,0,158147,160022,0.037,0 P,0,158147,160022,A
Sprite,Foreground,Centre,"sb\d.png",0,0 M,19,158147,160020,427.7669,205.9609,426.1928,267.9409 F,0,158147,160020,1,0 S,0,158147,160020,0.062,0 P,0,158147,160020,A
Sprite,Foreground,Centre,"sb\d.png",0,0 M,19,158147,159874,427.7669,205.9609,498.2811,231.5098 F,0,158147,159874,1,0 S,0,158147,159874,0.075,0 P,0,158147,159874,A
Sprite,Foreground,Centre,"sb\d.png",0,0 M,19,158147,159779,427.7669,205.9609,419.7468,188.7365 F,0,158147,159779,1,0 S,0,158147,159779,0.019,0 P,0,158147,159779,A
Sprite,Foreground,Centre,"sb\d.png",0,0 M,19,158147,160083,427.7669,205.9609,435.0775,177.8975 F,0,158147,160083,1,0 S,0,158147,160083,0.029,0 P,0,158147,160083,A
Sprite,Foreground,Centre,"sb\d.png",0,0 M,19,158147,160110,427.7669,205.9609,411.8472,197.5606 F,0,158147,160110,1,0 S,0,158147,160110,0.018,0 P,0,158147,160110,A
Sprite,Foreground,Centre,"sb\d.png",0,0 M,19,158147,159859,427.7669,205.9609,456.5504,235.1586 F,0,158147,159859,1,0 S,0,158147,159859,0.041,0 P,0,158147,159859,A
Sprite,Foreground,Centre,"sb\d.png",0,0 M,19,158147,159810,427.7669,205.9609,370.0657,218.2724 F,0,158147,159810,1,0 S,0,158147,159810,0.059,0 P,0,158147,159810,A
Sprite,Foreground,Centre,"sb\d.png",0,0 M,19,158147,160129,427.7669,205.9609,454.2417,211.2605 F,0,158147,160129,1,0 S,0,158147,160129,0.027,0 P,0,158147,160129,A
Sprite,Foreground,Centre,"sb\d.png",0,0 M,19,158147,159857,427.7669,205.9609,445.1273,213.6819 F,0,158147,159857,1,0 S,0,158147,159857,0.019,0 P,0,158147,159857,A
Sprite,Foreground,Centre,"sb\d.png",0,0 M,19,158147,159731,427.7669,205.9609,463.1266,199.2017 F,0,158147,159731,1,0 S,0,158147,159731,0.036,0 P,0,158147,159731,A
Sprite,Foreground,Centre,"sb\d.png",0,0 M,19,158147,160240,427.7669,205.9609,410.7307,190.5087 F,0,158147,160240,1,0 S,0,158147,160240,0.023,0 P,0,158147,160240,A
Sprite,Foreground,Centre,"sb\d.png",0,0 M,19,158147,159979,427.7669,205.9609,429.5022,150.9883 F,0,158147,159979,1,0 S,0,158147,159979,0.055,0 P,0,158147,159979,A
Sprite,Foreground,Centre,"sb\d.png",0,0 M,19,158147,159575,427.7669,205.9609,379.1743,212.2664 F,0,158147,159575,1,0 S,0,158147,159575,0.049,0 P,0,158147,159575,A
Sprite,Foreground,Centre,"sb\d.png",0,0 M,19,158147,159701,427.7669,205.9609,399.1302,162.5565 F,0,158147,159701,1,0 S,0,158147,159701,0.052,0 P,0,158147,159701,A
Sprite,Foreground,Centre,"sb\d.png",0,0 M,19,158147,160106,427.7669,205.9609,411.7539,173.7183 F,0,158147,160106,1,0 S,0,158147,160106,0.036,0 P,0,158147,160106,A
Sprite,Foreground,Centre,"sb\d.png",0,0 M,19,158147,160131,427.7669,205.9609,449.3202,168.7526 F,0,158147,160131,1,0 S,0,158147,160131,0.043,0 P,0,158147,160131,A
Sprite,Foreground,Centre,"sb\d.png",0,0 M,19,158147,159577,427.7669,205.9609,447.6203,190.7674 F,0,158147,159577,1,0 S,0,158147,159577,0.025,0 P,0,158147,159577,A
Sprite,Foreground,Centre,"sb\d.png",0,0 M,19,158147,160034,427.7669,205.9609,431.3863,279.8723 F,0,158147,160034,1,0 S,0,158147,160034,0.074,0 P,0,158147,160034,A
Sprite,Foreground,Centre,"sb\d.png",0,0 M,19,158147,159910,427.7669,205.9609,419.9886,229.7201 F,0,158147,159910,1,0 S,0,158147,159910,0.025,0 P,0,158147,159910,A
Sprite,Foreground,Centre,"sb\d.png",0,0 M,19,158147,160123,427.7669,205.9609,471.9321,140.4595 F,0,158147,160123,1,0 S,0,158147,160123,0.079,0 P,0,158147,160123,A
Sprite,Foreground,Centre,"sb\d.png",0,0 M,19,158147,160098,427.7669,205.9609,486.094,214.8464 F,0,158147,160098,1,0 S,0,158147,160098,0.059,0 P,0,158147,160098,A
Sprite,Foreground,Centre,"sb\d.png",0,0 M,19,158147,159617,427.7669,205.9609,447.7471,215.169 F,0,158147,159617,1,0 S,0,158147,159617,0.022,0 P,0,158147,159617,A
Sprite,Foreground,Centre,"sb\d.png",0,0 M,19,158147,159881,427.7669,205.9609,439.4422,139.986 F,0,158147,159881,1,0 S,0,158147,159881,0.067,0 P,0,158147,159881,A
Sprite,Foreground,Centre,"sb\d.png",0,0 M,19,158147,160188,427.7669,205.9609,449.0804,256.6633 F,0,158147,160188,1,0 S,0,158147,160188,0.055,0 P,0,158147,160188,A
Sprite,Foreground,Centre,"sb\d.png",0,0 M,19,158147,159634,427.7669,205.9609,373.7785,243.9247 F,0,158147,159634,1,0 S,0,158147,159634,0.066,0 P,0,158147,159634,A
Sprite,Foreground,Centre,"sb\d.png",0,0 M,19,158147,160177,427.7669,205.9609,446.8533,234.0982 F,0,158147,160177,1,0 S,0,158147,160177,0.034,0 P,0,158147,160177,A
Sprite,Foreground,Centre,"sb\d.png",0,0 M,19,158147,160024,427.7669,205.9609,453.2213,211.2594 F,0,158147,160024,1,0 S,0,158147,160024,0.026,0 P,0,158147,160024,A
Sprite,Foreground,Centre,"sb\d.png",0,0 M,19,158147,159669,427.7669,205.9609,416.3248,196.2615 F,0,158147,159669,1,0 S,0,158147,159669,0.015,0 P,0,158147,159669,A
Sprite,Foreground,Centre,"sb\d.png",0,0 M,19,158147,159751,427.7669,205.9609,435.1628,241.193 F,0,158147,159751,1,0 S,0,158147,159751,0.036,0 P,0,158147,159751,A
Sprite,Foreground,Centre,"sb\d.png",0,0 M,19,158147,159865,427.7669,205.9609,417.1701,245.5678 F,0,158147,159865,1,0 S,0,158147,159865,0.041,0 P,0,158147,159865,A
Sprite,Foreground,Centre,"sb\d.png",0,0 M,19,158147,159960,427.7669,205.9609,472.1135,236.7729 F,0,158147,159960,1,0 S,0,158147,159960,0.054,0 P,0,158147,159960,A
Sprite,Foreground,Centre,"sb\d.png",0,0 M,19,158147,160190,427.7669,205.9609,436.825,259.1957 F,0,158147,160190,1,0 S,0,158147,160190,0.054,0 P,0,158147,160190,A
Sprite,Foreground,Centre,"sb\d.png",0,0 M,19,158147,159701,427.7669,205.9609,379.6542,225.6882 F,0,158147,159701,1,0 S,0,158147,159701,0.052,0 P,0,158147,159701,A
Sprite,Foreground,Centre,"sb\d.png",0,0 M,19,158147,160022,427.7669,205.9609,423.2065,193.787 F,0,158147,160022,1,0 S,0,158147,160022,0.013,0 P,0,158147,160022,A
Sprite,Foreground,Centre,"sb\d.png",0,0 M,19,158147,159961,427.7669,205.9609,392.0608,252.9298 F,0,158147,159961,1,0 S,0,158147,159961,0.059,0 P,0,158147,159961,A
Sprite,Foreground,Centre,"sb\d.png",0,0 M,19,158147,159635,427.7669,205.9609,473.0001,256.7344 F,0,158147,159635,1,0 S,0,158147,159635,0.068,0 P,0,158147,159635,A
Sprite,Foreground,Centre,"sb\d.png",0,0 M,19,158147,160171,427.7669,205.9609,409.507,197.8014 F,0,158147,160171,1,0 S,0,158147,160171,0.02,0 P,0,158147,160171,A
Sprite,Foreground,Centre,"sb\d.png",0,0 M,19,158147,160092,427.7669,205.9609,380.3702,160.0309 F,0,158147,160092,1,0 S,0,158147,160092,0.066,0 P,0,158147,160092,A
Sprite,Foreground,Centre,"sb\d.png",0,0 M,19,158147,160008,427.7669,205.9609,451.7873,235.4061 F,0,158147,160008,1,0 S,0,158147,160008,0.038,0 P,0,158147,160008,A
Sprite,Foreground,Centre,"sb\d.png",0,0 M,19,158147,160122,427.7669,205.9609,373.9832,162.7369 F,0,158147,160122,1,0 S,0,158147,160122,0.069,0 P,0,158147,160122,A
Sprite,Foreground,Centre,"sb\d.png",0,0 M,19,158147,159818,427.7669,205.9609,443.9467,165.0437 F,0,158147,159818,1,0 S,0,158147,159818,0.044,0 P,0,158147,159818,A
Sprite,Foreground,Centre,"sb\d.png",0,0 M,19,158147,159566,427.7669,205.9609,443.6023,208.2497 F,0,158147,159566,1,0 S,0,158147,159566,0.016,0 P,0,158147,159566,A
Sprite,Foreground,CentreLeft,"sb\f\c\0053.png",185.775,219.9075 F,0,67794,,1 V,19,67794,68499,0,0.35,0.35,0.35 F,0,70000,,0
Sprite,Foreground,CentreRight,"sb\f\c\0053.png",212.025,219.9075 F,0,70000,,1 V,18,70000,70706,0.35,0.35,0,0.35 F,0,70706,,0
Sprite,Foreground,CentreLeft,"sb\f\c\0054.png",212.025,219.9075 F,0,67823,,1 V,19,67823,68529,0,0.35,0.35,0.35 F,0,70029,,0
Sprite,Foreground,CentreRight,"sb\f\c\0054.png",236.525,219.9075 F,0,70029,,1 V,18,70029,70735,0.35,0.35,0,0.35 F,0,70735,,0
Sprite,Foreground,CentreLeft,"sb\f\c\004f.png",236.525,219.9075 F,0,67852,,1 V,19,67852,68558,0,0.35,0.35,0.35 F,0,70059,,0
Sprite,Foreground,CentreRight,"sb\f\c\004f.png",269.075,219.9075 F,0,70059,,1 V,18,70059,70765,0.35,0.35,0,0.35 F,0,70765,,0
Sprite,Foreground,CentreLeft,"sb\f\c\004e.png",269.075,219.9075 F,0,67882,,1 V,19,67882,68588,0,0.35,0.35,0.35 F,0,70088,,0
Sprite,Foreground,CentreRight,"sb\f\c\004e.png",300.575,219.9075 F,0,70088,,1 V,18,70088,70794,0.35,0.35,0,0.35 F,0,70794,,0
Sprite,Foreground,CentreLeft,"sb\f\c\0045.png",300.575,219.9075 F,0,67911,,1 V,19,67911,68617,0,0.35,0.35,0.35 F,0,70118,,0
Sprite,Foreground,CentreRight,"sb\f\c\0045.png",325.775,219.9075 F,0,70118,,1 V,18,70118,70823,0.35,0.35,0,0.35 F,0,70823,,0
Sprite,Foreground,CentreLeft,"sb\f\c\0042.png",325.775,219.9075 F,0,67941,,1 V,19,67941,68646,0,0.35,0.35,0.35 F,0,70147,,0
Sprite,Foreground,CentreRight,"sb\f\c\0042.png",353.425,219.9075 F,0,70147,,1 V,18,70147,70853,0.35,0.35,0,0.35 F,0,70853,,0
Sprite,Foreground,CentreLeft,"sb\f\c\0041.png",353.425,219.9075 F,0,67970,,1 V,19,67970,68676,0,0.35,0.35,0.35 F,0,70176,,0
Sprite,Foreground,CentreRight,"sb\f\c\0041.png",383.525,219.9075 F,0,70176,,1 V,18,70176,70882,0.35,0.35,0,0.35 F,0,70882,,0
Sprite,Foreground,CentreLeft,"sb\f\c\004e.png",383.525,219.9075 F,0,67999,,1 V,19,67999,68705,0,0.35,0.35,0.35 F,0,70206,,0
Sprite,Foreground,CentreRight,"sb\f\c\004e.png",415.025,219.9075 F,0,70206,,1 V,18,70206,70912,0.35,0.35,0,0.35 F,0,70912,,0
Sprite,Foreground,CentreLeft,"sb\f\c\004b.png",415.025,219.9075 F,0,68029,,1 V,19,68029,68735,0,0.35,0.35,0.35 F,0,70235,,0
Sprite,Foreground,CentreRight,"sb\f\c\004b.png",443.725,219.9075 F,0,70235,,1 V,18,70235,70941,0.35,0.35,0,0.35 F,0,70941,,0
Sprite,Foreground,CentreLeft,"sb\f\c\0042.png",85.54999,258.465 F,0,67794,,1 V,19,67794,68499,0,0.3,0.3,0.3 F,0,69676,,0
Sprite,Foreground,CentreRight,"sb\f\c\0042.png",109.25,258.465 F,0,69676,,1 V,18,69676,70382,0.3,0.3,0,0.3 F,0,70382,,0
Sprite,Foreground,CentreLeft,"sb\f\c\0065.png",109.25,258.465 F,0,67823,,1 V,19,67823,68529,0,0.3,0.3,0.3 F,0,69706,,0
Sprite,Foreground,CentreRight,"sb\f\c\0065.png",130.85,258.465 F,0,69706,,1 V,18,69706,70412,0.3,0.3,0,0.3 F,0,70412,,0
Sprite,Foreground,CentreLeft,"sb\f\c\0041.png",145.85,258.465 F,0,67852,,1 V,19,67852,68558,0,0.3,0.3,0.3 F,0,69735,,0
Sprite,Foreground,CentreRight,"sb\f\c\0041.png",171.65,258.465 F,0,69735,,1 V,18,69735,70441,0.3,0.3,0,0.3 F,0,70441,,0
Sprite,Foreground,CentreLeft,"sb\f\c\006c.png",171.65,258.465 F,0,67882,,1 V,19,67882,68588,0,0.3,0.3,0.3 F,0,69765,,0
Sprite,Foreground,CentreRight,"sb\f\c\006c.png",186.65,258.465 F,0,69765,,1 V,18,69765,70471,0.3,0.3,0,0.3 F,0,70471,,0
Sprite,Foreground,CentreLeft,"sb\f\c\0072.png",186.65,258.465 F,0,67911,,1 V,19,67911,68617,0,0.3,0.3,0.3 F,0,69794,,0
Sprite,Foreground,CentreRight,"sb\f\c\0072.png",205.55,258.465 F,0,69794,,1 V,18,69794,70500,0.3,0.3,0,0.3 F,0,70500,,0
Sprite,Foreground,CentreLeft,"sb\f\c\0069.png",205.55,258.465 F,0,67941,,1 V,19,67941,68646,0,0.3,0.3,0.3 F,0,69823,,0
Sprite,Foreground,CentreRight,"sb\f\c\0069.png",220.85,258.465 F,0,69823,,1 V,18,69823,70529,0.3,0.3,0,0.3 F,0,70529,,0
Sprite,Foreground,CentreLeft,"sb\f\c\0067.png",220.85,258.465 F,0,67970,,1 V,19,67970,68676,0,0.3,0.3,0.3 F,0,69853,,0
Sprite,Foreground,CentreRight,"sb\f\c\0067.png",243.65,258.465 F,0,69853,,1 V,18,69853,70559,0.3,0.3,0,0.3 F,0,70559,,0
Sprite,Foreground,CentreLeft,"sb\f\c\0068.png",243.65,258.465 F,0,67999,,1 V,19,67999,68705,0,0.3,0.3,0.3 F,0,69882,,0
Sprite,Foreground,CentreRight,"sb\f\c\0068.png",266.45,258.465 F,0,69882,,1 V,18,69882,70588,0.3,0.3,0,0.3 F,0,70588,,0
Sprite,Foreground,CentreLeft,"sb\f\c\0074.png",266.45,258.465 F,0,68029,,1 V,19,68029,68735,0,0.3,0.3,0.3 F,0,69912,,0
Sprite,Foreground,CentreRight,"sb\f\c\0074.png",284.15,258.465 F,0,69912,,1 V,18,69912,70618,0.3,0.3,0,0.3 F,0,70618,,0
Sprite,Foreground,CentreLeft,"sb\f\c\0028.png",299.15,258.465 F,0,68058,,1 V,19,68058,68764,0,0.3,0.3,0.3 F,0,69941,,0
Sprite,Foreground,CentreRight,"sb\f\c\0028.png",317.45,258.465 F,0,69941,,1 V,18,69941,70647,0.3,0.3,0,0.3 F,0,70647,,0
Sprite,Foreground,CentreLeft,"sb\f\c\0046.png",317.45,258.465 F,0,68088,,1 V,19,68088,68794,0,0.3,0.3,0.3 F,0,69971,,0
Sprite,Foreground,CentreRight,"sb\f\c\0046.png",338.45,258.465 F,0,69971,,1 V,18,69971,70676,0.3,0.3,0,0.3 F,0,70676,,0
Sprite,Foreground,CentreLeft,"sb\f\c\0065.png",338.45,258.465 F,0,68117,,1 V,19,68117,68823,0,0.3,0.3,0.3 F,0,70000,,0
Sprite,Foreground,CentreRight,"sb\f\c\0065.png",360.05,258.465 F,0,70000,,1 V,18,70000,70706,0.3,0.3,0,0.3 F,0,70706,,0
Sprite,Foreground,CentreLeft,"sb\f\c\0061.png",360.05,258.465 F,0,68146,,1 V,19,68146,68852,0,0.3,0.3,0.3 F,0,70029,,0
Sprite,Foreground,CentreRight,"sb\f\c\0061.png",383.45,258.465 F,0,70029,,1 V,18,70029,70735,0.3,0.3,0,0.3 F,0,70735,,0
Sprite,Foreground,CentreLeft,"sb\f\c\0074.png",383.45,258.465 F,0,68176,,1 V,19,68176,68882,0,0.3,0.3,0.3 F,0,70059,,0
Sprite,Foreground,CentreRight,"sb\f\c\0074.png",401.15,258.465 F,0,70059,,1 V,18,70059,70765,0.3,0.3,0,0.3 F,0,70765,,0
Sprite,Foreground,CentreLeft,"sb\f\c\002e.png",401.15,258.465 F,0,68205,,1 V,19,68205,68911,0,0.3,0.3,0.3 F,0,70088,,0
Sprite,Foreground,CentreRight,"sb\f\c\002e.png",416.75,258.465 F,0,70088,,1 V,18,70088,70794,0.3,0.3,0,0.3 F,0,70794,,0
Sprite,Foreground,CentreLeft,"sb\f\c\0045.png",431.75,258.465 F,0,68235,,1 V,19,68235,68941,0,0.3,0.3,0.3 F,0,70118,,0
Sprite,Foreground,CentreRight,"sb\f\c\0045.png",453.35,258.465 F,0,70118,,1 V,18,70118,70823,0.3,0.3,0,0.3 F,0,70823,,0
Sprite,Foreground,CentreLeft,"sb\f\c\004d.png",453.35,258.465 F,0,68264,,1 V,19,68264,68970,0,0.3,0.3,0.3 F,0,70147,,0
Sprite,Foreground,CentreRight,"sb\f\c\004d.png",484.55,258.465 F,0,70147,,1 V,18,70147,70853,0.3,0.3,0,0.3 F,0,70853,,0
Sprite,Foreground,CentreLeft,"sb\f\c\0045.png",484.55,258.465 F,0,68294,,1 V,19,68294,68999,0,0.3,0.3,0.3 F,0,70176,,0
Sprite,Foreground,CentreRight,"sb\f\c\0045.png",506.15,258.465 F,0,70176,,1 V,18,70176,70882,0.3,0.3,0,0.3 F,0,70882,,0
Sprite,Foreground,CentreLeft,"sb\f\c\004c.png",506.15,258.465 F,0,68323,,1 V,19,68323,69029,0,0.3,0.3,0.3 F,0,70206,,0
Sprite,Foreground,CentreRight,"sb\f\c\004c.png",527.15,258.465 F,0,70206,,1 V,18,70206,70912,0.3,0.3,0,0.3 F,0,70912,,0
Sprite,Foreground,CentreLeft,"sb\f\c\0029.png",527.15,258.465 F,0,68352,,1 V,19,68352,69058,0,0.3,0.3,0.3 F,0,70235,,0
Sprite,Foreground,CentreRight,"sb\f\c\0029.png",545.45,258.465 F,0,70235,,1 V,18,70235,70941,0.3,0.3,0,0.3 F,0,70941,,0
Sprite,Foreground,CentreLeft,"sb\f\c\004d.png",229.875,219.9075 F,0,70971,,1 V,19,70971,71676,0,0.35,0.35,0.35 F,0,72911,,0
Sprite,Foreground,CentreRight,"sb\f\c\004d.png",266.275,219.9075 F,0,72911,,1 V,18,72911,73617,0.35,0.35,0,0.35 F,0,73617,,0
Sprite,Foreground,CentreLeft,"sb\f\c\0041.png",266.275,219.9075 F,0,71000,,1 V,19,71000,71706,0,0.35,0.35,0.35 F,0,72941,,0
Sprite,Foreground,CentreRight,"sb\f\c\0041.png",296.375,219.9075 F,0,72941,,1 V,18,72941,73646,0.35,0.35,0,0.35 F,0,73646,,0
Sprite,Foreground,CentreLeft,"sb\f\c\0050.png",296.375,219.9075 F,0,71029,,1 V,19,71029,71735,0,0.35,0.35,0.35 F,0,72970,,0
Sprite,Foreground,CentreRight,"sb\f\c\0050.png",323.675,219.9075 F,0,72970,,1 V,18,72970,73676,0.35,0.35,0,0.35 F,0,73676,,0
Sprite,Foreground,CentreLeft,"sb\f\c\0053.png",323.675,219.9075 F,0,71059,,1 V,19,71059,71765,0,0.35,0.35,0.35 F,0,72999,,0
Sprite,Foreground,CentreRight,"sb\f\c\0053.png",349.925,219.9075 F,0,72999,,1 V,18,72999,73705,0.35,0.35,0,0.35 F,0,73705,,0
Sprite,Foreground,CentreLeft,"sb\f\c\0045.png",349.925,219.9075 F,0,71088,,1 V,19,71088,71794,0,0.35,0.35,0.35 F,0,73029,,0
Sprite,Foreground,CentreRight,"sb\f\c\0045.png",375.125,219.9075 F,0,73029,,1 V,18,73029,73735,0.35,0.35,0,0.35 F,0,73735,,0
Sprite,Foreground,CentreLeft,"sb\f\c\0054.png",375.125,219.9075 F,0,71118,,1 V,19,71118,71823,0,0.35,0.35,0.35 F,0,73058,,0
Sprite,Foreground,CentreRight,"sb\f\c\0054.png",399.625,219.9075 F,0,73058,,1 V,18,73058,73764,0.35,0.35,0,0.35 F,0,73764,,0
Sprite,Foreground,CentreLeft,"sb\f\c\004e.png",243.05,258.465 F,0,70971,,1 V,19,70971,71676,0,0.3,0.3,0.3 F,0,72911,,0
Sprite,Foreground,CentreRight,"sb\f\c\004e.png",270.05,258.465 F,0,72911,,1 V,18,72911,73617,0.3,0.3,0,0.3 F,0,73617,,0
Sprite,Foreground,CentreLeft,"sb\f\c\0068.png",270.05,258.465 F,0,71000,,1 V,19,71000,71706,0,0.3,0.3,0.3 F,0,72941,,0
Sprite,Foreground,CentreRight,"sb\f\c\0068.png",292.85,258.465 F,0,72941,,1 V,18,72941,73646,0.3,0.3,0,0.3 F,0,73646,,0
Sprite,Foreground,CentreLeft,"sb\f\c\0061.png",292.85,258.465 F,0,71029,,1 V,19,71029,71735,0,0.3,0.3,0.3 F,0,72970,,0
Sprite,Foreground,CentreRight,"sb\f\c\0061.png",316.25,258.465 F,0,72970,,1 V,18,72970,73676,0.3,0.3,0,0.3 F,0,73676,,0
Sprite,Foreground,CentreLeft,"sb\f\c\0077.png",316.25,258.465 F,0,71059,,1 V,19,71059,71765,0,0.3,0.3,0.3 F,0,72999,,0
Sprite,Foreground,CentreRight,"sb\f\c\0077.png",342.95,258.465 F,0,72999,,1 V,18,72999,73705,0.3,0.3,0,0.3 F,0,73705,,0
Sprite,Foreground,CentreLeft,"sb\f\c\0061.png",342.95,258.465 F,0,71088,,1 V,19,71088,71794,0,0.3,0.3,0.3 F,0,73029,,0
Sprite,Foreground,CentreRight,"sb\f\c\0061.png",366.35,258.465 F,0,73029,,1 V,18,73029,73735,0.3,0.3,0,0.3 F,0,73735,,0
Sprite,Foreground,CentreLeft,"sb\f\c\006b.png",366.35,258.465 F,0,71118,,1 V,19,71118,71823,0,0.3,0.3,0.3 F,0,73058,,0
Sprite,Foreground,CentreRight,"sb\f\c\006b.png",387.95,258.465 F,0,73058,,1 V,18,73058,73764,0.3,0.3,0,0.3 F,0,73764,,0
Sprite,Foreground,CentreLeft,"sb\f\c\0049.png",233.55,219.9075 F,0,73794,,1 V,19,73794,74499,0,0.35,0.35,0.35 F,0,75735,,0
Sprite,Foreground,CentreRight,"sb\f\c\0049.png",251.4,219.9075 F,0,75735,,1 V,18,75735,76441,0.35,0.35,0,0.35 F,0,76441,,0
Sprite,Foreground,CentreLeft,"sb\f\c\004e.png",251.4,219.9075 F,0,73823,,1 V,19,73823,74529,0,0.35,0.35,0.35 F,0,75765,,0
Sprite,Foreground,CentreRight,"sb\f\c\004e.png",282.9,219.9075 F,0,75765,,1 V,18,75765,76470,0.35,0.35,0,0.35 F,0,76470,,0
Sprite,Foreground,CentreLeft,"sb\f\c\0053.png",282.9,219.9075 F,0,73852,,1 V,19,73852,74558,0,0.35,0.35,0.35 F,0,75794,,0
Sprite,Foreground,CentreRight,"sb\f\c\0053.png",309.15,219.9075 F,0,75794,,1 V,18,75794,76500,0.35,0.35,0,0.35 F,0,76500,,0
Sprite,Foreground,CentreLeft,"sb\f\c\0041.png",309.15,219.9075 F,0,73882,,1 V,19,73882,74588,0,0.35,0.35,0.35 F,0,75823,,0
Sprite,Foreground,CentreRight,"sb\f\c\0041.png",339.25,219.9075 F,0,75823,,1 V,18,75823,76529,0.35,0.35,0,0.35 F,0,76529,,0
Sprite,Foreground,CentreLeft,"sb\f\c\004e.png",339.25,219.9075 F,0,73911,,1 V,19,73911,74617,0,0.35,0.35,0.35 F,0,75853,,0
Sprite,Foreground,CentreRight,"sb\f\c\004e.png",370.75,219.9075 F,0,75853,,1 V,18,75853,76559,0.35,0.35,0,0.35 F,0,76559,,0
Sprite,Foreground,CentreLeft,"sb\f\c\0045.png",370.75,219.9075 F,0,73941,,1 V,19,73941,74646,0,0.35,0.35,0.35 F,0,75882,,0
Sprite,Foreground,CentreRight,"sb\f\c\0045.png",395.95,219.9075 F,0,75882,,1 V,18,75882,76588,0.35,0.35,0,0.35 F,0,76588,,0
Sprite,Foreground,CentreLeft,"sb\f\c\004e.png",124.25,258.465 F,0,73794,,1 V,19,73794,74499,0,0.3,0.3,0.3 F,0,75441,,0
Sprite,Foreground,CentreRight,"sb\f\c\004e.png",151.25,258.465 F,0,75441,,1 V,18,75441,76147,0.3,0.3,0,0.3 F,0,76147,,0
Sprite,Foreground,CentreLeft,"sb\f\c\0068.png",151.25,258.465 F,0,73823,,1 V,19,73823,74529,0,0.3,0.3,0.3 F,0,75470,,0
Sprite,Foreground,CentreRight,"sb\f\c\0068.png",174.05,258.465 F,0,75470,,1 V,18,75470,76176,0.3,0.3,0,0.3 F,0,76176,,0
Sprite,Foreground,CentreLeft,"sb\f\c\0061.png",174.05,258.465 F,0,73852,,1 V,19,73852,74558,0,0.3,0.3,0.3 F,0,75500,,0
Sprite,Foreground,CentreRight,"sb\f\c\0061.png",197.45,258.465 F,0,75500,,1 V,18,75500,76206,0.3,0.3,0,0.3 F,0,76206,,0
Sprite,Foreground,CentreLeft,"sb\f\c\0077.png",197.45,258.465 F,0,73882,,1 V,19,73882,74588,0,0.3,0.3,0.3 F,0,75529,,0
Sprite,Foreground,CentreRight,"sb\f\c\0077.png",224.15,258.465 F,0,75529,,1 V,18,75529,76235,0.3,0.3,0,0.3 F,0,76235,,0
Sprite,Foreground,CentreLeft,"sb\f\c\0061.png",224.15,258.465 F,0,73911,,1 V,19,73911,74617,0,0.3,0.3,0.3 F,0,75559,,0
Sprite,Foreground,CentreRight,"sb\f\c\0061.png",247.55,258.465 F,0,75559,,1 V,18,75559,76265,0.3,0.3,0,0.3 F,0,76265,,0
Sprite,Foreground,CentreLeft,"sb\f\c\006b.png",247.55,258.465 F,0,73941,,1 V,19,73941,74646,0,0.3,0.3,0.3 F,0,75588,,0
Sprite,Foreground,CentreRight,"sb\f\c\006b.png",269.15,258.465 F,0,75588,,1 V,18,75588,76294,0.3,0.3,0,0.3 F,0,76294,,0
Sprite,Foreground,CentreLeft,"sb\f\c\0026.png",284.15,258.465 F,0,73970,,1 V,19,73970,74676,0,0.3,0.3,0.3 F,0,75618,,0
Sprite,Foreground,CentreRight,"sb\f\c\0026.png",308.45,258.465 F,0,75618,,1 V,18,75618,76323,0.3,0.3,0,0.3 F,0,76323,,0
Sprite,Foreground,CentreLeft,"sb\f\c\0050.png",323.45,258.465 F,0,73999,,1 V,19,73999,74705,0,0.3,0.3,0.3 F,0,75647,,0
Sprite,Foreground,CentreRight,"sb\f\c\0050.png",346.85,258.465 F,0,75647,,1 V,18,75647,76353,0.3,0.3,0,0.3 F,0,76353,,0
Sprite,Foreground,CentreLeft,"sb\f\c\006c.png",346.85,258.465 F,0,74029,,1 V,19,74029,74735,0,0.3,0.3,0.3 F,0,75676,,0
Sprite,Foreground,CentreRight,"sb\f\c\006c.png",361.85,258.465 F,0,75676,,1 V,18,75676,76382,0.3,0.3,0,0.3 F,0,76382,,0
Sprite,Foreground,CentreLeft,"sb\f\c\0061.png",361.85,258.465 F,0,74058,,1 V,19,74058,74764,0,0.3,0.3,0.3 F,0,75706,,0
Sprite,Foreground,CentreRight,"sb\f\c\0061.png",385.25,258.465 F,0,75706,,1 V,18,75706,76412,0.3,0.3,0,0.3 F,0,76412,,0
Sprite,Foreground,CentreLeft,"sb\f\c\0075.png",385.25,258.465 F,0,74088,,1 V,19,74088,74794,0,0.3,0.3,0.3 F,0,75735,,0
Sprite,Foreground,CentreRight,"sb\f\c\0075.png",408.05,258.465 F,0,75735,,1 V,18,75735,76441,0.3,0.3,0,0.3 F,0,76441,,0
Sprite,Foreground,CentreLeft,"sb\f\c\0064.png",408.05,258.465 F,0,74117,,1 V,19,74117,74823,0,0.3,0.3,0.3 F,0,75765,,0
Sprite,Foreground,CentreRight,"sb\f\c\0064.png",431.45,258.465 F,0,75765,,1 V,18,75765,76470,0.3,0.3,0,0.3 F,0,76470,,0
Sprite,Foreground,CentreLeft,"sb\f\c\0069.png",431.45,258.465 F,0,74146,,1 V,19,74146,74852,0,0.3,0.3,0.3 F,0,75794,,0
Sprite,Foreground,CentreRight,"sb\f\c\0069.png",446.7499,258.465 F,0,75794,,1 V,18,75794,76500,0.3,0.3,0,0.3 F,0,76500,,0
Sprite,Foreground,CentreLeft,"sb\f\c\0062.png",446.7499,258.465 F,0,74176,,1 V,19,74176,74882,0,0.3,0.3,0.3 F,0,75823,,0
Sprite,Foreground,CentreRight,"sb\f\c\0062.png",470.1499,258.465 F,0,75823,,1 V,18,75823,76529,0.3,0.3,0,0.3 F,0,76529,,0
Sprite,Foreground,CentreLeft,"sb\f\c\006c.png",470.1499,258.465 F,0,74205,,1 V,19,74205,74911,0,0.3,0.3,0.3 F,0,75853,,0
Sprite,Foreground,CentreRight,"sb\f\c\006c.png",485.1499,258.465 F,0,75853,,1 V,18,75853,76559,0.3,0.3,0,0.3 F,0,76559,,0
Sprite,Foreground,CentreLeft,"sb\f\c\0065.png",485.1499,258.465 F,0,74235,,1 V,19,74235,74941,0,0.3,0.3,0.3 F,0,75882,,0
Sprite,Foreground,CentreRight,"sb\f\c\0065.png",506.7499,258.465 F,0,75882,,1 V,18,75882,76588,0.3,0.3,0,0.3 F,0,76588,,0
Sprite,Foreground,CentreLeft,"sb\f\c\0053.png",171.25,219.9075 F,0,76618,,1 V,19,76618,77323,0,0.35,0.35,0.35 F,0,78088,,0
Sprite,Foreground,CentreRight,"sb\f\c\0053.png",197.5,219.9075 F,0,78088,,1 V,18,78088,78793,0.35,0.35,0,0.35 F,0,78793,,0
Sprite,Foreground,CentreLeft,"sb\f\c\0054.png",197.5,219.9075 F,0,76647,,1 V,19,76647,77353,0,0.35,0.35,0.35 F,0,78117,,0
Sprite,Foreground,CentreRight,"sb\f\c\0054.png",222,219.9075 F,0,78117,,1 V,18,78117,78823,0.35,0.35,0,0.35 F,0,78823,,0
Sprite,Foreground,CentreLeft,"sb\f\c\004f.png",222,219.9075 F,0,76676,,1 V,19,76676,77382,0,0.35,0.35,0.35 F,0,78146,,0
Sprite,Foreground,CentreRight,"sb\f\c\004f.png",254.55,219.9075 F,0,78146,,1 V,18,78146,78852,0.35,0.35,0,0.35 F,0,78852,,0
Sprite,Foreground,CentreLeft,"sb\f\c\0052.png",254.55,219.9075 F,0,76706,,1 V,19,76706,77412,0,0.35,0.35,0.35 F,0,78176,,0
Sprite,Foreground,CentreRight,"sb\f\c\0052.png",281.85,219.9075 F,0,78176,,1 V,18,78176,78882,0.35,0.35,0,0.35 F,0,78882,,0
Sprite,Foreground,CentreLeft,"sb\f\c\0059.png",281.85,219.9075 F,0,76735,,1 V,19,76735,77441,0,0.35,0.35,0.35 F,0,78205,,0
Sprite,Foreground,CentreRight,"sb\f\c\0059.png",311.25,219.9075 F,0,78205,,1 V,18,78205,78911,0.35,0.35,0,0.35 F,0,78911,,0
Sprite,Foreground,CentreLeft,"sb\f\c\0042.png",311.25,219.9075 F,0,76765,,1 V,19,76765,77470,0,0.35,0.35,0.35 F,0,78235,,0
Sprite,Foreground,CentreRight,"sb\f\c\0042.png",338.9,219.9075 F,0,78235,,1 V,18,78235,78940,0.35,0.35,0,0.35 F,0,78940,,0
Sprite,Foreground,CentreLeft,"sb\f\c\004f.png",338.9,219.9075 F,0,76794,,1 V,19,76794,77500,0,0.35,0.35,0.35 F,0,78264,,0
Sprite,Foreground,CentreRight,"sb\f\c\004f.png",371.45,219.9075 F,0,78264,,1 V,18,78264,78970,0.35,0.35,0,0.35 F,0,78970,,0
Sprite,Foreground,CentreLeft,"sb\f\c\0041.png",371.45,219.9075 F,0,76823,,1 V,19,76823,77529,0,0.35,0.35,0.35 F,0,78293,,0
Sprite,Foreground,CentreRight,"sb\f\c\0041.png",401.55,219.9075 F,0,78293,,1 V,18,78293,78999,0.35,0.35,0,0.35 F,0,78999,,0
Sprite,Foreground,CentreLeft,"sb\f\c\0052.png",401.55,219.9075 F,0,76853,,1 V,19,76853,77559,0,0.35,0.35,0.35 F,0,78323,,0
Sprite,Foreground,CentreRight,"sb\f\c\0052.png",428.8499,219.9075 F,0,78323,,1 V,18,78323,79029,0.35,0.35,0,0.35 F,0,79029,,0
Sprite,Foreground,CentreLeft,"sb\f\c\0044.png",428.8499,219.9075 F,0,76882,,1 V,19,76882,77588,0,0.35,0.35,0.35 F,0,78352,,0
Sprite,Foreground,CentreRight,"sb\f\c\0044.png",458.2499,219.9075 F,0,78352,,1 V,18,78352,79058,0.35,0.35,0,0.35 F,0,79058,,0
Sprite,Foreground,CentreLeft,"sb\f\c\0048.png",167.15,258.465 F,0,76618,,1 V,19,76618,77323,0,0.3,0.3,0.3 F,0,78029,,0
Sprite,Foreground,CentreRight,"sb\f\c\0048.png",192.35,258.465 F,0,78029,,1 V,18,78029,78735,0.3,0.3,0,0.3 F,0,78735,,0
Sprite,Foreground,CentreLeft,"sb\f\c\006f.png",192.35,258.465 F,0,76647,,1 V,19,76647,77353,0,0.3,0.3,0.3 F,0,78058,,0
Sprite,Foreground,CentreRight,"sb\f\c\006f.png",214.85,258.465 F,0,78058,,1 V,18,78058,78764,0.3,0.3,0,0.3 F,0,78764,,0
Sprite,Foreground,CentreLeft,"sb\f\c\006b.png",214.85,258.465 F,0,76676,,1 V,19,76676,77382,0,0.3,0.3,0.3 F,0,78088,,0
Sprite,Foreground,CentreRight,"sb\f\c\006b.png",236.45,258.465 F,0,78088,,1 V,18,78088,78793,0.3,0.3,0,0.3 F,0,78793,,0
Sprite,Foreground,CentreLeft,"sb\f\c\0069.png",236.45,258.465 F,0,76706,,1 V,19,76706,77412,0,0.3,0.3,0.3 F,0,78117,,0
Sprite,Foreground,CentreRight,"sb\f\c\0069.png",251.75,258.465 F,0,78117,,1 V,18,78117,78823,0.3,0.3,0,0.3 F,0,78823,,0
Sprite,Foreground,CentreLeft,"sb\f\c\0063.png",251.75,258.465 F,0,76735,,1 V,19,76735,77441,0,0.3,0.3,0.3 F,0,78146,,0
Sprite,Foreground,CentreRight,"sb\f\c\0063.png",273.05,258.465 F,0,78146,,1 V,18,78146,78852,0.3,0.3,0,0.3 F,0,78852,,0
Sprite,Foreground,CentreLeft,"sb\f\c\0068.png",273.05,258.465 F,0,76765,,1 V,19,76765,77470,0,0.3,0.3,0.3 F,0,78176,,0
Sprite,Foreground,CentreRight,"sb\f\c\0068.png",295.85,258.465 F,0,78176,,1 V,18,78176,78882,0.3,0.3,0,0.3 F,0,78882,,0
Sprite,Foreground,CentreLeft,"sb\f\c\0069.png",295.85,258.465 F,0,76794,,1 V,19,76794,77500,0,0.3,0.3,0.3 F,0,78205,,0
Sprite,Foreground,CentreRight,"sb\f\c\0069.png",311.15,258.465 F,0,78205,,1 V,18,78205,78911,0.3,0.3,0,0.3 F,0,78911,,0
Sprite,Foreground,CentreLeft,"sb\f\c\0026.png",326.15,258.465 F,0,76823,,1 V,19,76823,77529,0,0.3,0.3,0.3 F,0,78235,,0
Sprite,Foreground,CentreRight,"sb\f\c\0026.png",350.45,258.465 F,0,78235,,1 V,18,78235,78940,0.3,0.3,0,0.3 F,0,78940,,0
Sprite,Foreground,CentreLeft,"sb\f\c\004d.png",365.45,258.465 F,0,76853,,1 V,19,76853,77559,0,0.3,0.3,0.3 F,0,78264,,0
Sprite,Foreground,CentreRight,"sb\f\c\004d.png",396.65,258.465 F,0,78264,,1 V,18,78264,78970,0.3,0.3,0,0.3 F,0,78970,,0
Sprite,Foreground,CentreLeft,"sb\f\c\0075.png",396.65,258.465 F,0,76882,,1 V,19,76882,77588,0,0.3,0.3,0.3 F,0,78293,,0
Sprite,Foreground,CentreRight,"sb\f\c\0075.png",419.45,258.465 F,0,78293,,1 V,18,78293,78999,0.3,0.3,0,0.3 F,0,78999,,0
Sprite,Foreground,CentreLeft,"sb\f\c\006e.png",419.45,258.465 F,0,76912,,1 V,19,76912,77618,0,0.3,0.3,0.3 F,0,78323,,0
Sprite,Foreground,CentreRight,"sb\f\c\006e.png",442.2499,258.465 F,0,78323,,1 V,18,78323,79029,0.3,0.3,0,0.3 F,0,79029,,0
Sprite,Foreground,CentreLeft,"sb\f\c\0065.png",442.2499,258.465 F,0,76941,,1 V,19,76941,77647,0,0.3,0.3,0.3 F,0,78352,,0
Sprite,Foreground,CentreRight,"sb\f\c\0065.png",463.8499,258.465 F,0,78352,,1 V,18,78352,79058,0.3,0.3,0,0.3 F,0,79058,,0
//Storyboard Layer 4 (Overlay)
//Storyboard Sound Samples

[TimingPoints]
30,352.941176470588,4,2,1,60,1,0
30,-200,4,2,1,60,0,0
5677,-133.333333333333,4,2,1,60,0,0
5941,-133.333333333333,4,2,1,5,0,0
6029,-133.333333333333,4,2,1,60,0,0
6294,-133.333333333333,4,2,1,5,0,0
6382,-133.333333333333,4,2,1,60,0,0
7353,-133.333333333333,4,2,1,5,0,0
7441,-133.333333333333,4,2,1,60,0,0
7706,-133.333333333333,4,2,1,5,0,0
7794,-133.333333333333,4,2,1,60,0,0
8765,-133.333333333333,4,2,1,5,0,0
8853,-133.333333333333,4,2,1,60,0,0
9118,-133.333333333333,4,2,1,5,0,0
9206,-133.333333333333,4,2,1,60,0,0
10177,-133.333333333333,4,2,1,5,0,0
10265,-133.333333333333,4,2,1,60,0,0
10529,-133.333333333333,4,2,1,5,0,0
10618,-133.333333333333,4,2,1,60,0,0
11324,-133.333333333333,4,2,1,60,0,0
11588,-133.333333333333,4,2,1,5,0,0
11677,-133.333333333333,4,2,1,60,0,0
12029,-125,4,2,1,60,0,0
12294,-125,4,2,1,5,0,0
12382,-125,4,2,1,60,0,0
12735,-117.647058823529,4,2,1,60,0,0
13000,-117.647058823529,4,2,1,5,0,0
13088,-117.647058823529,4,2,1,60,0,0
13441,-111.111111111111,4,2,1,60,0,0
13706,-111.111111111111,4,2,1,5,0,0
13794,-111.111111111111,4,2,1,60,0,0
14147,-105.263157894737,4,2,1,60,0,0
14412,-105.263157894737,4,2,1,5,0,0
14500,-105.263157894737,4,2,1,60,0,0
14853,-100,4,2,1,60,0,0
15118,-100,4,2,1,5,0,0
15206,-100,4,2,1,60,0,0
15559,-95.2380952380952,4,2,1,60,0,0
15824,-95.2380952380952,4,2,1,5,0,0
15912,-95.2380952380952,4,2,1,60,0,0
16265,-90.9090909090909,4,2,1,60,0,0
22618,-133.333333333333,4,2,1,30,0,0
45206,-100,4,2,1,30,0,0
47588,-100,4,2,1,5,0,0
47677,-100,4,2,1,30,0,0
50412,-100,4,2,1,5,0,0
50500,-100,4,2,1,30,0,0
58882,-100,4,2,1,5,0,0
58970,-100,4,2,1,30,0,0
67794,-100,4,2,1,60,0,0
69206,-100,4,2,1,5,0,0
69382,-100,4,2,1,60,0,0
69559,-100,4,2,1,5,0,0
69735,-100,4,2,1,60,0,0
69912,-100,4,2,1,5,0,0
70088,-100,4,2,1,60,0,0
72029,-100,4,2,1,5,0,0
72206,-100,4,2,1,60,0,0
72382,-100,4,2,1,5,0,0
72559,-100,4,2,1,60,0,0
72735,-100,4,2,1,5,0,0
72912,-100,4,2,1,60,0,0
74853,-100,4,2,1,5,0,0
75029,-100,4,2,1,60,0,0
75206,-100,4,2,1,5,0,0
75382,-100,4,2,1,60,0,0
75559,-100,4,2,1,5,0,0
75735,-100,4,2,1,60,0,0
79088,-133.333333333333,4,2,2,60,0,0
80324,-125,4,2,2,60,0,0
81912,-117.647058823529,4,2,2,60,0,0
83147,-111.111111111111,4,2,2,60,0,0
84735,-105.263157894737,4,2,2,60,0,0
85441,-100,4,2,2,60,0,0
89147,-100,4,2,1,60,0,0
90382,-100,4,2,1,60,0,1
100088,-133.333333333333,4,2,1,60,0,0
100353,-133.333333333333,4,2,1,5,0,0
100441,-133.333333333333,4,2,1,60,0,0
100706,-133.333333333333,4,2,1,5,0,0
100794,-100,4,2,1,60,0,0
101677,-100,4,2,1,60,0,1
111559,-100,4,2,1,60,0,0
115706,-100,4,2,1,5,0,0
115794,-100,4,2,1,60,0,0
118529,-100,4,2,1,5,0,0
118618,-100,4,2,1,60,0,0
123029,-100,4,2,2,60,0,0
124265,-100,4,2,1,60,0,0
127000,-100,4,2,1,5,0,0
127088,-100,4,2,1,60,0,0
129824,-100,4,2,1,5,0,0
129912,-100,4,2,1,60,0,0
135559,-100,4,2,1,60,0,1
145265,-181.818181818181,4,2,1,40,0,0
145529,-181.818181818181,4,2,1,5,0,0
145618,-181.818181818181,4,2,1,30,0,0
145971,-100,4,2,1,20,0,0
146500,-100,4,2,1,40,0,0
146853,-100,4,2,1,60,0,1
152500,-100,4,2,1,60,0,0
152853,-181.818181818181,4,2,1,30,0,0
154088,-181.818181818181,4,2,1,25,0,0
154441,-181.818181818181,4,2,1,20,0,0
154794,-181.818181818181,4,2,1,15,0,0
155677,-181.818181818181,4,2,1,10,0,0

[Colours]
Combo1 : 255,179,142
Combo2 : 255,255,125
Combo3 : 111,255,255
Combo4 : 255,125,125

[HitObjects]
246,263,30,5,4,0:0:0:0:
78,164,382,1,4,0:0:0:0:
78,363,735,5,4,0:0:0:0:
162,215,912,1,2,0:0:0:0:
162,215,1088,2,0,L|160:254,1,20,4|2,0:0|0:0,0:0:0:0:
327,212,1441,5,4,0:0:0:0:
160,112,1793,1,4,0:0:0:0:
160,311,2146,5,4,0:0:0:0:
245,163,2323,1,2,0:0:0:0:
245,163,2500,2,0,L|242:201,1,20,4|2,0:0|0:0,0:0:0:0:
410,161,2853,5,4,0:0:0:0:
242,62,3205,1,4,0:0:0:0:
246,263,3558,5,4,0:0:0:0:
326,111,3735,1,2,0:0:0:0:
326,111,3912,2,0,L|323:149,1,20,4|2,0:0|0:0,0:0:0:0:
492,110,4265,5,4,0:0:0:0:
324,11,4617,1,4,0:0:0:0:
324,208,4970,5,4,0:0:0:0:
409,60,5147,1,2,0:0:0:0:
409,60,5324,2,0,L|406:98,1,20,4|2,0:0|0:0,0:0:0:0:
407,229,5677,6,0,P|390:266|326:292,1,90.0000034332277,4|0,0:0|0:0,0:0:0:0:
349,290,6029,2,0,P|307:293|253:251,1,90.0000034332277,4|0,0:0|0:0,0:0:0:0:
266,270,6382,6,0,P|246:243|254:191,1,60.0000022888184,4|2,0:0|0:0,0:0:0:0:
278,372,6735,6,0,P|263:383|232:379,1,30.0000011444092,4|2,0:0|0:0,0:0:0:0:
315,172,7088,6,0,P|289:204|220:212,1,90.0000034332277,4|0,0:0|0:0,0:0:0:0:
243,217,7441,2,0,P|202:209|161:156,1,90.0000034332277,4|0,0:0|0:0,0:0:0:0:
168,176,7794,6,0,P|156:145|174:101,1,60.0000022888184,4|2,0:0|0:0,0:0:0:0:
152,277,8146,6,0,P|135:284|106:271,1,30.0000011444092,4|2,0:0|0:0,0:0:0:0:
242,95,8500,6,0,P|208:118|139:108,1,90.0000034332277,4|0,0:0|0:0,0:0:0:0:
160,118,8853,2,0,P|122:99|96:35,1,90.0000034332277,4|0,0:0|0:0,0:0:0:0:
98,59,9205,6,0,P|94:25|127:-15,1,60.0000022888184,4|2,0:0|0:0,0:0:0:0:
55,155,9558,6,0,P|36:156|12:137,1,30.0000011444092,4|2,0:0|0:0,0:0:0:0:
241,95,9912,6,0,P|275:72|344:82,1,90.0000034332277,4|0,0:0|0:0,0:0:0:0:
323,72,10264,2,0,P|361:91|387:155,1,90.0000034332277,4|0,0:0|0:0,0:0:0:0:
385,131,10618,5,4,0:0:0:0:
404,317,10794,1,0,1:0:0:0:
233,241,10971,1,4,0:0:0:0:
339,227,11147,1,8,0:0:0:0:
293,343,11324,6,0,L|199:350,1,90.0000034332277,4|0,0:0|0:0,0:0:0:0:
203,349,11677,2,0,L|138:354,1,60.0000022888184,4|0,0:0|0:0,0:0:0:0:
74,227,12029,6,0,L|176:235,1,96,4|0,0:0|0:0,0:0:0:0:
169,235,12382,2,0,L|251:242,1,64,6|0,0:0|0:0,0:0:0:0:
409,158,12735,6,0,P|423:112|411:50,1,102.000001945496,4|0,0:0|0:0,0:0:0:0:
414,60,13088,2,0,P|380:67|351:90,1,68.0000012969971,4|0,0:0|0:0,0:0:0:0:
378,308,13441,6,0,P|432:311|487:281,1,107.999996704102,4|0,0:0|0:0,0:0:0:0:
479,289,13794,2,0,P|461:259|426:235,1,71.9999978027344,6|0,0:0|0:0,0:0:0:0:
200,266,14147,6,0,P|210:321|256:364,1,113.999996955872,4|0,0:0|0:0,0:0:0:0:
250,362,14500,2,0,P|272:336|286:294,1,75.9999979705811,4|0,0:0|0:0,0:0:0:0:
141,103,14853,6,0,P|87:133|60:189,1,120,4|0,0:0|0:0,0:0:0:0:
61,183,15206,2,0,P|92:196|141:196,1,80,6|0,0:0|0:0,0:0:0:0:
318,65,15559,6,0,P|272:23|203:17,1,125.999996154785,4|0,0:0|0:0,0:0:0:0:
210,15,15912,2,0,P|206:51|226:96,1,83.9999974365235,4|0,0:0|0:0,0:0:0:0:
409,158,16265,5,4,0:0:0:0:
467,11,16441,1,0,1:0:0:0:
318,65,16618,1,6,0:0:0:0:
481,100,16794,1,8,0:0:0:0:
318,65,16971,6,0,P|301:115|307:167,1,88.000002685547,8|0,0:0|0:0,0:0:0:0:
160,155,17324,2,0,P|160:111|145:71,1,88.000002685547,8|0,0:0|0:0,0:0:0:0:
366,220,17677,6,0,P|349:270|355:322,1,88.000002685547,8|0,0:0|0:0,0:0:0:0:
121,312,18030,2,0,P|121:268|106:228,1,88.000002685547,8|0,0:0|0:0,0:0:0:0:
254,88,18382,5,8,0:0:0:0:
366,220,18559,1,0,0:0:0:0:
376,98,18735,1,8,0:0:0:0:
243,210,18912,1,0,0:0:0:0:
143,149,19088,5,8,0:0:0:0:
18,294,19265,1,0,0:0:0:0:
8,159,19441,1,8,0:0:0:0:
154,282,19618,1,0,0:0:0:0:
243,210,19794,6,0,L|294:217,3,44.0000013427735,8|0|0|0,0:0|0:0|0:0|0:0,0:0:0:0:
342,275,20147,2,0,L|393:268,3,44.0000013427735,8|0|0|0,0:0|0:0|0:0|0:0,0:0:0:0:
466,262,20500,5,8,0:0:0:0:
490,242,20588,1,0,0:0:0:0:
507,216,20677,1,0,0:0:0:0:
508,185,20765,1,0,0:0:0:0:
498,155,20853,1,8,0:0:0:0:
467,150,20941,1,0,0:0:0:0:
436,145,21029,1,0,0:0:0:0:
405,140,21118,1,0,0:0:0:0:
250,115,21382,5,2,0:0:0:0:
390,44,21559,1,2,0:0:0:0:
317,182,21735,1,2,0:0:0:0:
294,27,21912,5,2,0:0:0:0:
317,182,22088,1,2,0:0:0:0:
390,44,22265,1,2,0:0:0:0:
250,115,22441,1,2,0:0:0:0:
405,140,22618,5,4,0:1:0:0:
271,278,24029,6,0,B|232:303|169:291|199:257|142:242|102:268,2,180.000006866455,0|2|0,0:0|0:0|0:0,0:0:0:0:
233,199,25441,1,0,0:0:0:0:
233,199,26677,5,0,0:0:0:0:
233,199,26853,2,0,P|297:194|356:227,1,120.000004577637,0|2,0:0|0:0,0:0:0:0:
512,115,27559,2,0,P|458:139|398:133,1,120.000004577637,0|2,0:0|0:0,0:0:0:0:
314,100,28265,1,0,0:0:0:0:
314,100,29324,5,0,0:0:0:0:
386,48,29500,1,0,0:0:0:0:
396,137,29677,2,0,P|326:191|243:155,2,180.000006866455,0|2|0,0:0|0:0|0:0,0:0:0:0:
314,100,31088,1,0,0:0:0:0:
314,100,31971,5,0,0:0:0:0:
468,85,32147,1,2,0:0:0:0:
386,48,32324,1,0,0:0:0:0:
396,137,32500,1,0,0:0:0:0:
304,11,32853,5,2,0:0:0:0:
324,189,33206,1,0,0:0:0:0:
468,85,33559,1,0,0:0:0:0:
468,172,33912,5,0,0:0:0:0:
95,119,34971,1,2,0:0:0:0:
289,192,35324,6,0,B|321:154|320:109|320:109|328:152|367:188,2,180.000006866455,0|2|0,0:0|0:0|0:0,0:0:0:0:
338,272,36735,2,0,B|380:290|424:254|424:254|460:221|530:248,1,180.000006866455,0|0,0:0|0:0,0:0:0:0:
506,240,37971,1,0,0:0:0:0:
422,207,38147,5,2,0:0:0:0:
490,148,38324,1,0,0:0:0:0:
422,207,38500,2,0,P|363:217|308:186,1,120.000004577637,0|2,0:0|0:0,0:0:0:0:
379,128,39029,1,0,0:0:0:0:
445,66,39206,2,0,P|392:38|334:48,1,120.000004577637,0|0,0:0|0:0,0:0:0:0:
100,214,40618,6,0,P|109:178|108:148,1,60.0000022888184,2|0,0:0|0:0,0:0:0:0:
17,238,40971,2,0,P|81:254|124:355,2,180.000006866455,0|2|0,0:0|0:0|0:0,0:0:0:0:
22,337,42382,5,0,0:0:0:0:
331,314,45206,6,0,P|394:356|476:303,1,160,4|2,0:1|0:0,0:0:0:0:
401,274,45735,2,0,B|383:239|394:183|424:210|437:160|418:124,1,160,0|0,0:0|0:0,0:0:0:0:
392,46,46265,2,0,P|431:44|469:57,1,80,2|0,0:0|0:0,0:0:0:0:
240,128,46618,5,0,0:0:0:0:
300,215,46794,1,0,0:0:0:0:
240,128,46971,2,0,L|319:115,1,80,2|0,0:0|0:0,0:0:0:0:
162,76,47324,2,0,P|148:113|179:198,1,120,0|0,0:0|0:0,0:0:0:0:
169,187,47677,1,2,0:0:0:0:
220,351,48029,6,0,B|179:356|137:327|172:308|123:278|85:282,1,160,0|2,0:0|0:0,0:0:0:0:
1,378,48559,2,0,B|1:286|1:286|-7:278|-7:278|1:270|1:270|1:210,1,160,0|0,0:0|0:0,0:0:0:0:
87,103,49088,1,2,0:0:0:0:
85,192,49265,1,0,0:0:0:0:
48,28,49441,6,0,P|86:18|125:26,1,80,0|0,0:0|0:0,0:0:0:0:
251,100,49794,2,0,P|212:92|174:103,1,80,2|0,0:0|0:0,0:0:0:0:
300,23,50147,2,0,P|354:2|411:15,1,120,0|0,0:0|0:0,0:0:0:0:
411,15,50500,1,2,0:0:0:0:
363,155,50853,6,0,B|363:200|363:200|355:208|355:208|363:216|363:216|363:308,1,160,0|2,0:0|0:0,0:0:0:0:
413,366,51382,2,0,B|374:350|363:307|363:307|358:347|313:367,1,160,0|0,0:0|0:0,0:0:0:0:
280,288,51912,1,2,0:0:0:0:
231,357,52088,1,0,0:0:0:0:
245,210,52265,6,0,B|235:184|235:184|241:162|241:162|232:143|232:143|234:121|234:121|219:94|168:90|143:140|143:140|160:134|174:142,2,240,0|0|2,0:0|0:0|0:0,0:0:0:0:
324,128,53500,5,0,0:0:0:0:
391,61,53677,2,0,P|351:53|318:32,1,80,0|0,0:0|0:0,0:0:0:0:
504,204,54029,5,2,0:0:0:0:
437,136,54206,2,0,P|477:128|510:107,1,80,0|0,0:0|0:0,0:0:0:0:
324,302,54559,5,0,0:0:0:0:
391,235,54736,2,0,P|351:227|318:206,1,80,2|0,0:0|0:0,0:0:0:0:
512,373,55088,5,0,0:0:0:0:
445,306,55265,1,0,0:0:0:0:
512,239,55441,1,2,0:0:0:0:
445,172,55618,1,0,0:0:0:0:
512,105,55794,6,0,P|479:82|440:76,1,80,0|0,0:0|0:0,0:0:0:0:
399,0,56059,1,0,0:0:0:0:
399,0,56147,2,0,P|366:22|327:28,1,80,2|0,0:0|0:0,0:0:0:0:
161,66,56500,6,0,B|178:52|189:25|189:25|191:95|247:136,1,160,4|2,0:1|0:0,0:0:0:0:
144,159,57029,1,0,0:0:0:0:
144,159,57206,2,0,L|54:167,1,80,0|0,0:0|0:0,0:0:0:0:
183,296,57559,2,0,L|272:304,1,80,2|0,0:0|0:0,0:0:0:0:
85,249,57912,5,0,0:0:0:0:
144,159,58088,1,0,0:0:0:0:
85,249,58265,2,0,B|70:290|70:290|80:335,1,80,2|0,0:0|0:0,0:0:0:0:
273,354,58618,2,0,P|234:303|170:297,1,120,0|0,0:0|0:0,0:0:0:0:
182,295,58971,1,2,0:0:0:0:
195,142,59324,6,0,B|248:139|278:167|278:167|305:190|349:187,1,160,0|2,0:0|0:0,0:0:0:0:
323,67,59853,2,0,B|321:38|347:4|347:4|357:44|336:93,1,160,0|0,0:0|0:0,0:0:0:0:
219,234,60382,1,2,0:0:0:0:
316,212,60559,1,0,0:0:0:0:
219,234,60735,6,0,P|191:275|187:318,1,80,0|0,0:0|0:0,0:0:0:0:
316,212,61088,2,0,P|295:167|260:142,1,80,0|0,0:0|0:0,0:0:0:0:
284,307,61441,2,0,P|334:310|373:292,1,80,0|0,0:0|0:0,0:0:0:0:
272,148,61794,1,2,0:0:0:0:
219,234,61971,1,0,0:0:0:0:
272,148,62147,6,0,B|294:105|294:105|151:123,1,160,0|2,0:0|0:0,0:0:0:0:
94,89,62677,2,0,B|72:132|72:132|215:114,1,160,0|0,0:0|0:0,0:0:0:0:
337,102,63206,1,2,0:0:0:0:
256,50,63382,1,0,0:0:0:0:
268,196,63559,6,0,B|304:218|343:201|343:201|348:184|348:184|342:169|342:169|350:152|350:152|350:128|350:128|395:110|450:144,2,240,0|0|2,0:0|0:0|0:0,0:0:0:0:
288,296,64794,5,0,0:0:0:0:
198,344,64971,2,0,L|193:264,1,80,0|0,0:0|0:0,0:0:0:0:
13,195,65324,5,2,0:0:0:0:
103,243,65501,2,0,L|107:163,1,80,0|0,0:0|0:0,0:0:0:0:
315,109,65853,5,0,0:0:0:0:
225,158,66030,2,0,L|220:78,1,80,2|0,0:0|0:0,0:0:0:0:
256,192,66382,12,0,67618,0:0:0:0:
266,228,67794,6,0,B|300:250|356:239|330:209|380:195|416:219,2,160,4|2|2,0:1|0:0|0:0,0:0:0:0:
266,228,69029,2,0,P|267:188|241:160,1,80,2|0,0:0|0:0,0:0:0:0:
241,160,69382,2,0,P|241:120|268:92,1,80,2|0,0:0|0:0,0:0:0:0:
267,92,69735,2,0,P|268:53|241:25,1,80,2|0,0:0|0:0,0:0:0:0:
77,110,70088,1,2,0:0:0:0:
77,110,70265,1,2,0:0:0:0:
77,110,70971,6,0,B|80:155|80:155|85:158|85:158|81:163|81:163|83:192|83:192|80:197|80:197|84:200|84:200|89:262,1,160,2|2,0:0|0:0,0:0:0:0:
89,262,71853,2,0,P|117:235|157:236,1,80,2|0,0:0|0:0,0:0:0:0:
156,235,72206,2,0,L|161:315,1,80,2|0,0:0|0:0,0:0:0:0:
160,314,72559,2,0,P|189:340|228:340,1,80,2|0,0:0|0:0,0:0:0:0:
325,190,72912,1,2,0:0:0:0:
379,261,73088,2,0,P|302:275|242:226,1,160,2|0,0:0|0:0,0:0:0:0:
325,190,73794,6,0,P|363:150|470:163,1,160,2|2,0:0|0:0,0:0:0:0:
461,155,74677,6,0,P|489:184|488:223,1,80,2|0,0:0|0:0,0:0:0:0:
488,221,75030,2,0,P|461:249|462:289,1,80,2|0,0:0|0:0,0:0:0:0:
461,288,75383,2,0,P|487:316|486:356,1,80,2|0,0:0|0:0,0:0:0:0:
289,250,75736,1,2,0:0:0:0:
289,250,75913,1,2,0:0:0:0:
289,250,76618,6,0,B|255:272|199:261|225:231|175:217|139:241,1,160,2|2,0:0|0:0,0:0:0:0:
139,240,77500,2,0,P|79:288|3:274,2,160,2|2|2,0:0|0:0|0:0,0:0:0:0:
60,208,78382,5,2,0:0:0:0:
37,46,78559,1,2,0:0:0:0:
94,118,78735,5,2,0:0:0:0:
0,132,78912,1,2,0:0:0:0:
139,240,79088,6,0,L|202:236,1,60.0000022888184,12|0,0:0|0:0,0:0:0:0:
255,149,79441,2,0,P|239:124|234:88,1,60.0000022888184,8|0,0:0|0:0,0:0:0:0:
233,94,79794,2,0,P|217:119|194:137,1,60.0000022888184,8|0,0:0|0:0,0:0:0:0:
91,136,80147,1,8,0:0:0:0:
139,240,80324,6,0,P|123:265|114:303,1,64,0|8,0:0|0:0,0:0:0:0:
114,297,80677,2,0,P|98:271|70:253,1,64,0|8,0:0|0:0,0:0:0:0:
91,136,81029,2,0,L|165:147,1,64,0|8,0:0|0:0,0:0:0:0:
278,51,81382,1,0,0:0:0:0:
278,51,81559,2,0,P|248:68|230:101,1,64,8|0,0:0|0:0,0:0:0:0:
348,207,81912,6,0,P|347:172|328:138,1,68.0000012969971,8|0,0:0|0:0,0:0:0:0:
175,191,82265,2,0,L|243:201,1,68.0000012969971,8|0,0:0|0:0,0:0:0:0:
242,200,82618,2,0,P|246:254|238:273,1,68.0000012969971,8|0,0:0|0:0,0:0:0:0:
169,357,82971,1,8,0:0:0:0:
310,346,83147,6,0,L|388:337,1,71.9999978027344
381,337,83500,2,0,P|384:283|375:263,1,71.9999978027344
510,185,83853,2,0,P|502:217|515:258,1,71.9999978027344
387,125,84206,1,0,0:0:0:0:
387,125,84382,2,0,L|309:120,1,71.9999978027344,8|0,0:0|0:0,0:0:0:0:
193,261,84735,5,8,0:0:0:0:
75,156,84912,1,0,0:0:0:0:
193,261,85088,2,0,P|219:313|217:349,1,75.9999979705811,8|0,0:0|0:0,0:0:0:0:
159,107,85441,5,8,0:0:0:0:
95,252,85618,1,0,0:0:0:0:
159,107,85794,2,0,P|166:48|151:15,1,80,8|0,0:0|0:0,0:0:0:0:
231,176,86147,5,8,0:0:0:0:
400,164,86324,1,0,0:0:0:0:
304,0,86500,1,8,0:0:0:0:
315,170,86677,1,0,0:0:0:0:
479,74,86853,5,8,0:0:0:0:
310,85,87030,1,0,0:0:0:0:
406,249,87206,1,8,0:0:0:0:
394,79,87382,1,0,0:0:0:0:
231,176,87559,6,0,L|187:168,3,40,8|0|0|0,0:0|0:0|0:0|0:0,0:0:0:0:
145,72,87912,2,0,L|184:64,3,40,8|0|0|0,0:0|0:0|0:0|0:0,0:0:0:0:
82,180,88265,5,8,0:0:0:0:
58,165,88353,1,0,0:0:0:0:
47,139,88441,1,0,0:0:0:0:
50,111,88529,1,0,0:0:0:0:
63,86,88618,5,8,0:0:0:0:
90,81,88706,1,0,0:0:0:0:
117,76,88794,1,0,0:0:0:0:
145,72,88882,1,0,0:0:0:0:
306,91,89147,5,2,0:0:0:0:
170,161,89324,1,2,0:0:0:0:
243,23,89500,1,2,0:0:0:0:
266,178,89677,5,4,0:0:0:0:
243,23,89853,1,4,0:0:0:0:
243,23,89941,1,0,0:0:0:0:
243,23,90029,1,4,0:0:0:0:
170,161,90206,1,4,0:0:0:0:
397,47,90382,6,0,P|357:48|322:66,1,80,4|0,0:1|0:0,0:0:0:0:
392,205,90735,2,0,L|377:117,1,80,8|0,0:0|0:0,0:0:0:0:
353,290,91088,1,4,0:0:0:0:
469,131,91265,1,0,0:0:0:0:
496,302,91441,2,0,L|482:223,1,80,8|2,0:0|0:0,0:0:0:0:
302,187,91794,5,4,0:0:0:0:
392,205,91971,1,2,0:0:0:0:
263,272,92147,5,8,0:0:0:0:
353,290,92324,1,2,0:0:0:0:
224,357,92500,5,4,0:0:0:0:
314,375,92677,1,2,0:0:0:0:
180,251,92853,6,0,B|134:237|120:203|120:203|114:244|65:271,1,160,8|4,0:0|0:0,0:0:0:0:
74,266,93559,6,0,P|34:267|-1:285,1,80,8|0,0:0|0:0,0:0:0:0:
9,105,93912,2,0,L|23:184,1,80,4|0,0:0|0:0,0:0:0:0:
108,130,94265,1,8,0:0:0:0:
0,23,94441,1,2,0:0:0:0:
195,37,94618,6,0,L|116:50,1,80,4|2,0:0|0:0,0:0:0:0:
208,208,94971,2,0,L|221:129,1,80,8|2,0:0|0:0,0:0:0:0:
273,24,95324,2,0,L|194:37,1,80,4|2,0:0|0:0,0:0:0:0:
299,243,95677,6,0,B|309:181|309:181|313:178|313:178|310:173|310:173|315:144|315:144|311:139|311:139|316:136|316:136|323:91,1,160,8|4,0:0|0:0,0:0:0:0:
322,91,96382,6,0,P|357:72|397:73,1,80,8|0,0:0|0:0,0:0:0:0:
452,189,96735,1,4,0:0:0:0:
460,24,96912,1,0,0:0:0:0:
452,189,97088,2,0,P|417:170|377:169,1,80,8|2,0:0|0:0,0:0:0:0:
258,179,97441,5,4,0:0:0:0:
242,350,97618,1,2,0:0:0:0:
399,278,97794,5,8,0:0:0:0:
258,179,97971,1,2,0:0:0:0:
242,350,98147,5,4,0:0:0:0:
297,267,98324,1,2,0:0:0:0:
150,222,98500,6,0,B|109:247|104:283|104:283|88:245|33:232,1,160,8|4,0:0|0:0,0:0:0:0:
123,82,99206,6,0,L|43:93,1,80,8|0,0:0|0:0,0:0:0:0:
95,168,99559,1,4,0:0:0:0:
74,6,99735,1,0,0:0:0:0:
225,69,99912,1,8,0:0:0:0:
171,212,100088,6,0,P|208:166|252:154,1,90.0000034332277,0|0,0:0|0:0,0:0:0:0:
235,155,100441,2,0,P|290:175|317:211,1,90.0000034332277
310,197,100794,5,0,0:0:0:0:
434,212,100971,1,0,0:0:0:0:
304,282,101147,5,0,1:0:0:0:
427,297,101324,1,0,0:0:0:0:
297,367,101500,5,0,0:0:0:0:
420,382,101677,2,0,P|470:372|500:346,1,80,4|0,0:1|0:0,0:0:0:0:
304,282,102029,2,0,P|270:260|231:254,1,80,8|2,0:0|0:0,0:0:0:0:
138,349,102382,1,4,0:0:0:0:
122,201,102559,1,0,0:0:0:0:
231,254,102735,2,0,L|244:150,1,80,8|2,0:0|0:0,0:0:0:0:
117,108,103088,5,4,0:0:0:0:
122,201,103265,1,2,0:0:0:0:
284,95,103441,5,8,0:0:0:0:
200,53,103618,1,2,0:0:0:0:
213,242,103794,5,4,0:0:0:0:
292,190,103971,1,2,0:0:0:0:
205,151,104147,6,0,B|145:138|145:138|100:172|108:251,1,160,8|4,0:0|0:0,0:0:0:0:
106,225,104853,6,0,P|99:275|76:311,1,80,8|0,0:0|0:0,0:0:0:0:
267,301,105206,2,0,L|178:285,1,80,4|0,0:0|0:0,0:0:0:0:
172,103,105559,1,8,0:0:0:0:
237,169,105735,1,2,0:0:0:0:
106,224,105912,6,0,B|99:189|99:189|95:185|95:185|84:133,1,80,4|2,0:0|0:0,0:0:0:0:
188,286,106265,2,0,B|181:321|181:321|177:325|177:325|166:377,1,80,8|2,0:0|0:0,0:0:0:0:
313,187,106618,2,0,B|278:180|278:180|274:176|274:176|222:165,1,80,4|2,0:0|0:0,0:0:0:0:
331,336,106971,6,0,B|409:324|409:324|413:320|413:320|498:309,1,160,8|4,0:0|0:0,0:0:0:0:
487,310,107677,6,0,P|506:257|496:221,1,80,8|0,0:0|0:0,0:0:0:0:
345,210,108029,1,4,0:0:0:0:
504,131,108206,1,0,0:0:0:0:
345,210,108382,2,0,P|382:252|418:261,1,80,8|2,2:0|2:0,0:0:0:0:
315,121,108735,5,4,2:0:0:0:
223,104,108912,1,2,2:0:0:0:
345,210,109088,5,8,2:0:0:0:
404,138,109265,1,2,2:0:0:0:
252,197,109441,5,4,2:0:0:0:
285,284,109618,1,2,0:0:0:0:
315,121,109794,6,0,B|332:57|287:15|287:15|288:42|270:77,1,160,8|4,0:0|2:0,0:0:0:0:
278,58,110500,6,0,L|180:48,1,80,8|0,2:0|0:0,0:0:0:0:
345,210,110853,2,0,L|443:200,1,80,4|0,0:0|0:0,0:0:0:0:
285,284,111206,1,8,0:0:0:0:
193,253,111382,2,0,P|173:203|178:155,1,80,0|8,0:0|0:0,0:0:0:0:
205,22,111735,5,0,0:0:0:0:
323,126,111912,1,8,0:0:0:0:
172,177,112088,1,0,0:0:0:0:
293,39,112265,5,8,0:0:0:0:
263,195,112441,1,0,0:0:0:0:
141,90,112618,1,8,0:0:0:0:
234,110,112794,1,8,0:0:0:0:
172,177,112971,6,0,P|152:191|141:209,2,40,4|0|0,0:1|0:0|0:0,0:0:0:0:
34,114,113324,2,0,P|54:128|65:146,2,40,8|0|0,0:0|0:0|0:0,0:0:0:0:
169,63,113677,2,0,P|149:77|138:95,2,40,4|0|0,0:0|0:0|0:0,0:0:0:0:
31,0,114030,2,0,P|51:14|62:32,2,40,8|0|0,0:0|0:0|0:0,0:0:0:0:
265,15,114382,5,4,0:0:0:0:
383,88,114559,1,0,0:0:0:0:
265,15,114735,2,0,B|247:53|247:53|260:88,1,80,8|0,0:0|0:0,0:0:0:0:
453,132,115088,2,0,B|471:94|471:94|457:58,1,80,4|0,0:0|0:0,0:0:0:0:
307,175,115441,2,0,P|366:182|422:252,1,120,8|0,0:0|0:0,0:0:0:0:
409,221,115794,6,0,L|398:268,2,40,4|0|0,0:0|0:0|0:0,0:0:0:0:
308,308,116147,2,0,L|319:354,2,40,8|0|0,0:0|0:0|0:0,0:0:0:0:
230,221,116500,2,0,L|218:267,2,40,4|0|0,0:0|0:0|0:0,0:0:0:0:
128,307,116853,2,0,L|139:353,2,40,8|0|0,0:0|0:0|0:0,0:0:0:0:
50,220,117206,5,4,0:0:0:0:
152,125,117382,1,0,0:0:0:0:
66,2,117559,2,0,L|77:94,1,80,8|0,0:0|0:0,0:0:0:0:
139,212,117912,1,4,0:0:0:0:
15,142,118088,1,0,0:0:0:0:
164,38,118265,2,0,B|193:34|229:56|203:70|234:92|265:88,1,120,8|0,0:0|0:0,0:0:0:0:
265,87,118618,6,0,P|281:99|292:116,2,40,4|0|0,0:0|0:0|0:0,0:0:0:0:
403,150,118971,2,0,P|383:164|372:182,2,40,8|0|0,0:0|0:0|0:0,0:0:0:0:
268,201,119324,2,0,P|288:215|299:233,2,40,4|0|0,0:0|0:0|0:0,0:0:0:0:
406,264,119677,2,0,P|386:278|375:296,2,40,8|0|0,0:0|0:0|0:0,0:0:0:0:
271,315,120029,5,4,0:0:0:0:
334,372,120206,1,0,0:0:0:0:
197,356,120382,2,0,B|179:318|179:318|192:283,1,80,8|0,0:0|0:0,0:0:0:0:
263,127,120735,2,0,B|281:165|281:165|268:200,1,80,4|0,0:0|0:0,0:0:0:0:
103,181,121088,2,0,L|201:168,1,80,8|0,0:0|0:0,0:0:0:0:
393,67,121441,5,4,0:0:0:0:
365,148,121618,1,0,0:0:0:0:
329,7,121794,2,0,L|249:17,1,80,8|0,0:0|0:0,0:0:0:0:
478,78,122147,2,0,P|476:38|457:3,1,80,4|0,0:0|0:0,0:0:0:0:
365,148,122500,2,0,P|367:188|386:223,1,80,8|0,0:0|0:0,0:0:0:0:
452,163,122853,1,0,0:0:0:0:
403,308,123029,5,2,0:1:0:0:
333,363,123206,1,2,0:1:0:0:
385,222,123382,1,2,0:1:0:0:
484,337,123559,1,2,0:1:0:0:
316,274,123736,5,2,0:1:0:0:
301,267,123824,1,2,0:1:0:0:
287,261,123912,1,2,0:1:0:0:
464,249,124089,1,2,0:1:0:0:
476,238,124177,1,2,0:1:0:0:
487,227,124265,6,0,P|500:197|500:183,2,40,4|0|0,0:1|0:0|0:0,0:0:0:0:
404,135,124618,2,0,P|384:108|372:101,2,40,8|0|0,0:0|0:0|0:0,0:0:0:0:
265,151,124971,2,0,P|232:154|220:161,2,40,4|0|0,0:0|0:0|0:0,0:0:0:0:
226,268,125324,2,0,P|212:298|213:311,2,40,8|0|0,0:0|0:0|0:0,0:0:0:0:
302,378,125677,5,4,0:0:0:0:
341,253,125853,1,0,0:0:0:0:
302,378,126029,2,0,L|208:367,1,80,8|0,0:0|0:0,0:0:0:0:
341,253,126382,2,0,L|435:242,1,80,4|0,0:0|0:0,0:0:0:0:
287,137,126735,2,0,P|243:169|219:238,1,120,8|0,0:0|0:0,0:0:0:0:
219,228,127088,6,0,L|162:222,2,40,4|0|0,0:0|0:0|0:0,0:0:0:0:
63,210,127441,2,0,L|24:206,2,40,8|0|0,0:0|0:0|0:0,0:0:0:0:
110,320,127794,2,0,L|116:262,2,40,4|0|0,0:0|0:0|0:0,0:0:0:0:
130,157,128147,2,0,L|135:118,2,40,8|0|0,0:0|0:0|0:0,0:0:0:0:
219,228,128500,5,4,0:0:0:0:
307,139,128677,1,0,0:0:0:0:
130,157,128853,2,0,P|113:211|125:248,1,80,8|0,0:0|0:0,0:0:0:0:
272,302,129206,5,4,0:0:0:0:
307,139,129382,1,0,0:0:0:0:
355,254,129559,2,0,B|387:271|417:260|417:260|446:250|474:262,1,120,8|0,0:0|0:0,0:0:0:0:
471,260,129912,6,0,P|486:221|481:177,1,80,8|2,0:0|0:0,0:0:0:0:
364,168,130265,2,0,P|348:206|353:250,1,80,8|2,0:0|0:0,0:0:0:0:
174,121,130618,6,0,P|161:83|166:44,1,80,8|2,0:0|0:0,0:0:0:0:
288,29,130971,2,0,P|300:66|295:105,1,80,8|2,0:0|0:0,0:0:0:0:
207,216,131324,6,0,L|112:201,1,80,8|2,0:0|0:0,0:0:0:0:
219,320,131677,2,0,L|314:305,1,80,8|2,0:0|0:0,0:0:0:0:
358,175,132029,6,0,L|263:160,1,80,8|2,0:0|0:0,0:0:0:0:
385,321,132382,2,0,L|480:306,1,80,8|2,0:0|0:0,0:0:0:0:
358,175,132735,5,8,0:0:0:0:
315,90,132912,1,8,0:0:0:0:
305,255,133088,1,8,0:0:0:0:
453,180,133265,1,8,0:0:0:0:
263,170,133441,5,8,0:0:0:0:
411,96,133618,1,8,0:0:0:0:
305,255,133794,1,8,0:0:0:0:
219,84,133971,1,8,0:0:0:0:
219,84,134854,5,4,0:0:0:0:
144,221,135030,1,0,0:0:0:0:
144,221,135118,1,4,0:0:0:0:
144,221,135206,1,4,0:0:0:0:
122,67,135383,1,0,0:0:0:0:
218,166,135559,6,0,P|236:201|236:240,1,80,4|0,0:1|0:0,0:0:0:0:
66,240,135912,2,0,L|143:221,1,80,8|0,0:0|0:0,0:0:0:0:
239,354,136265,1,4,0:0:0:0:
303,292,136441,1,2,0:0:0:0:
172,296,136618,2,0,P|153:331|154:371,1,80,8|2,0:0|0:0,0:0:0:0:
303,292,136971,5,4,0:0:0:0:
381,334,137147,1,2,0:0:0:0:
302,213,137324,5,8,0:0:0:0:
406,240,137500,1,2,0:0:0:0:
301,134,137677,5,4,0:0:0:0:
431,146,137853,1,2,0:0:0:0:
300,55,138029,6,0,B|260:45|211:75|246:94|204:125|162:114,1,160,8|4,0:0|0:0,0:0:0:0:
163,114,138735,6,0,P|125:126|97:154,1,80,8|0,0:0|0:0,0:0:0:0:
0,29,139088,2,0,P|37:41|65:69,1,80,4|2,0:0|0:0,0:0:0:0:
37,223,139441,1,8,0:0:0:0:
6,136,139618,1,2,0:0:0:0:
105,272,139794,6,0,P|77:300|40:312,1,80,4|2,0:0|0:0,0:0:0:0:
173,197,140147,2,0,P|201:224|238:236,1,80,8|2,0:0|0:0,0:0:0:0:
197,384,140500,2,0,L|183:291,1,80,4|2,0:0|0:0,0:0:0:0:
332,197,140853,6,0,B|324:247|324:247|318:251|318:251|322:256|322:256|317:289|317:289|320:295|320:295|316:298|316:298|304:368,1,160,8|4,0:0|0:0,0:0:0:0:
307,347,141559,6,0,P|342:366|382:365,1,80,8|0,0:0|0:0,0:0:0:0:
484,252,141912,2,0,P|449:271|409:270,1,80,4|2,0:0|0:0,0:0:0:0:
307,157,142265,2,0,P|342:176|382:175,1,80,8|2,0:0|0:0,0:0:0:0:
505,74,142618,5,4,0:0:0:0:
357,20,142795,1,2,0:0:0:0:
381,175,142971,1,8,0:0:0:0:
411,91,143147,5,2,0:0:0:0:
263,37,143324,1,4,0:0:0:0:
287,192,143500,1,2,0:0:0:0:
317,108,143677,6,0,B|269:96|262:37|262:37|242:76|177:71,1,160,8|4,0:0|0:0,0:0:0:0:
210,70,144382,6,0,P|170:70|135:51,1,80,8|0,0:0|0:0,0:0:0:0:
27,166,144735,2,0,P|62:147|102:148,1,80,4|0,0:0|0:0,0:0:0:0:
83,234,145088,1,8,0:0:0:0:
34,5,145265,6,0,L|47:73,1,66.0000020141602,2|0,0:1|0:0,0:0:0:0:
47,70,145618,1,2,0:1:0:0:
193,163,145971,5,2,0:1:0:0:
210,70,146148,1,2,0:1:0:0:
273,193,146324,5,2,0:1:0:0:
296,73,146501,1,2,0:1:0:0:
353,224,146677,5,2,0:1:0:0:
382,74,146853,2,0,P|373:27|339:-3,1,80,4|0,0:1|0:0,0:0:0:0:
210,70,147206,2,0,L|219:157,1,80,8|0,0:0|0:0,0:0:0:0:
234,272,147559,1,4,0:0:0:0:
218,149,147735,1,0,0:0:0:0:
145,245,147912,2,0,P|143:296|158:330,1,80,8|2,0:0|0:0,0:0:0:0:
315,216,148265,5,4,0:0:0:0:
218,149,148441,1,2,0:0:0:0:
350,207,148618,5,8,0:0:0:0:
318,84,148794,1,2,0:0:0:0:
383,201,148971,5,4,0:0:0:0:
431,96,149147,1,2,0:0:0:0:
473,277,149324,6,0,B|398:289|398:289|392:285|392:285|313:298,1,160,8|4,0:0|0:0,0:0:0:0:
316,297,150029,2,0,L|229:310,1,80,8|0,0:0|0:0,0:0:0:0:
155,142,150382,2,0,L|142:229,1,80,4|2,0:0|0:0,0:0:0:0:
316,187,150735,1,8,0:0:0:0:
288,84,150912,1,2,0:0:0:0:
392,53,151088,6,0,P|399:94|388:135,1,80,4|2,0:0|0:0,0:0:0:0:
222,182,151441,2,0,P|182:168|152:137,1,80,8|2,0:0|0:0,0:0:0:0:
316,187,151794,2,0,L|341:274,1,80,4|2,0:0|0:0,0:0:0:0:
193,367,152147,6,0,B|200:324|200:324|204:320|204:320|215:257|215:257|212:250|212:250|221:196,1,160,8|4,0:0|0:0,0:0:0:0:
218,211,152853,5,0,0:0:0:0:
393,179,153206,1,2,0:0:0:0:
218,211,153735,5,0,0:0:0:0:
330,272,154088,1,2,0:0:0:0:
218,211,154441,5,0,0:0:0:0:
213,323,154794,2,0,L|208:372,1,44.0000013427735,0|2,0:0|0:0,0:0:0:0:
218,211,155677,5,0,0:0:0:0:
145,240,156029,1,2,0:0:0:0:
218,211,156559,6,0,B|267:198|276:149|276:149|309:196|390:237|467:159|444:79|369:43|363:160,1,396.000012084961,2|0,0:0|0:0,0:0:0:0:
