osu file format v14

[General]
AudioFilename: audio.mp3
AudioLeadIn: 0
PreviewTime: 134324
Countdown: 0
SampleSet: Soft
StackLeniency: 0.7
Mode: 0
LetterboxInBreaks: 0
EpilepsyWarning: 1
WidescreenStoryboard: 1

[Editor]
DistanceSpacing: 1.8
BeatDivisor: 4
GridSize: 32
TimelineZoom: 1

[Metadata]
Title:Be Alright (feat. EMEL) (Cut Ver.)
TitleUnicode:Be Alright (feat. EMEL) (Cut Ver.)
Artist:Stonebank
ArtistUnicode:Stonebank
Creator:Nhawak
Version:Hard
Source:
Tags:english drum and bass dnb monstercat electronic cataclysm uncaged hard dance edm electro thekoala sylas iyasine plaudible frey asahina momoko m o k o r i alacat hokichi mune
BeatmapID:2452974
BeatmapSetID:1151309

[Difficulty]
HPDrainRate:5
CircleSize:4
OverallDifficulty:5
ApproachRate:8
SliderMultiplier:1.5
SliderTickRate:1

[Events]
//Background and Video events
0,0,"BG.jpg",0,0
//Break Periods
//Storyboard Layer 0 (Background)
//Storyboard Layer 1 (Fail)
//Storyboard Layer 2 (Pass)
//Storyboard Layer 3 (Foreground)
Sprite,Foreground,Centre,"sb\glow.png",0,0 F,0,29,,1 S,0,29,,1 M,0,30,74,329,113,340.3306,103.2517 M,0,74,118,340.3306,103.2517,352.9533,95.31254 M,0,118,162,352.9533,95.31254,366.7778,89.69595 M,0,162,206,366.7778,89.69595,381.3854,86.57718 M,0,206,250,381.3854,86.57718,396.3332,86.0577 M,0,250,294,396.3332,86.0577,411.0639,88.57265 M,0,294,338,411.0639,88.57265,425.1884,93.34049 M,0,338,382,425.1884,93.34049,438.4141,100.3041 M,0,382,427,438.4141,100.3041,425.1884,93.34049 M,0,427,471,425.1884,93.34049,411.0639,88.57265 M,0,471,515,411.0639,88.57265,396.3332,86.0577 M,0,515,559,396.3332,86.0577,381.3854,86.57718 M,0,559,603,381.3854,86.57718,366.7778,89.69595 M,0,603,647,366.7778,89.69595,352.9533,95.31254 M,0,647,691,352.9533,95.31254,340.3306,103.2517 M,0,691,735,340.3306,103.2517,329,113 M,16,735,30,329,113 M,30,735,912,329,113,294,189 M,16,912,1088,294,189,212,168 M,30,1088,1441,212,168,180,332 M,0,1441,1485,180,332,168.6694,341.7483 M,0,1485,1529,168.6694,341.7483,156.0467,349.6875 M,0,1529,1573,156.0467,349.6875,142.2222,355.3041 M,0,1573,1617,142.2222,355.3041,127.6146,358.4229 M,0,1617,1661,127.6146,358.4229,112.6668,358.9423 M,0,1661,1705,112.6668,358.9423,97.93606,356.4274 M,0,1705,1749,97.93606,356.4274,83.81161,351.6595 M,0,1749,1793,83.81161,351.6595,70.58589,344.6959 M,0,1793,1838,70.58589,344.6959,83.81161,351.6595 M,0,1838,1882,83.81161,351.6595,97.93606,356.4274 M,0,1882,1926,97.93606,356.4274,112.6668,358.9423 M,0,1926,1970,112.6668,358.9423,127.6146,358.4229 M,0,1970,2014,127.6146,358.4229,142.2222,355.3041 M,0,2014,2058,142.2222,355.3041,156.0467,349.6875 M,0,2058,2102,156.0467,349.6875,168.6694,341.7483 M,0,2102,2146,168.6694,341.7483,180,332 M,30,2146,2323,180,332,215,256 M,16,2323,2499,215,256,297,277 M,30,2499,2853,297,277,458,230 M,0,2853,2897,458,230,456.4751,244.9223 M,0,2897,2941,456.4751,244.9223,454.9502,259.8446 M,0,2941,2985,454.9502,259.8446,453.4253,274.7668 M,0,2985,3029,453.4253,274.7668,451.9004,289.6891 M,0,3029,3073,451.9004,289.6891,450.3755,304.6115 M,0,3073,3117,450.3755,304.6115,448.8506,319.5337 M,0,3117,3161,448.8506,319.5337,447.3257,334.456 M,0,3161,3205,447.3257,334.456,445.8008,349.3783 M,0,3205,3250,445.8008,349.3783,447.3257,334.456 M,0,3250,3294,447.3257,334.456,448.8506,319.5337 M,0,3294,3338,448.8506,319.5337,450.3755,304.6115 M,0,3338,3382,450.3755,304.6115,451.9004,289.6891 M,0,3382,3426,451.9004,289.6891,453.4253,274.7668 M,0,3426,3470,453.4253,274.7668,454.9502,259.8446 M,0,3470,3514,454.9502,259.8446,456.4751,244.9223 M,0,3514,3558,456.4751,244.9223,458,230 M,30,3558,3736,458,230,466,145 M,16,3736,3912,466,145,474,60 M,30,3912,4265,474,60,329,145 M,0,4265,4309,329,145,314.4125,141.6039 M,0,4309,4353,314.4125,141.6039,299.4589,140.6732 M,0,4353,4397,299.4589,140.6732,284.6367,142.7174 M,0,4397,4441,284.6367,142.7174,270.7053,148.223 M,0,4441,4485,270.7053,148.223,256.4764,152.8293 M,0,4485,4529,256.4764,152.8293,241.5295,153.5544 M,0,4529,4573,241.5295,153.5544,226.71,151.3569 M,0,4573,4617,226.71,151.3569,213,147 M,0,4617,4662,213,147,226.71,151.3569 M,0,4662,4706,226.71,151.3569,241.5295,153.5544 M,0,4706,4750,241.5295,153.5544,256.4764,152.8293 M,0,4750,4794,256.4764,152.8293,270.7053,148.223 M,0,4794,4838,270.7053,148.223,284.6367,142.7174 M,0,4838,4882,284.6367,142.7174,299.4589,140.6732 M,0,4882,4926,299.4589,140.6732,314.4125,141.6039 M,0,4926,4970,314.4125,141.6039,329,145 M,30,4970,5147,329,145,372,217 M,16,5147,5324,372,217,329,289 M,30,5324,5677,329,289,459,231 M,0,5677,5721,459,231,470.3306,221.2517 M,0,5721,5765,470.3306,221.2517,482.9533,213.3125 M,0,5765,5809,482.9533,213.3125,496.7778,207.696 M,0,5809,5853,496.7778,207.696,511.3854,204.5772 M,0,5853,5897,511.3854,204.5772,526.3332,204.0577 M,0,5897,5941,526.3332,204.0577,541.064,206.5726 M,0,5941,5985,541.064,206.5726,555.1884,211.3405 M,0,5985,6029,555.1884,211.3405,568.4141,218.3041 M,0,6029,6074,568.4141,218.3041,555.1884,211.3405 M,0,6074,6118,555.1884,211.3405,541.064,206.5726 M,0,6118,6162,541.064,206.5726,526.3332,204.0577 M,0,6162,6206,526.3332,204.0577,511.3854,204.5772 M,0,6206,6250,511.3854,204.5772,496.7778,207.696 M,0,6250,6294,496.7778,207.696,482.9533,213.3125 M,0,6294,6338,482.9533,213.3125,470.3306,221.2517 M,0,6338,6382,470.3306,221.2517,459,231 M,30,6382,6559,459,231,522,286 M,16,6559,6735,522,286,530,369 M,30,6735,7088,530,369,370,314 M,0,7088,7132,370,314,358.6694,323.7483 M,0,7132,7176,358.6694,323.7483,346.0467,331.6874 M,0,7176,7220,346.0467,331.6874,332.2222,337.304 M,0,7220,7264,332.2222,337.304,317.6146,340.4228 M,0,7264,7308,317.6146,340.4228,302.6668,340.9423 M,0,7308,7352,302.6668,340.9423,287.936,338.4273 M,0,7352,7396,287.936,338.4273,273.8116,333.6595 M,0,7396,7440,273.8116,333.6595,260.5859,326.6959 M,0,7440,7485,260.5859,326.6959,273.8116,333.6595 M,0,7485,7529,273.8116,333.6595,287.936,338.4273 M,0,7529,7573,287.936,338.4273,302.6668,340.9423 M,0,7573,7617,302.6668,340.9423,317.6146,340.4228 M,0,7617,7661,317.6146,340.4228,332.2222,337.304 M,0,7661,7705,332.2222,337.304,346.0467,331.6874 M,0,7705,7749,346.0467,331.6874,358.6694,323.7483 M,0,7749,7793,358.6694,323.7483,370,314 M,30,7793,7970,370,314,307,259 M,16,7970,8146,307,259,299,176 M,30,8146,8500,299,176,164,277 M,0,8500,8544,164,277,149.8569,272.0432 M,0,8544,8588,149.8569,272.0432,136.6888,264.8994 M,0,8588,8632,136.6888,264.8994,125.0391,255.4864 M,0,8632,8676,125.0391,255.4864,115.378,244.0409 M,0,8676,8720,115.378,244.0409,105.327,251.0151 M,0,8720,8764,105.327,251.0151,92.68687,259.0211 M,0,8764,8808,92.68687,259.0211,78.60624,264.1267 M,0,8808,8852,78.60624,264.1267,63.8762,266.8959 M,0,8852,8897,63.8762,266.8959,78.60624,264.1267 M,0,8897,8941,78.60624,264.1267,92.68687,259.0211 M,0,8941,8985,92.68687,259.0211,105.327,251.0151 M,0,8985,9029,105.327,251.0151,115.378,244.0409 M,0,9029,9073,115.378,244.0409,125.0391,255.4864 M,0,9073,9117,125.0391,255.4864,136.6888,264.8994 M,0,9117,9161,136.6888,264.8994,149.8569,272.0432 M,0,9161,9205,149.8569,272.0432,164,277 M,30,9205,9382,164,277,187,196 M,16,9382,9559,187,196,128,135 M,30,9559,9912,128,135,299,176 M,0,9912,9956,299,176,313.1431,171.0432 M,0,9956,10000,313.1431,171.0432,326.3112,163.8994 M,0,10000,10044,326.3112,163.8994,337.9609,154.4864 M,0,10044,10088,337.9609,154.4864,347.622,143.0409 M,0,10088,10132,347.622,143.0409,357.673,150.0151 M,0,10132,10176,357.673,150.0151,370.3131,158.0211 M,0,10176,10220,370.3131,158.0211,384.3938,163.1267 M,0,10220,10264,384.3938,163.1267,399.1238,165.8959 M,0,10264,10309,399.1238,165.8959,384.3938,163.1267 M,0,10309,10353,384.3938,163.1267,370.3131,158.0211 M,0,10353,10397,370.3131,158.0211,357.673,150.0151 M,0,10397,10441,357.673,150.0151,347.622,143.0409 M,0,10441,10485,347.622,143.0409,337.9609,154.4864 M,0,10485,10529,337.9609,154.4864,326.3112,163.8994 M,0,10529,10573,326.3112,163.8994,313.1431,171.0432 M,0,10573,10617,313.1431,171.0432,299,176 M,30,10617,10794,299,176,271,254 M,16,10794,10971,271,254,352,240 M,16,10971,11147,352,240,324,318 F,15,10971,11324,1,0 S,15,10971,11324,1,0.2
Sprite,Foreground,Centre,"sb\glow.png",0,0 M,16,10971,11147,352,240,324,318 C,0,10971,11147,202,149,149 F,0,11147,,1 S,0,11147,,1 M,16,11147,11324,324,318,310,399 C,0,11147,11324,202,149,149,255,255,125 M,0,11324,11368,310,399,328.5743,400.7284 M,0,11368,11412,328.5743,400.7284,346.9293,397.6242 M,0,11412,11456,346.9293,397.6242,363.8442,389.9086 M,0,11456,11500,363.8442,389.9086,378,379 M,30,11500,11677,378,379,485,323 C,0,11500,11677,255,255,125 M,0,11677,11721,485,323,470.3987,311.4055 M,0,11721,11765,470.3987,311.4055,453.2476,304.2032 M,0,11765,11809,453.2476,304.2032,434.8149,301.9073 M,0,11809,11853,434.8149,301.9073,417,304 M,16,11853,12029,417,304,558,366 C,0,11853,12029,255,255,125 M,0,12029,12073,558,366,562.0248,347.6871 M,0,12073,12117,562.0248,347.6871,566.0497,329.3741 M,0,12117,12161,566.0497,329.3741,570.0745,311.0612 M,0,12161,12205,570.0745,311.0612,574.0992,292.7483 M,30,12205,12382,574.0992,292.7483,494,166 C,0,12205,12382,255,255,125 M,0,12382,12426,494,166,498.0143,184.3152 M,0,12426,12470,498.0143,184.3152,502.0286,202.6305 M,0,12470,12514,502.0286,202.6305,506.0429,220.9457 M,0,12514,12558,506.0429,220.9457,510,239 M,30,12558,12735,510,239,386,102 C,0,12558,12735,255,255,125,111,255,255 M,0,12735,12779,386,102,367.4343,100.1369 M,0,12779,12823,367.4343,100.1369,349.0439,103.0641 M,0,12823,12867,349.0439,103.0641,332.0316,110.5756 M,0,12867,12911,332.0316,110.5756,317.1686,121.8437 M,30,12911,13088,317.1686,121.8437,359,257 C,0,12911,13088,111,255,255 M,0,13088,13132,359,257,369.279,241.3989 M,0,13132,13176,369.279,241.3989,375.9472,223.9755 M,0,13176,13220,375.9472,223.9755,378.7032,205.5411 M,0,13220,13264,378.7032,205.5411,378,188 M,30,13264,13441,378,188,242,159 C,0,13264,13441,111,255,255 M,0,13441,13485,242,159,251.7137,174.9211 M,0,13485,13529,251.7137,174.9211,265.2439,187.6985 M,0,13529,13573,265.2439,187.6985,281.6371,196.4531 M,0,13573,13617,281.6371,196.4531,299,201 M,30,13617,13794,299,201,281,283 C,0,13617,13794,111,255,255 M,0,13794,13838,281,283,285.0143,301.3152 M,0,13838,13882,285.0143,301.3152,289.0286,319.6305 M,0,13882,13926,289.0286,319.6305,293.0429,337.9457 M,0,13926,13970,293.0429,337.9457,297,356 M,30,13970,14147,297,356,417,384 C,0,13970,14147,111,255,255,255,157,157 M,0,14147,14191,417,384,431.6013,395.5945 M,0,14191,14235,431.6013,395.5945,448.7524,402.7968 M,0,14235,14279,448.7524,402.7968,467.1851,405.0927 M,0,14279,14323,467.1851,405.0927,485,403 M,30,14323,14500,485,403,539,303 C,0,14323,14500,255,157,157 M,0,14500,14544,539,303,523.4686,313.3689 M,0,14544,14588,523.4686,313.3689,506.008,319.9051 M,0,14588,14632,506.008,319.9051,487.5343,322.2765 M,0,14632,14676,487.5343,322.2765,470,321 M,30,14676,14853,470,321,487,241 C,0,14676,14853,255,157,157 M,0,14853,14897,487,241,504.2184,233.8156 M,0,14897,14941,504.2184,233.8156,518.9966,222.4892 M,0,14941,14985,518.9966,222.4892,530.3699,207.7784 M,0,14985,15029,530.3699,207.7784,538,191 M,30,15029,15206,538,191,478,94 C,0,15029,15206,255,157,157 M,0,15206,15250,478,94,479.49,112.6166 M,0,15250,15294,479.49,112.6166,476.6555,131.046 M,0,15294,15338,476.6555,131.046,469.6584,148.3073 M,0,15338,15382,469.6584,148.3073,459.1907,163.7666 M,30,15382,15559,459.1907,163.7666,357,112 C,0,15382,15559,255,157,157,202,149,149 M,0,15559,15603,357,112,338.3345,113.7777 M,0,15603,15647,338.3345,113.7777,319.6689,115.5553 M,0,15647,15691,319.6689,115.5553,301.0034,117.333 M,0,15691,15735,301.0034,117.333,282.3378,119.1107 M,30,15735,15912,282.3378,119.1107,211,163 C,0,15735,15912,202,149,149 M,0,15912,15956,211,163,209.2342,144.3333 M,0,15956,16000,209.2342,144.3333,207.4685,125.6667 M,0,16000,16044,207.4685,125.6667,205.7027,107 M,0,16044,16088,205.7027,107,204,89 M,30,16088,16265,204,89,263,226 C,0,16088,16265,202,149,149 M,0,16265,16309,263,226,247.7419,236.7717 M,0,16309,16353,247.7419,236.7717,230.4731,243.8092 M,0,16353,16397,230.4731,243.8092,212.0798,246.7618 M,0,16397,16441,212.0798,246.7618,194,246 M,30,16441,16618,194,246,64,169 C,0,16441,16618,202,149,149 M,0,16618,16662,64,169,82.50918,166.7651 M,0,16662,16706,82.50918,166.7651,100.8821,169.6645 M,0,16706,16750,100.8821,169.6645,117.7379,177.4622 M,0,16750,16794,117.7379,177.4622,132,189 M,30,16794,16971,132,189,115,297 C,0,16794,16971,202,149,149,255,255,125 M,16,16971,17147,115,297,66,355 C,0,16971,17147,255,255,125 M,16,17147,17324,66,355,99,424 C,0,17147,17324,255,255,125 M,16,17324,17500,99,424,178,407 C,0,17324,17500,255,255,125 M,16,17500,17677,178,407,186,327 C,0,17500,17677,255,255,125,111,255,255 M,16,17677,17853,186,327,194,246 C,0,17677,17853,111,255,255 M,16,17853,18029,194,246,273,229 C,0,17853,18029,111,255,255 M,16,18029,18206,273,229,307,299 C,0,18029,18206,111,255,255 M,16,18206,18382,307,299,256,356 C,0,18206,18382,111,255,255,255,157,157 M,0,18382,18426,256,356,270.9932,367.0772 M,0,18426,18470,270.9932,367.0772,288.4491,373.4924 M,0,18470,18514,288.4491,373.4924,306.9726,374.7531 M,0,18514,18558,306.9726,374.7531,325.266,371.2308 M,30,18558,18735,325.266,371.2308,385,313 C,0,18558,18735,255,157,157 M,16,18735,18912,385,313,442,372 C,0,18735,18912,255,157,157 M,16,18912,19088,442,372,510,326 C,0,18912,19088,255,157,157,202,149,149 M,0,19088,19132,510,326,520.5846,310.6483 M,0,19132,19176,520.5846,310.6483,526.6035,293.0435 M,0,19176,19220,526.6035,293.0435,527.6271,274.495 M,0,19220,19264,527.6271,274.495,524.0615,256.2006 M,30,19264,19441,524.0615,256.2006,466,198 C,0,19264,19441,202,149,149 M,16,19441,19618,466,198,525,141 C,0,19441,19618,202,149,149 M,16,19618,19794,525,141,430,118 C,0,19618,19794,202,149,149,255,255,125 M,0,19794,19838,430,118,425.0342,100.0306 M,0,19838,19882,425.0342,100.0306,415.0406,84.33978 M,0,19882,19926,415.0406,84.33978,425.0342,100.0306 M,0,19926,19970,425.0342,100.0306,430,118 M,0,19970,20014,430,118,425.0342,100.0306 M,0,20014,20058,425.0342,100.0306,415.0406,84.33978 M,30,20058,20147,415.0406,84.33978,379,104 C,0,20058,20147,255,255,125 M,0,20147,20191,379,104,368.5319,88.58342 M,0,20191,20235,368.5319,88.58342,353.8959,77.11787 M,0,20235,20279,353.8959,77.11787,368.5319,88.58342 M,0,20279,20323,368.5319,88.58342,379,104 M,0,20323,20367,379,104,368.5319,88.58342 M,0,20367,20411,368.5319,88.58342,353.8959,77.11787 M,30,20411,20500,353.8959,77.11787,338,115 C,0,20411,20500,255,255,125 M,0,20500,20544,338,115,322.9494,104.0083 M,0,20544,20588,322.9494,104.0083,305.3502,98.00809 M,0,20588,20632,305.3502,98.00809,322.9494,104.0083 M,0,20632,20676,322.9494,104.0083,338,115 M,0,20676,20720,338,115,322.9494,104.0083 M,0,20720,20764,322.9494,104.0083,305.3502,98.00809 M,30,20764,20853,305.3502,98.00809,298,138 C,0,20764,20853,255,255,125 M,0,20853,20897,298,138,279.999,133.1591 F,15,20853,21206,1,0 S,15,20853,21206,1,0.2 M,0,20897,20941,279.999,133.1591,261.4099,133.7374 M,0,20941,20985,261.4099,133.7374,279.999,133.1591 M,0,20985,21029,279.999,133.1591,298,138 M,0,21029,21073,298,138,279.999,133.1591 M,0,21073,21117,279.999,133.1591,261.4099,133.7374
Sprite,Foreground,Centre,"sb\glow.png",0,0 M,0,21382,,389,187 C,0,21382,,111,255,255 F,15,21382,21646,1,0 S,15,21382,21646,1,0.2 P,0,21382,21646,A M,0,21735,,378,344 C,0,21735,,111,255,255 F,15,21735,21999,1,0 S,15,21735,21999,1,0.2 P,0,21735,21999,A M,0,22089,,294,344 C,0,22089,,255,157,157 F,15,22089,22353,1,0 S,15,22089,22353,1,0.2 P,0,22089,22353,A M,0,22441,,367,428 C,0,22441,,255,157,157 F,15,22441,22705,1,0 S,15,22441,22705,1,0.2 P,0,22441,22705,A
Sprite,Foreground,Centre,"sb\glow.png",0,0 M,0,21559,,383,265 C,0,21559,,111,255,255 F,15,21559,21823,1,0 S,15,21559,21823,1,0.2 P,0,21559,21823,A M,0,21912,,300,265 C,0,21912,,255,157,157 F,15,21912,22176,1,0 S,15,21912,22176,1,0.2 P,0,21912,22176,A M,0,22265,,289,423 C,0,22265,,255,157,157 F,15,22265,22529,1,0 S,15,22265,22529,1,0.2 P,0,22265,22529,A
Sprite,Foreground,Centre,"sb\c.png",537,125 C,0,112971,,255,255,125 F,0,112971,113071,0,1 S,19,112971,113676,0.2,0.3 P,0,112971,113676,A F,16,113071,113676,1,0
Sprite,Foreground,Centre,"sb\c.png",540,207 C,0,113324,,255,255,125 F,0,113324,113424,0,1 S,19,113324,114029,0.2,0.3 P,0,113324,114029,A F,16,113424,114029,1,0
Sprite,Foreground,Centre,"sb\c.png",461,234 C,0,113677,,255,255,125 F,0,113677,113777,0,1 S,19,113677,114382,0.2,0.3 P,0,113677,114382,A F,16,113777,114382,1,0
Sprite,Foreground,Centre,"sb\c.png",458,316 C,0,114029,,255,255,125 F,0,114029,114129,0,1 S,19,114029,114734,0.2,0.3 P,0,114029,114734,A F,16,114129,114734,1,0
Sprite,Foreground,Centre,"sb\c.png",455,398 C,0,114382,,111,255,255 F,0,114382,114482,0,1 S,19,114382,115087,0.2,0.3 P,0,114382,115087,A F,16,114482,115087,1,0
Sprite,Foreground,Centre,"sb\c.png",316,330 C,0,114735,,111,255,255 F,0,114735,114835,0,1 S,19,114735,115440,0.2,0.3 P,0,114735,115440,A F,16,114835,115440,1,0
Sprite,Foreground,Centre,"sb\c.png",223,420 C,0,115088,,111,255,255 F,0,115088,115188,0,1 S,19,115088,115793,0.2,0.3 P,0,115088,115793,A F,16,115188,115793,1,0
Sprite,Foreground,Centre,"sb\c.png",250,279 C,0,115794,,255,157,157 F,0,115794,115894,0,1 S,19,115794,116499,0.2,0.3 P,0,115794,116499,A F,16,115894,116499,1,0
Sprite,Foreground,Centre,"sb\c.png",321,235 C,0,116147,,255,157,157 F,0,116147,116247,0,1 S,19,116147,116852,0.2,0.3 P,0,116147,116852,A F,16,116247,116852,1,0
Sprite,Foreground,Centre,"sb\c.png",403,250 C,0,116500,,255,157,157 F,0,116500,116600,0,1 S,19,116500,117205,0.2,0.3 P,0,116500,117205,A F,16,116600,117205,1,0
Sprite,Foreground,Centre,"sb\c.png",450,318 C,0,116853,,255,157,157 F,0,116853,116953,0,1 S,19,116853,117558,0.2,0.3 P,0,116853,117558,A F,16,116953,117558,1,0
Sprite,Foreground,Centre,"sb\c.png",424,396 C,0,117206,,202,149,149 F,0,117206,117306,0,1 S,19,117206,117911,0.2,0.3 P,0,117206,117911,A F,16,117306,117911,1,0
Sprite,Foreground,Centre,"sb\c.png",265,314 C,0,117559,,202,149,149 F,0,117559,117659,0,1 S,19,117559,118264,0.2,0.3 P,0,117559,118264,A F,16,117659,118264,1,0
Sprite,Foreground,Centre,"sb\c.png",216,381 C,0,117912,,202,149,149 F,0,117912,118012,0,1 S,19,117912,118617,0.2,0.3 P,0,117912,118617,A F,16,118012,118617,1,0
Sprite,Foreground,Centre,"sb\c.png",74,397 C,0,118618,,255,255,125 F,0,118618,118718,0,1 S,19,118618,119323,0.2,0.3 P,0,118618,119323,A F,16,118718,119323,1,0
Sprite,Foreground,Centre,"sb\c.png",143,266 C,0,118971,,255,255,125 F,0,118971,119071,0,1 S,19,118971,119676,0.2,0.3 P,0,118971,119676,A F,16,119071,119676,1,0
Sprite,Foreground,Centre,"sb\c.png",232,361 C,0,119324,,255,255,125 F,0,119324,119424,0,1 S,19,119324,120029,0.2,0.3 P,0,119324,120029,A F,16,119424,120029,1,0
Sprite,Foreground,Centre,"sb\c.png",301,230 C,0,119677,,255,255,125 F,0,119677,119777,0,1 S,19,119677,120382,0.2,0.3 P,0,119677,120382,A F,16,119777,120382,1,0
Sprite,Foreground,Centre,"sb\c.png",380,238 C,0,120029,,111,255,255 F,0,120029,120129,0,1 S,19,120029,120734,0.2,0.3 P,0,120029,120734,A F,16,120129,120734,1,0
Sprite,Foreground,Centre,"sb\c.png",484,126 C,0,120382,,111,255,255 F,0,120382,120482,0,1 S,19,120382,121087,0.2,0.3 P,0,120382,121087,A F,16,120482,121087,1,0
Sprite,Foreground,Centre,"sb\c.png",501,316 C,0,120735,,111,255,255 F,0,120735,120835,0,1 S,19,120735,121440,0.2,0.3 P,0,120735,121440,A F,16,120835,121440,1,0
Sprite,Foreground,Centre,"sb\c.png",576,387 C,0,121441,,255,157,157 F,0,121441,121541,0,1 S,19,121441,122146,0.2,0.3 P,0,121441,122146,A F,16,121541,122146,1,0
Sprite,Foreground,Centre,"sb\c.png",448,386 C,0,121794,,255,157,157 F,0,121794,121894,0,1 S,19,121794,122499,0.2,0.3 P,0,121794,122499,A F,16,121894,122499,1,0
Sprite,Foreground,Centre,"sb\c.png",498,242 C,0,122147,,255,157,157 F,0,122147,122247,0,1 S,19,122147,122852,0.2,0.3 P,0,122147,122852,A F,16,122247,122852,1,0
Sprite,Foreground,Centre,"sb\c.png",562,191 C,0,122853,,255,157,157 F,0,122853,122953,0,1 S,19,122853,123558,0.2,0.3 P,0,122853,123558,A F,16,122953,123558,1,0
Sprite,Foreground,Centre,"sb\c.png",484,164 C,0,123029,,202,149,149 F,0,123029,123129,0,1 S,19,123029,123734,0.2,0.3 P,0,123029,123734,A F,16,123129,123734,1,0
Sprite,Foreground,Centre,"sb\c.png",461,84 C,0,123206,,202,149,149 F,0,123206,123306,0,1 S,19,123206,123911,0.2,0.3 P,0,123206,123911,A F,16,123306,123911,1,0
Sprite,Foreground,Centre,"sb\c.png",409,210 C,0,123559,,202,149,149 F,0,123559,123659,0,1 S,19,123559,124264,0.2,0.3 P,0,123559,124264,A F,16,123659,124264,1,0
Sprite,Foreground,Centre,"sb\c.png",337,170 C,0,123735,,202,149,149 F,0,123735,123835,0,1 S,19,123735,124440,0.2,0.3 P,0,123735,124440,A F,16,123835,124440,1,0
Sprite,Foreground,Centre,"sb\c.png",321,251 C,0,124088,,202,149,149 F,0,124088,124188,0,1 S,19,124088,124793,0.2,0.3 P,0,124088,124793,A F,16,124188,124793,1,0
Sprite,Foreground,Centre,"sb\c.png",284,242 C,0,124265,,255,255,125 F,0,124265,124365,0,1 S,19,124265,124970,0.2,0.3 P,0,124265,124970,A F,16,124365,124970,1,0
Sprite,Foreground,Centre,"sb\c.png",202,239 C,0,124618,,255,255,125 F,0,124618,124718,0,1 S,19,124618,125323,0.2,0.3 P,0,124618,125323,A F,16,124718,125323,1,0
Sprite,Foreground,Centre,"sb\c.png",175,160 C,0,124971,,255,255,125 F,0,124971,125071,0,1 S,19,124971,125676,0.2,0.3 P,0,124971,125676,A F,16,125071,125676,1,0
Sprite,Foreground,Centre,"sb\c.png",93,163 C,0,125324,,255,255,125 F,0,125324,125424,0,1 S,19,125324,126029,0.2,0.3 P,0,125324,126029,A F,16,125424,126029,1,0
Sprite,Foreground,Centre,"sb\c.png",115,242 C,0,125677,,111,255,255 F,0,125677,125777,0,1 S,19,125677,126382,0.2,0.3 P,0,125677,126382,A F,16,125777,126382,1,0
Sprite,Foreground,Centre,"sb\c.png",161,379 C,0,126029,,111,255,255 F,0,126029,126129,0,1 S,19,126029,126734,0.2,0.3 P,0,126029,126734,A F,16,126129,126734,1,0
Sprite,Foreground,Centre,"sb\c.png",197,305 C,0,126382,,111,255,255 F,0,126382,126482,0,1 S,19,126382,127087,0.2,0.3 P,0,126382,127087,A F,16,126482,127087,1,0
Sprite,Foreground,Centre,"sb\c.png",338,321 C,0,127088,,255,157,157 F,0,127088,127188,0,1 S,19,127088,127793,0.2,0.3 P,0,127088,127793,A F,16,127188,127793,1,0
Sprite,Foreground,Centre,"sb\c.png",409,365 C,0,127441,,255,157,157 F,0,127441,127541,0,1 S,19,127441,128146,0.2,0.3 P,0,127441,128146,A F,16,127541,128146,1,0
Sprite,Foreground,Centre,"sb\c.png",491,350 C,0,127794,,255,157,157 F,0,127794,127894,0,1 S,19,127794,128499,0.2,0.3 P,0,127794,128499,A F,16,127894,128499,1,0
Sprite,Foreground,Centre,"sb\c.png",538,282 C,0,128147,,255,157,157 F,0,128147,128247,0,1 S,19,128147,128852,0.2,0.3 P,0,128147,128852,A F,16,128247,128852,1,0
Sprite,Foreground,Centre,"sb\c.png",512,204 C,0,128500,,202,149,149 F,0,128500,128600,0,1 S,19,128500,129205,0.2,0.3 P,0,128500,129205,A F,16,128600,129205,1,0
Sprite,Foreground,Centre,"sb\c.png",380,236 C,0,128853,,202,149,149 F,0,128853,128953,0,1 S,19,128853,129558,0.2,0.3 P,0,128853,129558,A F,16,128953,129558,1,0
Sprite,Foreground,Centre,"sb\c.png",285,142 C,0,129206,,202,149,149 F,0,129206,129306,0,1 S,19,129206,129911,0.2,0.3 P,0,129206,129911,A F,16,129306,129911,1,0
Sprite,Foreground,Centre,"sb\c.png",313,289 C,0,129912,,255,255,125 F,0,129912,130012,0,1 S,19,129912,130617,0.2,0.3 P,0,129912,130617,A F,16,130012,130617,1,0
Sprite,Foreground,Centre,"sb\c.png",409,362 C,0,130265,,255,255,125 F,0,130265,130365,0,1 S,19,130265,130970,0.2,0.3 P,0,130265,130970,A F,16,130365,130970,1,0
Sprite,Foreground,Centre,"sb\c.png",473,285 C,0,130618,,255,255,125 F,0,130618,130718,0,1 S,19,130618,131323,0.2,0.3 P,0,130618,131323,A F,16,130718,131323,1,0
Sprite,Foreground,Centre,"sb\c.png",569,358 C,0,130971,,255,255,125 F,0,130971,131071,0,1 S,19,130971,131676,0.2,0.3 P,0,130971,131676,A F,16,131071,131676,1,0
Sprite,Foreground,Centre,"sb\c.png",576,277 C,0,131324,,111,255,255 F,0,131324,131424,0,1 S,19,131324,132029,0.2,0.3 P,0,131324,132029,A F,16,131424,132029,1,0
Sprite,Foreground,Centre,"sb\c.png",522,214 C,0,131500,,111,255,255 F,0,131500,131600,0,1 S,19,131500,132205,0.2,0.3 P,0,131500,132205,A F,16,131600,132205,1,0
Sprite,Foreground,Centre,"sb\c.png",575,151 C,0,131677,,111,255,255 F,0,131677,131777,0,1 S,19,131677,132382,0.2,0.3 P,0,131677,132382,A F,16,131777,132382,1,0
Sprite,Foreground,Centre,"sb\c.png",445,192 C,0,132029,,111,255,255 F,0,132029,132129,0,1 S,19,132029,132734,0.2,0.3 P,0,132029,132734,A F,16,132129,132734,1,0
Sprite,Foreground,Centre,"sb\c.png",464,272 C,0,132206,,111,255,255 F,0,132206,132306,0,1 S,19,132206,132911,0.2,0.3 P,0,132206,132911,A F,16,132306,132911,1,0
Sprite,Foreground,Centre,"sb\c.png",445,192 C,0,132382,,111,255,255 F,0,132382,132482,0,1 S,19,132382,133087,0.2,0.3 P,0,132382,133087,A F,16,132482,133087,1,0
Sprite,Foreground,Centre,"sb\c.png",305,130 C,0,132735,,255,157,157 F,0,132735,132835,0,1 S,19,132735,133440,0.2,0.3 P,0,132735,133440,A F,16,132835,133440,1,0
Sprite,Foreground,Centre,"sb\c.png",239,180 C,0,132912,,255,157,157 F,0,132912,133012,0,1 S,19,132912,133617,0.2,0.3 P,0,132912,133617,A F,16,133012,133617,1,0
Sprite,Foreground,Centre,"sb\c.png",239,262 C,0,133088,,255,157,157 F,0,133088,133188,0,1 S,19,133088,133793,0.2,0.3 P,0,133088,133793,A F,16,133188,133793,1,0
Sprite,Foreground,Centre,"sb\c.png",305,311 C,0,133265,,255,157,157 F,0,133265,133365,0,1 S,19,133265,133970,0.2,0.3 P,0,133265,133970,A F,16,133365,133970,1,0
Sprite,Foreground,Centre,"sb\c.png",315,230 C,0,133441,,202,149,149 F,0,133441,133541,0,1 S,19,133441,134146,0.2,0.3 P,0,133441,134146,A F,16,133541,134146,1,0
Sprite,Foreground,Centre,"sb\c.png",381,280 C,0,133618,,202,149,149 F,0,133618,133718,0,1 S,19,133618,134323,0.2,0.3 P,0,133618,134323,A F,16,133718,134323,1,0
Sprite,Foreground,Centre,"sb\c.png",381,362 C,0,133794,,202,149,149 F,0,133794,133894,0,1 S,19,133794,134499,0.2,0.3 P,0,133794,134499,A F,16,133894,134499,1,0
Sprite,Foreground,Centre,"sb\c.png",315,411 C,0,133971,,202,149,149 F,0,133971,134071,0,1 S,19,133971,134676,0.2,0.3 P,0,133971,134676,A F,16,134071,134676,1,0
Sprite,Foreground,Centre,"sb\cir.png",231,345 C,0,134853,,255,255,125 F,0,134853,134953,0,1 S,19,134853,135558,0.2,0.3 P,0,134853,135558,A F,16,134953,135558,1,0
Sprite,Foreground,Centre,"sb\cir.png",131,428 C,0,135206,,255,255,125 F,0,135206,135306,0,1 S,19,135206,135911,0.2,0.3 P,0,135206,135911,A F,16,135306,135911,1,0
Sprite,Foreground,Centre,"sb\hl.png",0,0 M,0,152853,,177,177 C,0,152853,,255,255,125 F,0,152853,152941,0,1 S,0,152853,154264,0.25,0.5 P,0,152853,154264,A F,0,152941,154264,1,0 M,0,154323,,310.7098,313.4168 C,0,154323,,255,255,125 F,0,154323,154411,0,1 S,0,154323,155735,0.25,0.5 P,0,154323,155735,A F,0,154411,155735,1,0 M,0,155735,,449.7992,340.9639 C,0,155735,,111,255,255 F,0,155735,155824,0,1 S,0,155735,157147,0.25,0.5 P,0,155735,157147,A F,0,155824,157147,1,0
Sprite,Foreground,Centre,"sb\hl.png",0,0 M,0,153206,,177,177 C,0,153206,,255,255,125 F,0,153206,153294,0,1 S,0,153206,154617,0.25,0.5 P,0,153206,154617,A F,0,153294,154617,1,0 M,0,154676,,388.0684,340.042 C,0,154676,,255,255,125 F,0,154676,154764,0,1 S,0,154676,156088,0.25,0.5 P,0,154676,156088,A F,0,154764,156088,1,0 M,0,156559,,443,440 C,0,156559,,111,255,255 F,0,156559,156647,0,1 S,0,156559,157970,0.25,0.5 P,0,156559,157970,A F,0,156647,157970,1,0
Sprite,Foreground,Centre,"sb\hl.png",0,0 M,0,153735,,349,158 C,0,153735,,255,255,125 F,0,153735,153823,0,1 S,0,153735,155146,0.25,0.5 P,0,153735,155146,A F,0,153823,155146,1,0 M,0,155677,,451,321 C,0,155677,,111,255,255 F,0,155677,155765,0,1 S,0,155677,157088,0.25,0.5 P,0,155677,157088,A F,0,155765,157088,1,0
Sprite,Foreground,Centre,"sb\hl.png",0,0 M,0,153735,,349,158 C,0,153735,,255,255,125 F,0,153735,153823,0,1 S,0,153735,155146,0.25,0.5 P,0,153735,155146,A F,0,153823,155146,1,0 M,0,155677,,451,321 C,0,155677,,111,255,255 F,0,155677,155765,0,1 S,0,155677,157088,0.25,0.5 P,0,155677,157088,A F,0,155765,157088,1,0
Sprite,Foreground,Centre,"sb\hl.png",0,0 M,0,153793,,352.8368,177.5352 C,0,153793,,255,255,125 F,0,153793,153882,0,1 S,0,153793,155205,0.25,0.5 P,0,153793,155205,A F,0,153882,155205,1,0 M,0,155794,,448.5983,360.9278 C,0,155794,,111,255,255 F,0,155794,155882,0,1 S,0,155794,157206,0.25,0.5 P,0,155794,157206,A F,0,155882,157206,1,0
Sprite,Foreground,Centre,"sb\hl.png",0,0 M,0,153852,,351.9966,197.3922 C,0,153852,,255,255,125 F,0,153852,153940,0,1 S,0,153852,155264,0.25,0.5 P,0,153852,155264,A F,0,153940,155264,1,0 M,0,155853,,447.3975,380.8918 C,0,155853,,111,255,255 F,0,155853,155941,0,1 S,0,155853,157265,0.25,0.5 P,0,155853,157265,A F,0,155941,157265,1,0
Sprite,Foreground,Centre,"sb\hl.png",0,0 M,0,153911,,346.726,216.5558 C,0,153911,,255,255,125 F,0,153911,153999,0,1 S,0,153911,155323,0.25,0.5 P,0,153911,155323,A F,0,153999,155323,1,0 M,0,155912,,446.1967,400.8557 C,0,155912,,111,255,255 F,0,155912,156000,0,1 S,0,155912,157324,0.25,0.5 P,0,155912,157324,A F,0,156000,157324,1,0
Sprite,Foreground,Centre,"sb\hl.png",0,0 M,0,153970,,336.6377,233.6916 C,0,153970,,255,255,125 F,0,153970,154058,0,1 S,0,153970,155382,0.25,0.5 P,0,153970,155382,A F,0,154058,155382,1,0 M,0,155971,,444.9958,420.8196 C,0,155971,,111,255,255 F,0,155971,156059,0,1 S,0,155971,157382,0.25,0.5 P,0,155971,157382,A F,0,156059,157382,1,0
Sprite,Foreground,Centre,"sb\hl.png",0,0 M,0,154088,,331,240 C,0,154088,,255,255,125 F,0,154088,154176,0,1 S,0,154088,155499,0.25,0.5 P,0,154088,155499,A F,0,154176,155499,1,0 M,0,156735,,320,248 C,0,156735,,111,255,255 F,0,156735,156823,0,1 S,0,156735,159558,0.25,0.5 P,0,156735,159558,A F,0,158147,159558,1,0
Sprite,Foreground,Centre,"sb\hl.png",0,0 M,0,154088,,331,240 C,0,154088,,255,255,125 F,0,154088,154176,0,1 S,0,154088,155499,0.25,0.5 P,0,154088,155499,A F,0,154176,155499,1,0
Sprite,Foreground,Centre,"sb\hl.png",0,0 M,0,154146,,318.9226,255.8075 C,0,154146,,255,255,125 F,0,154146,154235,0,1 S,0,154146,155558,0.25,0.5 P,0,154146,155558,A F,0,154235,155558,1,0
Sprite,Foreground,Centre,"sb\hl.png",0,0 M,0,154205,,311.194,274.0984 C,0,154205,,255,255,125 F,0,154205,154293,0,1 S,0,154205,155617,0.25,0.5 P,0,154205,155617,A F,0,154293,155617,1,0
Sprite,Foreground,Centre,"sb\hl.png",0,0 M,0,154264,,308.2203,293.7144 C,0,154264,,255,255,125 F,0,154264,154352,0,1 S,0,154264,155676,0.25,0.5 P,0,154264,155676,A F,0,154352,155676,1,0
Sprite,Foreground,Centre,"sb\hl.png",0,0 M,0,154441,,313,323 C,0,154441,,255,255,125 F,0,154441,154529,0,1 S,0,154441,155852,0.25,0.5 P,0,154441,155852,A F,0,154529,155852,1,0
Sprite,Foreground,Centre,"sb\hl.png",0,0 M,0,154441,,313,323 C,0,154441,,255,255,125 F,0,154441,154529,0,1 S,0,154441,155852,0.25,0.5 P,0,154441,155852,A F,0,154529,155852,1,0
Sprite,Foreground,Centre,"sb\hl.png",0,0 M,0,154499,,329.7675,333.7474 C,0,154499,,255,255,125 F,0,154499,154588,0,1 S,0,154499,155911,0.25,0.5 P,0,154499,155911,A F,0,154588,155911,1,0
Sprite,Foreground,Centre,"sb\hl.png",0,0 M,0,154558,,348.5396,340.2981 C,0,154558,,255,255,125 F,0,154558,154646,0,1 S,0,154558,155970,0.25,0.5 P,0,154558,155970,A F,0,154646,155970,1,0
Sprite,Foreground,Centre,"sb\hl.png",0,0 M,0,154617,,368.2999,342.3091 C,0,154617,,255,255,125 F,0,154617,154705,0,1 S,0,154617,156029,0.25,0.5 P,0,154617,156029,A F,0,154705,156029,1,0
Sprite,Foreground,Centre,"sb\hl.png",0,0 M,0,154794,,397,337 C,0,154794,,255,255,125 F,0,154794,154882,0,1 S,0,154794,156205,0.25,0.5 P,0,154794,156205,A F,0,154882,156205,1,0
Sprite,Foreground,Centre,"sb\hl.png",0,0 M,0,154794,,397,337 C,0,154794,,255,255,125 F,0,154794,154882,0,1 S,0,154794,156205,0.25,0.5 P,0,154794,156205,A F,0,154882,156205,1,0
Sprite,Foreground,Centre,"sb\hl.png",0,0 M,0,154852,,413.179,325.5684 C,0,154852,,255,255,125 F,0,154852,154941,0,1 S,0,154852,156264,0.25,0.5 P,0,154852,156264,A F,0,154941,156264,1,0
Sprite,Foreground,Centre,"sb\hl.png",0,0 M,0,154911,,432.1642,320.1371 C,0,154911,,255,255,125 F,0,154911,154999,0,1 S,0,154911,156323,0.25,0.5 P,0,154911,156323,A F,0,154999,156323,1,0
Sprite,Foreground,Centre,"sb\d.png",0,0 M,19,158147,159873,320,248,255.9328,217.3994 F,0,158147,159873,1,0 S,0,158147,159873,0.071,0 P,0,158147,159873,A
Sprite,Foreground,Centre,"sb\d.png",0,0 M,19,158147,159911,320,248,291.7707,292.8565 F,0,158147,159911,1,0 S,0,158147,159911,0.053,0 P,0,158147,159911,A
Sprite,Foreground,Centre,"sb\d.png",0,0 M,19,158147,159911,320,248,328.234,240.7061 F,0,158147,159911,1,0 S,0,158147,159911,0.011,0 P,0,158147,159911,A
Sprite,Foreground,Centre,"sb\d.png",0,0 M,19,158147,159785,320,248,312.6355,229.4052 F,0,158147,159785,1,0 S,0,158147,159785,0.02,0 P,0,158147,159785,A
Sprite,Foreground,Centre,"sb\d.png",0,0 M,19,158147,159949,320,248,339.882,214.4484 F,0,158147,159949,1,0 S,0,158147,159949,0.039,0 P,0,158147,159949,A
Sprite,Foreground,Centre,"sb\d.png",0,0 M,19,158147,159902,320,248,316.4114,238.6661 F,0,158147,159902,1,0 S,0,158147,159902,0.01,0 P,0,158147,159902,A
Sprite,Foreground,Centre,"sb\d.png",0,0 M,19,158147,159962,320,248,308.7396,279.0194 F,0,158147,159962,1,0 S,0,158147,159962,0.033,0 P,0,158147,159962,A
Sprite,Foreground,Centre,"sb\d.png",0,0 M,19,158147,160260,320,248,326.7514,188.3811 F,0,158147,160260,1,0 S,0,158147,160260,0.06,0 P,0,158147,160260,A
Sprite,Foreground,Centre,"sb\d.png",0,0 M,19,158147,160234,320,248,348.5984,196.3945 F,0,158147,160234,1,0 S,0,158147,160234,0.059,0 P,0,158147,160234,A
Sprite,Foreground,Centre,"sb\d.png",0,0 M,19,158147,159739,320,248,309.3308,250.6773 F,0,158147,159739,1,0 S,0,158147,159739,0.011,0 P,0,158147,159739,A
Sprite,Foreground,Centre,"sb\d.png",0,0 M,19,158147,159590,320,248,298.0974,271.3297 F,0,158147,159590,1,0 S,0,158147,159590,0.032,0 P,0,158147,159590,A
Sprite,Foreground,Centre,"sb\d.png",0,0 M,19,158147,159884,320,248,325.6039,236.2698 F,0,158147,159884,1,0 S,0,158147,159884,0.013,0 P,0,158147,159884,A
Sprite,Foreground,Centre,"sb\d.png",0,0 M,19,158147,159690,320,248,376.0288,211.2608 F,0,158147,159690,1,0 S,0,158147,159690,0.067,0 P,0,158147,159690,A
Sprite,Foreground,Centre,"sb\d.png",0,0 M,19,158147,160080,320,248,377.355,198.1362 F,0,158147,160080,1,0 S,0,158147,160080,0.076,0 P,0,158147,160080,A
Sprite,Foreground,Centre,"sb\d.png",0,0 M,19,158147,159804,320,248,364.8898,251.1472 F,0,158147,159804,1,0 S,0,158147,159804,0.045,0 P,0,158147,159804,A
Sprite,Foreground,Centre,"sb\d.png",0,0 M,19,158147,159891,320,248,348.4237,233.3 F,0,158147,159891,1,0 S,0,158147,159891,0.032,0 P,0,158147,159891,A
Sprite,Foreground,Centre,"sb\d.png",0,0 M,19,158147,159817,320,248,356.9512,246.1006 F,0,158147,159817,1,0 S,0,158147,159817,0.037,0 P,0,158147,159817,A
Sprite,Foreground,Centre,"sb\d.png",0,0 M,19,158147,159758,320,248,294.6283,297.9227 F,0,158147,159758,1,0 S,0,158147,159758,0.056,0 P,0,158147,159758,A
Sprite,Foreground,Centre,"sb\d.png",0,0 M,19,158147,159673,320,248,254.0388,245.7367 F,0,158147,159673,1,0 S,0,158147,159673,0.066,0 P,0,158147,159673,A
Sprite,Foreground,Centre,"sb\d.png",0,0 M,19,158147,160208,320,248,276.9925,261.2421 F,0,158147,160208,1,0 S,0,158147,160208,0.045,0 P,0,158147,160208,A
Sprite,Foreground,Centre,"sb\d.png",0,0 M,19,158147,159559,320,248,282.4154,237.5885 F,0,158147,159559,1,0 S,0,158147,159559,0.039,0 P,0,158147,159559,A
Sprite,Foreground,Centre,"sb\d.png",0,0 M,19,158147,160145,320,248,321.1602,279.979 F,0,158147,160145,1,0 S,0,158147,160145,0.032,0 P,0,158147,160145,A
Sprite,Foreground,Centre,"sb\d.png",0,0 M,19,158147,159823,320,248,318.3277,257.8592 F,0,158147,159823,1,0 S,0,158147,159823,0.01,0 P,0,158147,159823,A
Sprite,Foreground,Centre,"sb\d.png",0,0 M,19,158147,159680,320,248,373.3241,283.3912 F,0,158147,159680,1,0 S,0,158147,159680,0.064,0 P,0,158147,159680,A
Sprite,Foreground,Centre,"sb\d.png",0,0 M,19,158147,159827,320,248,307.8305,285.0527 F,0,158147,159827,1,0 S,0,158147,159827,0.039,0 P,0,158147,159827,A
Sprite,Foreground,Centre,"sb\d.png",0,0 M,19,158147,159708,320,248,351.0218,194.319 F,0,158147,159708,1,0 S,0,158147,159708,0.062,0 P,0,158147,159708,A
Sprite,Foreground,Centre,"sb\d.png",0,0 M,19,158147,159825,320,248,275.4169,190.1956 F,0,158147,159825,1,0 S,0,158147,159825,0.073,0 P,0,158147,159825,A
Sprite,Foreground,Centre,"sb\d.png",0,0 M,19,158147,159992,320,248,278.1721,251.7986 F,0,158147,159992,1,0 S,0,158147,159992,0.042,0 P,0,158147,159992,A
Sprite,Foreground,Centre,"sb\d.png",0,0 M,19,158147,160025,320,248,330.0134,239.7096 F,0,158147,160025,1,0 S,0,158147,160025,0.013,0 P,0,158147,160025,A
Sprite,Foreground,Centre,"sb\d.png",0,0 M,19,158147,159728,320,248,322.5136,216.0989 F,0,158147,159728,1,0 S,0,158147,159728,0.032,0 P,0,158147,159728,A
Sprite,Foreground,Centre,"sb\d.png",0,0 M,19,158147,159783,320,248,307.6694,287.1019 F,0,158147,159783,1,0 S,0,158147,159783,0.041,0 P,0,158147,159783,A
Sprite,Foreground,Centre,"sb\d.png",0,0 M,19,158147,159933,320,248,316.6834,281.8379 F,0,158147,159933,1,0 S,0,158147,159933,0.034,0 P,0,158147,159933,A
Sprite,Foreground,Centre,"sb\d.png",0,0 M,19,158147,159690,320,248,315.3117,185.1747 F,0,158147,159690,1,0 S,0,158147,159690,0.063,0 P,0,158147,159690,A
Sprite,Foreground,Centre,"sb\d.png",0,0 M,19,158147,159779,320,248,265.2996,242.2675 F,0,158147,159779,1,0 S,0,158147,159779,0.055,0 P,0,158147,159779,A
Sprite,Foreground,Centre,"sb\d.png",0,0 M,19,158147,159993,320,248,379.1444,289.0602 F,0,158147,159993,1,0 S,0,158147,159993,0.072,0 P,0,158147,159993,A
Sprite,Foreground,Centre,"sb\d.png",0,0 M,19,158147,159730,320,248,323.84,258.308 F,0,158147,159730,1,0 S,0,158147,159730,0.011,0 P,0,158147,159730,A
Sprite,Foreground,Centre,"sb\d.png",0,0 M,19,158147,159591,320,248,366.5097,215.0479 F,0,158147,159591,1,0 S,0,158147,159591,0.057,0 P,0,158147,159591,A
Sprite,Foreground,Centre,"sb\d.png",0,0 M,19,158147,159983,320,248,382.8628,227.8936 F,0,158147,159983,1,0 S,0,158147,159983,0.066,0 P,0,158147,159983,A
Sprite,Foreground,Centre,"sb\d.png",0,0 M,19,158147,160232,320,248,306.5157,244.2354 F,0,158147,160232,1,0 S,0,158147,160232,0.014,0 P,0,158147,160232,A
Sprite,Foreground,Centre,"sb\d.png",0,0 M,19,158147,159752,320,248,294.3358,270.3014 F,0,158147,159752,1,0 S,0,158147,159752,0.034,0 P,0,158147,159752,A
Sprite,Foreground,Centre,"sb\d.png",0,0 M,19,158147,160051,320,248,341.6881,287.4288 F,0,158147,160051,1,0 S,0,158147,160051,0.045,0 P,0,158147,160051,A
Sprite,Foreground,Centre,"sb\d.png",0,0 M,19,158147,159790,320,248,363.3551,296.4286 F,0,158147,159790,1,0 S,0,158147,159790,0.065,0 P,0,158147,159790,A
Sprite,Foreground,Centre,"sb\d.png",0,0 M,19,158147,159612,320,248,327.283,238.4628 F,0,158147,159612,1,0 S,0,158147,159612,0.012,0 P,0,158147,159612,A
Sprite,Foreground,Centre,"sb\d.png",0,0 M,19,158147,160257,320,248,329.4425,235.0834 F,0,158147,160257,1,0 S,0,158147,160257,0.016,0 P,0,158147,160257,A
Sprite,Foreground,Centre,"sb\d.png",0,0 M,19,158147,159741,320,248,338.756,251.0356 F,0,158147,159741,1,0 S,0,158147,159741,0.019,0 P,0,158147,159741,A
Sprite,Foreground,Centre,"sb\d.png",0,0 M,19,158147,159961,320,248,353.9463,262.7191 F,0,158147,159961,1,0 S,0,158147,159961,0.037,0 P,0,158147,159961,A
Sprite,Foreground,Centre,"sb\d.png",0,0 M,19,158147,159573,320,248,377.9997,247.8197 F,0,158147,159573,1,0 S,0,158147,159573,0.058,0 P,0,158147,159573,A
Sprite,Foreground,Centre,"sb\d.png",0,0 M,19,158147,160012,320,248,258.9132,282.1819 F,0,158147,160012,1,0 S,0,158147,160012,0.07,0 P,0,158147,160012,A
Sprite,Foreground,Centre,"sb\d.png",0,0 M,19,158147,160016,320,248,331.5688,279.9713 F,0,158147,160016,1,0 S,0,158147,160016,0.034,0 P,0,158147,160016,A
Sprite,Foreground,Centre,"sb\d.png",0,0 M,19,158147,159760,320,248,307.4471,189.3278 F,0,158147,159760,1,0 S,0,158147,159760,0.06,0 P,0,158147,159760,A
Sprite,Foreground,Centre,"sb\d.png",0,0 M,19,158147,159850,320,248,289.7607,232.457 F,0,158147,159850,1,0 S,0,158147,159850,0.034,0 P,0,158147,159850,A
Sprite,Foreground,Centre,"sb\d.png",0,0 M,19,158147,159652,320,248,348.8351,229.985 F,0,158147,159652,1,0 S,0,158147,159652,0.034,0 P,0,158147,159652,A
Sprite,Foreground,Centre,"sb\d.png",0,0 M,19,158147,159632,320,248,261.8713,197.5019 F,0,158147,159632,1,0 S,0,158147,159632,0.077,0 P,0,158147,159632,A
Sprite,Foreground,Centre,"sb\d.png",0,0 M,19,158147,160257,320,248,312.4709,280.1296 F,0,158147,160257,1,0 S,0,158147,160257,0.033,0 P,0,158147,160257,A
Sprite,Foreground,Centre,"sb\d.png",0,0 M,19,158147,159965,320,248,326.5115,259.2517 F,0,158147,159965,1,0 S,0,158147,159965,0.013,0 P,0,158147,159965,A
Sprite,Foreground,Centre,"sb\d.png",0,0 M,19,158147,160037,320,248,389.423,273.6212 F,0,158147,160037,1,0 S,0,158147,160037,0.074,0 P,0,158147,160037,A
Sprite,Foreground,Centre,"sb\d.png",0,0 M,19,158147,160030,320,248,296.2456,283.8431 F,0,158147,160030,1,0 S,0,158147,160030,0.043,0 P,0,158147,160030,A
Sprite,Foreground,Centre,"sb\d.png",0,0 M,19,158147,160022,320,248,292.364,272.6019 F,0,158147,160022,1,0 S,0,158147,160022,0.037,0 P,0,158147,160022,A
Sprite,Foreground,Centre,"sb\d.png",0,0 M,19,158147,160020,320,248,318.4259,309.98 F,0,158147,160020,1,0 S,0,158147,160020,0.062,0 P,0,158147,160020,A
Sprite,Foreground,Centre,"sb\d.png",0,0 M,19,158147,159874,320,248,390.5142,273.5489 F,0,158147,159874,1,0 S,0,158147,159874,0.075,0 P,0,158147,159874,A
Sprite,Foreground,Centre,"sb\d.png",0,0 M,19,158147,159779,320,248,311.9799,230.7757 F,0,158147,159779,1,0 S,0,158147,159779,0.019,0 P,0,158147,159779,A
Sprite,Foreground,Centre,"sb\d.png",0,0 M,19,158147,160083,320,248,327.3107,219.9366 F,0,158147,160083,1,0 S,0,158147,160083,0.029,0 P,0,158147,160083,A
Sprite,Foreground,Centre,"sb\d.png",0,0 M,19,158147,160110,320,248,304.0803,239.5997 F,0,158147,160110,1,0 S,0,158147,160110,0.018,0 P,0,158147,160110,A
Sprite,Foreground,Centre,"sb\d.png",0,0 M,19,158147,159859,320,248,348.7835,277.1978 F,0,158147,159859,1,0 S,0,158147,159859,0.041,0 P,0,158147,159859,A
Sprite,Foreground,Centre,"sb\d.png",0,0 M,19,158147,159810,320,248,262.2988,260.3115 F,0,158147,159810,1,0 S,0,158147,159810,0.059,0 P,0,158147,159810,A
Sprite,Foreground,Centre,"sb\d.png",0,0 M,19,158147,160129,320,248,346.4748,253.2996 F,0,158147,160129,1,0 S,0,158147,160129,0.027,0 P,0,158147,160129,A
Sprite,Foreground,Centre,"sb\d.png",0,0 M,19,158147,159857,320,248,337.3605,255.721 F,0,158147,159857,1,0 S,0,158147,159857,0.019,0 P,0,158147,159857,A
Sprite,Foreground,Centre,"sb\d.png",0,0 M,19,158147,159731,320,248,355.3598,241.2409 F,0,158147,159731,1,0 S,0,158147,159731,0.036,0 P,0,158147,159731,A
Sprite,Foreground,Centre,"sb\d.png",0,0 M,19,158147,160240,320,248,302.9638,232.5478 F,0,158147,160240,1,0 S,0,158147,160240,0.023,0 P,0,158147,160240,A
Sprite,Foreground,Centre,"sb\d.png",0,0 M,19,158147,159979,320,248,321.7353,193.0274 F,0,158147,159979,1,0 S,0,158147,159979,0.055,0 P,0,158147,159979,A
Sprite,Foreground,Centre,"sb\d.png",0,0 M,19,158147,159575,320,248,271.4074,254.3055 F,0,158147,159575,1,0 S,0,158147,159575,0.049,0 P,0,158147,159575,A
Sprite,Foreground,Centre,"sb\d.png",0,0 M,19,158147,159701,320,248,291.3633,204.5956 F,0,158147,159701,1,0 S,0,158147,159701,0.052,0 P,0,158147,159701,A
Sprite,Foreground,Centre,"sb\d.png",0,0 M,19,158147,160106,320,248,303.987,215.7574 F,0,158147,160106,1,0 S,0,158147,160106,0.036,0 P,0,158147,160106,A
Sprite,Foreground,Centre,"sb\d.png",0,0 M,19,158147,160131,320,248,341.5533,210.7917 F,0,158147,160131,1,0 S,0,158147,160131,0.043,0 P,0,158147,160131,A
Sprite,Foreground,Centre,"sb\d.png",0,0 M,19,158147,159577,320,248,339.8535,232.8066 F,0,158147,159577,1,0 S,0,158147,159577,0.025,0 P,0,158147,159577,A
Sprite,Foreground,Centre,"sb\d.png",0,0 M,19,158147,160034,320,248,323.6194,321.9114 F,0,158147,160034,1,0 S,0,158147,160034,0.074,0 P,0,158147,160034,A
Sprite,Foreground,Centre,"sb\d.png",0,0 M,19,158147,159910,320,248,312.2217,271.7592 F,0,158147,159910,1,0 S,0,158147,159910,0.025,0 P,0,158147,159910,A
Sprite,Foreground,Centre,"sb\d.png",0,0 M,19,158147,160123,320,248,364.1652,182.4986 F,0,158147,160123,1,0 S,0,158147,160123,0.079,0 P,0,158147,160123,A
Sprite,Foreground,Centre,"sb\d.png",0,0 M,19,158147,160098,320,248,378.3271,256.8855 F,0,158147,160098,1,0 S,0,158147,160098,0.059,0 P,0,158147,160098,A
Sprite,Foreground,Centre,"sb\d.png",0,0 M,19,158147,159617,320,248,339.9803,257.2081 F,0,158147,159617,1,0 S,0,158147,159617,0.022,0 P,0,158147,159617,A
Sprite,Foreground,Centre,"sb\d.png",0,0 M,19,158147,159881,320,248,331.6754,182.0251 F,0,158147,159881,1,0 S,0,158147,159881,0.067,0 P,0,158147,159881,A
Sprite,Foreground,Centre,"sb\d.png",0,0 M,19,158147,160188,320,248,341.3135,298.7024 F,0,158147,160188,1,0 S,0,158147,160188,0.055,0 P,0,158147,160188,A
Sprite,Foreground,Centre,"sb\d.png",0,0 M,19,158147,159634,320,248,266.0116,285.9638 F,0,158147,159634,1,0 S,0,158147,159634,0.066,0 P,0,158147,159634,A
Sprite,Foreground,Centre,"sb\d.png",0,0 M,19,158147,160177,320,248,339.0865,276.1373 F,0,158147,160177,1,0 S,0,158147,160177,0.034,0 P,0,158147,160177,A
Sprite,Foreground,Centre,"sb\d.png",0,0 M,19,158147,160024,320,248,345.4544,253.2986 F,0,158147,160024,1,0 S,0,158147,160024,0.026,0 P,0,158147,160024,A
Sprite,Foreground,Centre,"sb\d.png",0,0 M,19,158147,159669,320,248,308.5579,238.3006 F,0,158147,159669,1,0 S,0,158147,159669,0.015,0 P,0,158147,159669,A
Sprite,Foreground,Centre,"sb\d.png",0,0 M,19,158147,159751,320,248,327.3959,283.2321 F,0,158147,159751,1,0 S,0,158147,159751,0.036,0 P,0,158147,159751,A
Sprite,Foreground,Centre,"sb\d.png",0,0 M,19,158147,159865,320,248,309.4032,287.6069 F,0,158147,159865,1,0 S,0,158147,159865,0.041,0 P,0,158147,159865,A
Sprite,Foreground,Centre,"sb\d.png",0,0 M,19,158147,159960,320,248,364.3466,278.812 F,0,158147,159960,1,0 S,0,158147,159960,0.054,0 P,0,158147,159960,A
Sprite,Foreground,Centre,"sb\d.png",0,0 M,19,158147,160190,320,248,329.0581,301.2349 F,0,158147,160190,1,0 S,0,158147,160190,0.054,0 P,0,158147,160190,A
Sprite,Foreground,Centre,"sb\d.png",0,0 M,19,158147,159701,320,248,271.8873,267.7274 F,0,158147,159701,1,0 S,0,158147,159701,0.052,0 P,0,158147,159701,A
Sprite,Foreground,Centre,"sb\d.png",0,0 M,19,158147,160022,320,248,315.4396,235.8261 F,0,158147,160022,1,0 S,0,158147,160022,0.013,0 P,0,158147,160022,A
Sprite,Foreground,Centre,"sb\d.png",0,0 M,19,158147,159961,320,248,284.2939,294.9689 F,0,158147,159961,1,0 S,0,158147,159961,0.059,0 P,0,158147,159961,A
Sprite,Foreground,Centre,"sb\d.png",0,0 M,19,158147,159635,320,248,365.2332,298.7735 F,0,158147,159635,1,0 S,0,158147,159635,0.068,0 P,0,158147,159635,A
Sprite,Foreground,Centre,"sb\d.png",0,0 M,19,158147,160171,320,248,301.7401,239.8405 F,0,158147,160171,1,0 S,0,158147,160171,0.02,0 P,0,158147,160171,A
Sprite,Foreground,Centre,"sb\d.png",0,0 M,19,158147,160092,320,248,272.6034,202.0701 F,0,158147,160092,1,0 S,0,158147,160092,0.066,0 P,0,158147,160092,A
Sprite,Foreground,Centre,"sb\d.png",0,0 M,19,158147,160008,320,248,344.0204,277.4452 F,0,158147,160008,1,0 S,0,158147,160008,0.038,0 P,0,158147,160008,A
Sprite,Foreground,Centre,"sb\d.png",0,0 M,19,158147,160122,320,248,266.2163,204.776 F,0,158147,160122,1,0 S,0,158147,160122,0.069,0 P,0,158147,160122,A
Sprite,Foreground,Centre,"sb\d.png",0,0 M,19,158147,159818,320,248,336.1798,207.0828 F,0,158147,159818,1,0 S,0,158147,159818,0.044,0 P,0,158147,159818,A
Sprite,Foreground,Centre,"sb\d.png",0,0 M,19,158147,159566,320,248,335.8354,250.2888 F,0,158147,159566,1,0 S,0,158147,159566,0.016,0 P,0,158147,159566,A
Sprite,Foreground,CentreLeft,"sb\f\c\0053.png",185.775,219.9075 F,0,67794,,1 V,19,67794,68499,0,0.35,0.35,0.35 F,0,70000,,0
Sprite,Foreground,CentreRight,"sb\f\c\0053.png",212.025,219.9075 F,0,70000,,1 V,18,70000,70706,0.35,0.35,0,0.35 F,0,70706,,0
Sprite,Foreground,CentreLeft,"sb\f\c\0054.png",212.025,219.9075 F,0,67823,,1 V,19,67823,68529,0,0.35,0.35,0.35 F,0,70029,,0
Sprite,Foreground,CentreRight,"sb\f\c\0054.png",236.525,219.9075 F,0,70029,,1 V,18,70029,70735,0.35,0.35,0,0.35 F,0,70735,,0
Sprite,Foreground,CentreLeft,"sb\f\c\004f.png",236.525,219.9075 F,0,67852,,1 V,19,67852,68558,0,0.35,0.35,0.35 F,0,70059,,0
Sprite,Foreground,CentreRight,"sb\f\c\004f.png",269.075,219.9075 F,0,70059,,1 V,18,70059,70765,0.35,0.35,0,0.35 F,0,70765,,0
Sprite,Foreground,CentreLeft,"sb\f\c\004e.png",269.075,219.9075 F,0,67882,,1 V,19,67882,68588,0,0.35,0.35,0.35 F,0,70088,,0
Sprite,Foreground,CentreRight,"sb\f\c\004e.png",300.575,219.9075 F,0,70088,,1 V,18,70088,70794,0.35,0.35,0,0.35 F,0,70794,,0
Sprite,Foreground,CentreLeft,"sb\f\c\0045.png",300.575,219.9075 F,0,67911,,1 V,19,67911,68617,0,0.35,0.35,0.35 F,0,70118,,0
Sprite,Foreground,CentreRight,"sb\f\c\0045.png",325.775,219.9075 F,0,70118,,1 V,18,70118,70823,0.35,0.35,0,0.35 F,0,70823,,0
Sprite,Foreground,CentreLeft,"sb\f\c\0042.png",325.775,219.9075 F,0,67941,,1 V,19,67941,68646,0,0.35,0.35,0.35 F,0,70147,,0
Sprite,Foreground,CentreRight,"sb\f\c\0042.png",353.425,219.9075 F,0,70147,,1 V,18,70147,70853,0.35,0.35,0,0.35 F,0,70853,,0
Sprite,Foreground,CentreLeft,"sb\f\c\0041.png",353.425,219.9075 F,0,67970,,1 V,19,67970,68676,0,0.35,0.35,0.35 F,0,70176,,0
Sprite,Foreground,CentreRight,"sb\f\c\0041.png",383.525,219.9075 F,0,70176,,1 V,18,70176,70882,0.35,0.35,0,0.35 F,0,70882,,0
Sprite,Foreground,CentreLeft,"sb\f\c\004e.png",383.525,219.9075 F,0,67999,,1 V,19,67999,68705,0,0.35,0.35,0.35 F,0,70206,,0
Sprite,Foreground,CentreRight,"sb\f\c\004e.png",415.025,219.9075 F,0,70206,,1 V,18,70206,70912,0.35,0.35,0,0.35 F,0,70912,,0
Sprite,Foreground,CentreLeft,"sb\f\c\004b.png",415.025,219.9075 F,0,68029,,1 V,19,68029,68735,0,0.35,0.35,0.35 F,0,70235,,0
Sprite,Foreground,CentreRight,"sb\f\c\004b.png",443.725,219.9075 F,0,70235,,1 V,18,70235,70941,0.35,0.35,0,0.35 F,0,70941,,0
Sprite,Foreground,CentreLeft,"sb\f\c\0042.png",85.54999,258.465 F,0,67794,,1 V,19,67794,68499,0,0.3,0.3,0.3 F,0,69676,,0
Sprite,Foreground,CentreRight,"sb\f\c\0042.png",109.25,258.465 F,0,69676,,1 V,18,69676,70382,0.3,0.3,0,0.3 F,0,70382,,0
Sprite,Foreground,CentreLeft,"sb\f\c\0065.png",109.25,258.465 F,0,67823,,1 V,19,67823,68529,0,0.3,0.3,0.3 F,0,69706,,0
Sprite,Foreground,CentreRight,"sb\f\c\0065.png",130.85,258.465 F,0,69706,,1 V,18,69706,70412,0.3,0.3,0,0.3 F,0,70412,,0
Sprite,Foreground,CentreLeft,"sb\f\c\0041.png",145.85,258.465 F,0,67852,,1 V,19,67852,68558,0,0.3,0.3,0.3 F,0,69735,,0
Sprite,Foreground,CentreRight,"sb\f\c\0041.png",171.65,258.465 F,0,69735,,1 V,18,69735,70441,0.3,0.3,0,0.3 F,0,70441,,0
Sprite,Foreground,CentreLeft,"sb\f\c\006c.png",171.65,258.465 F,0,67882,,1 V,19,67882,68588,0,0.3,0.3,0.3 F,0,69765,,0
Sprite,Foreground,CentreRight,"sb\f\c\006c.png",186.65,258.465 F,0,69765,,1 V,18,69765,70471,0.3,0.3,0,0.3 F,0,70471,,0
Sprite,Foreground,CentreLeft,"sb\f\c\0072.png",186.65,258.465 F,0,67911,,1 V,19,67911,68617,0,0.3,0.3,0.3 F,0,69794,,0
Sprite,Foreground,CentreRight,"sb\f\c\0072.png",205.55,258.465 F,0,69794,,1 V,18,69794,70500,0.3,0.3,0,0.3 F,0,70500,,0
Sprite,Foreground,CentreLeft,"sb\f\c\0069.png",205.55,258.465 F,0,67941,,1 V,19,67941,68646,0,0.3,0.3,0.3 F,0,69823,,0
Sprite,Foreground,CentreRight,"sb\f\c\0069.png",220.85,258.465 F,0,69823,,1 V,18,69823,70529,0.3,0.3,0,0.3 F,0,70529,,0
Sprite,Foreground,CentreLeft,"sb\f\c\0067.png",220.85,258.465 F,0,67970,,1 V,19,67970,68676,0,0.3,0.3,0.3 F,0,69853,,0
Sprite,Foreground,CentreRight,"sb\f\c\0067.png",243.65,258.465 F,0,69853,,1 V,18,69853,70559,0.3,0.3,0,0.3 F,0,70559,,0
Sprite,Foreground,CentreLeft,"sb\f\c\0068.png",243.65,258.465 F,0,67999,,1 V,19,67999,68705,0,0.3,0.3,0.3 F,0,69882,,0
Sprite,Foreground,CentreRight,"sb\f\c\0068.png",266.45,258.465 F,0,69882,,1 V,18,69882,70588,0.3,0.3,0,0.3 F,0,70588,,0
Sprite,Foreground,CentreLeft,"sb\f\c\0074.png",266.45,258.465 F,0,68029,,1 V,19,68029,68735,0,0.3,0.3,0.3 F,0,69912,,0
Sprite,Foreground,CentreRight,"sb\f\c\0074.png",284.15,258.465 F,0,69912,,1 V,18,69912,70618,0.3,0.3,0,0.3 F,0,70618,,0
Sprite,Foreground,CentreLeft,"sb\f\c\0028.png",299.15,258.465 F,0,68058,,1 V,19,68058,68764,0,0.3,0.3,0.3 F,0,69941,,0
Sprite,Foreground,CentreRight,"sb\f\c\0028.png",317.45,258.465 F,0,69941,,1 V,18,69941,70647,0.3,0.3,0,0.3 F,0,70647,,0
Sprite,Foreground,CentreLeft,"sb\f\c\0046.png",317.45,258.465 F,0,68088,,1 V,19,68088,68794,0,0.3,0.3,0.3 F,0,69971,,0
Sprite,Foreground,CentreRight,"sb\f\c\0046.png",338.45,258.465 F,0,69971,,1 V,18,69971,70676,0.3,0.3,0,0.3 F,0,70676,,0
Sprite,Foreground,CentreLeft,"sb\f\c\0065.png",338.45,258.465 F,0,68117,,1 V,19,68117,68823,0,0.3,0.3,0.3 F,0,70000,,0
Sprite,Foreground,CentreRight,"sb\f\c\0065.png",360.05,258.465 F,0,70000,,1 V,18,70000,70706,0.3,0.3,0,0.3 F,0,70706,,0
Sprite,Foreground,CentreLeft,"sb\f\c\0061.png",360.05,258.465 F,0,68146,,1 V,19,68146,68852,0,0.3,0.3,0.3 F,0,70029,,0
Sprite,Foreground,CentreRight,"sb\f\c\0061.png",383.45,258.465 F,0,70029,,1 V,18,70029,70735,0.3,0.3,0,0.3 F,0,70735,,0
Sprite,Foreground,CentreLeft,"sb\f\c\0074.png",383.45,258.465 F,0,68176,,1 V,19,68176,68882,0,0.3,0.3,0.3 F,0,70059,,0
Sprite,Foreground,CentreRight,"sb\f\c\0074.png",401.15,258.465 F,0,70059,,1 V,18,70059,70765,0.3,0.3,0,0.3 F,0,70765,,0
Sprite,Foreground,CentreLeft,"sb\f\c\002e.png",401.15,258.465 F,0,68205,,1 V,19,68205,68911,0,0.3,0.3,0.3 F,0,70088,,0
Sprite,Foreground,CentreRight,"sb\f\c\002e.png",416.75,258.465 F,0,70088,,1 V,18,70088,70794,0.3,0.3,0,0.3 F,0,70794,,0
Sprite,Foreground,CentreLeft,"sb\f\c\0045.png",431.75,258.465 F,0,68235,,1 V,19,68235,68941,0,0.3,0.3,0.3 F,0,70118,,0
Sprite,Foreground,CentreRight,"sb\f\c\0045.png",453.35,258.465 F,0,70118,,1 V,18,70118,70823,0.3,0.3,0,0.3 F,0,70823,,0
Sprite,Foreground,CentreLeft,"sb\f\c\004d.png",453.35,258.465 F,0,68264,,1 V,19,68264,68970,0,0.3,0.3,0.3 F,0,70147,,0
Sprite,Foreground,CentreRight,"sb\f\c\004d.png",484.55,258.465 F,0,70147,,1 V,18,70147,70853,0.3,0.3,0,0.3 F,0,70853,,0
Sprite,Foreground,CentreLeft,"sb\f\c\0045.png",484.55,258.465 F,0,68294,,1 V,19,68294,68999,0,0.3,0.3,0.3 F,0,70176,,0
Sprite,Foreground,CentreRight,"sb\f\c\0045.png",506.15,258.465 F,0,70176,,1 V,18,70176,70882,0.3,0.3,0,0.3 F,0,70882,,0
Sprite,Foreground,CentreLeft,"sb\f\c\004c.png",506.15,258.465 F,0,68323,,1 V,19,68323,69029,0,0.3,0.3,0.3 F,0,70206,,0
Sprite,Foreground,CentreRight,"sb\f\c\004c.png",527.15,258.465 F,0,70206,,1 V,18,70206,70912,0.3,0.3,0,0.3 F,0,70912,,0
Sprite,Foreground,CentreLeft,"sb\f\c\0029.png",527.15,258.465 F,0,68352,,1 V,19,68352,69058,0,0.3,0.3,0.3 F,0,70235,,0
Sprite,Foreground,CentreRight,"sb\f\c\0029.png",545.45,258.465 F,0,70235,,1 V,18,70235,70941,0.3,0.3,0,0.3 F,0,70941,,0
Sprite,Foreground,CentreLeft,"sb\f\c\004d.png",229.875,219.9075 F,0,70971,,1 V,19,70971,71676,0,0.35,0.35,0.35 F,0,72911,,0
Sprite,Foreground,CentreRight,"sb\f\c\004d.png",266.275,219.9075 F,0,72911,,1 V,18,72911,73617,0.35,0.35,0,0.35 F,0,73617,,0
Sprite,Foreground,CentreLeft,"sb\f\c\0041.png",266.275,219.9075 F,0,71000,,1 V,19,71000,71706,0,0.35,0.35,0.35 F,0,72941,,0
Sprite,Foreground,CentreRight,"sb\f\c\0041.png",296.375,219.9075 F,0,72941,,1 V,18,72941,73646,0.35,0.35,0,0.35 F,0,73646,,0
Sprite,Foreground,CentreLeft,"sb\f\c\0050.png",296.375,219.9075 F,0,71029,,1 V,19,71029,71735,0,0.35,0.35,0.35 F,0,72970,,0
Sprite,Foreground,CentreRight,"sb\f\c\0050.png",323.675,219.9075 F,0,72970,,1 V,18,72970,73676,0.35,0.35,0,0.35 F,0,73676,,0
Sprite,Foreground,CentreLeft,"sb\f\c\0053.png",323.675,219.9075 F,0,71059,,1 V,19,71059,71765,0,0.35,0.35,0.35 F,0,72999,,0
Sprite,Foreground,CentreRight,"sb\f\c\0053.png",349.925,219.9075 F,0,72999,,1 V,18,72999,73705,0.35,0.35,0,0.35 F,0,73705,,0
Sprite,Foreground,CentreLeft,"sb\f\c\0045.png",349.925,219.9075 F,0,71088,,1 V,19,71088,71794,0,0.35,0.35,0.35 F,0,73029,,0
Sprite,Foreground,CentreRight,"sb\f\c\0045.png",375.125,219.9075 F,0,73029,,1 V,18,73029,73735,0.35,0.35,0,0.35 F,0,73735,,0
Sprite,Foreground,CentreLeft,"sb\f\c\0054.png",375.125,219.9075 F,0,71118,,1 V,19,71118,71823,0,0.35,0.35,0.35 F,0,73058,,0
Sprite,Foreground,CentreRight,"sb\f\c\0054.png",399.625,219.9075 F,0,73058,,1 V,18,73058,73764,0.35,0.35,0,0.35 F,0,73764,,0
Sprite,Foreground,CentreLeft,"sb\f\c\004e.png",243.05,258.465 F,0,70971,,1 V,19,70971,71676,0,0.3,0.3,0.3 F,0,72911,,0
Sprite,Foreground,CentreRight,"sb\f\c\004e.png",270.05,258.465 F,0,72911,,1 V,18,72911,73617,0.3,0.3,0,0.3 F,0,73617,,0
Sprite,Foreground,CentreLeft,"sb\f\c\0068.png",270.05,258.465 F,0,71000,,1 V,19,71000,71706,0,0.3,0.3,0.3 F,0,72941,,0
Sprite,Foreground,CentreRight,"sb\f\c\0068.png",292.85,258.465 F,0,72941,,1 V,18,72941,73646,0.3,0.3,0,0.3 F,0,73646,,0
Sprite,Foreground,CentreLeft,"sb\f\c\0061.png",292.85,258.465 F,0,71029,,1 V,19,71029,71735,0,0.3,0.3,0.3 F,0,72970,,0
Sprite,Foreground,CentreRight,"sb\f\c\0061.png",316.25,258.465 F,0,72970,,1 V,18,72970,73676,0.3,0.3,0,0.3 F,0,73676,,0
Sprite,Foreground,CentreLeft,"sb\f\c\0077.png",316.25,258.465 F,0,71059,,1 V,19,71059,71765,0,0.3,0.3,0.3 F,0,72999,,0
Sprite,Foreground,CentreRight,"sb\f\c\0077.png",342.95,258.465 F,0,72999,,1 V,18,72999,73705,0.3,0.3,0,0.3 F,0,73705,,0
Sprite,Foreground,CentreLeft,"sb\f\c\0061.png",342.95,258.465 F,0,71088,,1 V,19,71088,71794,0,0.3,0.3,0.3 F,0,73029,,0
Sprite,Foreground,CentreRight,"sb\f\c\0061.png",366.35,258.465 F,0,73029,,1 V,18,73029,73735,0.3,0.3,0,0.3 F,0,73735,,0
Sprite,Foreground,CentreLeft,"sb\f\c\006b.png",366.35,258.465 F,0,71118,,1 V,19,71118,71823,0,0.3,0.3,0.3 F,0,73058,,0
Sprite,Foreground,CentreRight,"sb\f\c\006b.png",387.95,258.465 F,0,73058,,1 V,18,73058,73764,0.3,0.3,0,0.3 F,0,73764,,0
Sprite,Foreground,CentreLeft,"sb\f\c\0048.png",256.65,219.9075 F,0,73794,,1 V,19,73794,74499,0,0.35,0.35,0.35 F,0,75794,,0
Sprite,Foreground,CentreRight,"sb\f\c\0048.png",286.05,219.9075 F,0,75794,,1 V,18,75794,76500,0.35,0.35,0,0.35 F,0,76500,,0
Sprite,Foreground,CentreLeft,"sb\f\c\0041.png",286.05,219.9075 F,0,73823,,1 V,19,73823,74529,0,0.35,0.35,0.35 F,0,75823,,0
Sprite,Foreground,CentreRight,"sb\f\c\0041.png",316.15,219.9075 F,0,75823,,1 V,18,75823,76529,0.35,0.35,0,0.35 F,0,76529,,0
Sprite,Foreground,CentreLeft,"sb\f\c\0052.png",316.15,219.9075 F,0,73852,,1 V,19,73852,74558,0,0.35,0.35,0.35 F,0,75853,,0
Sprite,Foreground,CentreRight,"sb\f\c\0052.png",343.45,219.9075 F,0,75853,,1 V,18,75853,76559,0.35,0.35,0,0.35 F,0,76559,,0
Sprite,Foreground,CentreLeft,"sb\f\c\0044.png",343.45,219.9075 F,0,73882,,1 V,19,73882,74588,0,0.35,0.35,0.35 F,0,75882,,0
Sprite,Foreground,CentreRight,"sb\f\c\0044.png",372.85,219.9075 F,0,75882,,1 V,18,75882,76588,0.35,0.35,0,0.35 F,0,76588,,0
Sprite,Foreground,CentreLeft,"sb\f\c\004e.png",243.05,258.465 F,0,73794,,1 V,19,73794,74499,0,0.3,0.3,0.3 F,0,75735,,0
Sprite,Foreground,CentreRight,"sb\f\c\004e.png",270.05,258.465 F,0,75735,,1 V,18,75735,76441,0.3,0.3,0,0.3 F,0,76441,,0
Sprite,Foreground,CentreLeft,"sb\f\c\0068.png",270.05,258.465 F,0,73823,,1 V,19,73823,74529,0,0.3,0.3,0.3 F,0,75765,,0
Sprite,Foreground,CentreRight,"sb\f\c\0068.png",292.85,258.465 F,0,75765,,1 V,18,75765,76470,0.3,0.3,0,0.3 F,0,76470,,0
Sprite,Foreground,CentreLeft,"sb\f\c\0061.png",292.85,258.465 F,0,73852,,1 V,19,73852,74558,0,0.3,0.3,0.3 F,0,75794,,0
Sprite,Foreground,CentreRight,"sb\f\c\0061.png",316.25,258.465 F,0,75794,,1 V,18,75794,76500,0.3,0.3,0,0.3 F,0,76500,,0
Sprite,Foreground,CentreLeft,"sb\f\c\0077.png",316.25,258.465 F,0,73882,,1 V,19,73882,74588,0,0.3,0.3,0.3 F,0,75823,,0
Sprite,Foreground,CentreRight,"sb\f\c\0077.png",342.95,258.465 F,0,75823,,1 V,18,75823,76529,0.3,0.3,0,0.3 F,0,76529,,0
Sprite,Foreground,CentreLeft,"sb\f\c\0061.png",342.95,258.465 F,0,73911,,1 V,19,73911,74617,0,0.3,0.3,0.3 F,0,75853,,0
Sprite,Foreground,CentreRight,"sb\f\c\0061.png",366.35,258.465 F,0,75853,,1 V,18,75853,76559,0.3,0.3,0,0.3 F,0,76559,,0
Sprite,Foreground,CentreLeft,"sb\f\c\006b.png",366.35,258.465 F,0,73941,,1 V,19,73941,74646,0,0.3,0.3,0.3 F,0,75882,,0
Sprite,Foreground,CentreRight,"sb\f\c\006b.png",387.95,258.465 F,0,75882,,1 V,18,75882,76588,0.3,0.3,0,0.3 F,0,76588,,0
Sprite,Foreground,CentreLeft,"sb\f\c\0053.png",171.25,219.9075 F,0,76618,,1 V,19,76618,77323,0,0.35,0.35,0.35 F,0,78088,,0
Sprite,Foreground,CentreRight,"sb\f\c\0053.png",197.5,219.9075 F,0,78088,,1 V,18,78088,78793,0.35,0.35,0,0.35 F,0,78793,,0
Sprite,Foreground,CentreLeft,"sb\f\c\0054.png",197.5,219.9075 F,0,76647,,1 V,19,76647,77353,0,0.35,0.35,0.35 F,0,78117,,0
Sprite,Foreground,CentreRight,"sb\f\c\0054.png",222,219.9075 F,0,78117,,1 V,18,78117,78823,0.35,0.35,0,0.35 F,0,78823,,0
Sprite,Foreground,CentreLeft,"sb\f\c\004f.png",222,219.9075 F,0,76676,,1 V,19,76676,77382,0,0.35,0.35,0.35 F,0,78146,,0
Sprite,Foreground,CentreRight,"sb\f\c\004f.png",254.55,219.9075 F,0,78146,,1 V,18,78146,78852,0.35,0.35,0,0.35 F,0,78852,,0
Sprite,Foreground,CentreLeft,"sb\f\c\0052.png",254.55,219.9075 F,0,76706,,1 V,19,76706,77412,0,0.35,0.35,0.35 F,0,78176,,0
Sprite,Foreground,CentreRight,"sb\f\c\0052.png",281.85,219.9075 F,0,78176,,1 V,18,78176,78882,0.35,0.35,0,0.35 F,0,78882,,0
Sprite,Foreground,CentreLeft,"sb\f\c\0059.png",281.85,219.9075 F,0,76735,,1 V,19,76735,77441,0,0.35,0.35,0.35 F,0,78205,,0
Sprite,Foreground,CentreRight,"sb\f\c\0059.png",311.25,219.9075 F,0,78205,,1 V,18,78205,78911,0.35,0.35,0,0.35 F,0,78911,,0
Sprite,Foreground,CentreLeft,"sb\f\c\0042.png",311.25,219.9075 F,0,76765,,1 V,19,76765,77470,0,0.35,0.35,0.35 F,0,78235,,0
Sprite,Foreground,CentreRight,"sb\f\c\0042.png",338.9,219.9075 F,0,78235,,1 V,18,78235,78940,0.35,0.35,0,0.35 F,0,78940,,0
Sprite,Foreground,CentreLeft,"sb\f\c\004f.png",338.9,219.9075 F,0,76794,,1 V,19,76794,77500,0,0.35,0.35,0.35 F,0,78264,,0
Sprite,Foreground,CentreRight,"sb\f\c\004f.png",371.45,219.9075 F,0,78264,,1 V,18,78264,78970,0.35,0.35,0,0.35 F,0,78970,,0
Sprite,Foreground,CentreLeft,"sb\f\c\0041.png",371.45,219.9075 F,0,76823,,1 V,19,76823,77529,0,0.35,0.35,0.35 F,0,78293,,0
Sprite,Foreground,CentreRight,"sb\f\c\0041.png",401.55,219.9075 F,0,78293,,1 V,18,78293,78999,0.35,0.35,0,0.35 F,0,78999,,0
Sprite,Foreground,CentreLeft,"sb\f\c\0052.png",401.55,219.9075 F,0,76853,,1 V,19,76853,77559,0,0.35,0.35,0.35 F,0,78323,,0
Sprite,Foreground,CentreRight,"sb\f\c\0052.png",428.8499,219.9075 F,0,78323,,1 V,18,78323,79029,0.35,0.35,0,0.35 F,0,79029,,0
Sprite,Foreground,CentreLeft,"sb\f\c\0044.png",428.8499,219.9075 F,0,76882,,1 V,19,76882,77588,0,0.35,0.35,0.35 F,0,78352,,0
Sprite,Foreground,CentreRight,"sb\f\c\0044.png",458.2499,219.9075 F,0,78352,,1 V,18,78352,79058,0.35,0.35,0,0.35 F,0,79058,,0
Sprite,Foreground,CentreLeft,"sb\f\c\0048.png",167.15,258.465 F,0,76618,,1 V,19,76618,77323,0,0.3,0.3,0.3 F,0,78029,,0
Sprite,Foreground,CentreRight,"sb\f\c\0048.png",192.35,258.465 F,0,78029,,1 V,18,78029,78735,0.3,0.3,0,0.3 F,0,78735,,0
Sprite,Foreground,CentreLeft,"sb\f\c\006f.png",192.35,258.465 F,0,76647,,1 V,19,76647,77353,0,0.3,0.3,0.3 F,0,78058,,0
Sprite,Foreground,CentreRight,"sb\f\c\006f.png",214.85,258.465 F,0,78058,,1 V,18,78058,78764,0.3,0.3,0,0.3 F,0,78764,,0
Sprite,Foreground,CentreLeft,"sb\f\c\006b.png",214.85,258.465 F,0,76676,,1 V,19,76676,77382,0,0.3,0.3,0.3 F,0,78088,,0
Sprite,Foreground,CentreRight,"sb\f\c\006b.png",236.45,258.465 F,0,78088,,1 V,18,78088,78793,0.3,0.3,0,0.3 F,0,78793,,0
Sprite,Foreground,CentreLeft,"sb\f\c\0069.png",236.45,258.465 F,0,76706,,1 V,19,76706,77412,0,0.3,0.3,0.3 F,0,78117,,0
Sprite,Foreground,CentreRight,"sb\f\c\0069.png",251.75,258.465 F,0,78117,,1 V,18,78117,78823,0.3,0.3,0,0.3 F,0,78823,,0
Sprite,Foreground,CentreLeft,"sb\f\c\0063.png",251.75,258.465 F,0,76735,,1 V,19,76735,77441,0,0.3,0.3,0.3 F,0,78146,,0
Sprite,Foreground,CentreRight,"sb\f\c\0063.png",273.05,258.465 F,0,78146,,1 V,18,78146,78852,0.3,0.3,0,0.3 F,0,78852,,0
Sprite,Foreground,CentreLeft,"sb\f\c\0068.png",273.05,258.465 F,0,76765,,1 V,19,76765,77470,0,0.3,0.3,0.3 F,0,78176,,0
Sprite,Foreground,CentreRight,"sb\f\c\0068.png",295.85,258.465 F,0,78176,,1 V,18,78176,78882,0.3,0.3,0,0.3 F,0,78882,,0
Sprite,Foreground,CentreLeft,"sb\f\c\0069.png",295.85,258.465 F,0,76794,,1 V,19,76794,77500,0,0.3,0.3,0.3 F,0,78205,,0
Sprite,Foreground,CentreRight,"sb\f\c\0069.png",311.15,258.465 F,0,78205,,1 V,18,78205,78911,0.3,0.3,0,0.3 F,0,78911,,0
Sprite,Foreground,CentreLeft,"sb\f\c\0026.png",326.15,258.465 F,0,76823,,1 V,19,76823,77529,0,0.3,0.3,0.3 F,0,78235,,0
Sprite,Foreground,CentreRight,"sb\f\c\0026.png",350.45,258.465 F,0,78235,,1 V,18,78235,78940,0.3,0.3,0,0.3 F,0,78940,,0
Sprite,Foreground,CentreLeft,"sb\f\c\004d.png",365.45,258.465 F,0,76853,,1 V,19,76853,77559,0,0.3,0.3,0.3 F,0,78264,,0
Sprite,Foreground,CentreRight,"sb\f\c\004d.png",396.65,258.465 F,0,78264,,1 V,18,78264,78970,0.3,0.3,0,0.3 F,0,78970,,0
Sprite,Foreground,CentreLeft,"sb\f\c\0075.png",396.65,258.465 F,0,76882,,1 V,19,76882,77588,0,0.3,0.3,0.3 F,0,78293,,0
Sprite,Foreground,CentreRight,"sb\f\c\0075.png",419.45,258.465 F,0,78293,,1 V,18,78293,78999,0.3,0.3,0,0.3 F,0,78999,,0
Sprite,Foreground,CentreLeft,"sb\f\c\006e.png",419.45,258.465 F,0,76912,,1 V,19,76912,77618,0,0.3,0.3,0.3 F,0,78323,,0
Sprite,Foreground,CentreRight,"sb\f\c\006e.png",442.2499,258.465 F,0,78323,,1 V,18,78323,79029,0.3,0.3,0,0.3 F,0,79029,,0
Sprite,Foreground,CentreLeft,"sb\f\c\0065.png",442.2499,258.465 F,0,76941,,1 V,19,76941,77647,0,0.3,0.3,0.3 F,0,78352,,0
Sprite,Foreground,CentreRight,"sb\f\c\0065.png",463.8499,258.465 F,0,78352,,1 V,18,78352,79058,0.3,0.3,0,0.3 F,0,79058,,0
//Storyboard Layer 4 (Overlay)
//Storyboard Sound Samples

[TimingPoints]
30,352.941176470588,4,2,1,60,1,0
30,-125,4,2,1,60,0,0
11324,-100,4,2,1,60,0,0
24029,-125,4,2,1,30,0,0
45206,-100,4,2,1,30,0,0
67794,-100,4,2,1,60,0,0
79088,-100,4,2,2,60,0,0
89147,-100,4,2,1,60,0,0
90382,-100,4,2,1,60,0,1
100088,-100,4,2,1,60,0,0
101677,-100,4,2,1,60,0,1
111559,-100,4,2,1,60,0,0
123029,-100,4,2,2,60,0,0
124265,-100,4,2,1,60,0,0
135559,-100,4,2,1,60,0,1
145265,-100,4,2,1,60,0,0
146853,-100,4,2,1,60,0,1
152500,-125,4,2,1,30,0,0
154000,-125,4,2,1,5,0,0
154088,-125,4,2,1,25,0,0
154353,-125,4,2,1,5,0,0
154441,-125,4,2,1,20,0,0
154706,-125,4,2,1,5,0,0
154794,-125,4,2,1,15,0,0
155677,-125,4,2,1,10,0,0

[Colours]
Combo1 : 202,149,149
Combo2 : 255,255,125
Combo3 : 111,255,255
Combo4 : 255,157,157

[HitObjects]
265,57,30,6,0,P|308:32|377:46,2,120,4|4|4,0:0|0:0|0:0,0:0:0:0:
230,133,912,1,2,0:0:0:0:
148,112,1088,1,4,0:0:0:0:
116,276,1441,6,0,P|73:301|4:287,2,120,4|4|4,0:0|0:0|0:0,0:0:0:0:
151,200,2323,1,2,0:0:0:0:
233,221,2499,1,4,0:0:0:0:
394,174,2853,6,0,L|380:311,2,120,4|4|4,0:0|0:0|0:0,0:0:0:0:
402,89,3736,1,2,0:0:0:0:
410,4,3912,1,4,0:0:0:0:
265,89,4265,6,0,B|239:80|196:83|221:98|183:105|149:91,2,120,4|4|4,0:0|0:0|0:0,0:0:0:0:
308,161,5147,1,2,0:0:0:0:
265,233,5324,1,4,0:0:0:0:
395,175,5677,6,0,P|438:150|507:164,2,120,4|4|4,0:0|0:0|0:0,0:0:0:0:
458,230,6559,1,2,0:0:0:0:
466,313,6735,1,4,0:0:0:0:
306,258,7088,6,0,P|263:283|194:269,2,120,4|4|4,0:0|0:0|0:0,0:0:0:0:
243,203,7970,1,2,0:0:0:0:
235,120,8146,1,4,0:0:0:0:
100,221,8500,6,0,B|67:212|50:186|50:186|34:207|-1:211,2,120,4|4|4,0:0|0:0|0:0,0:0:0:0:
123,140,9382,1,2,0:0:0:0:
64,79,9559,1,4,0:0:0:0:
235,120,9912,6,0,B|268:111|285:85|285:85|301:106|336:110,2,120,4|4|4,0:0|0:0|0:0,0:0:0:0:
207,198,10794,1,4,0:0:0:0:
288,184,10971,1,0,1:0:0:0:
260,262,11147,1,8,0:0:0:0:
246,343,11324,6,0,P|283:342|314:323,1,75,4|0,0:0|0:0,0:0:0:0:
421,267,11677,2,0,P|390:248|353:248,1,75,4|0,0:0|0:0,0:0:0:0:
494,310,12029,2,0,L|514:219,1,75,4|2,0:0|0:0,0:0:0:0:
430,110,12382,2,0,L|446:183,1,75,6|0,0:0|0:0,0:0:0:0:
322,46,12735,6,0,P|284:47|253:66,1,75,4|0,0:0|0:0,0:0:0:0:
295,201,13088,2,0,P|312:169|314:132,1,75,4|0,0:0|0:0,0:0:0:0:
178,103,13441,2,0,P|201:132|235:145,1,75,4|2,0:0|0:0,0:0:0:0:
217,227,13794,2,0,L|233:300,1,75,6|0,0:0|0:0,0:0:0:0:
353,328,14147,6,0,P|384:347|421:347,1,75,4|0,0:0|0:0,0:0:0:0:
475,247,14500,2,0,P|443:264|406:265,1,75,4|0,0:0|0:0,0:0:0:0:
423,185,14853,2,0,P|455:167|474:135,1,75,4|2,0:0|0:0,0:0:0:0:
414,38,15206,2,0,P|413:75|395:108,1,75,6|0,0:0|0:0,0:0:0:0:
293,56,15559,6,0,L|209:64,1,75,4|0,0:0|0:0,0:0:0:0:
147,107,15912,2,0,L|140:33,1,75,4|0,0:0|0:0,0:0:0:0:
199,170,16265,2,0,P|167:188|130:190,1,75,4|0,0:0|1:0,0:0:0:0:
0,113,16618,2,0,P|36:113|68:133,1,75,6|8,0:0|0:0,0:0:0:0:
51,241,16971,5,8,0:0:0:0:
2,299,17147,1,0,0:0:0:0:
35,368,17324,1,8,0:0:0:0:
114,351,17500,1,0,0:0:0:0:
122,271,17677,5,8,0:0:0:0:
130,190,17853,1,0,0:0:0:0:
209,173,18029,1,8,0:0:0:0:
243,243,18206,1,0,0:0:0:0:
192,300,18382,6,0,P|225:318|262:315,1,75,8|0,0:0|0:0,0:0:0:0:
321,257,18735,1,8,0:0:0:0:
378,316,18912,1,0,0:0:0:0:
446,270,19088,6,0,P|463:237|460:200,1,75,8|0,0:0|0:0,0:0:0:0:
402,142,19441,1,8,0:0:0:0:
461,85,19618,1,0,0:0:0:0:
366,62,19794,6,0,P|352:29|325:10,3,37.5,8|0|0|0,0:0|0:0|0:0|0:0,0:0:0:0:
315,48,20147,2,0,P|292:22|259:13,3,37.5,8|0|0|0,0:0|0:0|0:0|0:0,0:0:0:0:
274,59,20500,2,0,P|243:42|210:44,3,37.5,8|0|0|0,0:0|0:0|0:0|0:0,0:0:0:0:
234,82,20853,2,0,P|200:77|169:90,3,37.5,8|0|0|0,0:0|0:0|0:0|0:0,0:0:0:0:
325,131,21382,5,2,0:0:0:0:
319,209,21559,1,2,0:0:0:0:
314,288,21735,1,2,0:0:0:0:
236,209,21912,5,2,0:0:0:0:
230,288,22089,1,2,0:0:0:0:
225,367,22265,1,2,0:0:0:0:
303,372,22441,1,2,0:0:0:0:
382,377,22618,5,4,0:1:0:0:
383,208,24029,6,0,B|353:324|353:324|392:396,2,180,0|2|0,0:0|0:0|0:0,0:0:0:0:
383,208,25441,1,0,0:0:0:0:
383,208,26677,5,0,0:0:0:0:
383,208,26853,2,0,L|507:235,1,120,0|2,0:0|0:0,0:0:0:0:
388,129,27559,2,0,L|506:155,1,120,0|2,0:0|0:0,0:0:0:0:
505,154,28265,1,0,0:0:0:0:
505,154,29324,5,0,0:0:0:0:
505,154,29500,1,0,0:0:0:0:
474,81,29677,2,0,P|431:56|362:70,1,120,0|0,0:0|0:0,0:0:0:0:
297,108,30206,2,0,P|239:121|187:95,1,120,2|0,0:0|0:0,0:0:0:0:
142,30,30735,1,0,0:0:0:0:
142,30,31971,5,0,0:0:0:0:
94,91,32147,1,2,0:0:0:0:
149,145,32324,1,0,0:0:0:0:
99,204,32500,2,0,P|132:222|169:219,1,60,0|0,0:0|0:0,0:0:0:0:
243,182,32853,2,0,B|240:215|240:215|247:221|247:221|240:226|240:226|234:295,2,120,2|0|0,0:0|0:0|0:0,0:0:0:0:
248,104,33912,1,0,0:0:0:0:
248,104,34971,5,2,0:0:0:0:
248,104,35147,1,0,0:0:0:0:
283,34,35324,2,0,B|327:14|380:40|344:68|404:91|446:74,2,180,0|2|0,0:0|0:0|0:0,0:0:0:0:
248,104,36735,1,0,0:0:0:0:
248,104,37971,5,0,0:0:0:0:
178,61,38147,5,2,0:0:0:0:
175,143,38324,1,0,0:0:0:0:
245,186,38500,1,0,0:0:0:0:
89,189,38853,5,2,0:0:0:0:
92,271,39030,1,0,0:0:0:0:
22,314,39206,1,0,0:0:0:0:
180,330,39559,5,0,0:0:0:0:
180,330,40617,5,2,0:0:0:0:
181,251,40794,1,0,0:0:0:0:
126,194,40971,2,0,P|180:172|236:192,1,120,0|0,0:0|0:0,0:0:0:0:
264,265,41500,2,0,P|319:284|374:263,1,120,2|0,0:0|0:0,0:0:0:0:
414,196,42029,1,0,0:0:0:0:
256,192,42382,12,0,44853,0:0:0:0:
256,192,45206,6,0,B|291:167|340:182|313:212|369:222|403:201,1,150,4|2,0:1|0:0,0:0:0:0:
477,189,45735,2,0,B|502:285|502:285|469:346,1,150,0|0,0:0|0:0,0:0:0:0:
410,378,46265,1,2,0:0:0:0:
403,295,46441,1,0,0:0:0:0:
332,338,46618,6,0,P|289:358|245:342,1,75,0|0,0:0|0:0,0:0:0:0:
283,273,46971,2,0,L|268:199,1,75,2|0,0:0|0:0,0:0:0:0:
204,299,47324,1,0,0:0:0:0:
152,363,47500,1,0,0:0:0:0:
77,327,47677,1,2,0:0:0:0:
187,204,48029,6,0,B|150:218|130:254|130:254|107:228|60:226,1,150,0|2,0:0|0:0,0:0:0:0:
113,158,48559,2,0,L|84:3,1,150,0|0,0:0|0:0,0:0:0:0:
166,0,49088,1,2,0:0:0:0:
182,75,49265,1,0,0:0:0:0:
245,23,49441,6,0,P|281:19|313:38,1,75,0|0,0:0|0:0,0:0:0:0:
439,81,49794,2,0,P|402:78|371:97,1,75,2|0,0:0|0:0,0:0:0:0:
290,117,50147,1,0,0:0:0:0:
346,177,50324,1,0,0:0:0:0:
308,250,50500,1,2,0:0:0:0:
232,370,50853,6,0,B|204:357|198:328|198:328|148:319|148:319|140:336|108:340,1,150,0|2,0:0|0:0,0:0:0:0:
40,374,51382,2,0,B|21:345|23:295|55:319|58:261|37:230,1,150,0|0,0:0|0:0,0:0:0:0:
5,154,51912,1,2,0:0:0:0:
64,97,52088,1,0,0:0:0:0:
15,30,52265,6,0,B|140:14|140:14|149:57|149:57|225:46,2,225,0|0|2,0:0|0:0|0:0,0:0:0:0:
64,97,53500,1,0,0:0:0:0:
136,136,53677,6,0,B|142:174|186:195|186:195|142:192|115:240,1,150,0|2,0:0|0:0,0:0:0:0:
50,188,54206,2,0,B|44:226|0:247|0:247|44:244|71:292,1,150,0|0,0:0|0:0,0:0:0:0:
138,302,54735,1,2,0:0:0:0:
263,194,55088,5,0,0:0:0:0:
263,277,55265,1,0,0:0:0:0:
235,353,55441,2,0,P|270:362|304:348,1,75,2|0,0:0|0:0,0:0:0:0:
352,280,55794,2,0,P|361:244|347:210,1,75,0|0,0:0|0:0,0:0:0:0:
263,194,56147,1,2,0:0:0:0:
262,53,56500,6,0,B|287:149|287:149|254:210,1,150,4|2,0:1|0:0,0:0:0:0:
186,162,57029,2,0,B|161:206|161:206|186:302,1,150,0|0,0:0|0:0,0:0:0:0:
205,383,57559,1,2,0:0:0:0:
261,323,57735,1,0,0:0:0:0:
335,357,57912,6,0,B|343:322|343:322|332:285,1,75,0|0,0:0|0:0,0:0:0:0:
417,210,58265,2,0,B|406:247|406:247|414:283,1,75,2|0,0:0|0:0,0:0:0:0:
458,135,58618,2,0,L|383:131,1,75,0|0,0:0|0:0,0:0:0:0:
330,194,58971,1,2,0:0:0:0:
326,24,59324,6,0,B|284:12|243:43|279:62|230:90|190:82,1,150,0|2,0:0|0:0,0:0:0:0:
125,45,59853,2,0,P|164:96|187:191,1,150,0|0,0:0|0:0,0:0:0:0:
169,258,60382,1,2,0:0:0:0:
91,230,60559,1,0,0:0:0:0:
162,335,60735,6,0,P|198:332|226:308,1,75,0|0,0:0|0:0,0:0:0:0:
348,275,61088,2,0,P|311:272|284:248,1,75,0|0,0:0|0:0,0:0:0:0:
420,335,61441,2,0,P|456:332|484:308,1,75,0|0,0:0|0:0,0:0:0:0:
423,251,61794,1,2,0:0:0:0:
512,151,62147,6,0,P|439:132|379:89,1,150,0|2,0:0|0:0,0:0:0:0:
336,17,62677,2,0,P|342:91|322:162,1,150,0|0,0:0|0:0,0:0:0:0:
286,238,63206,1,2,0:0:0:0:
228,83,63559,6,0,B|171:56|128:95|128:95|132:102|132:102|84:143|16:106,2,225,0|0|2,0:0|0:0|0:0,0:0:0:0:
290,129,64794,1,0,0:0:0:0:
348,70,64971,2,0,P|375:133|316:203,1,150,0|0,0:0|0:0,0:0:0:0:
251,200,65500,2,0,P|282:265|353:275,1,150,0|0,0:0|0:0,0:0:0:0:
333,196,66029,1,0,0:0:0:0:
180,61,67794,6,0,P|119:98|52:72,2,150,4|2|2,0:1|0:0|0:0,0:0:0:0:
180,61,69029,2,0,P|241:21|309:47,2,150,2|2|2,0:0|0:0|0:0,0:0:0:0:
216,136,70088,1,2,0:0:0:0:
216,136,70265,1,2,0:0:0:0:
216,136,70971,6,0,B|241:232|241:232|208:293,1,150,2|2,0:0|0:0,0:0:0:0:
332,247,71853,2,0,B|307:151|307:151|340:90,2,150,2|2|2,0:0|0:0|0:0,0:0:0:0:
349,327,72912,1,2,0:0:0:0:
349,327,73088,1,2,0:0:0:0:
349,327,73794,6,0,B|308:311|265:339|299:361|247:385|209:373,1,150,2|2,0:0|0:0,0:0:0:0:
349,243,74677,2,0,B|389:227|432:255|398:277|450:301|488:289,2,150,2|2|2,0:0|0:0|0:0,0:0:0:0:
349,327,75735,1,2,0:0:0:0:
349,327,75912,1,2,0:0:0:0:
345,162,76618,6,0,P|277:136|216:175,1,150,2|2,0:0|0:0,0:0:0:0:
345,53,77500,2,0,P|412:27|473:66,1,150,2|2,0:0|0:0,0:0:0:0:
473,66,78206,5,2,0:0:0:0:
429,135,78382,1,2,0:0:0:0:
498,180,78559,1,2,0:0:0:0:
448,245,78735,2,0,P|421:286|417:322,1,75,2|2,0:0|0:0,0:0:0:0:
288,201,79088,6,0,L|372:192,1,75,12|0,0:0|0:0,0:0:0:0:
325,111,79353,1,0,0:0:0:0:
325,111,79441,2,0,L|251:119,1,75,8|0,0:0|0:0,0:0:0:0:
250,291,79794,2,0,L|334:282,1,75,8|0,0:0|0:0,0:0:0:0:
287,201,80147,2,0,L|213:209,1,75,8|0,0:0|0:0,0:0:0:0:
212,381,80500,2,0,L|296:372,1,75,8|0,0:0|0:0,0:0:0:0:
249,291,80853,2,0,L|175:299,1,75,8|0,0:0|0:0,0:0:0:0:
181,143,81206,6,0,P|208:184|212:220,1,75,8|0,0:0|0:0,0:0:0:0:
129,212,81559,1,8,0:0:0:0:
130,64,81912,6,0,P|171:37|207:33,1,75,8|0,0:0|0:0,0:0:0:0:
278,18,82177,1,0,0:0:0:0:
278,18,82265,2,0,L|287:124,1,75,8|0,0:0|0:0,0:0:0:0:
432,138,82618,2,0,P|391:111|355:107,1,75,8|0,0:0|0:0,0:0:0:0:
284,92,82971,2,0,L|277:166,1,75,8|0,0:0|0:0,0:0:0:0:
128,212,83324,2,0,P|169:185|205:181,1,75,8|0,0:0|0:0,0:0:0:0:
277,166,83677,2,0,L|286:272,1,75,8|0,0:0|0:0,0:0:0:0:
432,286,84029,6,0,P|391:259|355:255,1,75,8|0,0:0|0:0,0:0:0:0:
363,334,84382,1,8,0:0:0:0:
201,257,84735,5,8,0:0:0:0:
250,315,84911,1,0,0:0:0:0:
217,384,85088,1,8,0:0:0:0:
138,367,85264,1,0,0:0:0:0:
130,287,85441,2,0,L|36:305,1,75,8|0,0:0|0:0,0:0:0:0:
0,236,85794,2,0,L|73:222,1,75,8|0,0:0|0:0,0:0:0:0:
100,143,86147,5,8,0:0:0:0:
158,192,86323,1,0,0:0:0:0:
227,159,86500,1,8,0:0:0:0:
210,80,86676,1,0,0:0:0:0:
130,72,86853,2,0,L|148:-22,1,75,8|0,0:0|0:0,0:0:0:0:
61,1,87206,2,0,L|46:74,1,75,8|0,0:0|0:0,0:0:0:0:
80,150,87559,6,0,P|47:164|28:191,3,37.5,8|0|0|0,0:0|0:0|0:0|0:0,0:0:0:0:
66,201,87912,2,0,P|40:224|31:257,3,37.5,8|0|0|0,0:0|0:0|0:0|0:0,0:0:0:0:
77,242,88265,2,0,P|60:273|62:306,3,37.5,8|0|0|0,0:0|0:0|0:0|0:0,0:0:0:0:
100,282,88618,2,0,P|95:316|108:347,3,37.5,8|0|0|0,0:0|0:0|0:0|0:0,0:0:0:0:
186,238,89147,5,2,0:0:0:0:
247,187,89323,1,2,0:0:0:0:
319,222,89500,1,2,0:0:0:0:
301,305,89677,1,4,0:0:0:0:
362,356,89853,1,4,0:0:0:0:
434,321,90030,1,4,0:0:0:0:
416,238,90206,1,4,0:0:0:0:
438,158,90382,6,0,P|481:170|521:155,1,75,4|0,0:1|0:0,0:0:0:0:
480,3,90735,1,8,0:0:0:0:
475,86,90912,1,0,0:0:0:0:
331,28,91088,2,0,P|367:21|403:32,1,75,4|0,0:0|0:0,0:0:0:0:
366,102,91441,1,8,0:0:0:0:
280,109,91618,6,0,L|206:124,1,75,2|4,0:0|0:0,0:0:0:0:
130,94,91971,2,0,B|122:130|122:130|133:167,1,75,2|8,0:0|0:0,0:0:0:0:
195,295,92324,2,0,B|206:258|206:258|198:222,1,75,2|4,0:0|0:0,0:0:0:0:
32,207,92677,1,2,0:0:0:0:
32,207,92853,2,0,B|12:232|12:232|65:241|65:241|74:234|74:234|79:244|79:244|120:252,1,150,8|4,0:0|0:0,0:0:0:0:
204,363,93559,6,0,B|193:326|193:326|201:290,1,75,8|0,0:0|0:0,0:0:0:0:
279,327,93912,1,4,0:0:0:0:
279,244,94088,1,0,0:0:0:0:
352,284,94265,1,8,0:0:0:0:
349,195,94441,6,0,B|341:159|341:159|352:122,1,75,2|4,0:0|0:0,0:0:0:0:
231,58,94794,2,0,B|240:95|240:95|265:123,1,75,2|8,0:0|0:0,0:0:0:0:
160,102,95147,2,0,B|124:90|124:90|98:62,1,75,2|4,0:0|0:0,0:0:0:0:
1,112,95500,1,2,0:0:0:0:
1,112,95677,2,0,B|-24:147|-24:147|45:160|45:160|81:153,1,150,8|4,0:0|0:0,0:0:0:0:
189,243,96382,6,0,P|183:206|159:179,1,75,8|0,0:0|0:0,0:0:0:0:
139,308,96735,1,4,0:0:0:0:
189,373,96912,1,0,0:0:0:0:
246,313,97088,1,8,0:0:0:0:
328,345,97265,6,0,P|355:369|392:376,1,75,2|4,0:0|0:0,0:0:0:0:
421,224,97618,2,0,L|393:294,1,75,2|8,0:0|0:0,0:0:0:0:
367,147,97971,2,0,L|339:217,1,75,2|4,0:0|0:0,0:0:0:0:
370,62,98324,1,2,0:0:0:0:
370,62,98500,2,0,B|336:45|285:78|320:93|283:125|241:110,1,150,8|4,0:0|0:0,0:0:0:0:
94,158,99206,6,0,L|19:150,1,75,8|0,0:0|0:0,0:0:0:0:
81,1,99559,2,0,L|88:75,1,75,4|0,0:0|0:0,0:0:0:0:
94,158,99912,1,8,0:0:0:0:
103,245,100088,6,0,P|140:305|146:390,2,150
25,180,100971,2,0,P|4:146|1:99,1,75,0|0,0:0|1:0,0:0:0:0:
42,40,101324,2,0,P|75:19|122:16,1,75,0|0,0:0|0:0,0:0:0:0:
213,102,101677,6,0,P|209:65|190:34,1,75,4|0,0:1|0:0,0:0:0:0:
180,176,102029,1,8,0:0:0:0:
228,243,102206,1,0,0:0:0:0:
230,329,102382,2,0,P|193:322|166:298,1,75,4|0,0:0|0:0,0:0:0:0:
303,289,102735,1,8,0:0:0:0:
382,326,102912,6,0,B|390:290|390:290|379:253,1,75,2|4,0:0|0:0,0:0:0:0:
333,179,103265,2,0,L|433:174,1,75,2|8,0:0|0:0,0:0:0:0:
325,95,103618,2,0,L|400:92,1,75,2|4,0:0|0:0,0:0:0:0:
252,137,103971,1,2,0:0:0:0:
244,133,104147,2,0,B|207:119|187:83|187:83|164:109|117:111,1,150,8|4,0:0|0:0,0:0:0:0:
158,255,104853,6,0,L|174:171,1,75,8|0,0:0|0:0,0:0:0:0:
243,223,105206,1,4,0:0:0:0:
228,304,105382,1,0,0:0:0:0:
213,384,105559,1,8,0:0:0:0:
302,343,105735,6,0,P|337:356|360:385,1,75,2|4,0:0|0:0,0:0:0:0:
451,262,106088,2,0,P|423:286|413:322,1,75,2|8,0:0|0:0,0:0:0:0:
369,142,106441,2,0,P|387:174|387:212,1,75,2|4,0:0|0:0,0:0:0:0:
284,120,106794,1,2,0:0:0:0:
285,111,106971,2,0,P|336:58|408:67,1,150,8|4,0:0|0:0,0:0:0:0:
223,193,107677,6,0,L|297:208,1,75,8|0,0:0|0:0,0:0:0:0:
141,184,108029,1,4,0:0:0:0:
166,262,108206,1,0,0:0:0:0:
191,340,108382,1,8,0:0:0:0:
309,299,108559,6,0,L|294:372,1,75,2|4,2:0|2:0,0:0:0:0:
390,311,108912,2,0,L|375:384,1,75,2|8,2:0|2:0,0:0:0:0:
327,221,109265,2,0,P|364:216|398:232,1,75,2|4,2:0|0:0,0:0:0:0:
303,143,109618,1,2,0:0:0:0:
303,143,109794,2,0,P|377:133|445:163,1,150,8|4,0:0|2:0,0:0:0:0:
336,50,110500,6,0,P|302:37|265:41,1,75,8|0,2:0|0:0,0:0:0:0:
184,41,110853,2,0,B|213:148|213:148|194:182,1,150,4|8,0:0|0:0,0:0:0:0:
124,139,111382,1,0,0:0:0:0:
122,220,111559,5,8,0:0:0:0:
190,265,111735,1,0,0:0:0:0:
193,182,111912,5,8,0:0:0:0:
274,201,112088,1,0,0:0:0:0:
249,121,112265,5,8,0:0:0:0:
331,111,112441,1,0,0:0:0:0:
279,46,112618,5,8,0:0:0:0:
352,9,112794,1,8,0:0:0:0:
473,69,112971,6,0,L|517:58,2,37.5,4|0|0,0:1|0:0|0:0,0:0:0:0:
476,151,113324,2,0,L|520:140,2,37.5,8|0|0,0:0|0:0|0:0,0:0:0:0:
397,178,113677,2,0,L|353:167,2,37.5,4|0|0,0:0|0:0|0:0,0:0:0:0:
394,260,114029,2,0,L|350:249,2,37.5,8|0|0,0:0|0:0|0:0,0:0:0:0:
391,342,114382,6,0,L|317:325,1,75,4|0,0:0|0:0,0:0:0:0:
252,274,114735,2,0,P|236:307|240:344,1,75,8|0,0:0|0:0,0:0:0:0:
159,364,115088,2,0,P|153:294|193:217,1,150,4|8,0:0|0:0,0:0:0:0:
186,223,115794,6,0,P|171:200|173:170,2,37.5,4|0|0,0:0|0:0|0:0,0:0:0:0:
257,179,116147,2,0,P|265:152|290:135,2,37.5,8|0|0,0:0|0:0|0:0,0:0:0:0:
339,194,116500,2,0,P|365:183|394:190,2,37.5,4|0|0,0:0|0:0|0:0,0:0:0:0:
386,262,116853,2,0,P|411:274|424:301,2,37.5,8|0|0,0:0|0:0|0:0,0:0:0:0:
360,340,117206,6,0,P|329:360|290:361,1,75,4|0,0:0|0:0,0:0:0:0:
201,258,117559,2,0,P|238:260|269:281,1,75,8|0,0:0|0:0,0:0:0:0:
152,325,117912,2,0,B|81:336|81:336|81:329|81:329|0:343,1,150,4|8,0:0|0:0,0:0:0:0:
10,341,118618,6,0,L|6:302,1,37.5,4|0,0:0|0:0,0:0:0:0:
1,262,118794,1,0,0:0:0:0:
79,210,118971,2,0,L|83:249,1,37.5,8|0,0:0|0:0,0:0:0:0:
88,289,119147,1,0,0:0:0:0:
168,305,119324,2,0,L|164:266,1,37.5,4|0,0:0|0:0,0:0:0:0:
159,226,119500,1,0,0:0:0:0:
237,174,119677,2,0,L|241:213,1,37.5,8|0,0:0|0:0,0:0:0:0:
246,253,119853,1,0,0:0:0:0:
316,182,120029,6,0,P|350:167|372:138,1,75,4|0,0:0|0:0,0:0:0:0:
420,70,120382,2,0,P|443:100|477:115,1,75,8|0,0:0|0:0,0:0:0:0:
437,260,120735,2,0,L|434:186,2,75,4|0|8,0:0|0:0|0:0,0:0:0:0:
512,218,121265,1,0,0:0:0:0:
512,331,121441,6,0,P|477:345|455:375,1,75,4|0,0:0|0:0,0:0:0:0:
384,330,121794,2,0,P|361:300|327:286,1,75,8|0,0:0|0:0,0:0:0:0:
434,186,122147,2,0,L|437:260,2,75,4|0|8,0:0|0:0|0:0,0:0:0:0:
512,217,122677,1,0,0:0:0:0:
498,135,122853,1,0,0:0:0:0:
420,108,123029,5,2,0:1:0:0:
397,28,123206,2,0,P|362:42|340:71,1,75,2|2,0:1|0:1,0:0:0:0:
345,154,123559,1,2,0:1:0:0:
273,114,123735,2,0,L|224:102,2,37.5,2|2|2,0:1|0:1|0:1,0:0:0:0:
257,195,124088,2,0,L|208:183,1,37.5,2|2,0:1|0:1,0:0:0:0:
220,186,124265,6,0,L|209:230,2,37.5,4|0|0,0:1|0:0|0:0,0:0:0:0:
138,183,124618,2,0,L|127:227,2,37.5,8|0|0,0:0|0:0|0:0,0:0:0:0:
111,104,124971,2,0,L|100:60,2,37.5,4|0|0,0:0|0:0|0:0,0:0:0:0:
29,107,125324,2,0,L|18:63,2,37.5,8|0|0,0:0|0:0|0:0,0:0:0:0:
51,186,125677,6,0,L|34:260,1,75,4|0,0:0|0:0,0:0:0:0:
97,323,126029,2,0,L|23:340,1,75,8|0,0:0|0:0,0:0:0:0:
133,249,126382,2,0,B|204:260|204:260|204:253|204:253|274:265,1,150,4|8,0:0|0:0,0:0:0:0:
274,265,127088,6,0,P|259:288|261:318,2,37.5,4|0|0,0:0|0:0|0:0,0:0:0:0:
345,309,127441,2,0,P|353:336|378:353,2,37.5,8|0|0,0:0|0:0|0:0,0:0:0:0:
427,294,127794,2,0,P|453:305|482:298,2,37.5,4|0|0,0:0|0:0|0:0,0:0:0:0:
474,226,128147,2,0,P|499:214|512:187,2,37.5,8|0|0,0:0|0:0|0:0,0:0:0:0:
448,148,128500,6,0,P|417:128|378:127,1,75,4|0,0:0|0:0,0:0:0:0:
316,180,128853,2,0,L|297:82,1,75,8|0,0:0|0:0,0:0:0:0:
221,86,129206,2,0,L|252:247,1,150,4|8,0:0|0:0,0:0:0:0:
249,233,129912,6,0,L|263:306,1,75,8|2,0:0|0:0,0:0:0:0:
345,306,130265,2,0,L|331:379,1,75,8|2,0:0|0:0,0:0:0:0:
409,229,130618,2,0,L|423:302,1,75,8|2,0:0|0:0,0:0:0:0:
505,302,130971,2,0,L|491:375,1,75,8|2,0:0|0:0,0:0:0:0:
512,221,131324,5,8,0:0:0:0:
458,158,131500,1,2,0:0:0:0:
511,95,131677,2,0,P|478:77|441:80,1,75,8|2,0:0|0:0,0:0:0:0:
381,136,132029,1,8,0:0:0:0:
400,216,132206,1,2,0:0:0:0:
381,136,132382,2,0,P|344:138|311:122,1,75,8|2,0:0|0:0,0:0:0:0:
241,74,132735,5,8,0:0:0:0:
175,124,132912,1,8,0:0:0:0:
175,206,133088,1,8,0:0:0:0:
241,255,133265,1,8,0:0:0:0:
251,174,133441,5,8,0:0:0:0:
317,224,133618,1,8,0:0:0:0:
317,306,133794,1,8,0:0:0:0:
251,355,133971,1,8,0:0:0:0:
167,289,134853,6,0,P|113:295|65:337,1,112.5,4|4,0:0|0:0,0:0:0:0:
67,372,135206,2,0,P|44:342|11:324,1,75,4|0,0:0|0:0,0:0:0:0:
38,246,135559,6,0,L|53:158,1,75,4|0,0:1|0:0,0:0:0:0:
128,118,135912,1,8,0:0:0:0:
142,203,136088,1,0,0:0:0:0:
50,172,136265,2,0,L|37:98,1,75,4|0,0:0|0:0,0:0:0:0:
114,33,136618,1,8,0:0:0:0:
210,63,136794,6,0,P|238:86|251:122,1,75,2|4,0:0|0:0,0:0:0:0:
325,99,137147,2,0,P|331:135|318:170,1,75,2|8,0:0|0:0,0:0:0:0:
401,191,137500,2,0,P|381:223|349:240,1,75,2|4,0:0|0:0,0:0:0:0:
362,325,137853,1,2,0:0:0:0:
362,325,138030,2,0,P|292:305|268:238,1,150,8|4,0:0|0:0,0:0:0:0:
451,251,138735,6,0,B|462:214|462:214|454:178,1,75,8|0,0:0|0:0,0:0:0:0:
385,131,139088,1,4,0:0:0:0:
437,67,139265,1,0,0:0:0:0:
353,54,139441,1,8,0:0:0:0:
302,133,139618,6,0,P|283:164|282:202,1,75,2|4,0:0|0:0,0:0:0:0:
171,104,139971,2,0,P|207:102|238:81,1,75,2|8,0:0|0:0,0:0:0:0:
202,229,140324,2,0,P|184:196|151:179,1,75,2|4,0:0|0:0,0:0:0:0:
112,40,140677,1,2,0:0:0:0:
112,40,140853,2,0,P|174:0|248:0,1,150,8|4,0:0|0:0,0:0:0:0:
379,84,141559,6,0,L|386:158,1,75,8|0,0:0|0:0,0:0:0:0:
465,215,141912,2,0,P|428:221|396:240,1,75,4|0,0:0|0:0,0:0:0:0:
366,317,142265,1,8,0:0:0:0:
277,301,142441,6,0,P|293:267|321:241,1,75,2|4,0:0|0:0,0:0:0:0:
196,324,142794,2,0,P|170:295|136:279,1,75,2|8,0:0|0:0,0:0:0:0:
208,155,143147,2,0,L|218:239,1,75,2|4,0:0|0:0,0:0:0:0:
156,95,143500,1,2,0:0:0:0:
156,95,143677,2,0,B|190:75|196:36|196:36|204:73|249:86,1,150,8|4,0:0|0:0,0:0:0:0:
481,42,144382,2,0,P|446:28|410:34,1,75,8|0,0:0|0:0,0:0:0:0:
364,103,144735,2,0,P|369:139|393:167,1,75,4|0,0:0|0:0,0:0:0:0:
474,181,145088,1,8,0:0:0:0:
334,289,145265,6,0,B|362:277|370:248|370:248|420:242|420:242|427:259|459:265,2,150,2|2|2,0:1|0:1|0:1,0:0:0:0:
251,255,146147,2,0,L|256:339,1,75,2|2,0:1|0:1,0:0:0:0:
172,337,146500,2,0,L|166:252,1,75,2|2,0:1|0:1,0:0:0:0:
125,141,146853,6,0,B|112:104|112:104|117:68,1,75,4|0,0:1|0:0,0:0:0:0:
197,99,147206,1,8,0:0:0:0:
192,16,147382,1,0,0:0:0:0:
276,59,147559,2,0,B|285:93|285:93|275:131,1,75,4|0,0:0|0:0,0:0:0:0:
269,213,147912,1,8,0:0:0:0:
347,173,148088,6,0,L|421:166,1,75,2|4,0:0|0:0,0:0:0:0:
483,97,148441,2,0,P|488:133|507:165,1,75,2|10,0:0|0:0,0:0:0:0:
508,315,148794,2,0,P|502:278|484:245,1,75,2|4,0:0|0:0,0:0:0:0:
390,245,149147,1,2,0:0:0:0:
390,245,149324,2,0,P|424:310|437:384,1,150,8|4,0:0|0:0,0:0:0:0:
271,365,150029,6,0,L|197:350,1,75,8|0,0:0|0:0,0:0:0:0:
328,296,150381,1,4,0:0:0:0:
353,374,150558,1,0,0:0:0:0:
411,313,150735,1,8,0:0:0:0:
380,227,150912,6,0,P|377:189|389:154,1,75,2|4,0:0|0:0,0:0:0:0:
223,220,151265,2,0,L|296:207,1,75,2|8,0:0|0:0,0:0:0:0:
281,125,151618,2,0,L|208:138,1,75,2|4,0:0|0:0,0:0:0:0:
135,274,151971,1,2,0:0:0:0:
139,266,152147,2,0,B|148:224|132:176|117:211|108:155|114:121,1,150,8|4,0:0|0:0,0:0:0:0:
113,121,152853,5,0,0:0:0:0:
113,121,153206,1,2,0:0:0:0:
285,102,153735,2,0,P|286:152|246:201,1,90,0|0,0:0|0:0,0:0:0:0:
267,184,154088,2,0,P|246:221|249:266,1,90,2|0,0:0|0:0,0:0:0:0:
249,267,154441,2,0,P|286:285|331:282,1,90,0|0,0:0|0:0,0:0:0:0:
333,281,154794,2,0,P|354:267|392:266,1,60,0|2,0:0|0:0,0:0:0:0:
387,265,155677,6,0,L|379:398,1,120,0|2,0:0|0:0,0:0:0:0:
379,384,156559,1,2,0:0:0:0:
256,192,156735,12,0,158147,0:0:0:0:
