osu file format v14

[General]
AudioFilename: audio.mp3
AudioLeadIn: 0
PreviewTime: 134324
Countdown: 0
SampleSet: Normal
StackLeniency: 0.7
Mode: 0
LetterboxInBreaks: 0
EpilepsyWarning: 1
WidescreenStoryboard: 1

[Editor]
DistanceSpacing: 0.7
BeatDivisor: 4
GridSize: 32
TimelineZoom: 1

[Metadata]
Title:Be Alright (feat. EMEL) (Cut Ver.)
TitleUnicode:Be Alright (feat. EMEL) (Cut Ver.)
Artist:Stonebank
ArtistUnicode:Stonebank
Creator:Nhawak
Version:Frey's Insane
Source:
Tags:english drum and bass dnb monstercat electronic cataclysm uncaged hard dance edm electro thekoala sylas iyasine plaudible frey asahina momoko m o k o r i alacat hokichi mune
BeatmapID:2403799
BeatmapSetID:1151309

[Difficulty]
HPDrainRate:6
CircleSize:4
OverallDifficulty:8
ApproachRate:9
SliderMultiplier:1.8
SliderTickRate:1

[Events]
//Background and Video events
0,0,"BG.jpg",0,0
//Break Periods
//Storyboard Layer 0 (Background)
//Storyboard Layer 1 (Fail)
//Storyboard Layer 2 (Pass)
//Storyboard Layer 3 (Foreground)
Sprite,Foreground,Centre,"sb\glow.png",0,0 F,0,29,,1 S,0,29,,1 M,16,30,,112,100 M,16,30,382,112,100,208,208 M,30,382,735,208,208,120,192 M,16,735,1087,120,192,200,116 M,30,1087,1441,200,116,128,284 M,16,1441,1793,128,284,208,208 M,30,1793,2146,208,208,120,192 M,30,2146,2500,120,192,216,300 M,30,2500,2853,216,300,424,300 M,16,2853,3205,424,300,520,192 M,30,3205,3558,520,192,432,208 M,30,3558,3912,432,208,512,284 M,16,3912,4264,512,284,440,116 M,30,4264,4618,440,116,520,192 M,30,4618,4971,520,192,432,208 M,30,4971,5324,432,208,528,100 M,30,5324,5677,528,100,320,244 M,16,5677,6029,320,244,260,176 M,30,6029,6382,260,176,380,320 M,30,6382,6735,380,320,232,264 M,30,6735,7088,232,264,408,232 M,30,7088,7441,408,232,440,388 M,30,7441,7794,440,388,380,320 M,30,7794,8147,380,320,468,300 M,30,8147,8500,468,300,172,300 M,30,8500,8853,172,300,260,320 M,30,8853,9206,260,320,200,388 M,30,9206,9559,200,388,232,232 M,30,9559,9912,232,232,336,160 M,30,9912,10265,336,160,180,128 M,30,10265,10618,180,128,408,264 M,0,10618,10662,408,264,430.2044,260.366 M,0,10662,10706,430.2044,260.366,452.4428,256.9468 M,0,10706,10750,452.4428,256.9468,474.7155,253.7579 M,0,10750,10794,474.7155,253.7579,497.0201,250.7998 M,30,10794,10971,497.0201,250.7998,440,108 M,0,10971,11015,440,108,417.6835,110.8663 F,15,10971,11324,1,0 S,15,10971,11324,1,0.2 M,0,11015,11059,417.6835,110.8663,395.3967,113.9541 M,0,11059,11103,395.3967,113.9541,373.1439,117.2793 M,0,11103,11147,373.1439,117.2793,350.9287,120.847
Sprite,Foreground,Centre,"sb\glow.png",0,0 F,0,11147,,1 S,0,11147,,1 M,30,11147,11324,350.9287,120.847,304,336 C,0,11147,11324,202,149,149,255,255,125 M,0,11324,11368,304,336,307.0002,358.299 M,0,11368,11412,307.0002,358.299,310.0871,380.5862 M,0,11412,11456,310.0871,380.5862,313.2664,402.8604 M,0,11456,11500,313.2664,402.8604,316.538,425.1213 M,30,11500,11677,316.538,425.1213,232,232 C,0,11500,11677,255,255,125 M,0,11677,11721,232,232,209.701,235.0003 M,0,11721,11765,209.701,235.0003,187.4138,238.0871 M,0,11765,11809,187.4138,238.0871,165.1396,241.2664 M,0,11809,11853,165.1396,241.2664,142.8787,244.538 M,16,11853,12029,142.8787,244.538,336,160 C,0,11853,12029,255,255,125 M,0,12029,12073,336,160,332.9998,137.701 M,0,12073,12117,332.9998,137.701,329.9129,115.4138 M,0,12117,12161,329.9129,115.4138,326.7336,93.13955 M,0,12161,12205,326.7336,93.13955,323.462,70.87868 M,30,12205,12382,323.462,70.87868,408,264 C,0,12205,12382,255,255,125 M,0,12382,12426,408,264,430.299,260.9998 M,0,12426,12470,430.299,260.9998,452.5862,257.9129 M,0,12470,12514,452.5862,257.9129,474.8604,254.7336 M,0,12514,12558,474.8604,254.7336,497.1213,251.462 M,30,12558,12735,497.1213,251.462,574,399 C,0,12558,12735,255,255,125,111,255,255 M,0,12735,12779,574,399,579.0314,377.1425 M,0,12779,12823,579.0314,377.1425,579.8212,354.7519 M,0,12823,12867,579.8212,354.7519,576.0442,332.6505 M,0,12867,12911,576.0442,332.6505,568,312 M,30,12911,13088,568,312,490,164 C,0,12911,13088,111,255,255 M,0,13088,13132,490,164,484.9239,185.843 M,0,13132,13176,484.9239,185.843,484.16,208.2323 M,0,13176,13220,484.16,208.2323,488.0513,230.3203 M,0,13220,13264,488.0513,230.3203,496.5467,251.1005 M,30,13264,13441,496.5467,251.1005,528,80 C,0,13264,13441,111,255,255 M,0,13441,13485,528,80,506.3112,74.33121 M,0,13485,13529,506.3112,74.33121,483.9485,73.16351 M,0,13529,13573,483.9485,73.16351,461.8349,76.87595 M,0,13573,13617,461.8349,76.87595,441.0881,85.44004 M,30,13617,13794,441.0881,85.44004,293,164 C,0,13617,13794,111,255,255 M,0,13794,13838,293,164,314.841,169.0755 M,0,13838,13882,314.841,169.0755,337.2281,169.7423 M,0,13882,13926,337.2281,169.7423,359.2715,165.6638 M,0,13926,13970,359.2715,165.6638,379.9835,157.0084 M,30,13970,14147,379.9835,157.0084,220,88 C,0,13970,14147,111,255,255,255,157,157 M,0,14147,14191,220,88,197.7826,84.44521 M,0,14191,14235,197.7826,84.44521,175.5652,80.89043 M,0,14235,14279,175.5652,80.89043,153.3477,77.33564 M,0,14279,14323,153.3477,77.33564,131.1303,73.78085 M,30,14323,14500,131.1303,73.78085,68,192 C,0,14323,14500,255,157,157 M,0,14500,14544,68,192,90.33009,189.2401 M,0,14544,14588,90.33009,189.2401,112.6602,186.4802 M,0,14588,14632,112.6602,186.4802,134.9903,183.7203 M,0,14632,14676,134.9903,183.7203,157,181 M,30,14676,14853,157,181,157,314 C,0,14676,14853,255,157,157 M,0,14853,14897,157,314,134.6407,311.4877 M,0,14897,14941,134.6407,311.4877,112.2814,308.9754 M,0,14941,14985,112.2814,308.9754,89.92209,306.4631 M,0,14985,15029,89.92209,306.4631,68,304 M,30,15029,15206,68,304,131,422 C,0,15029,15206,255,157,157 M,0,15206,15250,131,422,153.2267,418.5037 M,0,15250,15294,153.2267,418.5037,175.4534,415.0073 M,0,15294,15338,175.4534,415.0073,197.6801,411.511 M,0,15338,15382,197.6801,411.511,219.9067,408.0147 M,30,15382,15559,219.9067,408.0147,420,376 C,0,15382,15559,255,157,157,202,149,149 M,0,15559,15603,420,376,418.5586,353.5811 M,0,15603,15647,418.5586,353.5811,420.1397,331.1844 M,0,15647,15691,420.1397,331.1844,424.9202,309.2401 M,0,15691,15735,424.9202,309.2401,432.8043,288.2 M,30,15735,15912,432.8043,288.2,499,164 C,0,15735,15912,202,149,149 M,0,15912,15956,499,164,479.6754,175.4782 M,0,15956,16000,479.6754,175.4782,459.2224,184.7805 M,0,16000,16044,459.2224,184.7805,437.8156,191.6323 M,0,16044,16088,437.8156,191.6323,415.7383,195.8905 M,30,16088,16265,415.7383,195.8905,140,164 C,0,16088,16265,202,149,149 M,0,16265,16309,140,164,159.3246,175.4782 M,0,16309,16353,159.3246,175.4782,179.7776,184.7805 M,0,16353,16397,179.7776,184.7805,201.1844,191.6323 M,0,16397,16441,201.1844,191.6323,223.2617,195.8905 M,30,16441,16618,223.2617,195.8905,219,376 C,0,16441,16618,202,149,149 M,0,16618,16662,219,376,221.0599,353.6363 M,0,16662,16706,221.0599,353.6363,219.8566,331.2237 M,0,16706,16750,219.8566,331.2237,215.1843,309.2584 M,0,16750,16794,215.1843,309.2584,207.1263,288.2809 M,30,16794,16971,207.1263,288.2809,124,252 C,0,16794,16971,202,149,149,255,255,125 M,16,16971,17147,124,252,132,344 C,0,16971,17147,255,255,125 M,16,17147,17324,132,344,220,376 C,0,17147,17324,255,255,125 M,16,17324,17500,220,376,292,320 C,0,17324,17500,255,255,125 M,16,17500,17677,292,320,516,108 C,0,17500,17677,255,255,125 M,16,17677,17853,516,108,508,200 C,0,17677,17853,255,255,125 M,16,17853,18030,508,200,420,232 C,0,17853,18030,255,255,125 M,16,18030,18206,420,232,344,176 C,0,18030,18206,255,255,125 M,16,18206,18382,344,176,508,200 C,0,18206,18382,255,255,125,111,255,255 M,0,18382,18426,508,200,530.2369,203.429 M,0,18426,18470,530.2369,203.429,552.4372,207.0876 M,0,18470,18514,552.4372,207.0876,574.5957,210.9915 M,0,18514,18558,574.5957,210.9915,596,215 M,30,18558,18735,596,215,476,380 C,0,18558,18735,111,255,255 M,0,18735,18779,476,380,480.0249,357.8629 M,0,18779,18823,480.0249,357.8629,484.0498,335.7259 M,0,18823,18867,484.0498,335.7259,488.0748,313.5888 M,0,18867,18911,488.0748,313.5888,492,292 M,30,18911,19088,492,292,320,248 C,0,18911,19088,111,255,255 M,16,19088,19265,320,248,396,196 C,0,19088,19265,111,255,255 M,16,19265,19441,396,196,404,288 C,0,19265,19441,111,255,255 M,16,19441,19618,404,288,236,288 C,0,19441,19618,111,255,255 M,16,19618,19794,236,288,244,196 C,0,19618,19794,111,255,255,255,157,157 M,16,19794,19882,244,196,245,173 C,0,19794,19882,255,157,157 M,16,19882,19970,245,173,244,151 C,0,19882,19970,255,157,157 M,16,19970,20058,244,151,241,128 C,0,19970,20058,255,157,157 M,16,20058,20147,241,128,235,107 C,0,20058,20147,255,157,157 M,16,20147,20235,235,107,253,119 C,0,20147,20235,255,157,157 M,16,20235,20323,253,119,274,128 C,0,20235,20323,255,157,157 M,16,20323,20411,274,128,296,133 C,0,20323,20411,255,157,157 M,16,20411,20499,296,133,318,135 C,0,20411,20499,255,157,157 M,16,20499,20588,318,135,341,134 C,0,20499,20588,255,157,157 M,16,20588,20676,341,134,362,129 C,0,20588,20676,255,157,157 M,16,20676,20764,362,129,383,120 C,0,20676,20764,255,157,157 M,16,20764,20852,383,120,402,108 C,0,20764,20852,255,157,157 M,16,20852,20941,402,108,398,128 C,0,20852,20941,255,157,157 F,15,20853,21206,1,0 S,15,20853,21206,1,0.2 M,16,20941,21029,398,128,395,151 C,0,20941,21029,255,157,157 M,16,21029,21117,395,151,394,173 C,0,21029,21117,255,157,157
Sprite,Foreground,Centre,"sb\glow.png",0,0 M,0,21205,,396,196 C,0,21205,,202,149,149 F,15,21205,21469,1,0 S,15,21205,21469,1,0.2 P,0,21205,21469,A M,0,21559,,244,196 C,0,21559,,202,149,149 F,15,21559,21823,1,0 S,15,21559,21823,1,0.2 P,0,21559,21823,A M,0,21911,,436,380 C,0,21911,,202,149,149 F,15,21911,22175,1,0 S,15,21911,22175,1,0.2 P,0,21911,22175,A M,0,22264,,204,380 C,0,22264,,202,149,149 F,15,22264,22528,1,0 S,15,22264,22528,1,0.2 P,0,22264,22528,A
Sprite,Foreground,Centre,"sb\glow.png",0,0 M,0,21382,,320,328 C,0,21382,,202,149,149 F,15,21382,21646,1,0 S,15,21382,21646,1,0.2 P,0,21382,21646,A M,0,21735,,488,268 C,0,21735,,202,149,149 F,15,21735,21999,1,0 S,15,21735,21999,1,0.2 P,0,21735,21999,A M,0,22088,,320,432 C,0,22088,,202,149,149 F,15,22088,22352,1,0 S,15,22088,22352,1,0.2 P,0,22088,22352,A M,0,22441,,152,268 C,0,22441,,202,149,149 F,15,22441,22705,1,0 S,15,22441,22705,1,0.2 P,0,22441,22705,A
Sprite,Foreground,Centre,"sb\c.png",237,199 C,0,112971,,255,157,157 F,0,112971,113071,0,1 S,19,112971,113676,0.2,0.3 P,0,112971,113676,A F,16,113071,113676,1,0
Sprite,Foreground,Centre,"sb\c.png",388,287 C,0,113324,,255,157,157 F,0,113324,113424,0,1 S,19,113324,114029,0.2,0.3 P,0,113324,114029,A F,16,113424,114029,1,0
Sprite,Foreground,Centre,"sb\c.png",320,128 C,0,113677,,255,157,157 F,0,113677,113777,0,1 S,19,113677,114382,0.2,0.3 P,0,113677,114382,A F,16,113777,114382,1,0
Sprite,Foreground,Centre,"sb\c.png",320,248 C,0,114029,,255,157,157 F,0,114029,114129,0,1 S,19,114029,114734,0.2,0.3 P,0,114029,114734,A F,16,114129,114734,1,0
Sprite,Foreground,Centre,"sb\c.png",463,156 C,0,114382,,202,149,149 F,0,114382,114482,0,1 S,19,114382,115087,0.2,0.3 P,0,114382,115087,A F,16,114482,115087,1,0
Sprite,Foreground,Centre,"sb\c.png",320,440 C,0,114735,,202,149,149 F,0,114735,114835,0,1 S,19,114735,115440,0.2,0.3 P,0,114735,115440,A F,16,114835,115440,1,0
Sprite,Foreground,Centre,"sb\c.png",400,391 C,0,115088,,202,149,149 F,0,115088,115188,0,1 S,19,115088,115793,0.2,0.3 P,0,115088,115793,A F,16,115188,115793,1,0
Sprite,Foreground,Centre,"sb\c.png",240,105 C,0,115441,,202,149,149 F,0,115441,115541,0,1 S,19,115441,116146,0.2,0.3 P,0,115441,116146,A F,16,115541,116146,1,0
Sprite,Foreground,Centre,"sb\c.png",68,272 C,0,115794,,255,255,125 F,0,115794,115894,0,1 S,19,115794,116499,0.2,0.3 P,0,115794,116499,A F,16,115894,116499,1,0
Sprite,Foreground,Centre,"sb\c.png",160,256 C,0,116148,,255,255,125 F,0,116148,116248,0,1 S,19,116148,116853,0.2,0.3 P,0,116148,116853,A F,16,116248,116853,1,0
Sprite,Foreground,Centre,"sb\c.png",216,376 C,0,116500,,255,255,125 F,0,116500,116600,0,1 S,19,116500,117205,0.2,0.3 P,0,116500,117205,A F,16,116600,117205,1,0
Sprite,Foreground,Centre,"sb\c.png",190,196 C,0,116853,,255,255,125 F,0,116853,116953,0,1 S,19,116853,117558,0.2,0.3 P,0,116853,117558,A F,16,116953,117558,1,0
Sprite,Foreground,Centre,"sb\c.png",268,66 C,0,117206,,111,255,255 F,0,117206,117306,0,1 S,19,117206,117911,0.2,0.3 P,0,117206,117911,A F,16,117306,117911,1,0
Sprite,Foreground,Centre,"sb\c.png",190,196 C,0,117559,,111,255,255 F,0,117559,117659,0,1 S,19,117559,118264,0.2,0.3 P,0,117559,118264,A F,16,117659,118264,1,0
Sprite,Foreground,Centre,"sb\c.png",268,66 C,0,117911,,111,255,255 F,0,117911,118011,0,1 S,19,117911,118616,0.2,0.3 P,0,117911,118616,A F,16,118011,118616,1,0
Sprite,Foreground,Centre,"sb\c.png",320,274 C,0,118265,,111,255,255 F,0,118265,118365,0,1 S,19,118265,118970,0.2,0.3 P,0,118265,118970,A F,16,118365,118970,1,0
Sprite,Foreground,Centre,"sb\c.png",544,248 C,0,118618,,255,157,157 F,0,118618,118718,0,1 S,19,118618,119323,0.2,0.3 P,0,118618,119323,A F,16,118718,119323,1,0
Sprite,Foreground,Centre,"sb\c.png",320,274 C,0,118971,,255,157,157 F,0,118971,119071,0,1 S,19,118971,119676,0.2,0.3 P,0,118971,119676,A F,16,119071,119676,1,0
Sprite,Foreground,Centre,"sb\c.png",544,248 C,0,119324,,255,157,157 F,0,119324,119424,0,1 S,19,119324,120029,0.2,0.3 P,0,119324,120029,A F,16,119424,120029,1,0
Sprite,Foreground,Centre,"sb\c.png",420,172 C,0,119677,,255,157,157 F,0,119677,119777,0,1 S,19,119677,120382,0.2,0.3 P,0,119677,120382,A F,16,119777,120382,1,0
Sprite,Foreground,Centre,"sb\c.png",154,158 C,0,120029,,202,149,149 F,0,120029,120129,0,1 S,19,120029,120734,0.2,0.3 P,0,120029,120734,A F,16,120129,120734,1,0
Sprite,Foreground,Centre,"sb\c.png",332,132 C,0,120382,,202,149,149 F,0,120382,120482,0,1 S,19,120382,121087,0.2,0.3 P,0,120382,121087,A F,16,120482,121087,1,0
Sprite,Foreground,Centre,"sb\c.png",64,168 C,0,120735,,202,149,149 F,0,120735,120835,0,1 S,19,120735,121440,0.2,0.3 P,0,120735,121440,A F,16,120835,121440,1,0
Sprite,Foreground,Centre,"sb\c.png",280,224 C,0,121088,,202,149,149 F,0,121088,121188,0,1 S,19,121088,121793,0.2,0.3 P,0,121088,121793,A F,16,121188,121793,1,0
Sprite,Foreground,Centre,"sb\c.png",188,204 C,0,121441,,255,255,125 F,0,121441,121541,0,1 S,19,121441,122146,0.2,0.3 P,0,121441,122146,A F,16,121541,122146,1,0
Sprite,Foreground,Centre,"sb\c.png",424,204 C,0,121794,,255,255,125 F,0,121794,121894,0,1 S,19,121794,122499,0.2,0.3 P,0,121794,122499,A F,16,121894,122499,1,0
Sprite,Foreground,Centre,"sb\c.png",468,379 C,0,122147,,255,255,125 F,0,122147,122247,0,1 S,19,122147,122852,0.2,0.3 P,0,122147,122852,A F,16,122247,122852,1,0
Sprite,Foreground,Centre,"sb\c.png",320,120 C,0,122500,,255,255,125 F,0,122500,122600,0,1 S,19,122500,123205,0.2,0.3 P,0,122500,123205,A F,16,122600,123205,1,0
Sprite,Foreground,Centre,"sb\c.png",548,172 C,0,122853,,111,255,255 F,0,122853,122953,0,1 S,19,122853,123558,0.2,0.3 P,0,122853,123558,A F,16,122953,123558,1,0
Sprite,Foreground,Centre,"sb\c.png",452,291 C,0,123029,,111,255,255 F,0,123029,123129,0,1 S,19,123029,123734,0.2,0.3 P,0,123029,123734,A F,16,123129,123734,1,0
Sprite,Foreground,Centre,"sb\c.png",360,272 C,0,123206,,111,255,255 F,0,123206,123306,0,1 S,19,123206,123911,0.2,0.3 P,0,123206,123911,A F,16,123306,123911,1,0
Sprite,Foreground,Centre,"sb\c.png",424,204 C,0,123382,,111,255,255 F,0,123382,123482,0,1 S,19,123382,124087,0.2,0.3 P,0,123382,124087,A F,16,123482,124087,1,0
Sprite,Foreground,Centre,"sb\c.png",320,400 C,0,123559,,111,255,255 F,0,123559,123659,0,1 S,19,123559,124264,0.2,0.3 P,0,123559,124264,A F,16,123659,124264,1,0
Sprite,Foreground,Centre,"sb\c.png",188,291 C,0,123735,,111,255,255 F,0,123735,123835,0,1 S,19,123735,124440,0.2,0.3 P,0,123735,124440,A F,16,123835,124440,1,0
Sprite,Foreground,Centre,"sb\c.png",192,247 C,0,123824,,111,255,255 F,0,123824,123924,0,1 S,19,123824,124529,0.2,0.3 P,0,123824,124529,A F,16,123924,124529,1,0
Sprite,Foreground,Centre,"sb\c.png",196,203 C,0,123912,,111,255,255 F,0,123912,124012,0,1 S,19,123912,124617,0.2,0.3 P,0,123912,124617,A F,16,124012,124617,1,0
Sprite,Foreground,Centre,"sb\c.png",444,203 C,0,124088,,111,255,255 F,0,124088,124188,0,1 S,19,124088,124793,0.2,0.3 P,0,124088,124793,A F,16,124188,124793,1,0
Sprite,Foreground,Centre,"sb\c.png",448,247 C,0,124176,,111,255,255 F,0,124176,124276,0,1 S,19,124176,124881,0.2,0.3 P,0,124176,124881,A F,16,124276,124881,1,0
Sprite,Foreground,Centre,"sb\c.png",452,291 C,0,124265,,255,157,157 F,0,124265,124365,0,1 S,19,124265,124970,0.2,0.3 P,0,124265,124970,A F,16,124365,124970,1,0
Sprite,Foreground,Centre,"sb\c.png",436,116 C,0,124618,,255,157,157 F,0,124618,124718,0,1 S,19,124618,125323,0.2,0.3 P,0,124618,125323,A F,16,124718,125323,1,0
Sprite,Foreground,Centre,"sb\c.png",124,128 C,0,124971,,255,157,157 F,0,124971,125071,0,1 S,19,124971,125676,0.2,0.3 P,0,124971,125676,A F,16,125071,125676,1,0
Sprite,Foreground,Centre,"sb\c.png",337,212 C,0,125324,,255,157,157 F,0,125324,125424,0,1 S,19,125324,126029,0.2,0.3 P,0,125324,126029,A F,16,125424,126029,1,0
Sprite,Foreground,Centre,"sb\c.png",135,218 C,0,125677,,202,149,149 F,0,125677,125777,0,1 S,19,125677,126382,0.2,0.3 P,0,125677,126382,A F,16,125777,126382,1,0
Sprite,Foreground,Centre,"sb\c.png",140,400 C,0,126029,,202,149,149 F,0,126029,126129,0,1 S,19,126029,126734,0.2,0.3 P,0,126029,126734,A F,16,126129,126734,1,0
Sprite,Foreground,Centre,"sb\c.png",220,360 C,0,126382,,202,149,149 F,0,126382,126482,0,1 S,19,126382,127087,0.2,0.3 P,0,126382,127087,A F,16,126482,127087,1,0
Sprite,Foreground,Centre,"sb\c.png",420,136 C,0,126735,,202,149,149 F,0,126735,126835,0,1 S,19,126735,127440,0.2,0.3 P,0,126735,127440,A F,16,126835,127440,1,0
Sprite,Foreground,Centre,"sb\c.png",320,248 C,0,127088,,255,255,125 F,0,127088,127188,0,1 S,19,127088,127793,0.2,0.3 P,0,127088,127793,A F,16,127188,127793,1,0
Sprite,Foreground,Centre,"sb\c.png",532,236 C,0,127441,,255,255,125 F,0,127441,127541,0,1 S,19,127441,128146,0.2,0.3 P,0,127441,128146,A F,16,127541,128146,1,0
Sprite,Foreground,Centre,"sb\c.png",320,248 C,0,127794,,255,255,125 F,0,127794,127894,0,1 S,19,127794,128499,0.2,0.3 P,0,127794,128499,A F,16,127894,128499,1,0
Sprite,Foreground,Centre,"sb\c.png",108,260 C,0,128148,,255,255,125 F,0,128148,128248,0,1 S,19,128148,128853,0.2,0.3 P,0,128148,128853,A F,16,128248,128853,1,0
Sprite,Foreground,Centre,"sb\c.png",320,248 C,0,128500,,111,255,255 F,0,128500,128600,0,1 S,19,128500,129205,0.2,0.3 P,0,128500,129205,A F,16,128600,129205,1,0
Sprite,Foreground,Centre,"sb\c.png",464,360 C,0,128853,,111,255,255 F,0,128853,128953,0,1 S,19,128853,129558,0.2,0.3 P,0,128853,129558,A F,16,128953,129558,1,0
Sprite,Foreground,Centre,"sb\c.png",176,360 C,0,129206,,111,255,255 F,0,129206,129306,0,1 S,19,129206,129911,0.2,0.3 P,0,129206,129911,A F,16,129306,129911,1,0
Sprite,Foreground,Centre,"sb\c.png",348,72 C,0,129559,,111,255,255 F,0,129559,129659,0,1 S,19,129559,130264,0.2,0.3 P,0,129559,130264,A F,16,129659,130264,1,0
Sprite,Foreground,Centre,"sb\c.png",320,248 C,0,129912,,255,157,157 F,0,129912,130012,0,1 S,19,129912,130617,0.2,0.3 P,0,129912,130617,A F,16,130012,130617,1,0
Sprite,Foreground,Centre,"sb\c.png",320,248 C,0,130265,,255,157,157 F,0,130265,130365,0,1 S,19,130265,130970,0.2,0.3 P,0,130265,130970,A F,16,130365,130970,1,0
Sprite,Foreground,Centre,"sb\c.png",520,164 C,0,130618,,255,157,157 F,0,130618,130718,0,1 S,19,130618,131323,0.2,0.3 P,0,130618,131323,A F,16,130718,131323,1,0
Sprite,Foreground,Centre,"sb\c.png",463,360 C,0,130971,,255,157,157 F,0,130971,131071,0,1 S,19,130971,131676,0.2,0.3 P,0,130971,131676,A F,16,131071,131676,1,0
Sprite,Foreground,Centre,"sb\c.png",383,398 C,0,131324,,202,149,149 F,0,131324,131424,0,1 S,19,131324,132029,0.2,0.3 P,0,131324,132029,A F,16,131424,132029,1,0
Sprite,Foreground,Centre,"sb\c.png",435,93 C,0,131677,,202,149,149 F,0,131677,131777,0,1 S,19,131677,132382,0.2,0.3 P,0,131677,132382,A F,16,131777,132382,1,0
Sprite,Foreground,Centre,"sb\c.png",208,180 C,0,132029,,202,149,149 F,0,132029,132129,0,1 S,19,132029,132734,0.2,0.3 P,0,132029,132734,A F,16,132129,132734,1,0
Sprite,Foreground,Centre,"sb\c.png",252,311 C,0,132382,,202,149,149 F,0,132382,132482,0,1 S,19,132382,133087,0.2,0.3 P,0,132382,133087,A F,16,132482,133087,1,0
Sprite,Foreground,Centre,"sb\c.png",176,360 C,0,132735,,255,255,125 F,0,132735,132835,0,1 S,19,132735,133440,0.2,0.3 P,0,132735,133440,A F,16,132835,133440,1,0
Sprite,Foreground,Centre,"sb\c.png",172,268 C,0,132912,,255,255,125 F,0,132912,133012,0,1 S,19,132912,133617,0.2,0.3 P,0,132912,133617,A F,16,133012,133617,1,0
Sprite,Foreground,Centre,"sb\c.png",320,72 C,0,133088,,255,255,125 F,0,133088,133188,0,1 S,19,133088,133793,0.2,0.3 P,0,133088,133793,A F,16,133188,133793,1,0
Sprite,Foreground,Centre,"sb\c.png",320,164 C,0,133265,,255,255,125 F,0,133265,133365,0,1 S,19,133265,133970,0.2,0.3 P,0,133265,133970,A F,16,133365,133970,1,0
Sprite,Foreground,Centre,"sb\c.png",464,360 C,0,133441,,255,255,125 F,0,133441,133541,0,1 S,19,133441,134146,0.2,0.3 P,0,133441,134146,A F,16,133541,134146,1,0
Sprite,Foreground,Centre,"sb\c.png",468,268 C,0,133618,,255,255,125 F,0,133618,133718,0,1 S,19,133618,134323,0.2,0.3 P,0,133618,134323,A F,16,133718,134323,1,0
Sprite,Foreground,Centre,"sb\c.png",244,216 C,0,133794,,255,255,125 F,0,133794,133894,0,1 S,19,133794,134499,0.2,0.3 P,0,133794,134499,A F,16,133894,134499,1,0
Sprite,Foreground,Centre,"sb\c.png",396,216 C,0,133971,,255,255,125 F,0,133971,134071,0,1 S,19,133971,134676,0.2,0.3 P,0,133971,134676,A F,16,134071,134676,1,0
Sprite,Foreground,Centre,"sb\cir.png",320,396 C,0,134853,,111,255,255 F,0,134853,134953,0,1 S,19,134853,135558,0.2,0.3 P,0,134853,135558,A F,16,134953,135558,1,0
Sprite,Foreground,Centre,"sb\cir.png",96,416 C,0,135206,,111,255,255 F,0,135206,135306,0,1 S,19,135206,135911,0.2,0.3 P,0,135206,135911,A F,16,135306,135911,1,0
Sprite,Foreground,Centre,"sb\hl.png",0,0 M,0,153206,,436,212 C,0,153206,,202,149,149 F,0,153206,153294,0,1 S,0,153206,154617,0.25,0.5 P,0,153206,154617,A F,0,153294,154617,1,0 M,0,154794,,320,248 C,0,154794,,255,255,125 F,0,154794,154882,0,1 S,0,154794,156205,0.25,0.5 P,0,154794,156205,A F,0,154882,156205,1,0 M,0,156382,,449,346 C,0,156382,,255,255,125 F,0,156382,156470,0,1 S,0,156382,157793,0.25,0.5 P,0,156382,157793,A F,0,156470,157793,1,0
Sprite,Foreground,Centre,"sb\hl.png",0,0 M,0,153206,,436,212 C,0,153206,,202,149,149 F,0,153206,153294,0,1 S,0,153206,154617,0.25,0.5 P,0,153206,154617,A F,0,153294,154617,1,0 M,0,154971,,240,144 C,0,154971,,255,255,125 F,0,154971,155059,0,1 S,0,154971,156382,0.25,0.5 P,0,154971,156382,A F,0,155059,156382,1,0 M,0,156559,,449,346 C,0,156559,,255,255,125 F,0,156559,156647,0,1 S,0,156559,157970,0.25,0.5 P,0,156559,157970,A F,0,156647,157970,1,0
Sprite,Foreground,Centre,"sb\hl.png",0,0 M,0,153264,,438.2388,234.3883 C,0,153264,,202,149,149 F,0,153264,153353,0,1 S,0,153264,154676,0.25,0.5 P,0,153264,154676,A F,0,153353,154676,1,0 M,0,154971,,240,144 C,0,154971,,255,255,125 F,0,154971,155059,0,1 S,0,154971,156382,0.25,0.5 P,0,154971,156382,A F,0,155059,156382,1,0 M,0,156735,,320,248 C,0,156735,,255,255,125 F,0,156735,156823,0,1 S,0,156735,159558,0.25,0.5 P,0,156735,159558,A F,0,158147,159558,1,0
Sprite,Foreground,Centre,"sb\hl.png",0,0 M,0,153323,,440.4777,256.7767 C,0,153323,,202,149,149 F,0,153323,153411,0,1 S,0,153323,154735,0.25,0.5 P,0,153323,154735,A F,0,153411,154735,1,0 M,0,155029,,219.3027,135.5822 C,0,155029,,255,255,125 F,0,155029,155118,0,1 S,0,155029,156441,0.25,0.5 P,0,155029,156441,A F,0,155118,156441,1,0
Sprite,Foreground,Centre,"sb\hl.png",0,0 M,0,153382,,442.7165,279.165 C,0,153382,,202,149,149 F,0,153382,153470,0,1 S,0,153382,154794,0.25,0.5 P,0,153382,154794,A F,0,153470,154794,1,0 M,0,155088,,197.129,133.3399 C,0,155088,,255,255,125 F,0,155088,155176,0,1 S,0,155088,156500,0.25,0.5 P,0,155088,156500,A F,0,155176,156500,1,0
Sprite,Foreground,Centre,"sb\hl.png",0,0 M,0,153441,,444.9553,301.5533 C,0,153441,,202,149,149 F,0,153441,153529,0,1 S,0,153441,154853,0.25,0.5 P,0,153441,154853,A F,0,153529,154853,1,0 M,0,155147,,175.2763,137.8734 C,0,155147,,255,255,125 F,0,155147,155235,0,1 S,0,155147,156559,0.25,0.5 P,0,155147,156559,A F,0,155235,156559,1,0
Sprite,Foreground,Centre,"sb\hl.png",0,0 M,0,153500,,447.1942,323.9417 C,0,153500,,202,149,149 F,0,153500,153588,0,1 S,0,153500,154911,0.25,0.5 P,0,153500,154911,A F,0,153588,154911,1,0 M,0,155206,,155.7575,148.7909 C,0,155206,,255,255,125 F,0,155206,155294,0,1 S,0,155206,156618,0.25,0.5 P,0,155206,156618,A F,0,155294,156618,1,0
Sprite,Foreground,Centre,"sb\hl.png",0,0 M,0,153735,,190,346 C,0,153735,,202,149,149 F,0,153735,153823,0,1 S,0,153735,155146,0.25,0.5 P,0,153735,155146,A F,0,153823,155146,1,0 M,0,155265,,140.8392,165.4123 C,0,155265,,255,255,125 F,0,155265,155353,0,1 S,0,155265,156676,0.25,0.5 P,0,155265,156676,A F,0,155353,156676,1,0
Sprite,Foreground,Centre,"sb\hl.png",0,0 M,0,153735,,190,346 C,0,153735,,202,149,149 F,0,153735,153823,0,1 S,0,153735,155146,0.25,0.5 P,0,153735,155146,A F,0,153823,155146,1,0 M,0,155677,,400,144 C,0,155677,,255,255,125 F,0,155677,155765,0,1 S,0,155677,157088,0.25,0.5 P,0,155677,157088,A F,0,155765,157088,1,0
Sprite,Foreground,Centre,"sb\hl.png",0,0 M,0,153793,,192.4847,323.6376 C,0,153793,,202,149,149 F,0,153793,153882,0,1 S,0,153793,155205,0.25,0.5 P,0,153793,155205,A F,0,153882,155205,1,0 M,0,155677,,400,144 C,0,155677,,255,255,125 F,0,155677,155765,0,1 S,0,155677,157088,0.25,0.5 P,0,155677,157088,A F,0,155765,157088,1,0
Sprite,Foreground,Centre,"sb\hl.png",0,0 M,0,153852,,194.9694,301.2752 C,0,153852,,202,149,149 F,0,153852,153940,0,1 S,0,153852,155264,0.25,0.5 P,0,153852,155264,A F,0,153940,155264,1,0 M,0,155735,,420.6972,135.5822 C,0,155735,,255,255,125 F,0,155735,155824,0,1 S,0,155735,157147,0.25,0.5 P,0,155735,157147,A F,0,155824,157147,1,0
Sprite,Foreground,Centre,"sb\hl.png",0,0 M,0,153911,,197.3102,278.8976 C,0,153911,,202,149,149 F,0,153911,153999,0,1 S,0,153911,155323,0.25,0.5 P,0,153911,155323,A F,0,153999,155323,1,0 M,0,155794,,442.871,133.3399 C,0,155794,,255,255,125 F,0,155794,155882,0,1 S,0,155794,157206,0.25,0.5 P,0,155794,157206,A F,0,155882,157206,1,0
Sprite,Foreground,Centre,"sb\hl.png",0,0 M,0,153970,,199.5491,256.5093 C,0,153970,,202,149,149 F,0,153970,154058,0,1 S,0,153970,155382,0.25,0.5 P,0,153970,155382,A F,0,154058,155382,1,0 M,0,155853,,464.7237,137.8733 C,0,155853,,255,255,125 F,0,155853,155941,0,1 S,0,155853,157265,0.25,0.5 P,0,155853,157265,A F,0,155941,157265,1,0
Sprite,Foreground,Centre,"sb\hl.png",0,0 M,0,154029,,201.7879,234.121 C,0,154029,,202,149,149 F,0,154029,154117,0,1 S,0,154029,155440,0.25,0.5 P,0,154029,155440,A F,0,154117,155440,1,0 M,0,155912,,484.2425,148.7909 C,0,155912,,255,255,125 F,0,155912,156000,0,1 S,0,155912,157324,0.25,0.5 P,0,155912,157324,A F,0,156000,157324,1,0
Sprite,Foreground,Centre,"sb\hl.png",0,0 M,0,154087,,204,212 C,0,154087,,202,149,149 F,0,154087,154176,0,1 S,0,154087,155499,0.25,0.5 P,0,154087,155499,A F,0,154176,155499,1,0 M,0,155971,,499.1608,165.4123 C,0,155971,,255,255,125 F,0,155971,156059,0,1 S,0,155971,157382,0.25,0.5 P,0,155971,157382,A F,0,156059,157382,1,0
Sprite,Foreground,Centre,"sb\hl.png",0,0 M,0,154146,,201.7879,234.121 C,0,154146,,202,149,149 F,0,154146,154235,0,1 S,0,154146,155558,0.25,0.5 P,0,154146,155558,A F,0,154235,155558,1,0
Sprite,Foreground,Centre,"sb\hl.png",0,0 M,0,154205,,199.5491,256.5093 C,0,154205,,202,149,149 F,0,154205,154293,0,1 S,0,154205,155617,0.25,0.5 P,0,154205,155617,A F,0,154293,155617,1,0
Sprite,Foreground,Centre,"sb\hl.png",0,0 M,0,154264,,197.3102,278.8976 C,0,154264,,202,149,149 F,0,154264,154352,0,1 S,0,154264,155676,0.25,0.5 P,0,154264,155676,A F,0,154352,155676,1,0
Sprite,Foreground,Centre,"sb\hl.png",0,0 M,0,154323,,194.9694,301.2752 C,0,154323,,202,149,149 F,0,154323,154411,0,1 S,0,154323,155735,0.25,0.5 P,0,154323,155735,A F,0,154411,155735,1,0
Sprite,Foreground,Centre,"sb\hl.png",0,0 M,0,154382,,192.4847,323.6376 C,0,154382,,202,149,149 F,0,154382,154470,0,1 S,0,154382,155793,0.25,0.5 P,0,154382,155793,A F,0,154470,155793,1,0
Sprite,Foreground,Centre,"sb\d.png",0,0 M,19,158147,159873,320,248,255.9328,217.3994 F,0,158147,159873,1,0 S,0,158147,159873,0.071,0 P,0,158147,159873,A
Sprite,Foreground,Centre,"sb\d.png",0,0 M,19,158147,159911,320,248,291.7707,292.8565 F,0,158147,159911,1,0 S,0,158147,159911,0.053,0 P,0,158147,159911,A
Sprite,Foreground,Centre,"sb\d.png",0,0 M,19,158147,159911,320,248,328.234,240.7061 F,0,158147,159911,1,0 S,0,158147,159911,0.011,0 P,0,158147,159911,A
Sprite,Foreground,Centre,"sb\d.png",0,0 M,19,158147,159785,320,248,312.6355,229.4052 F,0,158147,159785,1,0 S,0,158147,159785,0.02,0 P,0,158147,159785,A
Sprite,Foreground,Centre,"sb\d.png",0,0 M,19,158147,159949,320,248,339.882,214.4484 F,0,158147,159949,1,0 S,0,158147,159949,0.039,0 P,0,158147,159949,A
Sprite,Foreground,Centre,"sb\d.png",0,0 M,19,158147,159902,320,248,316.4114,238.6661 F,0,158147,159902,1,0 S,0,158147,159902,0.01,0 P,0,158147,159902,A
Sprite,Foreground,Centre,"sb\d.png",0,0 M,19,158147,159962,320,248,308.7396,279.0194 F,0,158147,159962,1,0 S,0,158147,159962,0.033,0 P,0,158147,159962,A
Sprite,Foreground,Centre,"sb\d.png",0,0 M,19,158147,160260,320,248,326.7514,188.3811 F,0,158147,160260,1,0 S,0,158147,160260,0.06,0 P,0,158147,160260,A
Sprite,Foreground,Centre,"sb\d.png",0,0 M,19,158147,160234,320,248,348.5984,196.3945 F,0,158147,160234,1,0 S,0,158147,160234,0.059,0 P,0,158147,160234,A
Sprite,Foreground,Centre,"sb\d.png",0,0 M,19,158147,159739,320,248,309.3308,250.6773 F,0,158147,159739,1,0 S,0,158147,159739,0.011,0 P,0,158147,159739,A
Sprite,Foreground,Centre,"sb\d.png",0,0 M,19,158147,159590,320,248,298.0974,271.3297 F,0,158147,159590,1,0 S,0,158147,159590,0.032,0 P,0,158147,159590,A
Sprite,Foreground,Centre,"sb\d.png",0,0 M,19,158147,159884,320,248,325.6039,236.2698 F,0,158147,159884,1,0 S,0,158147,159884,0.013,0 P,0,158147,159884,A
Sprite,Foreground,Centre,"sb\d.png",0,0 M,19,158147,159690,320,248,376.0288,211.2608 F,0,158147,159690,1,0 S,0,158147,159690,0.067,0 P,0,158147,159690,A
Sprite,Foreground,Centre,"sb\d.png",0,0 M,19,158147,160080,320,248,377.355,198.1362 F,0,158147,160080,1,0 S,0,158147,160080,0.076,0 P,0,158147,160080,A
Sprite,Foreground,Centre,"sb\d.png",0,0 M,19,158147,159804,320,248,364.8898,251.1472 F,0,158147,159804,1,0 S,0,158147,159804,0.045,0 P,0,158147,159804,A
Sprite,Foreground,Centre,"sb\d.png",0,0 M,19,158147,159891,320,248,348.4237,233.3 F,0,158147,159891,1,0 S,0,158147,159891,0.032,0 P,0,158147,159891,A
Sprite,Foreground,Centre,"sb\d.png",0,0 M,19,158147,159817,320,248,356.9512,246.1006 F,0,158147,159817,1,0 S,0,158147,159817,0.037,0 P,0,158147,159817,A
Sprite,Foreground,Centre,"sb\d.png",0,0 M,19,158147,159758,320,248,294.6283,297.9227 F,0,158147,159758,1,0 S,0,158147,159758,0.056,0 P,0,158147,159758,A
Sprite,Foreground,Centre,"sb\d.png",0,0 M,19,158147,159673,320,248,254.0388,245.7367 F,0,158147,159673,1,0 S,0,158147,159673,0.066,0 P,0,158147,159673,A
Sprite,Foreground,Centre,"sb\d.png",0,0 M,19,158147,160208,320,248,276.9925,261.2421 F,0,158147,160208,1,0 S,0,158147,160208,0.045,0 P,0,158147,160208,A
Sprite,Foreground,Centre,"sb\d.png",0,0 M,19,158147,159559,320,248,282.4154,237.5885 F,0,158147,159559,1,0 S,0,158147,159559,0.039,0 P,0,158147,159559,A
Sprite,Foreground,Centre,"sb\d.png",0,0 M,19,158147,160145,320,248,321.1602,279.979 F,0,158147,160145,1,0 S,0,158147,160145,0.032,0 P,0,158147,160145,A
Sprite,Foreground,Centre,"sb\d.png",0,0 M,19,158147,159823,320,248,318.3277,257.8592 F,0,158147,159823,1,0 S,0,158147,159823,0.01,0 P,0,158147,159823,A
Sprite,Foreground,Centre,"sb\d.png",0,0 M,19,158147,159680,320,248,373.3241,283.3912 F,0,158147,159680,1,0 S,0,158147,159680,0.064,0 P,0,158147,159680,A
Sprite,Foreground,Centre,"sb\d.png",0,0 M,19,158147,159827,320,248,307.8305,285.0527 F,0,158147,159827,1,0 S,0,158147,159827,0.039,0 P,0,158147,159827,A
Sprite,Foreground,Centre,"sb\d.png",0,0 M,19,158147,159708,320,248,351.0218,194.319 F,0,158147,159708,1,0 S,0,158147,159708,0.062,0 P,0,158147,159708,A
Sprite,Foreground,Centre,"sb\d.png",0,0 M,19,158147,159825,320,248,275.4169,190.1956 F,0,158147,159825,1,0 S,0,158147,159825,0.073,0 P,0,158147,159825,A
Sprite,Foreground,Centre,"sb\d.png",0,0 M,19,158147,159992,320,248,278.1721,251.7986 F,0,158147,159992,1,0 S,0,158147,159992,0.042,0 P,0,158147,159992,A
Sprite,Foreground,Centre,"sb\d.png",0,0 M,19,158147,160025,320,248,330.0134,239.7096 F,0,158147,160025,1,0 S,0,158147,160025,0.013,0 P,0,158147,160025,A
Sprite,Foreground,Centre,"sb\d.png",0,0 M,19,158147,159728,320,248,322.5136,216.0989 F,0,158147,159728,1,0 S,0,158147,159728,0.032,0 P,0,158147,159728,A
Sprite,Foreground,Centre,"sb\d.png",0,0 M,19,158147,159783,320,248,307.6694,287.1019 F,0,158147,159783,1,0 S,0,158147,159783,0.041,0 P,0,158147,159783,A
Sprite,Foreground,Centre,"sb\d.png",0,0 M,19,158147,159933,320,248,316.6834,281.8379 F,0,158147,159933,1,0 S,0,158147,159933,0.034,0 P,0,158147,159933,A
Sprite,Foreground,Centre,"sb\d.png",0,0 M,19,158147,159690,320,248,315.3117,185.1747 F,0,158147,159690,1,0 S,0,158147,159690,0.063,0 P,0,158147,159690,A
Sprite,Foreground,Centre,"sb\d.png",0,0 M,19,158147,159779,320,248,265.2996,242.2675 F,0,158147,159779,1,0 S,0,158147,159779,0.055,0 P,0,158147,159779,A
Sprite,Foreground,Centre,"sb\d.png",0,0 M,19,158147,159993,320,248,379.1444,289.0602 F,0,158147,159993,1,0 S,0,158147,159993,0.072,0 P,0,158147,159993,A
Sprite,Foreground,Centre,"sb\d.png",0,0 M,19,158147,159730,320,248,323.84,258.308 F,0,158147,159730,1,0 S,0,158147,159730,0.011,0 P,0,158147,159730,A
Sprite,Foreground,Centre,"sb\d.png",0,0 M,19,158147,159591,320,248,366.5097,215.0479 F,0,158147,159591,1,0 S,0,158147,159591,0.057,0 P,0,158147,159591,A
Sprite,Foreground,Centre,"sb\d.png",0,0 M,19,158147,159983,320,248,382.8628,227.8936 F,0,158147,159983,1,0 S,0,158147,159983,0.066,0 P,0,158147,159983,A
Sprite,Foreground,Centre,"sb\d.png",0,0 M,19,158147,160232,320,248,306.5157,244.2354 F,0,158147,160232,1,0 S,0,158147,160232,0.014,0 P,0,158147,160232,A
Sprite,Foreground,Centre,"sb\d.png",0,0 M,19,158147,159752,320,248,294.3358,270.3014 F,0,158147,159752,1,0 S,0,158147,159752,0.034,0 P,0,158147,159752,A
Sprite,Foreground,Centre,"sb\d.png",0,0 M,19,158147,160051,320,248,341.6881,287.4288 F,0,158147,160051,1,0 S,0,158147,160051,0.045,0 P,0,158147,160051,A
Sprite,Foreground,Centre,"sb\d.png",0,0 M,19,158147,159790,320,248,363.3551,296.4286 F,0,158147,159790,1,0 S,0,158147,159790,0.065,0 P,0,158147,159790,A
Sprite,Foreground,Centre,"sb\d.png",0,0 M,19,158147,159612,320,248,327.283,238.4628 F,0,158147,159612,1,0 S,0,158147,159612,0.012,0 P,0,158147,159612,A
Sprite,Foreground,Centre,"sb\d.png",0,0 M,19,158147,160257,320,248,329.4425,235.0834 F,0,158147,160257,1,0 S,0,158147,160257,0.016,0 P,0,158147,160257,A
Sprite,Foreground,Centre,"sb\d.png",0,0 M,19,158147,159741,320,248,338.756,251.0356 F,0,158147,159741,1,0 S,0,158147,159741,0.019,0 P,0,158147,159741,A
Sprite,Foreground,Centre,"sb\d.png",0,0 M,19,158147,159961,320,248,353.9463,262.7191 F,0,158147,159961,1,0 S,0,158147,159961,0.037,0 P,0,158147,159961,A
Sprite,Foreground,Centre,"sb\d.png",0,0 M,19,158147,159573,320,248,377.9997,247.8197 F,0,158147,159573,1,0 S,0,158147,159573,0.058,0 P,0,158147,159573,A
Sprite,Foreground,Centre,"sb\d.png",0,0 M,19,158147,160012,320,248,258.9132,282.1819 F,0,158147,160012,1,0 S,0,158147,160012,0.07,0 P,0,158147,160012,A
Sprite,Foreground,Centre,"sb\d.png",0,0 M,19,158147,160016,320,248,331.5688,279.9713 F,0,158147,160016,1,0 S,0,158147,160016,0.034,0 P,0,158147,160016,A
Sprite,Foreground,Centre,"sb\d.png",0,0 M,19,158147,159760,320,248,307.4471,189.3278 F,0,158147,159760,1,0 S,0,158147,159760,0.06,0 P,0,158147,159760,A
Sprite,Foreground,Centre,"sb\d.png",0,0 M,19,158147,159850,320,248,289.7607,232.457 F,0,158147,159850,1,0 S,0,158147,159850,0.034,0 P,0,158147,159850,A
Sprite,Foreground,Centre,"sb\d.png",0,0 M,19,158147,159652,320,248,348.8351,229.985 F,0,158147,159652,1,0 S,0,158147,159652,0.034,0 P,0,158147,159652,A
Sprite,Foreground,Centre,"sb\d.png",0,0 M,19,158147,159632,320,248,261.8713,197.5019 F,0,158147,159632,1,0 S,0,158147,159632,0.077,0 P,0,158147,159632,A
Sprite,Foreground,Centre,"sb\d.png",0,0 M,19,158147,160257,320,248,312.4709,280.1296 F,0,158147,160257,1,0 S,0,158147,160257,0.033,0 P,0,158147,160257,A
Sprite,Foreground,Centre,"sb\d.png",0,0 M,19,158147,159965,320,248,326.5115,259.2517 F,0,158147,159965,1,0 S,0,158147,159965,0.013,0 P,0,158147,159965,A
Sprite,Foreground,Centre,"sb\d.png",0,0 M,19,158147,160037,320,248,389.423,273.6212 F,0,158147,160037,1,0 S,0,158147,160037,0.074,0 P,0,158147,160037,A
Sprite,Foreground,Centre,"sb\d.png",0,0 M,19,158147,160030,320,248,296.2456,283.8431 F,0,158147,160030,1,0 S,0,158147,160030,0.043,0 P,0,158147,160030,A
Sprite,Foreground,Centre,"sb\d.png",0,0 M,19,158147,160022,320,248,292.364,272.6019 F,0,158147,160022,1,0 S,0,158147,160022,0.037,0 P,0,158147,160022,A
Sprite,Foreground,Centre,"sb\d.png",0,0 M,19,158147,160020,320,248,318.4259,309.98 F,0,158147,160020,1,0 S,0,158147,160020,0.062,0 P,0,158147,160020,A
Sprite,Foreground,Centre,"sb\d.png",0,0 M,19,158147,159874,320,248,390.5142,273.5489 F,0,158147,159874,1,0 S,0,158147,159874,0.075,0 P,0,158147,159874,A
Sprite,Foreground,Centre,"sb\d.png",0,0 M,19,158147,159779,320,248,311.9799,230.7757 F,0,158147,159779,1,0 S,0,158147,159779,0.019,0 P,0,158147,159779,A
Sprite,Foreground,Centre,"sb\d.png",0,0 M,19,158147,160083,320,248,327.3107,219.9366 F,0,158147,160083,1,0 S,0,158147,160083,0.029,0 P,0,158147,160083,A
Sprite,Foreground,Centre,"sb\d.png",0,0 M,19,158147,160110,320,248,304.0803,239.5997 F,0,158147,160110,1,0 S,0,158147,160110,0.018,0 P,0,158147,160110,A
Sprite,Foreground,Centre,"sb\d.png",0,0 M,19,158147,159859,320,248,348.7835,277.1978 F,0,158147,159859,1,0 S,0,158147,159859,0.041,0 P,0,158147,159859,A
Sprite,Foreground,Centre,"sb\d.png",0,0 M,19,158147,159810,320,248,262.2988,260.3115 F,0,158147,159810,1,0 S,0,158147,159810,0.059,0 P,0,158147,159810,A
Sprite,Foreground,Centre,"sb\d.png",0,0 M,19,158147,160129,320,248,346.4748,253.2996 F,0,158147,160129,1,0 S,0,158147,160129,0.027,0 P,0,158147,160129,A
Sprite,Foreground,Centre,"sb\d.png",0,0 M,19,158147,159857,320,248,337.3605,255.721 F,0,158147,159857,1,0 S,0,158147,159857,0.019,0 P,0,158147,159857,A
Sprite,Foreground,Centre,"sb\d.png",0,0 M,19,158147,159731,320,248,355.3598,241.2409 F,0,158147,159731,1,0 S,0,158147,159731,0.036,0 P,0,158147,159731,A
Sprite,Foreground,Centre,"sb\d.png",0,0 M,19,158147,160240,320,248,302.9638,232.5478 F,0,158147,160240,1,0 S,0,158147,160240,0.023,0 P,0,158147,160240,A
Sprite,Foreground,Centre,"sb\d.png",0,0 M,19,158147,159979,320,248,321.7353,193.0274 F,0,158147,159979,1,0 S,0,158147,159979,0.055,0 P,0,158147,159979,A
Sprite,Foreground,Centre,"sb\d.png",0,0 M,19,158147,159575,320,248,271.4074,254.3055 F,0,158147,159575,1,0 S,0,158147,159575,0.049,0 P,0,158147,159575,A
Sprite,Foreground,Centre,"sb\d.png",0,0 M,19,158147,159701,320,248,291.3633,204.5956 F,0,158147,159701,1,0 S,0,158147,159701,0.052,0 P,0,158147,159701,A
Sprite,Foreground,Centre,"sb\d.png",0,0 M,19,158147,160106,320,248,303.987,215.7574 F,0,158147,160106,1,0 S,0,158147,160106,0.036,0 P,0,158147,160106,A
Sprite,Foreground,Centre,"sb\d.png",0,0 M,19,158147,160131,320,248,341.5533,210.7917 F,0,158147,160131,1,0 S,0,158147,160131,0.043,0 P,0,158147,160131,A
Sprite,Foreground,Centre,"sb\d.png",0,0 M,19,158147,159577,320,248,339.8535,232.8066 F,0,158147,159577,1,0 S,0,158147,159577,0.025,0 P,0,158147,159577,A
Sprite,Foreground,Centre,"sb\d.png",0,0 M,19,158147,160034,320,248,323.6194,321.9114 F,0,158147,160034,1,0 S,0,158147,160034,0.074,0 P,0,158147,160034,A
Sprite,Foreground,Centre,"sb\d.png",0,0 M,19,158147,159910,320,248,312.2217,271.7592 F,0,158147,159910,1,0 S,0,158147,159910,0.025,0 P,0,158147,159910,A
Sprite,Foreground,Centre,"sb\d.png",0,0 M,19,158147,160123,320,248,364.1652,182.4986 F,0,158147,160123,1,0 S,0,158147,160123,0.079,0 P,0,158147,160123,A
Sprite,Foreground,Centre,"sb\d.png",0,0 M,19,158147,160098,320,248,378.3271,256.8855 F,0,158147,160098,1,0 S,0,158147,160098,0.059,0 P,0,158147,160098,A
Sprite,Foreground,Centre,"sb\d.png",0,0 M,19,158147,159617,320,248,339.9803,257.2081 F,0,158147,159617,1,0 S,0,158147,159617,0.022,0 P,0,158147,159617,A
Sprite,Foreground,Centre,"sb\d.png",0,0 M,19,158147,159881,320,248,331.6754,182.0251 F,0,158147,159881,1,0 S,0,158147,159881,0.067,0 P,0,158147,159881,A
Sprite,Foreground,Centre,"sb\d.png",0,0 M,19,158147,160188,320,248,341.3135,298.7024 F,0,158147,160188,1,0 S,0,158147,160188,0.055,0 P,0,158147,160188,A
Sprite,Foreground,Centre,"sb\d.png",0,0 M,19,158147,159634,320,248,266.0116,285.9638 F,0,158147,159634,1,0 S,0,158147,159634,0.066,0 P,0,158147,159634,A
Sprite,Foreground,Centre,"sb\d.png",0,0 M,19,158147,160177,320,248,339.0865,276.1373 F,0,158147,160177,1,0 S,0,158147,160177,0.034,0 P,0,158147,160177,A
Sprite,Foreground,Centre,"sb\d.png",0,0 M,19,158147,160024,320,248,345.4544,253.2986 F,0,158147,160024,1,0 S,0,158147,160024,0.026,0 P,0,158147,160024,A
Sprite,Foreground,Centre,"sb\d.png",0,0 M,19,158147,159669,320,248,308.5579,238.3006 F,0,158147,159669,1,0 S,0,158147,159669,0.015,0 P,0,158147,159669,A
Sprite,Foreground,Centre,"sb\d.png",0,0 M,19,158147,159751,320,248,327.3959,283.2321 F,0,158147,159751,1,0 S,0,158147,159751,0.036,0 P,0,158147,159751,A
Sprite,Foreground,Centre,"sb\d.png",0,0 M,19,158147,159865,320,248,309.4032,287.6069 F,0,158147,159865,1,0 S,0,158147,159865,0.041,0 P,0,158147,159865,A
Sprite,Foreground,Centre,"sb\d.png",0,0 M,19,158147,159960,320,248,364.3466,278.812 F,0,158147,159960,1,0 S,0,158147,159960,0.054,0 P,0,158147,159960,A
Sprite,Foreground,Centre,"sb\d.png",0,0 M,19,158147,160190,320,248,329.0581,301.2349 F,0,158147,160190,1,0 S,0,158147,160190,0.054,0 P,0,158147,160190,A
Sprite,Foreground,Centre,"sb\d.png",0,0 M,19,158147,159701,320,248,271.8873,267.7274 F,0,158147,159701,1,0 S,0,158147,159701,0.052,0 P,0,158147,159701,A
Sprite,Foreground,Centre,"sb\d.png",0,0 M,19,158147,160022,320,248,315.4396,235.8261 F,0,158147,160022,1,0 S,0,158147,160022,0.013,0 P,0,158147,160022,A
Sprite,Foreground,Centre,"sb\d.png",0,0 M,19,158147,159961,320,248,284.2939,294.9689 F,0,158147,159961,1,0 S,0,158147,159961,0.059,0 P,0,158147,159961,A
Sprite,Foreground,Centre,"sb\d.png",0,0 M,19,158147,159635,320,248,365.2332,298.7735 F,0,158147,159635,1,0 S,0,158147,159635,0.068,0 P,0,158147,159635,A
Sprite,Foreground,Centre,"sb\d.png",0,0 M,19,158147,160171,320,248,301.7401,239.8405 F,0,158147,160171,1,0 S,0,158147,160171,0.02,0 P,0,158147,160171,A
Sprite,Foreground,Centre,"sb\d.png",0,0 M,19,158147,160092,320,248,272.6034,202.0701 F,0,158147,160092,1,0 S,0,158147,160092,0.066,0 P,0,158147,160092,A
Sprite,Foreground,Centre,"sb\d.png",0,0 M,19,158147,160008,320,248,344.0204,277.4452 F,0,158147,160008,1,0 S,0,158147,160008,0.038,0 P,0,158147,160008,A
Sprite,Foreground,Centre,"sb\d.png",0,0 M,19,158147,160122,320,248,266.2163,204.776 F,0,158147,160122,1,0 S,0,158147,160122,0.069,0 P,0,158147,160122,A
Sprite,Foreground,Centre,"sb\d.png",0,0 M,19,158147,159818,320,248,336.1798,207.0828 F,0,158147,159818,1,0 S,0,158147,159818,0.044,0 P,0,158147,159818,A
Sprite,Foreground,Centre,"sb\d.png",0,0 M,19,158147,159566,320,248,335.8354,250.2888 F,0,158147,159566,1,0 S,0,158147,159566,0.016,0 P,0,158147,159566,A
Sprite,Foreground,CentreLeft,"sb\f\c\0053.png",185.775,219.9075 F,0,67794,,1 V,19,67794,68499,0,0.35,0.35,0.35 F,0,70000,,0
Sprite,Foreground,CentreRight,"sb\f\c\0053.png",212.025,219.9075 F,0,70000,,1 V,18,70000,70706,0.35,0.35,0,0.35 F,0,70706,,0
Sprite,Foreground,CentreLeft,"sb\f\c\0054.png",212.025,219.9075 F,0,67823,,1 V,19,67823,68529,0,0.35,0.35,0.35 F,0,70029,,0
Sprite,Foreground,CentreRight,"sb\f\c\0054.png",236.525,219.9075 F,0,70029,,1 V,18,70029,70735,0.35,0.35,0,0.35 F,0,70735,,0
Sprite,Foreground,CentreLeft,"sb\f\c\004f.png",236.525,219.9075 F,0,67852,,1 V,19,67852,68558,0,0.35,0.35,0.35 F,0,70059,,0
Sprite,Foreground,CentreRight,"sb\f\c\004f.png",269.075,219.9075 F,0,70059,,1 V,18,70059,70765,0.35,0.35,0,0.35 F,0,70765,,0
Sprite,Foreground,CentreLeft,"sb\f\c\004e.png",269.075,219.9075 F,0,67882,,1 V,19,67882,68588,0,0.35,0.35,0.35 F,0,70088,,0
Sprite,Foreground,CentreRight,"sb\f\c\004e.png",300.575,219.9075 F,0,70088,,1 V,18,70088,70794,0.35,0.35,0,0.35 F,0,70794,,0
Sprite,Foreground,CentreLeft,"sb\f\c\0045.png",300.575,219.9075 F,0,67911,,1 V,19,67911,68617,0,0.35,0.35,0.35 F,0,70118,,0
Sprite,Foreground,CentreRight,"sb\f\c\0045.png",325.775,219.9075 F,0,70118,,1 V,18,70118,70823,0.35,0.35,0,0.35 F,0,70823,,0
Sprite,Foreground,CentreLeft,"sb\f\c\0042.png",325.775,219.9075 F,0,67941,,1 V,19,67941,68646,0,0.35,0.35,0.35 F,0,70147,,0
Sprite,Foreground,CentreRight,"sb\f\c\0042.png",353.425,219.9075 F,0,70147,,1 V,18,70147,70853,0.35,0.35,0,0.35 F,0,70853,,0
Sprite,Foreground,CentreLeft,"sb\f\c\0041.png",353.425,219.9075 F,0,67970,,1 V,19,67970,68676,0,0.35,0.35,0.35 F,0,70176,,0
Sprite,Foreground,CentreRight,"sb\f\c\0041.png",383.525,219.9075 F,0,70176,,1 V,18,70176,70882,0.35,0.35,0,0.35 F,0,70882,,0
Sprite,Foreground,CentreLeft,"sb\f\c\004e.png",383.525,219.9075 F,0,67999,,1 V,19,67999,68705,0,0.35,0.35,0.35 F,0,70206,,0
Sprite,Foreground,CentreRight,"sb\f\c\004e.png",415.025,219.9075 F,0,70206,,1 V,18,70206,70912,0.35,0.35,0,0.35 F,0,70912,,0
Sprite,Foreground,CentreLeft,"sb\f\c\004b.png",415.025,219.9075 F,0,68029,,1 V,19,68029,68735,0,0.35,0.35,0.35 F,0,70235,,0
Sprite,Foreground,CentreRight,"sb\f\c\004b.png",443.725,219.9075 F,0,70235,,1 V,18,70235,70941,0.35,0.35,0,0.35 F,0,70941,,0
Sprite,Foreground,CentreLeft,"sb\f\c\0042.png",85.54999,258.465 F,0,67794,,1 V,19,67794,68499,0,0.3,0.3,0.3 F,0,69676,,0
Sprite,Foreground,CentreRight,"sb\f\c\0042.png",109.25,258.465 F,0,69676,,1 V,18,69676,70382,0.3,0.3,0,0.3 F,0,70382,,0
Sprite,Foreground,CentreLeft,"sb\f\c\0065.png",109.25,258.465 F,0,67823,,1 V,19,67823,68529,0,0.3,0.3,0.3 F,0,69706,,0
Sprite,Foreground,CentreRight,"sb\f\c\0065.png",130.85,258.465 F,0,69706,,1 V,18,69706,70412,0.3,0.3,0,0.3 F,0,70412,,0
Sprite,Foreground,CentreLeft,"sb\f\c\0041.png",145.85,258.465 F,0,67852,,1 V,19,67852,68558,0,0.3,0.3,0.3 F,0,69735,,0
Sprite,Foreground,CentreRight,"sb\f\c\0041.png",171.65,258.465 F,0,69735,,1 V,18,69735,70441,0.3,0.3,0,0.3 F,0,70441,,0
Sprite,Foreground,CentreLeft,"sb\f\c\006c.png",171.65,258.465 F,0,67882,,1 V,19,67882,68588,0,0.3,0.3,0.3 F,0,69765,,0
Sprite,Foreground,CentreRight,"sb\f\c\006c.png",186.65,258.465 F,0,69765,,1 V,18,69765,70471,0.3,0.3,0,0.3 F,0,70471,,0
Sprite,Foreground,CentreLeft,"sb\f\c\0072.png",186.65,258.465 F,0,67911,,1 V,19,67911,68617,0,0.3,0.3,0.3 F,0,69794,,0
Sprite,Foreground,CentreRight,"sb\f\c\0072.png",205.55,258.465 F,0,69794,,1 V,18,69794,70500,0.3,0.3,0,0.3 F,0,70500,,0
Sprite,Foreground,CentreLeft,"sb\f\c\0069.png",205.55,258.465 F,0,67941,,1 V,19,67941,68646,0,0.3,0.3,0.3 F,0,69823,,0
Sprite,Foreground,CentreRight,"sb\f\c\0069.png",220.85,258.465 F,0,69823,,1 V,18,69823,70529,0.3,0.3,0,0.3 F,0,70529,,0
Sprite,Foreground,CentreLeft,"sb\f\c\0067.png",220.85,258.465 F,0,67970,,1 V,19,67970,68676,0,0.3,0.3,0.3 F,0,69853,,0
Sprite,Foreground,CentreRight,"sb\f\c\0067.png",243.65,258.465 F,0,69853,,1 V,18,69853,70559,0.3,0.3,0,0.3 F,0,70559,,0
Sprite,Foreground,CentreLeft,"sb\f\c\0068.png",243.65,258.465 F,0,67999,,1 V,19,67999,68705,0,0.3,0.3,0.3 F,0,69882,,0
Sprite,Foreground,CentreRight,"sb\f\c\0068.png",266.45,258.465 F,0,69882,,1 V,18,69882,70588,0.3,0.3,0,0.3 F,0,70588,,0
Sprite,Foreground,CentreLeft,"sb\f\c\0074.png",266.45,258.465 F,0,68029,,1 V,19,68029,68735,0,0.3,0.3,0.3 F,0,69912,,0
Sprite,Foreground,CentreRight,"sb\f\c\0074.png",284.15,258.465 F,0,69912,,1 V,18,69912,70618,0.3,0.3,0,0.3 F,0,70618,,0
Sprite,Foreground,CentreLeft,"sb\f\c\0028.png",299.15,258.465 F,0,68058,,1 V,19,68058,68764,0,0.3,0.3,0.3 F,0,69941,,0
Sprite,Foreground,CentreRight,"sb\f\c\0028.png",317.45,258.465 F,0,69941,,1 V,18,69941,70647,0.3,0.3,0,0.3 F,0,70647,,0
Sprite,Foreground,CentreLeft,"sb\f\c\0046.png",317.45,258.465 F,0,68088,,1 V,19,68088,68794,0,0.3,0.3,0.3 F,0,69971,,0
Sprite,Foreground,CentreRight,"sb\f\c\0046.png",338.45,258.465 F,0,69971,,1 V,18,69971,70676,0.3,0.3,0,0.3 F,0,70676,,0
Sprite,Foreground,CentreLeft,"sb\f\c\0065.png",338.45,258.465 F,0,68117,,1 V,19,68117,68823,0,0.3,0.3,0.3 F,0,70000,,0
Sprite,Foreground,CentreRight,"sb\f\c\0065.png",360.05,258.465 F,0,70000,,1 V,18,70000,70706,0.3,0.3,0,0.3 F,0,70706,,0
Sprite,Foreground,CentreLeft,"sb\f\c\0061.png",360.05,258.465 F,0,68146,,1 V,19,68146,68852,0,0.3,0.3,0.3 F,0,70029,,0
Sprite,Foreground,CentreRight,"sb\f\c\0061.png",383.45,258.465 F,0,70029,,1 V,18,70029,70735,0.3,0.3,0,0.3 F,0,70735,,0
Sprite,Foreground,CentreLeft,"sb\f\c\0074.png",383.45,258.465 F,0,68176,,1 V,19,68176,68882,0,0.3,0.3,0.3 F,0,70059,,0
Sprite,Foreground,CentreRight,"sb\f\c\0074.png",401.15,258.465 F,0,70059,,1 V,18,70059,70765,0.3,0.3,0,0.3 F,0,70765,,0
Sprite,Foreground,CentreLeft,"sb\f\c\002e.png",401.15,258.465 F,0,68205,,1 V,19,68205,68911,0,0.3,0.3,0.3 F,0,70088,,0
Sprite,Foreground,CentreRight,"sb\f\c\002e.png",416.75,258.465 F,0,70088,,1 V,18,70088,70794,0.3,0.3,0,0.3 F,0,70794,,0
Sprite,Foreground,CentreLeft,"sb\f\c\0045.png",431.75,258.465 F,0,68235,,1 V,19,68235,68941,0,0.3,0.3,0.3 F,0,70118,,0
Sprite,Foreground,CentreRight,"sb\f\c\0045.png",453.35,258.465 F,0,70118,,1 V,18,70118,70823,0.3,0.3,0,0.3 F,0,70823,,0
Sprite,Foreground,CentreLeft,"sb\f\c\004d.png",453.35,258.465 F,0,68264,,1 V,19,68264,68970,0,0.3,0.3,0.3 F,0,70147,,0
Sprite,Foreground,CentreRight,"sb\f\c\004d.png",484.55,258.465 F,0,70147,,1 V,18,70147,70853,0.3,0.3,0,0.3 F,0,70853,,0
Sprite,Foreground,CentreLeft,"sb\f\c\0045.png",484.55,258.465 F,0,68294,,1 V,19,68294,68999,0,0.3,0.3,0.3 F,0,70176,,0
Sprite,Foreground,CentreRight,"sb\f\c\0045.png",506.15,258.465 F,0,70176,,1 V,18,70176,70882,0.3,0.3,0,0.3 F,0,70882,,0
Sprite,Foreground,CentreLeft,"sb\f\c\004c.png",506.15,258.465 F,0,68323,,1 V,19,68323,69029,0,0.3,0.3,0.3 F,0,70206,,0
Sprite,Foreground,CentreRight,"sb\f\c\004c.png",527.15,258.465 F,0,70206,,1 V,18,70206,70912,0.3,0.3,0,0.3 F,0,70912,,0
Sprite,Foreground,CentreLeft,"sb\f\c\0029.png",527.15,258.465 F,0,68352,,1 V,19,68352,69058,0,0.3,0.3,0.3 F,0,70235,,0
Sprite,Foreground,CentreRight,"sb\f\c\0029.png",545.45,258.465 F,0,70235,,1 V,18,70235,70941,0.3,0.3,0,0.3 F,0,70941,,0
Sprite,Foreground,CentreLeft,"sb\f\c\004d.png",229.875,219.9075 F,0,70971,,1 V,19,70971,71676,0,0.35,0.35,0.35 F,0,72911,,0
Sprite,Foreground,CentreRight,"sb\f\c\004d.png",266.275,219.9075 F,0,72911,,1 V,18,72911,73617,0.35,0.35,0,0.35 F,0,73617,,0
Sprite,Foreground,CentreLeft,"sb\f\c\0041.png",266.275,219.9075 F,0,71000,,1 V,19,71000,71706,0,0.35,0.35,0.35 F,0,72941,,0
Sprite,Foreground,CentreRight,"sb\f\c\0041.png",296.375,219.9075 F,0,72941,,1 V,18,72941,73646,0.35,0.35,0,0.35 F,0,73646,,0
Sprite,Foreground,CentreLeft,"sb\f\c\0050.png",296.375,219.9075 F,0,71029,,1 V,19,71029,71735,0,0.35,0.35,0.35 F,0,72970,,0
Sprite,Foreground,CentreRight,"sb\f\c\0050.png",323.675,219.9075 F,0,72970,,1 V,18,72970,73676,0.35,0.35,0,0.35 F,0,73676,,0
Sprite,Foreground,CentreLeft,"sb\f\c\0053.png",323.675,219.9075 F,0,71059,,1 V,19,71059,71765,0,0.35,0.35,0.35 F,0,72999,,0
Sprite,Foreground,CentreRight,"sb\f\c\0053.png",349.925,219.9075 F,0,72999,,1 V,18,72999,73705,0.35,0.35,0,0.35 F,0,73705,,0
Sprite,Foreground,CentreLeft,"sb\f\c\0045.png",349.925,219.9075 F,0,71088,,1 V,19,71088,71794,0,0.35,0.35,0.35 F,0,73029,,0
Sprite,Foreground,CentreRight,"sb\f\c\0045.png",375.125,219.9075 F,0,73029,,1 V,18,73029,73735,0.35,0.35,0,0.35 F,0,73735,,0
Sprite,Foreground,CentreLeft,"sb\f\c\0054.png",375.125,219.9075 F,0,71118,,1 V,19,71118,71823,0,0.35,0.35,0.35 F,0,73058,,0
Sprite,Foreground,CentreRight,"sb\f\c\0054.png",399.625,219.9075 F,0,73058,,1 V,18,73058,73764,0.35,0.35,0,0.35 F,0,73764,,0
Sprite,Foreground,CentreLeft,"sb\f\c\004e.png",243.05,258.465 F,0,70971,,1 V,19,70971,71676,0,0.3,0.3,0.3 F,0,72911,,0
Sprite,Foreground,CentreRight,"sb\f\c\004e.png",270.05,258.465 F,0,72911,,1 V,18,72911,73617,0.3,0.3,0,0.3 F,0,73617,,0
Sprite,Foreground,CentreLeft,"sb\f\c\0068.png",270.05,258.465 F,0,71000,,1 V,19,71000,71706,0,0.3,0.3,0.3 F,0,72941,,0
Sprite,Foreground,CentreRight,"sb\f\c\0068.png",292.85,258.465 F,0,72941,,1 V,18,72941,73646,0.3,0.3,0,0.3 F,0,73646,,0
Sprite,Foreground,CentreLeft,"sb\f\c\0061.png",292.85,258.465 F,0,71029,,1 V,19,71029,71735,0,0.3,0.3,0.3 F,0,72970,,0
Sprite,Foreground,CentreRight,"sb\f\c\0061.png",316.25,258.465 F,0,72970,,1 V,18,72970,73676,0.3,0.3,0,0.3 F,0,73676,,0
Sprite,Foreground,CentreLeft,"sb\f\c\0077.png",316.25,258.465 F,0,71059,,1 V,19,71059,71765,0,0.3,0.3,0.3 F,0,72999,,0
Sprite,Foreground,CentreRight,"sb\f\c\0077.png",342.95,258.465 F,0,72999,,1 V,18,72999,73705,0.3,0.3,0,0.3 F,0,73705,,0
Sprite,Foreground,CentreLeft,"sb\f\c\0061.png",342.95,258.465 F,0,71088,,1 V,19,71088,71794,0,0.3,0.3,0.3 F,0,73029,,0
Sprite,Foreground,CentreRight,"sb\f\c\0061.png",366.35,258.465 F,0,73029,,1 V,18,73029,73735,0.3,0.3,0,0.3 F,0,73735,,0
Sprite,Foreground,CentreLeft,"sb\f\c\006b.png",366.35,258.465 F,0,71118,,1 V,19,71118,71823,0,0.3,0.3,0.3 F,0,73058,,0
Sprite,Foreground,CentreRight,"sb\f\c\006b.png",387.95,258.465 F,0,73058,,1 V,18,73058,73764,0.3,0.3,0,0.3 F,0,73764,,0
Sprite,Foreground,CentreLeft,"sb\f\c\0049.png",233.55,219.9075 F,0,73794,,1 V,19,73794,74499,0,0.35,0.35,0.35 F,0,75735,,0
Sprite,Foreground,CentreRight,"sb\f\c\0049.png",251.4,219.9075 F,0,75735,,1 V,18,75735,76441,0.35,0.35,0,0.35 F,0,76441,,0
Sprite,Foreground,CentreLeft,"sb\f\c\004e.png",251.4,219.9075 F,0,73823,,1 V,19,73823,74529,0,0.35,0.35,0.35 F,0,75765,,0
Sprite,Foreground,CentreRight,"sb\f\c\004e.png",282.9,219.9075 F,0,75765,,1 V,18,75765,76470,0.35,0.35,0,0.35 F,0,76470,,0
Sprite,Foreground,CentreLeft,"sb\f\c\0053.png",282.9,219.9075 F,0,73852,,1 V,19,73852,74558,0,0.35,0.35,0.35 F,0,75794,,0
Sprite,Foreground,CentreRight,"sb\f\c\0053.png",309.15,219.9075 F,0,75794,,1 V,18,75794,76500,0.35,0.35,0,0.35 F,0,76500,,0
Sprite,Foreground,CentreLeft,"sb\f\c\0041.png",309.15,219.9075 F,0,73882,,1 V,19,73882,74588,0,0.35,0.35,0.35 F,0,75823,,0
Sprite,Foreground,CentreRight,"sb\f\c\0041.png",339.25,219.9075 F,0,75823,,1 V,18,75823,76529,0.35,0.35,0,0.35 F,0,76529,,0
Sprite,Foreground,CentreLeft,"sb\f\c\004e.png",339.25,219.9075 F,0,73911,,1 V,19,73911,74617,0,0.35,0.35,0.35 F,0,75853,,0
Sprite,Foreground,CentreRight,"sb\f\c\004e.png",370.75,219.9075 F,0,75853,,1 V,18,75853,76559,0.35,0.35,0,0.35 F,0,76559,,0
Sprite,Foreground,CentreLeft,"sb\f\c\0045.png",370.75,219.9075 F,0,73941,,1 V,19,73941,74646,0,0.35,0.35,0.35 F,0,75882,,0
Sprite,Foreground,CentreRight,"sb\f\c\0045.png",395.95,219.9075 F,0,75882,,1 V,18,75882,76588,0.35,0.35,0,0.35 F,0,76588,,0
Sprite,Foreground,CentreLeft,"sb\f\c\0046.png",273.65,258.465 F,0,73794,,1 V,19,73794,74499,0,0.3,0.3,0.3 F,0,75794,,0
Sprite,Foreground,CentreRight,"sb\f\c\0046.png",294.65,258.465 F,0,75794,,1 V,18,75794,76500,0.3,0.3,0,0.3 F,0,76500,,0
Sprite,Foreground,CentreLeft,"sb\f\c\0072.png",294.65,258.465 F,0,73823,,1 V,19,73823,74529,0,0.3,0.3,0.3 F,0,75823,,0
Sprite,Foreground,CentreRight,"sb\f\c\0072.png",313.55,258.465 F,0,75823,,1 V,18,75823,76529,0.3,0.3,0,0.3 F,0,76529,,0
Sprite,Foreground,CentreLeft,"sb\f\c\0065.png",313.55,258.465 F,0,73852,,1 V,19,73852,74558,0,0.3,0.3,0.3 F,0,75853,,0
Sprite,Foreground,CentreRight,"sb\f\c\0065.png",335.15,258.465 F,0,75853,,1 V,18,75853,76559,0.3,0.3,0,0.3 F,0,76559,,0
Sprite,Foreground,CentreLeft,"sb\f\c\0079.png",335.15,258.465 F,0,73882,,1 V,19,73882,74588,0,0.3,0.3,0.3 F,0,75882,,0
Sprite,Foreground,CentreRight,"sb\f\c\0079.png",357.35,258.465 F,0,75882,,1 V,18,75882,76588,0.3,0.3,0,0.3 F,0,76588,,0
Sprite,Foreground,CentreLeft,"sb\f\c\0053.png",171.25,219.9075 F,0,76618,,1 V,19,76618,77323,0,0.35,0.35,0.35 F,0,78088,,0
Sprite,Foreground,CentreRight,"sb\f\c\0053.png",197.5,219.9075 F,0,78088,,1 V,18,78088,78793,0.35,0.35,0,0.35 F,0,78793,,0
Sprite,Foreground,CentreLeft,"sb\f\c\0054.png",197.5,219.9075 F,0,76647,,1 V,19,76647,77353,0,0.35,0.35,0.35 F,0,78117,,0
Sprite,Foreground,CentreRight,"sb\f\c\0054.png",222,219.9075 F,0,78117,,1 V,18,78117,78823,0.35,0.35,0,0.35 F,0,78823,,0
Sprite,Foreground,CentreLeft,"sb\f\c\004f.png",222,219.9075 F,0,76676,,1 V,19,76676,77382,0,0.35,0.35,0.35 F,0,78146,,0
Sprite,Foreground,CentreRight,"sb\f\c\004f.png",254.55,219.9075 F,0,78146,,1 V,18,78146,78852,0.35,0.35,0,0.35 F,0,78852,,0
Sprite,Foreground,CentreLeft,"sb\f\c\0052.png",254.55,219.9075 F,0,76706,,1 V,19,76706,77412,0,0.35,0.35,0.35 F,0,78176,,0
Sprite,Foreground,CentreRight,"sb\f\c\0052.png",281.85,219.9075 F,0,78176,,1 V,18,78176,78882,0.35,0.35,0,0.35 F,0,78882,,0
Sprite,Foreground,CentreLeft,"sb\f\c\0059.png",281.85,219.9075 F,0,76735,,1 V,19,76735,77441,0,0.35,0.35,0.35 F,0,78205,,0
Sprite,Foreground,CentreRight,"sb\f\c\0059.png",311.25,219.9075 F,0,78205,,1 V,18,78205,78911,0.35,0.35,0,0.35 F,0,78911,,0
Sprite,Foreground,CentreLeft,"sb\f\c\0042.png",311.25,219.9075 F,0,76765,,1 V,19,76765,77470,0,0.35,0.35,0.35 F,0,78235,,0
Sprite,Foreground,CentreRight,"sb\f\c\0042.png",338.9,219.9075 F,0,78235,,1 V,18,78235,78940,0.35,0.35,0,0.35 F,0,78940,,0
Sprite,Foreground,CentreLeft,"sb\f\c\004f.png",338.9,219.9075 F,0,76794,,1 V,19,76794,77500,0,0.35,0.35,0.35 F,0,78264,,0
Sprite,Foreground,CentreRight,"sb\f\c\004f.png",371.45,219.9075 F,0,78264,,1 V,18,78264,78970,0.35,0.35,0,0.35 F,0,78970,,0
Sprite,Foreground,CentreLeft,"sb\f\c\0041.png",371.45,219.9075 F,0,76823,,1 V,19,76823,77529,0,0.35,0.35,0.35 F,0,78293,,0
Sprite,Foreground,CentreRight,"sb\f\c\0041.png",401.55,219.9075 F,0,78293,,1 V,18,78293,78999,0.35,0.35,0,0.35 F,0,78999,,0
Sprite,Foreground,CentreLeft,"sb\f\c\0052.png",401.55,219.9075 F,0,76853,,1 V,19,76853,77559,0,0.35,0.35,0.35 F,0,78323,,0
Sprite,Foreground,CentreRight,"sb\f\c\0052.png",428.8499,219.9075 F,0,78323,,1 V,18,78323,79029,0.35,0.35,0,0.35 F,0,79029,,0
Sprite,Foreground,CentreLeft,"sb\f\c\0044.png",428.8499,219.9075 F,0,76882,,1 V,19,76882,77588,0,0.35,0.35,0.35 F,0,78352,,0
Sprite,Foreground,CentreRight,"sb\f\c\0044.png",458.2499,219.9075 F,0,78352,,1 V,18,78352,79058,0.35,0.35,0,0.35 F,0,79058,,0
Sprite,Foreground,CentreLeft,"sb\f\c\0048.png",167.15,258.465 F,0,76618,,1 V,19,76618,77323,0,0.3,0.3,0.3 F,0,78029,,0
Sprite,Foreground,CentreRight,"sb\f\c\0048.png",192.35,258.465 F,0,78029,,1 V,18,78029,78735,0.3,0.3,0,0.3 F,0,78735,,0
Sprite,Foreground,CentreLeft,"sb\f\c\006f.png",192.35,258.465 F,0,76647,,1 V,19,76647,77353,0,0.3,0.3,0.3 F,0,78058,,0
Sprite,Foreground,CentreRight,"sb\f\c\006f.png",214.85,258.465 F,0,78058,,1 V,18,78058,78764,0.3,0.3,0,0.3 F,0,78764,,0
Sprite,Foreground,CentreLeft,"sb\f\c\006b.png",214.85,258.465 F,0,76676,,1 V,19,76676,77382,0,0.3,0.3,0.3 F,0,78088,,0
Sprite,Foreground,CentreRight,"sb\f\c\006b.png",236.45,258.465 F,0,78088,,1 V,18,78088,78793,0.3,0.3,0,0.3 F,0,78793,,0
Sprite,Foreground,CentreLeft,"sb\f\c\0069.png",236.45,258.465 F,0,76706,,1 V,19,76706,77412,0,0.3,0.3,0.3 F,0,78117,,0
Sprite,Foreground,CentreRight,"sb\f\c\0069.png",251.75,258.465 F,0,78117,,1 V,18,78117,78823,0.3,0.3,0,0.3 F,0,78823,,0
Sprite,Foreground,CentreLeft,"sb\f\c\0063.png",251.75,258.465 F,0,76735,,1 V,19,76735,77441,0,0.3,0.3,0.3 F,0,78146,,0
Sprite,Foreground,CentreRight,"sb\f\c\0063.png",273.05,258.465 F,0,78146,,1 V,18,78146,78852,0.3,0.3,0,0.3 F,0,78852,,0
Sprite,Foreground,CentreLeft,"sb\f\c\0068.png",273.05,258.465 F,0,76765,,1 V,19,76765,77470,0,0.3,0.3,0.3 F,0,78176,,0
Sprite,Foreground,CentreRight,"sb\f\c\0068.png",295.85,258.465 F,0,78176,,1 V,18,78176,78882,0.3,0.3,0,0.3 F,0,78882,,0
Sprite,Foreground,CentreLeft,"sb\f\c\0069.png",295.85,258.465 F,0,76794,,1 V,19,76794,77500,0,0.3,0.3,0.3 F,0,78205,,0
Sprite,Foreground,CentreRight,"sb\f\c\0069.png",311.15,258.465 F,0,78205,,1 V,18,78205,78911,0.3,0.3,0,0.3 F,0,78911,,0
Sprite,Foreground,CentreLeft,"sb\f\c\0026.png",326.15,258.465 F,0,76823,,1 V,19,76823,77529,0,0.3,0.3,0.3 F,0,78235,,0
Sprite,Foreground,CentreRight,"sb\f\c\0026.png",350.45,258.465 F,0,78235,,1 V,18,78235,78940,0.3,0.3,0,0.3 F,0,78940,,0
Sprite,Foreground,CentreLeft,"sb\f\c\004d.png",365.45,258.465 F,0,76853,,1 V,19,76853,77559,0,0.3,0.3,0.3 F,0,78264,,0
Sprite,Foreground,CentreRight,"sb\f\c\004d.png",396.65,258.465 F,0,78264,,1 V,18,78264,78970,0.3,0.3,0,0.3 F,0,78970,,0
Sprite,Foreground,CentreLeft,"sb\f\c\0075.png",396.65,258.465 F,0,76882,,1 V,19,76882,77588,0,0.3,0.3,0.3 F,0,78293,,0
Sprite,Foreground,CentreRight,"sb\f\c\0075.png",419.45,258.465 F,0,78293,,1 V,18,78293,78999,0.3,0.3,0,0.3 F,0,78999,,0
Sprite,Foreground,CentreLeft,"sb\f\c\006e.png",419.45,258.465 F,0,76912,,1 V,19,76912,77618,0,0.3,0.3,0.3 F,0,78323,,0
Sprite,Foreground,CentreRight,"sb\f\c\006e.png",442.2499,258.465 F,0,78323,,1 V,18,78323,79029,0.3,0.3,0,0.3 F,0,79029,,0
Sprite,Foreground,CentreLeft,"sb\f\c\0065.png",442.2499,258.465 F,0,76941,,1 V,19,76941,77647,0,0.3,0.3,0.3 F,0,78352,,0
Sprite,Foreground,CentreRight,"sb\f\c\0065.png",463.8499,258.465 F,0,78352,,1 V,18,78352,79058,0.3,0.3,0,0.3 F,0,79058,,0
//Storyboard Layer 4 (Overlay)
//Storyboard Sound Samples

[TimingPoints]
30,352.941176470588,4,1,0,60,1,0
22618,-133.333333333333,4,2,0,60,0,0
79088,-100,4,1,0,60,0,0
90382,-100,4,1,0,70,0,1
100088,-100,4,1,0,60,0,0
101677,-100,4,1,0,70,0,1
112971,-100,4,1,0,60,0,0
135559,-100,4,1,0,70,0,1
145265,-100,4,1,0,60,0,0
146853,-100,4,1,0,70,0,1
152500,-100,4,1,0,60,0,0
152853,-133.333333333333,4,2,0,60,0,0

[Colours]
Combo1 : 202,149,149
Combo2 : 255,255,125
Combo3 : 111,255,255
Combo4 : 255,157,157

[HitObjects]
48,44,30,5,0,0:0:0:0:
144,152,382,1,2,0:2:0:0:
56,136,735,1,0,0:0:0:0:
136,60,1087,1,2,0:2:0:0:
64,228,1441,1,0,0:0:0:0:
144,152,1793,1,2,0:2:0:0:
56,136,2146,1,0,0:0:0:0:
152,244,2500,1,2,0:2:0:0:
360,244,2853,5,0,0:0:0:0:
456,136,3205,1,2,0:2:0:0:
368,152,3558,1,0,0:0:0:0:
448,228,3912,1,2,0:2:0:0:
376,60,4264,1,0,0:0:0:0:
456,136,4618,1,2,0:2:0:0:
368,152,4971,1,0,0:0:0:0:
464,44,5324,1,2,0:2:0:0:
256,188,5677,5,0,0:0:0:0:
196,120,6029,1,2,0:2:0:0:
316,264,6382,1,0,0:0:0:0:
168,208,6735,1,2,0:2:0:0:
344,176,7088,1,0,0:0:0:0:
376,332,7441,1,2,0:2:0:0:
316,264,7794,1,0,0:0:0:0:
404,244,8147,1,2,0:2:0:0:
108,244,8500,5,0,0:0:0:0:
196,264,8853,1,2,0:2:0:0:
136,332,9206,1,0,0:0:0:0:
168,176,9559,1,2,0:2:0:0:
272,104,9912,1,0,0:0:0:0:
116,72,10265,1,2,0:2:0:0:
344,208,10618,2,0,P|388:201|456:192,1,90,0|8,0:0|0:3,0:0:0:0:
376,52,10971,2,0,P|331:58|286:65,1,90,2|0,0:2|0:0,0:0:0:0:
240,280,11324,6,0,P|246:324|256:392,1,90,4|0,0:2|0:0,0:0:0:0:
168,176,11677,2,0,P|124:182|56:192,1,90,2|0,0:2|0:0,0:0:0:0:
272,104,12029,2,0,P|266:60|256:-8,1,90
344,208,12382,2,0,P|388:202|456:192,1,90,2|0,0:2|0:0,0:0:0:0:
510,343,12735,6,0,P|516:298|504:256,1,90
426,108,13088,2,0,P|420:153|433:196,1,90,2|0,0:2|0:0,0:0:0:0:
464,24,13441,2,0,P|419:17|376:30,1,90
229,108,13794,2,0,P|273:114|316:101,1,90,2|0,0:2|0:0,0:0:0:0:
156,32,14147,6,0,L|56:16,1,90
4,136,14500,2,0,L|93:125,1,90,2|0,0:2|0:0,0:0:0:0:
93,258,14853,2,0,L|4:248,1,90
67,366,15206,2,0,L|156:352,1,90,2|0,0:2|0:0,0:0:0:0:
356,320,15559,6,0,P|360:256|380:212,1,90
435,108,15912,2,0,P|395:129|351:140,1,90,2|0,0:2|0:0,0:0:0:0:
76,108,16265,2,0,P|116:129|160:140,1,90,0|8,0:0|0:3,0:0:0:0:
155,320,16618,2,0,P|156:275|143:232,1,90,2|0,0:2|0:0,0:0:0:0:
60,196,16971,5,2,0:2:0:0:
68,288,17147,1,0,0:0:0:0:
156,320,17324,1,2,0:2:0:0:
228,264,17500,1,0,0:0:0:0:
452,52,17677,1,2,0:2:0:0:
444,144,17853,1,0,0:0:0:0:
356,176,18030,1,2,0:2:0:0:
280,120,18206,1,0,0:0:0:0:
444,144,18382,6,0,P|488:151|532:159,1,90,2|0,0:2|0:0,0:0:0:0:
412,324,18735,2,0,L|420:280|428:236,1,90,2|0,0:2|0:0,0:0:0:0:
256,192,19088,1,2,0:2:0:0:
332,140,19265,1,0,0:0:0:0:
340,232,19441,1,2,0:2:0:0:
172,232,19618,1,0,0:0:0:0:
180,140,19794,5,2,0:0:0:0:
181,117,19882,1,0,0:0:0:0:
180,95,19970,1,0,0:0:0:0:
177,72,20058,1,0,0:0:0:0:
171,51,20147,1,2,0:2:0:0:
189,63,20235,1,0,0:0:0:0:
210,72,20323,1,0,0:0:0:0:
232,77,20411,1,0,0:0:0:0:
254,79,20499,1,2,0:0:0:0:
277,78,20588,1,0,0:0:0:0:
298,73,20676,1,0,0:0:0:0:
319,64,20764,1,0,0:0:0:0:
338,52,20852,1,2,0:2:0:0:
334,72,20941,1,0,0:0:0:0:
331,95,21029,1,0,0:0:0:0:
330,117,21117,1,0,0:0:0:0:
332,140,21205,5,0,0:0:0:0:
256,272,21382,1,2,0:2:0:0:
180,140,21559,1,2,0:2:0:0:
424,212,21735,1,2,0:2:0:0:
372,324,21911,1,2,0:2:0:0:
256,376,22088,1,2,0:2:0:0:
140,324,22264,1,2,0:2:0:0:
88,212,22441,1,2,0:2:0:0:
256,112,22618,5,4,0:1:0:0:
460,56,24029,6,0,P|456:108|476:200,1,135.000005149842
444,272,24559,2,0,P|376:264|300:316,1,135.000005149842,2|0,0:0|0:0,0:0:0:0:
256,356,25088,2,0,P|186:352|96:344,1,135.000005149842
24,96,26677,5,0,0:0:0:0:
84,160,26853,2,0,P|112:100|92:38,1,135.000005149842,0|2,0:0|0:0,0:0:0:0:
40,236,27382,1,0,0:0:0:0:
180,220,27559,2,0,P|260:208|340:204,1,135.000005149842,0|2,0:0|0:0,0:0:0:0:
488,32,28265,1,0,0:0:0:0:
112,120,29324,6,0,L|101:53,1,67.5000025749208,2|0,0:0|0:0,0:0:0:0:
49,185,29677,2,0,P|110:209|172:185,1,135.000005149842
318,98,30206,2,0,P|257:74|196:99,1,135.000005149842,2|0,0:0|0:0,0:0:0:0:
339,185,30735,2,0,P|401:209|463:185,1,135.000005149842
204,336,31971,5,0,0:0:0:0:
116,348,32147,2,0,L|104:264,1,67.5000025749208,2|0,0:0|0:0,0:0:0:0:
227,122,32500,2,0,P|216:187|256:240,1,135.000005149842
260,24,33206,2,0,P|176:44|100:44,1,135.000005149842
304,168,33912,1,0,0:0:0:0:
32,320,34971,5,0,0:0:0:0:
32,320,35324,2,0,L|24:185,1,135.000005149842
116,113,35853,2,0,L|124:248,1,135.000005149842,2|0,0:0|0:0,0:0:0:0:
256,352,36382,2,0,B|232:292|280:276|256:220,1,135.000005149842,2|0,0:0|0:0,0:0:0:0:
396,113,37088,1,0,0:0:0:0:
116,113,37971,5,0,0:0:0:0:
40,68,38147,2,0,P|35:143|16:228,1,135.000005149842,0|2,0:0|0:0,0:0:0:0:
256,156,38853,2,0,P|260:80|280:-4,1,135.000005149842,0|2,0:0|0:0,0:0:0:0:
156,264,39559,1,0,0:0:0:0:
408,264,40618,6,0,L|483:275,1,67.5000025749208,2|0,0:0|0:0,0:0:0:0:
350,192,40971,2,0,P|318:249|333:314,1,135.000005149842
162,192,41500,2,0,P|193:134|178:69,1,135.000005149842,2|0,0:0|0:0,0:0:0:0:
104,120,42029,1,2,0:0:0:0:
256,192,42382,12,0,44853,0:0:0:0:
321,321,45206,6,0,L|456:328,1,135.000005149842,0|2,3:0|0:0,0:0:0:0:
320,216,45735,2,0,P|244:216|184:236,1,135.000005149842
76,284,46265,2,0,L|79:216,1,67.5000025749208,2|0,0:0|0:0,0:0:0:0:
0,88,46618,6,0,P|76:88|136:68,1,135.000005149842,0|2,0:0|0:0,0:0:0:0:
204,20,47147,1,0,0:0:0:0:
308,112,47324,2,0,L|316:268,1,135.000005149842,0|2,0:0|0:0,0:0:0:0:
198,246,47853,1,0,0:0:0:0:
314,246,48029,6,0,P|382:234|462:238,1,135.000005149842,0|2,0:0|0:0,0:0:0:0:
428,134,48559,2,0,P|363:146|307:111,1,135.000005149842
380,60,49088,1,2,0:0:0:0:
468,56,49265,1,0,0:0:0:0:
500,192,49441,6,0,P|483:270|472:344,1,135.000005149842,0|2,0:0|0:0,0:0:0:0:
328,344,49971,1,0,0:0:0:0:
280,268,50147,2,0,P|344:260|436:256,1,135.000005149842,0|2,0:0|0:0,0:0:0:0:
474,324,50677,1,0,0:0:0:0:
328,344,50853,6,0,P|264:352|172:356,1,135.000005149842,0|2,0:0|0:0,0:0:0:0:
60,360,51382,2,0,P|24:304|40:236,1,135.000005149842
178,279,51912,2,0,P|145:282|112:288,1,67.5000025749208,2|0,0:0|0:0,0:0:0:0:
100,148,52265,6,0,B|148:148|148:148|166:100|224:92,1,135.000005149842,0|2,0:0|0:0,0:0:0:0:
411,147,52794,2,0,B|363:147|363:147|345:99|300:94,1,135.000005149842
256,192,53324,1,2,0:0:0:0:
256,192,53500,1,0,0:0:0:0:
300,290,53677,6,0,B|345:284|363:236|363:236|411:236,1,135.000005149842,0|2,0:0|0:0,0:0:0:0:
211,289,54206,2,0,B|166:284|148:236|148:236|100:236,1,135.000005149842
256,192,54735,2,0,L|256:120,1,67.5000025749208,2|0,0:0|0:0,0:0:0:0:
200,48,55088,6,0,L|52:64,1,135.000005149842,0|2,0:0|0:0,0:0:0:0:
4,124,55618,1,0,0:0:0:0:
144,192,55794,2,0,L|211:185,1,67.5000025749208
368,192,56147,2,0,L|300:185,1,67.5000025749208,2|0,0:0|0:0,0:0:0:0:
435,136,56500,6,0,P|452:200|423:260,1,135.000005149842,0|2,3:0|0:0,0:0:0:0:
300,185,57029,2,0,P|300:115|312:37,1,135.000005149842
384,0,57559,2,0,P|444:4|476:12,1,67.5000025749208,2|0,0:0|0:0,0:0:0:0:
435,136,57912,6,0,P|434:205|423:284,1,135.000005149842,0|2,0:0|0:0,0:0:0:0:
312,292,58441,1,0,0:0:0:0:
198,313,58618,2,0,P|124:308|48:300,1,135.000005149842,0|2,0:0|0:0,0:0:0:0:
152,104,59147,1,0,0:0:0:0:
240,116,59324,6,0,P|264:184|244:256,1,135.000005149842,0|2,0:0|0:0,0:0:0:0:
198,313,59853,2,0,P|174:245|194:173,1,135.000005149842
314,71,60382,2,0,L|381:65,1,67.5000025749208,2|0,0:0|0:0,0:0:0:0:
240,116,60735,6,0,L|98:105,1,135.000005149842,0|2,0:0|0:0,0:0:0:0:
32,56,61265,1,0,0:0:0:0:
0,188,61441,2,0,P|20:276|20:352,1,135.000005149842,0|2,0:0|0:0,0:0:0:0:
92,376,61971,1,0,0:0:0:0:
172,340,62147,6,0,P|248:328|320:336,1,135.000005149842,0|2,0:0|0:0,0:0:0:0:
256,192,62677,2,0,P|323:196|389:184,1,135.000005149842
472,152,63206,1,2,0:0:0:0:
504,235,63382,1,0,0:0:0:0:
375,319,63559,6,0,L|391:171,1,135.000005149842,0|2,0:0|0:0,0:0:0:0:
256,212,64088,2,0,L|256:64,1,135.000005149842
122,184,64618,1,2,0:0:0:0:
256,192,64971,12,0,66382,0:0:0:0:
56,96,67794,5,4,0:0:0:0:
56,96,68147,2,0,P|127:91|208:80,1,135.000005149842,0|2,0:0|0:0,0:0:0:0:
20,220,68853,1,0,0:0:0:0:
20,220,69029,2,0,P|91:215|172:204,1,135.000005149842,0|2,0:0|0:0,0:0:0:0:
256,144,69559,1,0,0:0:0:0:
256,144,69735,2,0,P|260:216|232:280,1,135.000005149842
79,336,70265,2,0,P|37:284|19:219,1,135.000005149842,2|0,0:1|0:0,0:0:0:0:
180,48,70971,6,0,P|240:24|312:36,1,135.000005149842,0|2,0:0|0:0,0:0:0:0:
416,120,71677,1,0,0:0:0:0:
416,120,71853,2,0,L|392:268,1,135.000005149842,0|2,0:0|0:0,0:0:0:0:
464,360,72382,1,0,0:0:0:0:
464,360,72559,2,0,L|485:226,1,135.000005149842
324,168,73088,2,0,B|248:196|272:144|184:176,1,135.000005149842,2|0,0:1|0:0,0:0:0:0:
24,364,73794,6,0,P|44:296|4:216,1,135.000005149842,0|2,0:0|0:0,0:0:0:0:
124,52,74500,1,0,0:0:0:0:
124,52,74677,2,0,P|108:116|108:192,1,135.000005149842,0|2,0:0|0:0,0:0:0:0:
256,204,75206,1,0,0:0:0:0:
256,204,75382,2,0,P|272:140|272:64,1,135.000005149842
107,184,75912,2,0,L|119:340,1,135.000005149842,2|0,0:1|0:0,0:0:0:0:
394,318,76618,6,0,L|405:184,1,135.000005149842,0|2,0:0|0:0,0:0:0:0:
284,75,77324,1,0,0:0:0:0:
284,75,77500,2,0,P|346:98|411:84,2,135.000005149842,0|2|0,0:0|0:0|0:0,0:0:0:0:
208,20,78382,2,0,L|140:26,1,67.5000025749208
269,235,78735,2,0,L|276:168,1,67.5000025749208,2|0,0:0|0:0,0:0:0:0:
373,80,79088,6,0,L|284:75,1,90
452,32,79441,2,0,L|464:140,1,90,8|0,0:2|0:0,0:0:0:0:
356,260,79794,2,0,L|365:170,1,90
437,340,80147,2,0,L|348:352,1,90,8|0,0:2|0:0,0:0:0:0:
74,340,80500,6,0,L|164:352,1,90
9,273,80853,2,0,L|0:184,1,90,8|0,0:2|0:0,0:0:0:0:
153,124,81206,2,0,P|108:123|64:116,1,90
219,192,81559,2,0,P|221:236|228:281,1,90,8|0,0:2|0:0,0:0:0:0:
243,104,81912,6,0,P|229:62|191:40,1,90
308,172,82265,2,0,P|352:164|397:163,1,90,8|0,0:2|0:0,0:0:0:0:
512,84,82618,2,0,P|467:83|422:75,1,90
488,172,82971,2,0,P|496:260|504:292,1,90,8|0,0:2|0:0,0:0:0:0:
308,172,83324,6,0,P|314:127|316:82,1,90
180,31,83677,2,0,P|181:76|188:121,1,90,8|0,0:2|0:0,0:0:0:0:
332,352,84029,2,0,P|330:307|323:262,1,90
204,212,84382,2,0,P|197:256|195:301,1,90,8|0,0:2|0:0,0:0:0:0:
308,172,84735,5,8,0:2:0:0:
228,124,84912,1,0,0:0:0:0:
204,212,85088,1,8,0:2:0:0:
284,260,85265,1,0,0:0:0:0:
228,124,85441,5,8,0:2:0:0:
148,76,85618,1,0,0:0:0:0:
124,164,85794,1,8,0:2:0:0:
204,212,85971,1,0,0:0:0:0:
308,172,86147,5,8,0:2:0:0:
388,124,86324,1,0,0:0:0:0:
364,36,86500,1,8,0:2:0:0:
284,84,86677,1,0,0:0:0:0:
228,300,86853,5,8,0:2:0:0:
204,212,87030,1,0,0:0:0:0:
124,260,87207,1,8,0:2:0:0:
148,348,87383,1,0,0:0:0:0:
364,348,87559,5,8,0:2:0:0:
369,326,87647,1,0,0:0:0:0:
375,304,87735,1,0,0:0:0:0:
381,282,87823,1,0,0:0:0:0:
387,261,87911,1,8,0:0:0:0:
384,228,88000,5,0,0:0:0:0:
360,204,88088,1,0,0:0:0:0:
328,192,88177,1,0,0:0:0:0:
296,200,88265,1,8,0:2:0:0:
272,220,88353,1,0,0:0:0:0:
256,248,88441,1,0,0:0:0:0:
240,276,88530,1,0,0:0:0:0:
216,296,88618,1,8,0:0:0:0:
184,304,88706,1,0,0:0:0:0:
153,292,88794,2,0,P|129:272|121:248,1,45
256,68,89147,5,2,0:2:0:0:
256,192,89323,1,2,0:2:0:0:
256,316,89500,1,2,0:2:0:0:
144,376,89677,5,2,0:0:0:0:
368,252,89854,1,2,0:2:0:0:
144,132,90029,1,2,0:0:0:0:
368,8,90206,1,2,0:0:0:0:
460,80,90382,6,0,P|456:144|464:196,1,90,4|0,0:0|0:0,0:0:0:0:
492,340,90735,1,8,0:0:0:0:
388,252,90912,1,0,0:0:0:0:
256,276,91088,2,0,P|180:288|132:292,1,90,2|0,0:2|0:0,0:0:0:0:
256,108,91441,2,0,P|332:96|380:92,1,90,8|2,0:0|0:2,0:0:0:0:
420,176,91794,5,0,0:0:0:0:
328,184,91971,1,2,0:2:0:0:
436,86,92147,1,8,0:0:0:0:
500,216,92324,2,0,P|492:268|488:324,1,90,2|0,0:2|0:0,0:0:0:0:
328,184,92677,1,0,0:0:0:0:
256,252,92853,2,0,P|224:192|256:120,1,135,10|0,0:0|0:0,0:0:0:0:
243,131,93206,6,0,P|308:108|368:84,1,90
256,252,93559,2,0,P|191:275|131:299,1,90,8|0,0:0|0:0,0:0:0:0:
0,96,93912,1,2,0:2:0:0:
68,32,94088,1,0,0:0:0:0:
88,124,94265,2,0,P|64:200|64:232,1,90,8|2,0:0|0:2,0:0:0:0:
195,369,94618,6,0,P|188:324|171:283,1,90,0|2,0:0|0:2,0:0:0:0:
108,348,94971,1,8,0:0:0:0:
256,276,95147,1,2,0:2:0:0:
256,108,95324,1,0,0:0:0:0:
404,36,95500,1,0,0:0:0:0:
324,196,95677,2,0,P|256:192|188:196,1,135,10|0,0:0|0:0,0:0:0:0:
189,195,96029,6,0,P|168:112|160:76,1,90
56,176,96382,1,8,0:0:0:0:
37,309,96559,1,0,0:0:0:0:
170,328,96735,2,0,P|216:317|268:316,1,90,2|0,0:2|0:0,0:0:0:0:
456,208,97088,1,8,0:0:0:0:
475,75,97265,1,2,0:2:0:0:
342,56,97441,6,0,P|295:66|244:68,1,90,0|2,0:0|0:2,0:0:0:0:
168,104,97794,1,8,0:0:0:0:
184,12,97971,1,2,0:2:0:0:
343,280,98147,2,0,P|344:235|356:192,1,90
156,191,98500,2,0,P|167:235|160:328,1,135,10|0,0:0|0:0,0:0:0:0:
161,324,98853,6,0,L|40:336,1,90
0,176,99206,2,0,P|16:112|16:72,1,90,8|0,0:0|0:0,0:0:0:0:
240,152,99559,1,2,0:2:0:0:
232,244,99736,1,0,0:0:0:0:
156,191,99912,1,8,0:0:0:0:
256,68,100088,6,0,P|328:76|384:80,1,90,2|0,0:2|0:0,0:0:0:0:
345,306,100441,2,0,P|300:310|256:316,1,90,2|0,0:2|0:0,0:0:0:0:
88,160,100794,1,2,0:2:0:0:
167,306,100971,1,2,0:2:0:0:
304,220,101147,1,0,0:0:0:0:
208,220,101324,1,0,0:0:0:0:
345,306,101500,1,2,0:0:0:0:
424,160,101677,6,0,P|416:96|416:40,1,90,4|0,0:0|0:0,0:0:0:0:
247,10,102029,2,0,P|253:55|256:100,1,90,8|0,0:0|0:0,0:0:0:0:
344,264,102382,2,0,P|424:252|456:252,1,90,2|0,0:2|0:0,0:0:0:0:
508,200,102735,1,8,0:0:0:0:
424,160,102912,1,2,0:2:0:0:
256,340,103088,5,0,0:0:0:0:
368,380,103265,1,2,0:2:0:0:
344,264,103441,1,8,0:0:0:0:
232,224,103618,2,0,P|152:232|112:232,1,90,2|0,0:2|0:0,0:0:0:0:
256,340,103971,1,0,0:0:0:0:
340,125,104147,2,0,P|278:104|220:135,1,135,10|0,0:0|0:0,0:0:0:0:
220,135,104500,6,0,P|225:200|237:244,1,90
340,125,104853,2,0,P|348:80|351:36,1,90,8|0,0:0|0:0,0:0:0:0:
172,259,105206,2,0,P|163:303|160:347,1,90,2|0,0:2|0:0,0:0:0:0:
292,249,105559,1,8,0:0:0:0:
132,144,105735,1,2,0:2:0:0:
8,288,105912,5,0,0:0:0:0:
200,208,106088,1,2,0:2:0:0:
189,309,106265,2,0,P|144:305|100:300,1,90,8|2,0:0|0:2,0:0:0:0:
20,196,106618,1,0,0:0:0:0:
203,107,106794,1,0,0:0:0:0:
189,309,106971,2,0,P|264:280|340:304,1,135,10|0,0:0|0:0,0:0:0:0:
315,289,107324,6,0,P|392:304|436:292,1,90
506,60,107677,1,8,0:0:0:0:
418,88,107853,1,0,0:0:0:0:
468,236,108029,2,0,P|480:192|490:148,1,90,2|0,0:2|0:0,0:0:0:0:
439,0,108382,1,8,0:0:0:0:
256,52,108559,1,2,0:2:0:0:
256,242,108735,6,0,L|256:350,1,90,0|2,0:0|0:2,0:0:0:0:
136,236,109088,2,0,P|136:160|124:120,1,90,8|2,0:0|0:2,0:0:0:0:
68,84,109441,1,0,0:0:0:0:
16,160,109618,1,0,0:0:0:0:
192,52,109794,2,0,P|256:68|324:52,1,135,10|0,0:0|0:0,0:0:0:0:
322,52,110147,6,0,L|440:68,1,90
375,235,110500,2,0,P|372:191|378:146,1,90,8|0,0:0|0:0,0:0:0:0:
468,136,110853,1,2,0:2:0:0:
411,64,111029,1,0,0:0:0:0:
256,192,111206,1,8,0:0:0:0:
411,320,111382,1,2,0:2:0:0:
468,248,111559,5,2,0:0:0:0:
375,235,111735,1,0,0:0:0:0:
339,143,111912,1,10,0:2:0:0:
432,156,112088,1,2,0:2:0:0:
256,312,112265,1,2,0:0:0:0:
80,156,112441,1,0,0:0:0:0:
209,51,112618,1,10,0:2:0:0:
116,64,112794,1,2,0:2:0:0:
173,143,112971,6,0,P|184:196|188:260,1,90,4|0,0:0|0:0,0:0:0:0:
324,231,113324,2,0,P|329:186|338:143,1,90,8|0,0:0|0:0,0:0:0:0:
256,72,113677,1,2,0:2:0:0:
256,72,113853,1,0,0:0:0:0:
256,192,114029,1,8,0:0:0:0:
484,132,114205,1,0,0:0:0:0:
399,100,114382,6,0,P|393:144|411:185,1,90,2|0,0:2|0:0,0:0:0:0:
256,384,114735,1,8,0:0:0:0:
256,292,114912,1,0,0:0:0:0:
336,335,115088,2,0,P|336:290|345:246,1,90,2|0,0:2|0:0,0:0:0:0:
176,49,115441,2,0,P|175:93|166:137,1,90,8|0,0:0|0:0,0:0:0:0:
4,216,115794,5,2,0:2:0:0:
152,320,115971,1,0,0:0:0:0:
96,200,116148,1,8,0:0:0:0:
20,308,116324,1,0,0:0:0:0:
152,320,116500,2,0,L|248:308,1,90,2|0,0:2|0:0,0:0:0:0:
126,140,116853,2,0,L|36:128,1,90,8|0,0:0|0:0,0:0:0:0:
204,10,117206,5,2,0:2:0:0:
100,36,117382,1,0,0:0:0:0:
126,140,117559,1,8,0:0:0:0:
334,88,117735,1,0,0:0:0:0:
204,10,117911,1,2,0:2:0:0:
126,140,118088,1,0,0:0:0:0:
256,218,118265,2,0,P|252:160|256:128,1,90,8|0,0:0|0:0,0:0:0:0:
480,192,118618,6,0,P|484:250|480:282,1,90,2|0,0:2|0:0,0:0:0:0:
256,218,118971,1,8,0:0:0:0:
356,116,119147,1,0,0:0:0:0:
480,192,119324,1,2,0:2:0:0:
380,296,119500,1,0,0:0:0:0:
356,116,119677,2,0,P|348:56|344:-4,1,90,8|0,0:0|0:0,0:0:0:0:
90,102,120029,6,0,P|135:98|180:92,1,90,2|0,0:2|0:0,0:0:0:0:
268,76,120382,1,8,0:0:0:0:
152,236,120559,1,0,0:0:0:0:
0,112,120735,2,0,P|4:52|16:8,1,90,2|0,0:2|0:0,0:0:0:0:
216,168,121088,1,8,0:0:0:0:
152,236,121265,1,0,0:0:0:0:
124,148,121441,6,0,P|111:104|107:60,1,90,2|0,0:2|0:0,0:0:0:0:
360,148,121794,1,8,0:0:0:0:
296,216,121971,1,0,0:0:0:0:
404,323,122147,2,0,P|400:279|388:236,1,90,2|0,0:2|0:0,0:0:0:0:
256,64,122500,2,0,L|360:52,1,90,8|0,0:0|0:0,0:0:0:0:
484,116,122853,5,2,0:2:0:0:
388,235,123029,1,2,0:2:0:0:
296,216,123206,1,8,0:0:0:0:
360,148,123382,1,2,0:2:0:0:
256,344,123559,1,2,0:2:0:0:
124,235,123735,1,8,0:0:0:0:
128,191,123824,1,0,0:0:0:0:
132,147,123912,1,2,0:2:0:0:
380,147,124088,1,8,0:0:0:0:
384,191,124176,1,0,0:0:0:0:
388,235,124265,6,0,P|438:229|500:228,1,90,4|0,0:0|0:0,0:0:0:0:
372,60,124618,2,0,P|321:65|260:67,1,90,8|0,0:0|0:0,0:0:0:0:
60,72,124971,1,2,0:2:0:0:
204,16,125147,1,0,0:0:0:0:
273,156,125324,2,0,P|274:111|281:66,1,90,8|0,0:0|0:0,0:0:0:0:
71,162,125677,6,0,P|78:207|80:252,1,90,2|0,0:2|0:0,0:0:0:0:
76,344,126029,1,8,0:0:0:0:
0,292,126206,1,0,0:0:0:0:
156,304,126382,2,0,L|280:312,1,90,2|0,0:2|0:0,0:0:0:0:
356,80,126735,2,0,L|266:85,1,90,8|0,0:0|0:0,0:0:0:0:
256,192,127088,5,2,0:2:0:0:
368,292,127265,1,0,0:0:0:0:
468,180,127441,1,8,0:0:0:0:
356,80,127618,1,0,0:0:0:0:
256,192,127794,1,2,0:2:0:0:
156,304,127971,1,0,0:0:0:0:
44,204,128148,1,8,0:0:0:0:
144,92,128324,1,0,0:0:0:0:
256,192,128500,6,0,P|320:248|348:268,1,90,2|0,0:2|0:0,0:0:0:0:
400,304,128853,1,8,0:0:0:0:
256,384,129029,1,0,0:0:0:0:
112,304,129206,2,0,P|104:256|112:212,1,90,2|0,0:2|0:0,0:0:0:0:
284,16,129559,2,0,P|292:64|284:108,1,90,8|0,0:0|0:0,0:0:0:0:
256,192,129912,6,0,P|212:176|172:144,1,90,2|0,0:2|0:0,0:0:0:0:
256,192,130265,2,0,P|300:208|340:240,1,90,8|0,0:2|0:0,0:0:0:0:
456,108,130618,2,0,P|380:124|336:124,1,90,2|0,0:2|0:0,0:0:0:0:
399,304,130971,2,0,P|443:292|488:287,1,90,8|0,0:2|0:0,0:0:0:0:
319,342,131324,6,0,P|311:298|323:255,1,90,2|0,0:2|0:0,0:0:0:0:
371,37,131677,2,0,P|378:80|367:124,1,90,8|0,0:2|0:0,0:0:0:0:
144,124,132029,2,0,P|133:80|141:37,1,90,2|0,0:2|0:0,0:0:0:0:
188,255,132382,2,0,P|200:298|192:342,1,90,8|0,0:2|0:0,0:0:0:0:
112,304,132735,5,8,0:0:0:0:
108,212,132912,1,0,0:0:0:0:
256,16,133088,1,8,0:0:0:0:
256,108,133265,1,0,0:0:0:0:
400,304,133441,1,8,0:0:0:0:
404,212,133618,1,0,0:0:0:0:
180,160,133794,1,8,0:0:0:0:
332,160,133971,1,0,0:0:0:0:
256,340,134853,6,0,P|181:331|88:348,1,135,2|0,0:2|0:0,0:0:0:0:
32,360,135206,2,0,P|24:288|8:236,1,90,2|2,0:2|0:2,0:0:0:0:
132,127,135559,6,0,P|152:87|164:44,1,90,4|0,0:0|0:0,0:0:0:0:
40,144,135912,1,8,0:0:0:0:
196,276,136088,1,0,0:0:0:0:
316,108,136265,1,2,0:2:0:0:
256,36,136441,1,0,0:0:0:0:
196,108,136618,1,8,0:0:0:0:
316,276,136794,1,2,0:2:0:0:
472,144,136971,6,0,P|488:88|488:40,1,90,0|2,0:0|0:2,0:0:0:0:
306,186,137324,2,0,L|316:276,1,90,8|2,0:0|0:2,0:0:0:0:
328,368,137677,1,0,0:0:0:0:
400,312,137853,1,0,0:0:0:0:
112,312,138029,2,0,P|100:244|108:176,1,135,10|0,0:0|0:0,0:0:0:0:
107,178,138382,6,0,P|130:139|131:94,1,90
40,112,138735,1,8,0:0:0:0:
12,300,138912,1,0,0:0:0:0:
200,328,139088,1,2,0:2:0:0:
228,140,139265,1,0,0:0:0:0:
52,210,139441,1,8,0:0:0:0:
200,328,139618,1,2,0:2:0:0:
168,244,139794,6,0,L|132:152,1,90,0|2,0:0|0:2,0:0:0:0:
256,24,140147,1,8,0:0:0:0:
376,160,140324,2,0,L|344:244,1,90,2|0,0:2|0:0,0:0:0:0:
256,116,140677,1,0,0:0:0:0:
359,32,140853,2,0,P|425:32|473:78,1,135,10|0,0:0|0:0,0:0:0:0:
473,78,141206,6,0,P|480:160|488:200,1,90
248,308,141559,2,0,P|292:309|337:315,1,90,8|0,0:0|0:0,0:0:0:0:
428,336,141912,1,2,0:2:0:0:
392,160,142088,1,0,0:0:0:0:
304,128,142265,1,8,0:0:0:0:
320,220,142441,1,2,0:2:0:0:
176,312,142618,5,0,0:0:0:0:
104,252,142794,1,2,0:2:0:0:
192,220,142971,1,8,0:0:0:0:
32,192,143147,2,0,P|16:264|12:296,1,90,2|0,0:2|0:0,0:0:0:0:
176,312,143500,1,0,0:0:0:0:
208,128,143677,2,0,P|164:80|72:100,1,135,10|0,0:0|0:0,0:0:0:0:
98,80,144029,6,0,P|53:79|8:71,1,90
208,128,144382,2,0,P|252:120|297:119,1,90,8|0,0:0|0:0,0:0:0:0:
464,92,144735,1,2,0:2:0:0:
308,28,144911,1,0,0:0:0:0:
444,180,145088,1,8,0:0:0:0:
244,221,145265,5,2,0:2:0:0:
280,304,145618,1,2,0:2:0:0:
363,268,145971,1,2,0:2:0:0:
327,185,146147,5,2,0:2:0:0:
172,166,146324,1,0,0:0:0:0:
153,321,146500,1,0,0:0:0:0:
308,340,146677,1,2,0:0:0:0:
363,268,146853,6,0,P|328:252|272:256,1,90,4|0,0:0|0:0,0:0:0:0:
149,116,147206,2,0,P|184:132|240:128,1,90,8|0,0:0|0:0,0:0:0:0:
204,44,147559,1,2,0:2:0:0:
44,192,147735,1,0,0:0:0:0:
204,340,147912,2,0,L|316:332,1,90,8|2,0:0|0:2,0:0:0:0:
477,127,148265,6,0,L|387:120,1,90,0|2,0:0|0:2,0:0:0:0:
388,264,148618,2,0,L|477:257,1,90,8|2,0:0|0:2,0:0:0:0:
256,192,148971,1,0,0:0:0:0:
387,120,149147,1,0,0:0:0:0:
256,44,149324,2,0,P|180:72|112:52,1,135,10|0,0:0|0:0,0:0:0:0:
129,61,149677,6,0,L|111:155,1,90
256,360,150029,2,0,B|240:316|256:272,1,90,8|0,0:0|0:0,0:0:0:0:
304,192,150382,1,2,0:2:0:0:
380,244,150559,1,0,0:0:0:0:
256,360,150735,1,8,0:0:0:0:
132,244,150912,1,2,0:2:0:0:
256,112,151088,6,0,P|340:104|384:96,1,90,0|2,0:0|0:2,0:0:0:0:
512,84,151441,1,8,0:0:0:0:
396,224,151618,1,2,0:2:0:0:
256,112,151794,1,0,0:0:0:0:
412,132,151971,1,0,0:0:0:0:
240,204,152147,2,0,P|160:208|104:220,1,135,10|0,0:0|0:0,0:0:0:0:
106,219,152500,6,0,P|76:128|140:84,1,180
372,156,153206,2,0,L|380:236|388:316,1,135.000005149842,2|0,0:0|0:0,0:0:0:0:
126,290,153735,2,0,L|132:236|140:156,2,135.000005149842,0|2|0,0:0|0:0|0:0,0:0:0:0:
256,192,154794,5,0,0:0:0:0:
176,88,154971,2,0,P|116:80|64:148,1,135.000005149842,2|0,0:0|0:0,0:0:0:0:
336,88,155677,2,0,P|396:80|448:148,1,135.000005149842,0|2,0:0|0:0,0:0:0:0:
385,290,156382,1,0,0:0:0:0:
385,290,156559,1,2,0:0:0:0:
256,192,156735,12,0,158147,0:0:0:0:
