osu file format v14

[General]
AudioFilename: audio.mp3
AudioLeadIn: 0
PreviewTime: 134324
Countdown: 0
SampleSet: Soft
StackLeniency: 0.6
Mode: 0
LetterboxInBreaks: 0
EpilepsyWarning: 1
WidescreenStoryboard: 1

[Editor]
DistanceSpacing: 1.2
BeatDivisor: 1
GridSize: 32
TimelineZoom: 1

[Metadata]
Title:Be Alright (feat. EMEL) (Cut Ver.)
TitleUnicode:Be Alright (feat. EMEL) (Cut Ver.)
Artist:Stonebank
ArtistUnicode:Stonebank
Creator:Nhawak
Version:Easy
Source:
Tags:english drum and bass dnb monstercat electronic cataclysm uncaged hard dance edm electro thekoala sylas iyasine plaudible frey asahina momoko m o k o r i alacat hokichi mune
BeatmapID:2405790
BeatmapSetID:1151309

[Difficulty]
HPDrainRate:2
CircleSize:3
OverallDifficulty:2
ApproachRate:3
SliderMultiplier:0.799999999999999
SliderTickRate:1

[Events]
//Background and Video events
0,0,"BG.jpg",0,0
//Break Periods
2,22818,43766
//Storyboard Layer 0 (Background)
//Storyboard Layer 1 (Fail)
//Storyboard Layer 2 (Pass)
//Storyboard Layer 3 (Foreground)
Sprite,Foreground,Centre,"sb\glow.png",0,0 F,0,29,,1 S,0,29,,1 M,0,30,74,135,411,260.5038,374.3466 M,0,74,118,260.5038,374.3466,255.9614,383.2197 M,0,118,162,255.9614,383.2197,250.4334,391.505 M,0,162,206,250.4334,391.505,243.993,399.0952 M,0,206,250,243.993,399.0952,236.7247,405.8922 M,0,250,294,236.7247,405.8922,228.8946,412.0526 M,0,294,338,228.8946,412.0526,220.1715,416.882 M,0,338,382,220.1715,416.882,210.9591,420.6731 M,0,382,427,210.9591,420.6731,201.378,423.378 M,0,427,471,201.378,423.378,191.5531,424.9625 M,0,471,515,191.5531,424.9625,181.6146,425.7452 M,0,515,559,181.6146,425.7452,171.6783,424.8846 M,0,559,603,171.6783,424.8846,161.9162,422.8893 M,0,603,647,161.9162,422.8893,152.4549,419.7868 M,0,647,691,152.4549,419.7868,143.4171,415.6187 M,0,691,735,143.4171,415.6187,135,411 M,16,735,30,135,411,264,365 M,30,735,1088,135,411,179,324 M,30,1088,1441,179,324,160,229 M,0,1441,1485,160,229,158.4113,219.127 M,0,1485,1529,158.4113,219.127,156.8225,209.254 M,0,1529,1573,156.8225,209.254,155.2337,199.381 M,0,1573,1617,155.2337,199.381,153.645,189.5081 M,0,1617,1661,153.645,189.5081,152.0562,179.6351 M,0,1661,1705,152.0562,179.6351,150.4675,169.7621 M,0,1705,1749,150.4675,169.7621,148.8787,159.8891 M,0,1749,1793,148.8787,159.8891,147.2899,150.0161 M,0,1793,1838,147.2899,150.0161,145.7012,140.1431 M,0,1838,1882,145.7012,140.1431,144.1124,130.2701 M,0,1882,1926,144.1124,130.2701,142.5237,120.3972 M,0,1926,1970,142.5237,120.3972,140.9349,110.5242 M,0,1970,2014,140.9349,110.5242,139.3462,100.6512 M,0,2014,2058,139.3462,100.6512,137.7574,90.7782 M,0,2058,2102,137.7574,90.7782,136.1687,80.90521 M,0,2102,2146,136.1687,80.90521,134.5799,71.03223 M,30,2146,2853,134.5799,71.03223,279,197 M,0,2853,2897,279,197,288.056,192.7824 M,0,2897,2941,288.056,192.7824,297.6329,189.9378 M,0,2941,2985,297.6329,189.9378,307.5252,188.5472 M,0,2985,3029,307.5252,188.5472,317.5102,188.7397 M,0,3029,3073,317.5102,188.7397,327.2979,190.7076 M,0,3073,3117,327.2979,190.7076,336.5119,194.5496 M,0,3117,3161,336.5119,194.5496,344.9049,199.9674 M,0,3161,3205,344.9049,199.9674,352.6901,206.2416 M,0,3205,3250,352.6901,206.2416,360.5218,212.4564 M,0,3250,3294,360.5218,212.4564,368.9966,217.745 M,0,3294,3338,368.9966,217.745,378.2476,221.5027 M,0,3338,3382,378.2476,221.5027,388.027,223.5263 M,0,3382,3426,388.027,223.5263,398.0082,223.9145 M,0,3426,3470,398.0082,223.9145,407.9363,222.805 M,0,3470,3514,407.9363,222.805,417.5906,220.2401 M,0,3514,3558,417.5906,220.2401,426.7065,216.163 M,30,3558,3912,426.7065,216.163,481,136 M,30,3912,4265,481,136,520,230 M,0,4265,4309,520,230,529.3803,233.3993 M,0,4309,4353,529.3803,233.3993,538.2963,237.8522 M,0,4353,4397,538.2963,237.8522,546.633,243.2996 M,0,4397,4441,546.633,243.2996,554.2828,249.6697 M,0,4441,4485,554.2828,249.6697,561.2941,256.7383 M,0,4485,4529,561.2941,256.7383,567.1357,264.8134 M,0,4529,4573,567.1357,264.8134,572.0035,273.5015 M,0,4573,4617,572.0035,273.5015,575.8352,282.6895 M,0,4617,4662,575.8352,282.6895,578.7856,292.1993 M,0,4662,4706,578.7856,292.1993,580.2252,302.0618 M,0,4706,4750,580.2252,302.0618,580.5176,312.0166 M,0,4750,4794,580.5176,312.0166,579.6603,321.9347 M,0,4794,4838,579.6603,321.9347,577.8808,331.7324 M,0,4838,4882,577.8808,331.7324,574.5908,341.1411 M,0,4882,4926,574.5908,341.1411,570.2412,350.1006 M,0,4926,4970,570.2412,350.1006,565.1887,358.7123 M,30,4970,5677,565.1887,358.7123,377,399 M,0,5677,5721,377,399,367.1559,397.2572 M,0,5721,5765,367.1559,397.2572,357.5073,394.6449 M,0,5765,5809,357.5073,394.6449,348.1916,391.0249 M,0,5809,5853,348.1916,391.0249,339.3983,386.2784 M,0,5853,5897,339.3983,386.2784,331.3597,380.3457 M,0,5897,5941,331.3597,380.3457,324.3097,373.2677 M,0,5941,5985,324.3097,373.2677,318.4173,365.1997 M,0,5985,6029,318.4173,365.1997,314.0204,365.7577 M,0,6029,6074,314.0204,365.7577,309.7165,374.7818 M,0,6074,6118,309.7165,374.7818,304.7411,383.4529 M,0,6118,6162,304.7411,383.4529,299.0308,391.6574 M,0,6162,6206,299.0308,391.6574,292.5342,399.2531 M,0,6206,6250,292.5342,399.2531,285.2314,406.076 M,0,6250,6294,285.2314,406.076,277.157,411.9641 M,0,6294,6338,277.157,411.9641,268.4053,416.7874 M,0,6338,6382,268.4053,416.7874,259.1176,420.4756 M,30,6382,6735,259.1176,420.4756,232,329 M,30,6735,7088,232,329,136,317 M,0,7088,7132,136,317,137.7428,307.1559 M,0,7132,7176,137.7428,307.1559,140.3551,297.5073 M,0,7176,7220,140.3551,297.5073,143.9751,288.1916 M,0,7220,7264,143.9751,288.1916,148.7216,279.3984 M,0,7264,7308,148.7216,279.3984,154.6543,271.3597 M,0,7308,7352,154.6543,271.3597,161.7323,264.3097 M,0,7352,7396,161.7323,264.3097,169.8002,258.4174 M,0,7396,7440,169.8002,258.4174,169.2423,254.0204 M,0,7440,7485,169.2423,254.0204,160.2182,249.7165 M,0,7485,7529,160.2182,249.7165,151.5471,244.7411 M,0,7529,7573,151.5471,244.7411,143.3426,239.0308 M,0,7573,7617,143.3426,239.0308,135.7469,232.5342 M,0,7617,7661,135.7469,232.5342,128.924,225.2314 M,0,7661,7705,128.924,225.2314,123.036,217.157 M,0,7705,7749,123.036,217.157,118.2126,208.4053 M,0,7749,7793,118.2126,208.4053,114.5244,199.1176 M,30,7793,8500,114.5244,199.1176,293,127 M,0,8500,8544,293,127,296.4468,117.6366 M,0,8544,8588,296.4468,117.6366,300.933,108.7364 M,0,8588,8632,300.933,108.7364,306.4,100.4114 M,0,8632,8676,306.4,100.4114,312.7778,92.76644 M,0,8676,8720,312.7778,92.76644,319.8517,85.76039 M,0,8720,8764,319.8517,85.76039,327.9156,79.90275 M,0,8764,8808,327.9156,79.90275,336.5882,75.00565 M,0,8808,8852,336.5882,75.00565,345.7589,71.13024 M,0,8852,8897,345.7589,71.13024,355.2558,68.14067 M,0,8897,8941,355.2558,68.14067,365.107,66.62629 M,0,8941,8985,365.107,66.62629,375.0594,66.24452 M,0,8985,9029,375.0594,66.24452,384.9867,66.99916 M,0,9029,9073,384.9867,66.99916,394.7985,68.68976 M,0,9073,9117,394.7985,68.68976,404.2496,71.85493 M,0,9117,9161,404.2496,71.85493,413.2718,76.07329 M,0,9161,9205,413.2718,76.07329,421.968,80.97988 M,30,9205,9558,421.968,80.97988,378,167 M,30,9558,9912,378,167,472,150 M,0,9912,9956,472,150,476.2176,159.056 M,0,9956,10000,476.2176,159.056,479.0621,168.6329 M,0,10000,10044,479.0621,168.6329,480.4528,178.5252 M,0,10044,10088,480.4528,178.5252,480.2604,188.5102 M,0,10088,10132,480.2604,188.5102,478.2924,198.2979 M,0,10132,10176,478.2924,198.2979,474.4504,207.5119 M,0,10176,10220,474.4504,207.5119,469.0326,215.9049 M,0,10220,10264,469.0326,215.9049,462.7584,223.6901 M,0,10264,10309,462.7584,223.6901,456.5436,231.5218 M,0,10309,10353,456.5436,231.5218,451.255,239.9966 M,0,10353,10397,451.255,239.9966,447.4973,249.2476 M,0,10397,10441,447.4973,249.2476,445.4737,259.027 M,0,10441,10485,445.4737,259.027,445.0855,269.0083 M,0,10485,10529,445.0855,269.0083,446.1951,278.9364 M,0,10529,10573,446.1951,278.9364,448.7599,288.5906 M,0,10573,10617,448.7599,288.5906,452.8371,297.7065 M,30,10617,10971,452.8371,297.7065,524,361 F,15,10971,11324,1,0 S,15,10971,11324,1,0.2
Sprite,Foreground,Centre,"sb\glow.png",0,0 M,30,10971,11324,524,361,434,395 C,0,10971,11324,255,179,142,255,255,125 F,0,11147,,1 S,0,11147,,1 M,0,11324,11368,434,395,424.1649,393.2043 M,0,11368,11412,424.1649,393.2043,414.5041,390.6339 M,0,11412,11456,414.5041,390.6339,405.124,387.1797 M,0,11456,11500,405.124,387.1797,396.1676,382.7442 M,0,11500,11544,396.1676,382.7442,387.812,377.2626 M,0,11544,11588,387.812,377.2626,380.246,370.7355 M,0,11588,11632,380.246,370.7355,373.6365,363.2415 M,0,11632,11676,373.6365,363.2415,368.0842,354.9331 M,0,11676,11721,368.0842,354.9331,363.9477,360.1593 M,0,11721,11765,363.9477,360.1593,359.5253,369.1262 M,0,11765,11809,359.5253,369.1262,354.483,377.7591 M,0,11809,11853,354.483,377.7591,348.769,385.962 M,0,11853,11897,348.769,385.962,342.3373,393.6142 M,0,11897,11941,342.3373,393.6142,335.1761,400.5872 M,0,11941,11985,335.1761,400.5872,327.3013,406.7421 M,0,11985,12029,327.3013,406.7421,318.7808,411.9659 M,0,12029,12073,318.7808,411.9659,309.7182,416.1799 M,0,12073,12118,309.7182,416.1799,300.2418,419.3576 M,0,12118,12162,300.2418,419.3576,290.4849,421.5291 M,0,12162,12206,290.4849,421.5291,280.5648,422.7623 M,0,12206,12250,280.5648,422.7623,270.5748,423.1454 M,0,12250,12294,270.5748,423.1454,260.5838,422.7751 M,0,12294,12338,260.5838,422.7751,250.6385,421.7464 M,0,12338,12382,250.6385,421.7464,240.7685,420.1472 M,30,12382,12735,240.7685,420.1472,173,351 C,0,12382,12735,255,255,125 M,0,12735,12779,173,351,167.6346,342.5908 M,0,12779,12823,167.6346,342.5908,163.338,333.6022 M,0,12823,12867,163.338,333.6022,160.1706,324.1655 M,0,12867,12911,160.1706,324.1655,158.1771,314.4182 M,0,12911,12955,158.1771,314.4182,157.092,304.5175 M,0,12955,12999,157.092,304.5175,157.7047,294.5696 M,0,12999,13043,157.7047,294.5696,159.5221,284.7802 M,0,13043,13087,159.5221,284.7802,162.5164,275.291 M,30,13087,13441,162.5164,275.291,210,191 C,0,13087,13441,255,255,125 M,0,13441,13485,210,191,218.4092,185.6346 M,0,13485,13529,218.4092,185.6346,227.3978,181.338 M,0,13529,13573,227.3978,181.338,236.8345,178.1706 M,0,13573,13617,236.8345,178.1706,246.5818,176.1771 M,0,13617,13661,246.5818,176.1771,256.4825,175.092 M,0,13661,13705,256.4825,175.092,266.4304,175.7047 M,0,13705,13749,266.4304,175.7047,276.2198,177.5221 M,0,13749,13793,276.2198,177.5221,285.709,180.5164 M,30,13793,14147,285.709,180.5164,352,249 C,0,13793,14147,255,255,125,111,255,255 M,0,14147,14191,352,249,361.0331,244.7276 M,0,14191,14235,361.0331,244.7276,370.5192,241.5822 M,0,14235,14279,370.5192,241.5822,380.2888,239.4714 M,0,14279,14323,380.2888,239.4714,390.2228,238.3633 M,0,14323,14367,390.2228,238.3633,400.2178,238.2667 M,0,14367,14411,400.2178,238.2667,410.167,239.2195 M,0,14411,14455,410.167,239.2195,419.9479,241.2722 M,0,14455,14499,419.9479,241.2722,429.4144,244.4749 M,0,14499,14544,429.4144,244.4749,438.4225,248.8028 M,0,14544,14588,438.4225,248.8028,446.8921,254.1105 M,0,14588,14632,446.8921,254.1105,454.8722,260.1334 M,0,14632,14676,454.8722,260.1334,462.5661,266.5209 M,0,14676,14720,462.5661,266.5209,470.2822,272.8811 M,0,14720,14764,470.2822,272.8811,478.3279,278.8153 M,0,14764,14808,478.3279,278.8153,486.8995,283.9551 M,0,14808,14852,486.8995,283.9551,496.0345,288.0056 M,0,14852,14896,496.0345,288.0056,505.6189,290.832 M,0,14896,14941,505.6189,290.832,515.4856,292.4175 M,0,14941,14985,515.4856,292.4175,525.4713,292.8283 M,0,14985,15029,525.4713,292.8283,535.4438,292.1586 M,0,15029,15073,535.4438,292.1586,545.2974,290.4804 M,0,15073,15117,545.2974,290.4804,554.9421,287.8553 M,0,15117,15161,554.9421,287.8553,564.2871,284.3087 M,0,15161,15205,564.2871,284.3087,573,280 M,30,15205,15559,573,280,530,193 C,0,15205,15559,111,255,255 M,0,15559,15603,530,193,531.2825,183.0826 M,0,15603,15647,531.2825,183.0826,532.5648,173.1651 M,0,15647,15691,532.5648,173.1651,533.8473,163.2477 M,0,15691,15735,533.8473,163.2477,535.1297,153.3303 M,0,15735,15779,535.1297,153.3303,536.4121,143.4129 M,0,15779,15823,536.4121,143.4129,537.6946,133.4954 M,0,15823,15867,537.6946,133.4954,538.977,123.578 M,0,15867,15911,538.977,123.578,540.2594,113.6606 M,0,15911,15956,540.2594,113.6606,538.977,123.578 M,0,15956,16000,538.977,123.578,537.6946,133.4954 M,0,16000,16044,537.6946,133.4954,536.4121,143.4129 M,0,16044,16088,536.4121,143.4129,535.1297,153.3303 M,0,16088,16132,535.1297,153.3303,533.8473,163.2477 M,0,16132,16176,533.8473,163.2477,532.5648,173.1651 M,0,16176,16220,532.5648,173.1651,531.2825,183.0826 M,0,16220,16264,531.2825,183.0826,530,193 M,30,16264,16618,530,193,447,143 C,0,16264,16618,111,255,255 M,30,16618,16971,447,143,435,238 C,0,16618,16971,111,255,255,255,125,125 M,0,16971,17015,435,238,433.1243,247.8085 M,0,17015,17059,433.1243,247.8085,433.0882,257.7939 M,0,17059,17103,433.0882,257.7939,434.856,267.6236 M,0,17103,17147,434.856,267.6236,438.1897,277.0416 M,0,17147,17191,438.1897,277.0416,442.7724,285.9227 M,0,17191,17235,442.7724,285.9227,448.3089,294.2452 M,0,17235,17279,448.3089,294.2452,454.5659,302.0424 M,0,17279,17323,454.5659,302.0424,461.3709,309.3676 M,0,17323,17368,461.3709,309.3676,453.4744,313.2016 M,0,17368,17412,453.4744,313.2016,443.9237,316.159 M,0,17412,17456,443.9237,316.159,434.1802,318.3971 M,0,17456,17500,434.1802,318.3971,424.2748,319.738 M,0,17500,17544,424.2748,319.738,414.2838,319.9641 M,0,17544,17588,414.2838,319.9641,404.3567,318.8368 M,0,17588,17632,404.3567,318.8368,394.7358,316.1534 M,0,17632,17676,394.7358,316.1534,385.7395,312.1772 M,0,17676,17721,385.7395,312.1772,377.9623,318.4457 M,0,17721,17765,377.9623,318.4457,371.4073,325.9781 M,0,17765,17809,371.4073,325.9781,366.4307,334.6331 M,0,17809,17853,366.4307,334.6331,363.2018,344.0823 M,0,17853,17897,363.2018,344.0823,361.6396,353.949 M,0,17897,17941,361.6396,353.949,361.5025,363.9411 M,0,17941,17985,361.5025,363.9411,362.5143,373.8854 M,0,17985,18029,362.5143,373.8854,364.4335,383.6967 M,0,18029,18073,364.4335,383.6967,359.9033,380.3271 M,0,18073,18118,359.9033,380.3271,352.5442,373.5647 M,0,18118,18162,352.5442,373.5647,344.3911,367.7879 M,0,18162,18206,344.3911,367.7879,335.4901,363.2517 M,0,18206,18250,335.4901,363.2517,325.9889,360.1674 M,0,18250,18294,325.9889,360.1674,316.1184,358.6285 M,0,18294,18338,316.1184,358.6285,306.127,358.5793 M,0,18338,18382,306.127,358.5793,296.2146,359.8521 M,0,18382,18426,296.2146,359.8521,292.1256,356.4786 M,0,18426,18471,292.1256,356.4786,293.776,346.6212 M,0,18471,18515,293.776,346.6212,294.1618,336.637 M,0,18515,18559,294.1618,336.637,293.0081,326.7156 M,0,18559,18603,293.0081,326.7156,290.1185,317.1573 M,0,18603,18647,290.1185,317.1573,285.4922,308.3082 M,0,18647,18691,285.4922,308.3082,279.3546,300.4287 M,0,18691,18735,279.3546,300.4287,272.0528,293.6089 M,0,18735,18779,272.0528,293.6089,264.9068,297.3539 M,0,18779,18823,264.9068,297.3539,257.2791,303.8093 M,0,18823,18868,257.2791,303.8093,248.8178,309.1214 M,0,18868,18912,248.8178,309.1214,239.6348,313.0529 M,0,18912,18956,239.6348,313.0529,229.941,315.4654 M,0,18956,19000,229.941,315.4654,219.9909,316.3682 M,0,19000,19044,219.9909,316.3682,210.0087,315.8992 M,0,19044,19088,210.0087,315.8992,200.1489,314.2602 M,0,19088,19132,200.1489,314.2602,195.7152,322.1831 M,0,19132,19176,195.7152,322.1831,190.8709,330.9218 M,0,19176,19221,190.8709,330.9218,184.7765,338.8371 M,0,19221,19265,184.7765,338.8371,177.4905,345.6702 M,0,19265,19309,177.4905,345.6702,169.2021,351.2466 M,0,19309,19353,169.2021,351.2466,160.174,355.5277 M,0,19353,19397,160.174,355.5277,150.6625,358.5954 M,0,19397,19441,150.6625,358.5954,140.8691,360.5963 M,30,19441,19794,140.8691,360.5963,120,266 C,0,19441,19794,255,125,125 M,0,19794,19838,120,266,119.0706,256.0489 M,0,19838,19882,119.0706,256.0489,119.4191,246.0633 M,0,19882,19926,119.4191,246.0633,121.2929,236.2523 M,0,19926,19970,121.2929,236.2523,124.8469,226.9201 M,0,19970,20014,124.8469,226.9201,130.044,218.3929 M,0,20014,20058,130.044,218.3929,136.6451,210.8965 M,0,20058,20102,136.6451,210.8965,144.3146,204.4923 M,0,20102,20146,144.3146,204.4923,137.2959,199.0675 M,0,20146,20191,137.2959,199.0675,129.8113,192.4538 M,0,20191,20235,129.8113,192.4538,123.572,184.6563 M,0,20235,20279,123.572,184.6563,118.8477,175.8597 M,0,20279,20323,118.8477,175.8597,115.8911,166.3236 M,0,20323,20367,115.8911,166.3236,114.8603,156.394 M,0,20367,20411,114.8603,156.394,115.7887,146.4538 M,0,20411,20455,115.7887,146.4538,118.6107,136.8765 M,0,20455,20499,118.6107,136.8765,123.1498,127.9824 M,0,20499,20544,123.1498,127.9824,129.1947,120.0328 M,0,20544,20588,129.1947,120.0328,136.5178,113.2412 M,0,20588,20632,136.5178,113.2412,144.8707,107.7652 M,0,20632,20676,144.8707,107.7652,154.0088,103.7333 M,0,20676,20720,154.0088,103.7333,163.6803,101.2386 M,0,20720,20764,163.6803,101.2386,173.6277,100.3333 M,0,20764,20808,173.6277,100.3333,183.592,101.0298 M,0,20808,20852,183.592,101.0298,193.323,103.2849 F,15,20853,21206,1,0 S,15,20853,21206,1,0.2
Sprite,Foreground,Centre,"sb\glow.png",0,0 M,0,21206,,320,248 C,0,21206,,255,125,125 F,15,21206,21470,1,0 S,15,21206,21470,1,0.2 P,0,21206,21470,A
Sprite,Foreground,Centre,"sb\c.png",223,85 C,0,114382,,255,255,125 F,0,114382,114482,0,1 S,19,114382,115087,0.2,0.3 P,0,114382,115087,A F,16,114482,115087,1,0
Sprite,Foreground,Centre,"sb\c.png",521,92 C,0,115794,,255,255,125 F,0,115794,115894,0,1 S,19,115794,116499,0.2,0.3 P,0,115794,116499,A F,16,115894,116499,1,0
Sprite,Foreground,Centre,"sb\c.png",465,238 C,0,116500,,255,255,125 F,0,116500,116600,0,1 S,19,116500,117205,0.2,0.3 P,0,116500,117205,A F,16,116600,117205,1,0
Sprite,Foreground,Centre,"sb\c.png",576,324 C,0,117206,,255,255,125 F,0,117206,117306,0,1 S,19,117206,117911,0.2,0.3 P,0,117206,117911,A F,16,117306,117911,1,0
Sprite,Foreground,Centre,"sb\c.png",324,305 C,0,118618,,111,255,255 F,0,118618,118718,0,1 S,19,118618,119323,0.2,0.3 P,0,118618,119323,A F,16,118718,119323,1,0
Sprite,Foreground,Centre,"sb\c.png",285,392 C,0,118971,,111,255,255 F,0,118971,119071,0,1 S,19,118971,119676,0.2,0.3 P,0,118971,119676,A F,16,119071,119676,1,0
Sprite,Foreground,Centre,"sb\c.png",197,351 C,0,119324,,111,255,255 F,0,119324,119424,0,1 S,19,119324,120029,0.2,0.3 P,0,119324,120029,A F,16,119424,120029,1,0
Sprite,Foreground,Centre,"sb\c.png",74,282 C,0,120029,,111,255,255 F,0,120029,120129,0,1 S,19,120029,120734,0.2,0.3 P,0,120029,120734,A F,16,120129,120734,1,0
Sprite,Foreground,Centre,"sb\c.png",315,123 C,0,123206,,111,255,255 F,0,123206,123306,0,1 S,19,123206,123911,0.2,0.3 P,0,123206,123911,A F,16,123306,123911,1,0
Sprite,Foreground,Centre,"sb\c.png",379,194 C,0,124265,,255,125,125 F,0,124265,124365,0,1 S,19,124265,124970,0.2,0.3 P,0,124265,124970,A F,16,124365,124970,1,0
Sprite,Foreground,Centre,"sb\c.png",551,155 C,0,124971,,255,125,125 F,0,124971,125071,0,1 S,19,124971,125676,0.2,0.3 P,0,124971,125676,A F,16,125071,125676,1,0
Sprite,Foreground,Centre,"sb\c.png",549,328 C,0,125677,,255,125,125 F,0,125677,125777,0,1 S,19,125677,126382,0.2,0.3 P,0,125677,126382,A F,16,125777,126382,1,0
Sprite,Foreground,Centre,"sb\c.png",288,371 C,0,127088,,255,179,142 F,0,127088,127188,0,1 S,19,127088,127793,0.2,0.3 P,0,127088,127793,A F,16,127188,127793,1,0
Sprite,Foreground,Centre,"sb\c.png",325,282 C,0,127441,,255,179,142 F,0,127441,127541,0,1 S,19,127441,128146,0.2,0.3 P,0,127441,128146,A F,16,127541,128146,1,0
Sprite,Foreground,Centre,"sb\c.png",272,201 C,0,127794,,255,179,142 F,0,127794,127894,0,1 S,19,127794,128499,0.2,0.3 P,0,127794,128499,A F,16,127894,128499,1,0
Sprite,Foreground,Centre,"sb\c.png",112,240 C,0,128500,,255,179,142 F,0,128500,128600,0,1 S,19,128500,129205,0.2,0.3 P,0,128500,129205,A F,16,128600,129205,1,0
Sprite,Foreground,Centre,"sb\c.png",320,248 C,0,129912,,255,179,142 F,0,129912,130012,0,1 S,19,129912,130617,0.2,0.3 P,0,129912,130617,A F,16,130012,130617,1,0
Sprite,Foreground,Centre,"sb\hl.png",0,0 M,0,152853,,438,361 C,0,152853,,255,125,125 F,0,152853,152941,0,1 S,0,152853,154264,0.25,0.5 P,0,152853,154264,A F,0,152941,154264,1,0 M,0,154441,,456,118 C,0,154441,,255,125,125 F,0,154441,154529,0,1 S,0,154441,155852,0.25,0.5 P,0,154441,155852,A F,0,154529,155852,1,0 M,0,156029,,255,250 C,0,156029,,255,179,142 F,0,156029,156117,0,1 S,0,156029,157440,0.25,0.5 P,0,156029,157440,A F,0,156117,157440,1,0
Sprite,Foreground,Centre,"sb\hl.png",0,0 M,0,153206,,438,361 C,0,153206,,255,125,125 F,0,153206,153294,0,1 S,0,153206,154617,0.25,0.5 P,0,153206,154617,A F,0,153294,154617,1,0 M,0,154676,,416.4599,83.75834 C,0,154676,,255,125,125 F,0,154676,154764,0,1 S,0,154676,156088,0.25,0.5 P,0,154676,156088,A F,0,154764,156088,1,0 M,0,156146,,257.6414,276.3793 C,0,156146,,255,179,142 F,0,156146,156234,0,1 S,0,156146,157558,0.25,0.5 P,0,156146,157558,A F,0,156234,157558,1,0
Sprite,Foreground,Centre,"sb\hl.png",0,0 M,0,153735,,355,248 C,0,153735,,255,125,125 F,0,153735,153823,0,1 S,0,153735,155146,0.25,0.5 P,0,153735,155146,A F,0,153823,155146,1,0 M,0,155677,,255,250 C,0,155677,,255,179,142 F,0,155677,155765,0,1 S,0,155677,157088,0.25,0.5 P,0,155677,157088,A F,0,155765,157088,1,0
Sprite,Foreground,Centre,"sb\hl.png",0,0 M,0,153735,,355,248 C,0,153735,,255,125,125 F,0,153735,153823,0,1 S,0,153735,155146,0.25,0.5 P,0,153735,155146,A F,0,153823,155146,1,0 M,0,156029,,255,250 C,0,156029,,255,179,142 F,0,156029,156117,0,1 S,0,156029,157440,0.25,0.5 P,0,156029,157440,A F,0,156117,157440,1,0
Sprite,Foreground,Centre,"sb\hl.png",0,0 M,0,153793,,355.0383,234.6891 C,0,153793,,255,125,125 F,0,153793,153882,0,1 S,0,153793,155205,0.25,0.5 P,0,153793,155205,A F,0,153882,155205,1,0 M,0,156087,,255.1093,263.3059 C,0,156087,,255,179,142 F,0,156087,156176,0,1 S,0,156087,157499,0.25,0.5 P,0,156087,157499,A F,0,156176,157499,1,0
Sprite,Foreground,Centre,"sb\hl.png",0,0 M,0,153852,,356.2437,221.4401 C,0,153852,,255,125,125 F,0,153852,153940,0,1 S,0,153852,155264,0.25,0.5 P,0,153852,155264,A F,0,153940,155264,1,0 M,0,156205,,262.5477,288.7493 C,0,156205,,255,179,142 F,0,156205,156293,0,1 S,0,156205,157617,0.25,0.5 P,0,156205,157617,A F,0,156293,157617,1,0
Sprite,Foreground,Centre,"sb\hl.png",0,0 M,0,153911,,359.1586,208.456 C,0,153911,,255,125,125 F,0,153911,153999,0,1 S,0,153911,155323,0.25,0.5 P,0,153911,155323,A F,0,153999,155323,1,0 M,0,156264,,270.1852,299.6434 C,0,156264,,255,179,142 F,0,156264,156352,0,1 S,0,156264,157676,0.25,0.5 P,0,156264,157676,A F,0,156352,157676,1,0
Sprite,Foreground,Centre,"sb\hl.png",0,0 M,0,153970,,363.3622,195.8445 C,0,153970,,255,125,125 F,0,153970,154058,0,1 S,0,153970,155382,0.25,0.5 P,0,153970,155382,A F,0,154058,155382,1,0 M,0,156323,,278.6336,309.9473 C,0,156323,,255,179,142 F,0,156323,156411,0,1 S,0,156323,157734,0.25,0.5 P,0,156323,157734,A F,0,156411,157734,1,0
Sprite,Foreground,Centre,"sb\hl.png",0,0 M,0,154029,,368.9109,183.7517 C,0,154029,,255,125,125 F,0,154029,154117,0,1 S,0,154029,155440,0.25,0.5 P,0,154029,155440,A F,0,154117,155440,1,0 M,0,156381,,284.6855,321.7871 C,0,156381,,255,179,142 F,0,156381,156470,0,1 S,0,156381,157793,0.25,0.5 P,0,156381,157793,A F,0,156470,157793,1,0
Sprite,Foreground,Centre,"sb\hl.png",0,0 M,0,154441,,456,118 C,0,154441,,255,125,125 F,0,154441,154529,0,1 S,0,154441,155852,0.25,0.5 P,0,154441,155852,A F,0,154529,155852,1,0 M,0,156440,,288.0824,334.6613 C,0,156440,,255,179,142 F,0,156440,156529,0,1 S,0,156440,157852,0.25,0.5 P,0,156440,157852,A F,0,156529,157852,1,0
Sprite,Foreground,Centre,"sb\hl.png",0,0 M,0,154499,,448.111,107.3071 C,0,154499,,255,125,125 F,0,154499,154588,0,1 S,0,154499,155911,0.25,0.5 P,0,154499,155911,A F,0,154588,155911,1,0 M,0,156499,,289.4512,347.9127 C,0,156499,,255,179,142 F,0,156499,156587,0,1 S,0,156499,157911,0.25,0.5 P,0,156499,157911,A F,0,156587,157911,1,0
Sprite,Foreground,Centre,"sb\hl.png",0,0 M,0,154558,,438.9649,97.68687 C,0,154558,,255,125,125 F,0,154558,154646,0,1 S,0,154558,155970,0.25,0.5 P,0,154558,155970,A F,0,154646,155970,1,0 M,0,156735,,320,248 C,0,156735,,255,179,142 F,0,156735,156823,0,1 S,0,156735,159558,0.25,0.5 P,0,156735,159558,A F,0,158147,159558,1,0
Sprite,Foreground,Centre,"sb\hl.png",0,0 M,0,154617,,428.199,89.91039 C,0,154617,,255,125,125 F,0,154617,154705,0,1 S,0,154617,156029,0.25,0.5 P,0,154617,156029,A F,0,154705,156029,1,0
Sprite,Foreground,Centre,"sb\hl.png",0,0 M,0,154735,,403.8944,79.46999 C,0,154735,,255,125,125 F,0,154735,154823,0,1 S,0,154735,156146,0.25,0.5 P,0,154735,156146,A F,0,154823,156146,1,0
Sprite,Foreground,Centre,"sb\hl.png",0,0 M,0,154793,,390.7467,77.59113 C,0,154793,,255,125,125 F,0,154793,154882,0,1 S,0,154793,156205,0.25,0.5 P,0,154793,156205,A F,0,154882,156205,1,0
Sprite,Foreground,Centre,"sb\hl.png",0,0 M,0,154852,,377.492,77.57847 C,0,154852,,255,125,125 F,0,154852,154941,0,1 S,0,154852,156264,0.25,0.5 P,0,154852,156264,A F,0,154941,156264,1,0
Sprite,Foreground,Centre,"sb\hl.png",0,0 M,0,154911,,364.3665,79.60097 C,0,154911,,255,125,125 F,0,154911,154999,0,1 S,0,154911,156323,0.25,0.5 P,0,154911,156323,A F,0,154999,156323,1,0
Sprite,Foreground,Centre,"sb\d.png",0,0 M,19,158147,159873,320,248,255.9328,217.3994 F,0,158147,159873,1,0 S,0,158147,159873,0.071,0 P,0,158147,159873,A
Sprite,Foreground,Centre,"sb\d.png",0,0 M,19,158147,159911,320,248,291.7707,292.8565 F,0,158147,159911,1,0 S,0,158147,159911,0.053,0 P,0,158147,159911,A
Sprite,Foreground,Centre,"sb\d.png",0,0 M,19,158147,159911,320,248,328.234,240.7061 F,0,158147,159911,1,0 S,0,158147,159911,0.011,0 P,0,158147,159911,A
Sprite,Foreground,Centre,"sb\d.png",0,0 M,19,158147,159785,320,248,312.6355,229.4052 F,0,158147,159785,1,0 S,0,158147,159785,0.02,0 P,0,158147,159785,A
Sprite,Foreground,Centre,"sb\d.png",0,0 M,19,158147,159949,320,248,339.882,214.4484 F,0,158147,159949,1,0 S,0,158147,159949,0.039,0 P,0,158147,159949,A
Sprite,Foreground,Centre,"sb\d.png",0,0 M,19,158147,159902,320,248,316.4114,238.6661 F,0,158147,159902,1,0 S,0,158147,159902,0.01,0 P,0,158147,159902,A
Sprite,Foreground,Centre,"sb\d.png",0,0 M,19,158147,159962,320,248,308.7396,279.0194 F,0,158147,159962,1,0 S,0,158147,159962,0.033,0 P,0,158147,159962,A
Sprite,Foreground,Centre,"sb\d.png",0,0 M,19,158147,160260,320,248,326.7514,188.3811 F,0,158147,160260,1,0 S,0,158147,160260,0.06,0 P,0,158147,160260,A
Sprite,Foreground,Centre,"sb\d.png",0,0 M,19,158147,160234,320,248,348.5984,196.3945 F,0,158147,160234,1,0 S,0,158147,160234,0.059,0 P,0,158147,160234,A
Sprite,Foreground,Centre,"sb\d.png",0,0 M,19,158147,159739,320,248,309.3308,250.6773 F,0,158147,159739,1,0 S,0,158147,159739,0.011,0 P,0,158147,159739,A
Sprite,Foreground,Centre,"sb\d.png",0,0 M,19,158147,159590,320,248,298.0974,271.3297 F,0,158147,159590,1,0 S,0,158147,159590,0.032,0 P,0,158147,159590,A
Sprite,Foreground,Centre,"sb\d.png",0,0 M,19,158147,159884,320,248,325.6039,236.2698 F,0,158147,159884,1,0 S,0,158147,159884,0.013,0 P,0,158147,159884,A
Sprite,Foreground,Centre,"sb\d.png",0,0 M,19,158147,159690,320,248,376.0288,211.2608 F,0,158147,159690,1,0 S,0,158147,159690,0.067,0 P,0,158147,159690,A
Sprite,Foreground,Centre,"sb\d.png",0,0 M,19,158147,160080,320,248,377.355,198.1362 F,0,158147,160080,1,0 S,0,158147,160080,0.076,0 P,0,158147,160080,A
Sprite,Foreground,Centre,"sb\d.png",0,0 M,19,158147,159804,320,248,364.8898,251.1472 F,0,158147,159804,1,0 S,0,158147,159804,0.045,0 P,0,158147,159804,A
Sprite,Foreground,Centre,"sb\d.png",0,0 M,19,158147,159891,320,248,348.4237,233.3 F,0,158147,159891,1,0 S,0,158147,159891,0.032,0 P,0,158147,159891,A
Sprite,Foreground,Centre,"sb\d.png",0,0 M,19,158147,159817,320,248,356.9512,246.1006 F,0,158147,159817,1,0 S,0,158147,159817,0.037,0 P,0,158147,159817,A
Sprite,Foreground,Centre,"sb\d.png",0,0 M,19,158147,159758,320,248,294.6283,297.9227 F,0,158147,159758,1,0 S,0,158147,159758,0.056,0 P,0,158147,159758,A
Sprite,Foreground,Centre,"sb\d.png",0,0 M,19,158147,159673,320,248,254.0388,245.7367 F,0,158147,159673,1,0 S,0,158147,159673,0.066,0 P,0,158147,159673,A
Sprite,Foreground,Centre,"sb\d.png",0,0 M,19,158147,160208,320,248,276.9925,261.2421 F,0,158147,160208,1,0 S,0,158147,160208,0.045,0 P,0,158147,160208,A
Sprite,Foreground,Centre,"sb\d.png",0,0 M,19,158147,159559,320,248,282.4154,237.5885 F,0,158147,159559,1,0 S,0,158147,159559,0.039,0 P,0,158147,159559,A
Sprite,Foreground,Centre,"sb\d.png",0,0 M,19,158147,160145,320,248,321.1602,279.979 F,0,158147,160145,1,0 S,0,158147,160145,0.032,0 P,0,158147,160145,A
Sprite,Foreground,Centre,"sb\d.png",0,0 M,19,158147,159823,320,248,318.3277,257.8592 F,0,158147,159823,1,0 S,0,158147,159823,0.01,0 P,0,158147,159823,A
Sprite,Foreground,Centre,"sb\d.png",0,0 M,19,158147,159680,320,248,373.3241,283.3912 F,0,158147,159680,1,0 S,0,158147,159680,0.064,0 P,0,158147,159680,A
Sprite,Foreground,Centre,"sb\d.png",0,0 M,19,158147,159827,320,248,307.8305,285.0527 F,0,158147,159827,1,0 S,0,158147,159827,0.039,0 P,0,158147,159827,A
Sprite,Foreground,Centre,"sb\d.png",0,0 M,19,158147,159708,320,248,351.0218,194.319 F,0,158147,159708,1,0 S,0,158147,159708,0.062,0 P,0,158147,159708,A
Sprite,Foreground,Centre,"sb\d.png",0,0 M,19,158147,159825,320,248,275.4169,190.1956 F,0,158147,159825,1,0 S,0,158147,159825,0.073,0 P,0,158147,159825,A
Sprite,Foreground,Centre,"sb\d.png",0,0 M,19,158147,159992,320,248,278.1721,251.7986 F,0,158147,159992,1,0 S,0,158147,159992,0.042,0 P,0,158147,159992,A
Sprite,Foreground,Centre,"sb\d.png",0,0 M,19,158147,160025,320,248,330.0134,239.7096 F,0,158147,160025,1,0 S,0,158147,160025,0.013,0 P,0,158147,160025,A
Sprite,Foreground,Centre,"sb\d.png",0,0 M,19,158147,159728,320,248,322.5136,216.0989 F,0,158147,159728,1,0 S,0,158147,159728,0.032,0 P,0,158147,159728,A
Sprite,Foreground,Centre,"sb\d.png",0,0 M,19,158147,159783,320,248,307.6694,287.1019 F,0,158147,159783,1,0 S,0,158147,159783,0.041,0 P,0,158147,159783,A
Sprite,Foreground,Centre,"sb\d.png",0,0 M,19,158147,159933,320,248,316.6834,281.8379 F,0,158147,159933,1,0 S,0,158147,159933,0.034,0 P,0,158147,159933,A
Sprite,Foreground,Centre,"sb\d.png",0,0 M,19,158147,159690,320,248,315.3117,185.1747 F,0,158147,159690,1,0 S,0,158147,159690,0.063,0 P,0,158147,159690,A
Sprite,Foreground,Centre,"sb\d.png",0,0 M,19,158147,159779,320,248,265.2996,242.2675 F,0,158147,159779,1,0 S,0,158147,159779,0.055,0 P,0,158147,159779,A
Sprite,Foreground,Centre,"sb\d.png",0,0 M,19,158147,159993,320,248,379.1444,289.0602 F,0,158147,159993,1,0 S,0,158147,159993,0.072,0 P,0,158147,159993,A
Sprite,Foreground,Centre,"sb\d.png",0,0 M,19,158147,159730,320,248,323.84,258.308 F,0,158147,159730,1,0 S,0,158147,159730,0.011,0 P,0,158147,159730,A
Sprite,Foreground,Centre,"sb\d.png",0,0 M,19,158147,159591,320,248,366.5097,215.0479 F,0,158147,159591,1,0 S,0,158147,159591,0.057,0 P,0,158147,159591,A
Sprite,Foreground,Centre,"sb\d.png",0,0 M,19,158147,159983,320,248,382.8628,227.8936 F,0,158147,159983,1,0 S,0,158147,159983,0.066,0 P,0,158147,159983,A
Sprite,Foreground,Centre,"sb\d.png",0,0 M,19,158147,160232,320,248,306.5157,244.2354 F,0,158147,160232,1,0 S,0,158147,160232,0.014,0 P,0,158147,160232,A
Sprite,Foreground,Centre,"sb\d.png",0,0 M,19,158147,159752,320,248,294.3358,270.3014 F,0,158147,159752,1,0 S,0,158147,159752,0.034,0 P,0,158147,159752,A
Sprite,Foreground,Centre,"sb\d.png",0,0 M,19,158147,160051,320,248,341.6881,287.4288 F,0,158147,160051,1,0 S,0,158147,160051,0.045,0 P,0,158147,160051,A
Sprite,Foreground,Centre,"sb\d.png",0,0 M,19,158147,159790,320,248,363.3551,296.4286 F,0,158147,159790,1,0 S,0,158147,159790,0.065,0 P,0,158147,159790,A
Sprite,Foreground,Centre,"sb\d.png",0,0 M,19,158147,159612,320,248,327.283,238.4628 F,0,158147,159612,1,0 S,0,158147,159612,0.012,0 P,0,158147,159612,A
Sprite,Foreground,Centre,"sb\d.png",0,0 M,19,158147,160257,320,248,329.4425,235.0834 F,0,158147,160257,1,0 S,0,158147,160257,0.016,0 P,0,158147,160257,A
Sprite,Foreground,Centre,"sb\d.png",0,0 M,19,158147,159741,320,248,338.756,251.0356 F,0,158147,159741,1,0 S,0,158147,159741,0.019,0 P,0,158147,159741,A
Sprite,Foreground,Centre,"sb\d.png",0,0 M,19,158147,159961,320,248,353.9463,262.7191 F,0,158147,159961,1,0 S,0,158147,159961,0.037,0 P,0,158147,159961,A
Sprite,Foreground,Centre,"sb\d.png",0,0 M,19,158147,159573,320,248,377.9997,247.8197 F,0,158147,159573,1,0 S,0,158147,159573,0.058,0 P,0,158147,159573,A
Sprite,Foreground,Centre,"sb\d.png",0,0 M,19,158147,160012,320,248,258.9132,282.1819 F,0,158147,160012,1,0 S,0,158147,160012,0.07,0 P,0,158147,160012,A
Sprite,Foreground,Centre,"sb\d.png",0,0 M,19,158147,160016,320,248,331.5688,279.9713 F,0,158147,160016,1,0 S,0,158147,160016,0.034,0 P,0,158147,160016,A
Sprite,Foreground,Centre,"sb\d.png",0,0 M,19,158147,159760,320,248,307.4471,189.3278 F,0,158147,159760,1,0 S,0,158147,159760,0.06,0 P,0,158147,159760,A
Sprite,Foreground,Centre,"sb\d.png",0,0 M,19,158147,159850,320,248,289.7607,232.457 F,0,158147,159850,1,0 S,0,158147,159850,0.034,0 P,0,158147,159850,A
Sprite,Foreground,Centre,"sb\d.png",0,0 M,19,158147,159652,320,248,348.8351,229.985 F,0,158147,159652,1,0 S,0,158147,159652,0.034,0 P,0,158147,159652,A
Sprite,Foreground,Centre,"sb\d.png",0,0 M,19,158147,159632,320,248,261.8713,197.5019 F,0,158147,159632,1,0 S,0,158147,159632,0.077,0 P,0,158147,159632,A
Sprite,Foreground,Centre,"sb\d.png",0,0 M,19,158147,160257,320,248,312.4709,280.1296 F,0,158147,160257,1,0 S,0,158147,160257,0.033,0 P,0,158147,160257,A
Sprite,Foreground,Centre,"sb\d.png",0,0 M,19,158147,159965,320,248,326.5115,259.2517 F,0,158147,159965,1,0 S,0,158147,159965,0.013,0 P,0,158147,159965,A
Sprite,Foreground,Centre,"sb\d.png",0,0 M,19,158147,160037,320,248,389.423,273.6212 F,0,158147,160037,1,0 S,0,158147,160037,0.074,0 P,0,158147,160037,A
Sprite,Foreground,Centre,"sb\d.png",0,0 M,19,158147,160030,320,248,296.2456,283.8431 F,0,158147,160030,1,0 S,0,158147,160030,0.043,0 P,0,158147,160030,A
Sprite,Foreground,Centre,"sb\d.png",0,0 M,19,158147,160022,320,248,292.364,272.6019 F,0,158147,160022,1,0 S,0,158147,160022,0.037,0 P,0,158147,160022,A
Sprite,Foreground,Centre,"sb\d.png",0,0 M,19,158147,160020,320,248,318.4259,309.98 F,0,158147,160020,1,0 S,0,158147,160020,0.062,0 P,0,158147,160020,A
Sprite,Foreground,Centre,"sb\d.png",0,0 M,19,158147,159874,320,248,390.5142,273.5489 F,0,158147,159874,1,0 S,0,158147,159874,0.075,0 P,0,158147,159874,A
Sprite,Foreground,Centre,"sb\d.png",0,0 M,19,158147,159779,320,248,311.9799,230.7757 F,0,158147,159779,1,0 S,0,158147,159779,0.019,0 P,0,158147,159779,A
Sprite,Foreground,Centre,"sb\d.png",0,0 M,19,158147,160083,320,248,327.3107,219.9366 F,0,158147,160083,1,0 S,0,158147,160083,0.029,0 P,0,158147,160083,A
Sprite,Foreground,Centre,"sb\d.png",0,0 M,19,158147,160110,320,248,304.0803,239.5997 F,0,158147,160110,1,0 S,0,158147,160110,0.018,0 P,0,158147,160110,A
Sprite,Foreground,Centre,"sb\d.png",0,0 M,19,158147,159859,320,248,348.7835,277.1978 F,0,158147,159859,1,0 S,0,158147,159859,0.041,0 P,0,158147,159859,A
Sprite,Foreground,Centre,"sb\d.png",0,0 M,19,158147,159810,320,248,262.2988,260.3115 F,0,158147,159810,1,0 S,0,158147,159810,0.059,0 P,0,158147,159810,A
Sprite,Foreground,Centre,"sb\d.png",0,0 M,19,158147,160129,320,248,346.4748,253.2996 F,0,158147,160129,1,0 S,0,158147,160129,0.027,0 P,0,158147,160129,A
Sprite,Foreground,Centre,"sb\d.png",0,0 M,19,158147,159857,320,248,337.3605,255.721 F,0,158147,159857,1,0 S,0,158147,159857,0.019,0 P,0,158147,159857,A
Sprite,Foreground,Centre,"sb\d.png",0,0 M,19,158147,159731,320,248,355.3598,241.2409 F,0,158147,159731,1,0 S,0,158147,159731,0.036,0 P,0,158147,159731,A
Sprite,Foreground,Centre,"sb\d.png",0,0 M,19,158147,160240,320,248,302.9638,232.5478 F,0,158147,160240,1,0 S,0,158147,160240,0.023,0 P,0,158147,160240,A
Sprite,Foreground,Centre,"sb\d.png",0,0 M,19,158147,159979,320,248,321.7353,193.0274 F,0,158147,159979,1,0 S,0,158147,159979,0.055,0 P,0,158147,159979,A
Sprite,Foreground,Centre,"sb\d.png",0,0 M,19,158147,159575,320,248,271.4074,254.3055 F,0,158147,159575,1,0 S,0,158147,159575,0.049,0 P,0,158147,159575,A
Sprite,Foreground,Centre,"sb\d.png",0,0 M,19,158147,159701,320,248,291.3633,204.5956 F,0,158147,159701,1,0 S,0,158147,159701,0.052,0 P,0,158147,159701,A
Sprite,Foreground,Centre,"sb\d.png",0,0 M,19,158147,160106,320,248,303.987,215.7574 F,0,158147,160106,1,0 S,0,158147,160106,0.036,0 P,0,158147,160106,A
Sprite,Foreground,Centre,"sb\d.png",0,0 M,19,158147,160131,320,248,341.5533,210.7917 F,0,158147,160131,1,0 S,0,158147,160131,0.043,0 P,0,158147,160131,A
Sprite,Foreground,Centre,"sb\d.png",0,0 M,19,158147,159577,320,248,339.8535,232.8066 F,0,158147,159577,1,0 S,0,158147,159577,0.025,0 P,0,158147,159577,A
Sprite,Foreground,Centre,"sb\d.png",0,0 M,19,158147,160034,320,248,323.6194,321.9114 F,0,158147,160034,1,0 S,0,158147,160034,0.074,0 P,0,158147,160034,A
Sprite,Foreground,Centre,"sb\d.png",0,0 M,19,158147,159910,320,248,312.2217,271.7592 F,0,158147,159910,1,0 S,0,158147,159910,0.025,0 P,0,158147,159910,A
Sprite,Foreground,Centre,"sb\d.png",0,0 M,19,158147,160123,320,248,364.1652,182.4986 F,0,158147,160123,1,0 S,0,158147,160123,0.079,0 P,0,158147,160123,A
Sprite,Foreground,Centre,"sb\d.png",0,0 M,19,158147,160098,320,248,378.3271,256.8855 F,0,158147,160098,1,0 S,0,158147,160098,0.059,0 P,0,158147,160098,A
Sprite,Foreground,Centre,"sb\d.png",0,0 M,19,158147,159617,320,248,339.9803,257.2081 F,0,158147,159617,1,0 S,0,158147,159617,0.022,0 P,0,158147,159617,A
Sprite,Foreground,Centre,"sb\d.png",0,0 M,19,158147,159881,320,248,331.6754,182.0251 F,0,158147,159881,1,0 S,0,158147,159881,0.067,0 P,0,158147,159881,A
Sprite,Foreground,Centre,"sb\d.png",0,0 M,19,158147,160188,320,248,341.3135,298.7024 F,0,158147,160188,1,0 S,0,158147,160188,0.055,0 P,0,158147,160188,A
Sprite,Foreground,Centre,"sb\d.png",0,0 M,19,158147,159634,320,248,266.0116,285.9638 F,0,158147,159634,1,0 S,0,158147,159634,0.066,0 P,0,158147,159634,A
Sprite,Foreground,Centre,"sb\d.png",0,0 M,19,158147,160177,320,248,339.0865,276.1373 F,0,158147,160177,1,0 S,0,158147,160177,0.034,0 P,0,158147,160177,A
Sprite,Foreground,Centre,"sb\d.png",0,0 M,19,158147,160024,320,248,345.4544,253.2986 F,0,158147,160024,1,0 S,0,158147,160024,0.026,0 P,0,158147,160024,A
Sprite,Foreground,Centre,"sb\d.png",0,0 M,19,158147,159669,320,248,308.5579,238.3006 F,0,158147,159669,1,0 S,0,158147,159669,0.015,0 P,0,158147,159669,A
Sprite,Foreground,Centre,"sb\d.png",0,0 M,19,158147,159751,320,248,327.3959,283.2321 F,0,158147,159751,1,0 S,0,158147,159751,0.036,0 P,0,158147,159751,A
Sprite,Foreground,Centre,"sb\d.png",0,0 M,19,158147,159865,320,248,309.4032,287.6069 F,0,158147,159865,1,0 S,0,158147,159865,0.041,0 P,0,158147,159865,A
Sprite,Foreground,Centre,"sb\d.png",0,0 M,19,158147,159960,320,248,364.3466,278.812 F,0,158147,159960,1,0 S,0,158147,159960,0.054,0 P,0,158147,159960,A
Sprite,Foreground,Centre,"sb\d.png",0,0 M,19,158147,160190,320,248,329.0581,301.2349 F,0,158147,160190,1,0 S,0,158147,160190,0.054,0 P,0,158147,160190,A
Sprite,Foreground,Centre,"sb\d.png",0,0 M,19,158147,159701,320,248,271.8873,267.7274 F,0,158147,159701,1,0 S,0,158147,159701,0.052,0 P,0,158147,159701,A
Sprite,Foreground,Centre,"sb\d.png",0,0 M,19,158147,160022,320,248,315.4396,235.8261 F,0,158147,160022,1,0 S,0,158147,160022,0.013,0 P,0,158147,160022,A
Sprite,Foreground,Centre,"sb\d.png",0,0 M,19,158147,159961,320,248,284.2939,294.9689 F,0,158147,159961,1,0 S,0,158147,159961,0.059,0 P,0,158147,159961,A
Sprite,Foreground,Centre,"sb\d.png",0,0 M,19,158147,159635,320,248,365.2332,298.7735 F,0,158147,159635,1,0 S,0,158147,159635,0.068,0 P,0,158147,159635,A
Sprite,Foreground,Centre,"sb\d.png",0,0 M,19,158147,160171,320,248,301.7401,239.8405 F,0,158147,160171,1,0 S,0,158147,160171,0.02,0 P,0,158147,160171,A
Sprite,Foreground,Centre,"sb\d.png",0,0 M,19,158147,160092,320,248,272.6034,202.0701 F,0,158147,160092,1,0 S,0,158147,160092,0.066,0 P,0,158147,160092,A
Sprite,Foreground,Centre,"sb\d.png",0,0 M,19,158147,160008,320,248,344.0204,277.4452 F,0,158147,160008,1,0 S,0,158147,160008,0.038,0 P,0,158147,160008,A
Sprite,Foreground,Centre,"sb\d.png",0,0 M,19,158147,160122,320,248,266.2163,204.776 F,0,158147,160122,1,0 S,0,158147,160122,0.069,0 P,0,158147,160122,A
Sprite,Foreground,Centre,"sb\d.png",0,0 M,19,158147,159818,320,248,336.1798,207.0828 F,0,158147,159818,1,0 S,0,158147,159818,0.044,0 P,0,158147,159818,A
Sprite,Foreground,Centre,"sb\d.png",0,0 M,19,158147,159566,320,248,335.8354,250.2888 F,0,158147,159566,1,0 S,0,158147,159566,0.016,0 P,0,158147,159566,A
Sprite,Foreground,CentreLeft,"sb\f\c\0053.png",185.775,219.9075 F,0,67794,,1 V,19,67794,68499,0,0.35,0.35,0.35 F,0,70000,,0
Sprite,Foreground,CentreRight,"sb\f\c\0053.png",212.025,219.9075 F,0,70000,,1 V,18,70000,70706,0.35,0.35,0,0.35 F,0,70706,,0
Sprite,Foreground,CentreLeft,"sb\f\c\0054.png",212.025,219.9075 F,0,67823,,1 V,19,67823,68529,0,0.35,0.35,0.35 F,0,70029,,0
Sprite,Foreground,CentreRight,"sb\f\c\0054.png",236.525,219.9075 F,0,70029,,1 V,18,70029,70735,0.35,0.35,0,0.35 F,0,70735,,0
Sprite,Foreground,CentreLeft,"sb\f\c\004f.png",236.525,219.9075 F,0,67852,,1 V,19,67852,68558,0,0.35,0.35,0.35 F,0,70059,,0
Sprite,Foreground,CentreRight,"sb\f\c\004f.png",269.075,219.9075 F,0,70059,,1 V,18,70059,70765,0.35,0.35,0,0.35 F,0,70765,,0
Sprite,Foreground,CentreLeft,"sb\f\c\004e.png",269.075,219.9075 F,0,67882,,1 V,19,67882,68588,0,0.35,0.35,0.35 F,0,70088,,0
Sprite,Foreground,CentreRight,"sb\f\c\004e.png",300.575,219.9075 F,0,70088,,1 V,18,70088,70794,0.35,0.35,0,0.35 F,0,70794,,0
Sprite,Foreground,CentreLeft,"sb\f\c\0045.png",300.575,219.9075 F,0,67911,,1 V,19,67911,68617,0,0.35,0.35,0.35 F,0,70118,,0
Sprite,Foreground,CentreRight,"sb\f\c\0045.png",325.775,219.9075 F,0,70118,,1 V,18,70118,70823,0.35,0.35,0,0.35 F,0,70823,,0
Sprite,Foreground,CentreLeft,"sb\f\c\0042.png",325.775,219.9075 F,0,67941,,1 V,19,67941,68646,0,0.35,0.35,0.35 F,0,70147,,0
Sprite,Foreground,CentreRight,"sb\f\c\0042.png",353.425,219.9075 F,0,70147,,1 V,18,70147,70853,0.35,0.35,0,0.35 F,0,70853,,0
Sprite,Foreground,CentreLeft,"sb\f\c\0041.png",353.425,219.9075 F,0,67970,,1 V,19,67970,68676,0,0.35,0.35,0.35 F,0,70176,,0
Sprite,Foreground,CentreRight,"sb\f\c\0041.png",383.525,219.9075 F,0,70176,,1 V,18,70176,70882,0.35,0.35,0,0.35 F,0,70882,,0
Sprite,Foreground,CentreLeft,"sb\f\c\004e.png",383.525,219.9075 F,0,67999,,1 V,19,67999,68705,0,0.35,0.35,0.35 F,0,70206,,0
Sprite,Foreground,CentreRight,"sb\f\c\004e.png",415.025,219.9075 F,0,70206,,1 V,18,70206,70912,0.35,0.35,0,0.35 F,0,70912,,0
Sprite,Foreground,CentreLeft,"sb\f\c\004b.png",415.025,219.9075 F,0,68029,,1 V,19,68029,68735,0,0.35,0.35,0.35 F,0,70235,,0
Sprite,Foreground,CentreRight,"sb\f\c\004b.png",443.725,219.9075 F,0,70235,,1 V,18,70235,70941,0.35,0.35,0,0.35 F,0,70941,,0
Sprite,Foreground,CentreLeft,"sb\f\c\0042.png",85.54999,258.465 F,0,67794,,1 V,19,67794,68499,0,0.3,0.3,0.3 F,0,69676,,0
Sprite,Foreground,CentreRight,"sb\f\c\0042.png",109.25,258.465 F,0,69676,,1 V,18,69676,70382,0.3,0.3,0,0.3 F,0,70382,,0
Sprite,Foreground,CentreLeft,"sb\f\c\0065.png",109.25,258.465 F,0,67823,,1 V,19,67823,68529,0,0.3,0.3,0.3 F,0,69706,,0
Sprite,Foreground,CentreRight,"sb\f\c\0065.png",130.85,258.465 F,0,69706,,1 V,18,69706,70412,0.3,0.3,0,0.3 F,0,70412,,0
Sprite,Foreground,CentreLeft,"sb\f\c\0041.png",145.85,258.465 F,0,67852,,1 V,19,67852,68558,0,0.3,0.3,0.3 F,0,69735,,0
Sprite,Foreground,CentreRight,"sb\f\c\0041.png",171.65,258.465 F,0,69735,,1 V,18,69735,70441,0.3,0.3,0,0.3 F,0,70441,,0
Sprite,Foreground,CentreLeft,"sb\f\c\006c.png",171.65,258.465 F,0,67882,,1 V,19,67882,68588,0,0.3,0.3,0.3 F,0,69765,,0
Sprite,Foreground,CentreRight,"sb\f\c\006c.png",186.65,258.465 F,0,69765,,1 V,18,69765,70471,0.3,0.3,0,0.3 F,0,70471,,0
Sprite,Foreground,CentreLeft,"sb\f\c\0072.png",186.65,258.465 F,0,67911,,1 V,19,67911,68617,0,0.3,0.3,0.3 F,0,69794,,0
Sprite,Foreground,CentreRight,"sb\f\c\0072.png",205.55,258.465 F,0,69794,,1 V,18,69794,70500,0.3,0.3,0,0.3 F,0,70500,,0
Sprite,Foreground,CentreLeft,"sb\f\c\0069.png",205.55,258.465 F,0,67941,,1 V,19,67941,68646,0,0.3,0.3,0.3 F,0,69823,,0
Sprite,Foreground,CentreRight,"sb\f\c\0069.png",220.85,258.465 F,0,69823,,1 V,18,69823,70529,0.3,0.3,0,0.3 F,0,70529,,0
Sprite,Foreground,CentreLeft,"sb\f\c\0067.png",220.85,258.465 F,0,67970,,1 V,19,67970,68676,0,0.3,0.3,0.3 F,0,69853,,0
Sprite,Foreground,CentreRight,"sb\f\c\0067.png",243.65,258.465 F,0,69853,,1 V,18,69853,70559,0.3,0.3,0,0.3 F,0,70559,,0
Sprite,Foreground,CentreLeft,"sb\f\c\0068.png",243.65,258.465 F,0,67999,,1 V,19,67999,68705,0,0.3,0.3,0.3 F,0,69882,,0
Sprite,Foreground,CentreRight,"sb\f\c\0068.png",266.45,258.465 F,0,69882,,1 V,18,69882,70588,0.3,0.3,0,0.3 F,0,70588,,0
Sprite,Foreground,CentreLeft,"sb\f\c\0074.png",266.45,258.465 F,0,68029,,1 V,19,68029,68735,0,0.3,0.3,0.3 F,0,69912,,0
Sprite,Foreground,CentreRight,"sb\f\c\0074.png",284.15,258.465 F,0,69912,,1 V,18,69912,70618,0.3,0.3,0,0.3 F,0,70618,,0
Sprite,Foreground,CentreLeft,"sb\f\c\0028.png",299.15,258.465 F,0,68058,,1 V,19,68058,68764,0,0.3,0.3,0.3 F,0,69941,,0
Sprite,Foreground,CentreRight,"sb\f\c\0028.png",317.45,258.465 F,0,69941,,1 V,18,69941,70647,0.3,0.3,0,0.3 F,0,70647,,0
Sprite,Foreground,CentreLeft,"sb\f\c\0046.png",317.45,258.465 F,0,68088,,1 V,19,68088,68794,0,0.3,0.3,0.3 F,0,69971,,0
Sprite,Foreground,CentreRight,"sb\f\c\0046.png",338.45,258.465 F,0,69971,,1 V,18,69971,70676,0.3,0.3,0,0.3 F,0,70676,,0
Sprite,Foreground,CentreLeft,"sb\f\c\0065.png",338.45,258.465 F,0,68117,,1 V,19,68117,68823,0,0.3,0.3,0.3 F,0,70000,,0
Sprite,Foreground,CentreRight,"sb\f\c\0065.png",360.05,258.465 F,0,70000,,1 V,18,70000,70706,0.3,0.3,0,0.3 F,0,70706,,0
Sprite,Foreground,CentreLeft,"sb\f\c\0061.png",360.05,258.465 F,0,68146,,1 V,19,68146,68852,0,0.3,0.3,0.3 F,0,70029,,0
Sprite,Foreground,CentreRight,"sb\f\c\0061.png",383.45,258.465 F,0,70029,,1 V,18,70029,70735,0.3,0.3,0,0.3 F,0,70735,,0
Sprite,Foreground,CentreLeft,"sb\f\c\0074.png",383.45,258.465 F,0,68176,,1 V,19,68176,68882,0,0.3,0.3,0.3 F,0,70059,,0
Sprite,Foreground,CentreRight,"sb\f\c\0074.png",401.15,258.465 F,0,70059,,1 V,18,70059,70765,0.3,0.3,0,0.3 F,0,70765,,0
Sprite,Foreground,CentreLeft,"sb\f\c\002e.png",401.15,258.465 F,0,68205,,1 V,19,68205,68911,0,0.3,0.3,0.3 F,0,70088,,0
Sprite,Foreground,CentreRight,"sb\f\c\002e.png",416.75,258.465 F,0,70088,,1 V,18,70088,70794,0.3,0.3,0,0.3 F,0,70794,,0
Sprite,Foreground,CentreLeft,"sb\f\c\0045.png",431.75,258.465 F,0,68235,,1 V,19,68235,68941,0,0.3,0.3,0.3 F,0,70118,,0
Sprite,Foreground,CentreRight,"sb\f\c\0045.png",453.35,258.465 F,0,70118,,1 V,18,70118,70823,0.3,0.3,0,0.3 F,0,70823,,0
Sprite,Foreground,CentreLeft,"sb\f\c\004d.png",453.35,258.465 F,0,68264,,1 V,19,68264,68970,0,0.3,0.3,0.3 F,0,70147,,0
Sprite,Foreground,CentreRight,"sb\f\c\004d.png",484.55,258.465 F,0,70147,,1 V,18,70147,70853,0.3,0.3,0,0.3 F,0,70853,,0
Sprite,Foreground,CentreLeft,"sb\f\c\0045.png",484.55,258.465 F,0,68294,,1 V,19,68294,68999,0,0.3,0.3,0.3 F,0,70176,,0
Sprite,Foreground,CentreRight,"sb\f\c\0045.png",506.15,258.465 F,0,70176,,1 V,18,70176,70882,0.3,0.3,0,0.3 F,0,70882,,0
Sprite,Foreground,CentreLeft,"sb\f\c\004c.png",506.15,258.465 F,0,68323,,1 V,19,68323,69029,0,0.3,0.3,0.3 F,0,70206,,0
Sprite,Foreground,CentreRight,"sb\f\c\004c.png",527.15,258.465 F,0,70206,,1 V,18,70206,70912,0.3,0.3,0,0.3 F,0,70912,,0
Sprite,Foreground,CentreLeft,"sb\f\c\0029.png",527.15,258.465 F,0,68352,,1 V,19,68352,69058,0,0.3,0.3,0.3 F,0,70235,,0
Sprite,Foreground,CentreRight,"sb\f\c\0029.png",545.45,258.465 F,0,70235,,1 V,18,70235,70941,0.3,0.3,0,0.3 F,0,70941,,0
Sprite,Foreground,CentreLeft,"sb\f\c\004d.png",229.875,219.9075 F,0,70971,,1 V,19,70971,71676,0,0.35,0.35,0.35 F,0,72911,,0
Sprite,Foreground,CentreRight,"sb\f\c\004d.png",266.275,219.9075 F,0,72911,,1 V,18,72911,73617,0.35,0.35,0,0.35 F,0,73617,,0
Sprite,Foreground,CentreLeft,"sb\f\c\0041.png",266.275,219.9075 F,0,71000,,1 V,19,71000,71706,0,0.35,0.35,0.35 F,0,72941,,0
Sprite,Foreground,CentreRight,"sb\f\c\0041.png",296.375,219.9075 F,0,72941,,1 V,18,72941,73646,0.35,0.35,0,0.35 F,0,73646,,0
Sprite,Foreground,CentreLeft,"sb\f\c\0050.png",296.375,219.9075 F,0,71029,,1 V,19,71029,71735,0,0.35,0.35,0.35 F,0,72970,,0
Sprite,Foreground,CentreRight,"sb\f\c\0050.png",323.675,219.9075 F,0,72970,,1 V,18,72970,73676,0.35,0.35,0,0.35 F,0,73676,,0
Sprite,Foreground,CentreLeft,"sb\f\c\0053.png",323.675,219.9075 F,0,71059,,1 V,19,71059,71765,0,0.35,0.35,0.35 F,0,72999,,0
Sprite,Foreground,CentreRight,"sb\f\c\0053.png",349.925,219.9075 F,0,72999,,1 V,18,72999,73705,0.35,0.35,0,0.35 F,0,73705,,0
Sprite,Foreground,CentreLeft,"sb\f\c\0045.png",349.925,219.9075 F,0,71088,,1 V,19,71088,71794,0,0.35,0.35,0.35 F,0,73029,,0
Sprite,Foreground,CentreRight,"sb\f\c\0045.png",375.125,219.9075 F,0,73029,,1 V,18,73029,73735,0.35,0.35,0,0.35 F,0,73735,,0
Sprite,Foreground,CentreLeft,"sb\f\c\0054.png",375.125,219.9075 F,0,71118,,1 V,19,71118,71823,0,0.35,0.35,0.35 F,0,73058,,0
Sprite,Foreground,CentreRight,"sb\f\c\0054.png",399.625,219.9075 F,0,73058,,1 V,18,73058,73764,0.35,0.35,0,0.35 F,0,73764,,0
Sprite,Foreground,CentreLeft,"sb\f\c\004e.png",243.05,258.465 F,0,70971,,1 V,19,70971,71676,0,0.3,0.3,0.3 F,0,72911,,0
Sprite,Foreground,CentreRight,"sb\f\c\004e.png",270.05,258.465 F,0,72911,,1 V,18,72911,73617,0.3,0.3,0,0.3 F,0,73617,,0
Sprite,Foreground,CentreLeft,"sb\f\c\0068.png",270.05,258.465 F,0,71000,,1 V,19,71000,71706,0,0.3,0.3,0.3 F,0,72941,,0
Sprite,Foreground,CentreRight,"sb\f\c\0068.png",292.85,258.465 F,0,72941,,1 V,18,72941,73646,0.3,0.3,0,0.3 F,0,73646,,0
Sprite,Foreground,CentreLeft,"sb\f\c\0061.png",292.85,258.465 F,0,71029,,1 V,19,71029,71735,0,0.3,0.3,0.3 F,0,72970,,0
Sprite,Foreground,CentreRight,"sb\f\c\0061.png",316.25,258.465 F,0,72970,,1 V,18,72970,73676,0.3,0.3,0,0.3 F,0,73676,,0
Sprite,Foreground,CentreLeft,"sb\f\c\0077.png",316.25,258.465 F,0,71059,,1 V,19,71059,71765,0,0.3,0.3,0.3 F,0,72999,,0
Sprite,Foreground,CentreRight,"sb\f\c\0077.png",342.95,258.465 F,0,72999,,1 V,18,72999,73705,0.3,0.3,0,0.3 F,0,73705,,0
Sprite,Foreground,CentreLeft,"sb\f\c\0061.png",342.95,258.465 F,0,71088,,1 V,19,71088,71794,0,0.3,0.3,0.3 F,0,73029,,0
Sprite,Foreground,CentreRight,"sb\f\c\0061.png",366.35,258.465 F,0,73029,,1 V,18,73029,73735,0.3,0.3,0,0.3 F,0,73735,,0
Sprite,Foreground,CentreLeft,"sb\f\c\006b.png",366.35,258.465 F,0,71118,,1 V,19,71118,71823,0,0.3,0.3,0.3 F,0,73058,,0
Sprite,Foreground,CentreRight,"sb\f\c\006b.png",387.95,258.465 F,0,73058,,1 V,18,73058,73764,0.3,0.3,0,0.3 F,0,73764,,0
Sprite,Foreground,CentreLeft,"sb\f\c\0045.png",259.275,219.9075 F,0,73794,,1 V,19,73794,74499,0,0.35,0.35,0.35 F,0,75794,,0
Sprite,Foreground,CentreRight,"sb\f\c\0045.png",284.475,219.9075 F,0,75794,,1 V,18,75794,76500,0.35,0.35,0,0.35 F,0,76500,,0
Sprite,Foreground,CentreLeft,"sb\f\c\0041.png",284.475,219.9075 F,0,73823,,1 V,19,73823,74529,0,0.35,0.35,0.35 F,0,75823,,0
Sprite,Foreground,CentreRight,"sb\f\c\0041.png",314.575,219.9075 F,0,75823,,1 V,18,75823,76529,0.35,0.35,0,0.35 F,0,76529,,0
Sprite,Foreground,CentreLeft,"sb\f\c\0053.png",314.575,219.9075 F,0,73852,,1 V,19,73852,74558,0,0.35,0.35,0.35 F,0,75853,,0
Sprite,Foreground,CentreRight,"sb\f\c\0053.png",340.825,219.9075 F,0,75853,,1 V,18,75853,76559,0.35,0.35,0,0.35 F,0,76559,,0
Sprite,Foreground,CentreLeft,"sb\f\c\0059.png",340.825,219.9075 F,0,73882,,1 V,19,73882,74588,0,0.35,0.35,0.35 F,0,75882,,0
Sprite,Foreground,CentreRight,"sb\f\c\0059.png",370.225,219.9075 F,0,75882,,1 V,18,75882,76588,0.35,0.35,0,0.35 F,0,76588,,0
Sprite,Foreground,CentreLeft,"sb\f\c\004e.png",243.05,258.465 F,0,73794,,1 V,19,73794,74499,0,0.3,0.3,0.3 F,0,75735,,0
Sprite,Foreground,CentreRight,"sb\f\c\004e.png",270.05,258.465 F,0,75735,,1 V,18,75735,76441,0.3,0.3,0,0.3 F,0,76441,,0
Sprite,Foreground,CentreLeft,"sb\f\c\0068.png",270.05,258.465 F,0,73823,,1 V,19,73823,74529,0,0.3,0.3,0.3 F,0,75765,,0
Sprite,Foreground,CentreRight,"sb\f\c\0068.png",292.85,258.465 F,0,75765,,1 V,18,75765,76470,0.3,0.3,0,0.3 F,0,76470,,0
Sprite,Foreground,CentreLeft,"sb\f\c\0061.png",292.85,258.465 F,0,73852,,1 V,19,73852,74558,0,0.3,0.3,0.3 F,0,75794,,0
Sprite,Foreground,CentreRight,"sb\f\c\0061.png",316.25,258.465 F,0,75794,,1 V,18,75794,76500,0.3,0.3,0,0.3 F,0,76500,,0
Sprite,Foreground,CentreLeft,"sb\f\c\0077.png",316.25,258.465 F,0,73882,,1 V,19,73882,74588,0,0.3,0.3,0.3 F,0,75823,,0
Sprite,Foreground,CentreRight,"sb\f\c\0077.png",342.95,258.465 F,0,75823,,1 V,18,75823,76529,0.3,0.3,0,0.3 F,0,76529,,0
Sprite,Foreground,CentreLeft,"sb\f\c\0061.png",342.95,258.465 F,0,73911,,1 V,19,73911,74617,0,0.3,0.3,0.3 F,0,75853,,0
Sprite,Foreground,CentreRight,"sb\f\c\0061.png",366.35,258.465 F,0,75853,,1 V,18,75853,76559,0.3,0.3,0,0.3 F,0,76559,,0
Sprite,Foreground,CentreLeft,"sb\f\c\006b.png",366.35,258.465 F,0,73941,,1 V,19,73941,74646,0,0.3,0.3,0.3 F,0,75882,,0
Sprite,Foreground,CentreRight,"sb\f\c\006b.png",387.95,258.465 F,0,75882,,1 V,18,75882,76588,0.3,0.3,0,0.3 F,0,76588,,0
Sprite,Foreground,CentreLeft,"sb\f\c\0053.png",171.25,219.9075 F,0,76618,,1 V,19,76618,77323,0,0.35,0.35,0.35 F,0,78088,,0
Sprite,Foreground,CentreRight,"sb\f\c\0053.png",197.5,219.9075 F,0,78088,,1 V,18,78088,78793,0.35,0.35,0,0.35 F,0,78793,,0
Sprite,Foreground,CentreLeft,"sb\f\c\0054.png",197.5,219.9075 F,0,76647,,1 V,19,76647,77353,0,0.35,0.35,0.35 F,0,78117,,0
Sprite,Foreground,CentreRight,"sb\f\c\0054.png",222,219.9075 F,0,78117,,1 V,18,78117,78823,0.35,0.35,0,0.35 F,0,78823,,0
Sprite,Foreground,CentreLeft,"sb\f\c\004f.png",222,219.9075 F,0,76676,,1 V,19,76676,77382,0,0.35,0.35,0.35 F,0,78146,,0
Sprite,Foreground,CentreRight,"sb\f\c\004f.png",254.55,219.9075 F,0,78146,,1 V,18,78146,78852,0.35,0.35,0,0.35 F,0,78852,,0
Sprite,Foreground,CentreLeft,"sb\f\c\0052.png",254.55,219.9075 F,0,76706,,1 V,19,76706,77412,0,0.35,0.35,0.35 F,0,78176,,0
Sprite,Foreground,CentreRight,"sb\f\c\0052.png",281.85,219.9075 F,0,78176,,1 V,18,78176,78882,0.35,0.35,0,0.35 F,0,78882,,0
Sprite,Foreground,CentreLeft,"sb\f\c\0059.png",281.85,219.9075 F,0,76735,,1 V,19,76735,77441,0,0.35,0.35,0.35 F,0,78205,,0
Sprite,Foreground,CentreRight,"sb\f\c\0059.png",311.25,219.9075 F,0,78205,,1 V,18,78205,78911,0.35,0.35,0,0.35 F,0,78911,,0
Sprite,Foreground,CentreLeft,"sb\f\c\0042.png",311.25,219.9075 F,0,76765,,1 V,19,76765,77470,0,0.35,0.35,0.35 F,0,78235,,0
Sprite,Foreground,CentreRight,"sb\f\c\0042.png",338.9,219.9075 F,0,78235,,1 V,18,78235,78940,0.35,0.35,0,0.35 F,0,78940,,0
Sprite,Foreground,CentreLeft,"sb\f\c\004f.png",338.9,219.9075 F,0,76794,,1 V,19,76794,77500,0,0.35,0.35,0.35 F,0,78264,,0
Sprite,Foreground,CentreRight,"sb\f\c\004f.png",371.45,219.9075 F,0,78264,,1 V,18,78264,78970,0.35,0.35,0,0.35 F,0,78970,,0
Sprite,Foreground,CentreLeft,"sb\f\c\0041.png",371.45,219.9075 F,0,76823,,1 V,19,76823,77529,0,0.35,0.35,0.35 F,0,78293,,0
Sprite,Foreground,CentreRight,"sb\f\c\0041.png",401.55,219.9075 F,0,78293,,1 V,18,78293,78999,0.35,0.35,0,0.35 F,0,78999,,0
Sprite,Foreground,CentreLeft,"sb\f\c\0052.png",401.55,219.9075 F,0,76853,,1 V,19,76853,77559,0,0.35,0.35,0.35 F,0,78323,,0
Sprite,Foreground,CentreRight,"sb\f\c\0052.png",428.8499,219.9075 F,0,78323,,1 V,18,78323,79029,0.35,0.35,0,0.35 F,0,79029,,0
Sprite,Foreground,CentreLeft,"sb\f\c\0044.png",428.8499,219.9075 F,0,76882,,1 V,19,76882,77588,0,0.35,0.35,0.35 F,0,78352,,0
Sprite,Foreground,CentreRight,"sb\f\c\0044.png",458.2499,219.9075 F,0,78352,,1 V,18,78352,79058,0.35,0.35,0,0.35 F,0,79058,,0
Sprite,Foreground,CentreLeft,"sb\f\c\0048.png",167.15,258.465 F,0,76618,,1 V,19,76618,77323,0,0.3,0.3,0.3 F,0,78029,,0
Sprite,Foreground,CentreRight,"sb\f\c\0048.png",192.35,258.465 F,0,78029,,1 V,18,78029,78735,0.3,0.3,0,0.3 F,0,78735,,0
Sprite,Foreground,CentreLeft,"sb\f\c\006f.png",192.35,258.465 F,0,76647,,1 V,19,76647,77353,0,0.3,0.3,0.3 F,0,78058,,0
Sprite,Foreground,CentreRight,"sb\f\c\006f.png",214.85,258.465 F,0,78058,,1 V,18,78058,78764,0.3,0.3,0,0.3 F,0,78764,,0
Sprite,Foreground,CentreLeft,"sb\f\c\006b.png",214.85,258.465 F,0,76676,,1 V,19,76676,77382,0,0.3,0.3,0.3 F,0,78088,,0
Sprite,Foreground,CentreRight,"sb\f\c\006b.png",236.45,258.465 F,0,78088,,1 V,18,78088,78793,0.3,0.3,0,0.3 F,0,78793,,0
Sprite,Foreground,CentreLeft,"sb\f\c\0069.png",236.45,258.465 F,0,76706,,1 V,19,76706,77412,0,0.3,0.3,0.3 F,0,78117,,0
Sprite,Foreground,CentreRight,"sb\f\c\0069.png",251.75,258.465 F,0,78117,,1 V,18,78117,78823,0.3,0.3,0,0.3 F,0,78823,,0
Sprite,Foreground,CentreLeft,"sb\f\c\0063.png",251.75,258.465 F,0,76735,,1 V,19,76735,77441,0,0.3,0.3,0.3 F,0,78146,,0
Sprite,Foreground,CentreRight,"sb\f\c\0063.png",273.05,258.465 F,0,78146,,1 V,18,78146,78852,0.3,0.3,0,0.3 F,0,78852,,0
Sprite,Foreground,CentreLeft,"sb\f\c\0068.png",273.05,258.465 F,0,76765,,1 V,19,76765,77470,0,0.3,0.3,0.3 F,0,78176,,0
Sprite,Foreground,CentreRight,"sb\f\c\0068.png",295.85,258.465 F,0,78176,,1 V,18,78176,78882,0.3,0.3,0,0.3 F,0,78882,,0
Sprite,Foreground,CentreLeft,"sb\f\c\0069.png",295.85,258.465 F,0,76794,,1 V,19,76794,77500,0,0.3,0.3,0.3 F,0,78205,,0
Sprite,Foreground,CentreRight,"sb\f\c\0069.png",311.15,258.465 F,0,78205,,1 V,18,78205,78911,0.3,0.3,0,0.3 F,0,78911,,0
Sprite,Foreground,CentreLeft,"sb\f\c\0026.png",326.15,258.465 F,0,76823,,1 V,19,76823,77529,0,0.3,0.3,0.3 F,0,78235,,0
Sprite,Foreground,CentreRight,"sb\f\c\0026.png",350.45,258.465 F,0,78235,,1 V,18,78235,78940,0.3,0.3,0,0.3 F,0,78940,,0
Sprite,Foreground,CentreLeft,"sb\f\c\004d.png",365.45,258.465 F,0,76853,,1 V,19,76853,77559,0,0.3,0.3,0.3 F,0,78264,,0
Sprite,Foreground,CentreRight,"sb\f\c\004d.png",396.65,258.465 F,0,78264,,1 V,18,78264,78970,0.3,0.3,0,0.3 F,0,78970,,0
Sprite,Foreground,CentreLeft,"sb\f\c\0075.png",396.65,258.465 F,0,76882,,1 V,19,76882,77588,0,0.3,0.3,0.3 F,0,78293,,0
Sprite,Foreground,CentreRight,"sb\f\c\0075.png",419.45,258.465 F,0,78293,,1 V,18,78293,78999,0.3,0.3,0,0.3 F,0,78999,,0
Sprite,Foreground,CentreLeft,"sb\f\c\006e.png",419.45,258.465 F,0,76912,,1 V,19,76912,77618,0,0.3,0.3,0.3 F,0,78323,,0
Sprite,Foreground,CentreRight,"sb\f\c\006e.png",442.2499,258.465 F,0,78323,,1 V,18,78323,79029,0.3,0.3,0,0.3 F,0,79029,,0
Sprite,Foreground,CentreLeft,"sb\f\c\0065.png",442.2499,258.465 F,0,76941,,1 V,19,76941,77647,0,0.3,0.3,0.3 F,0,78352,,0
Sprite,Foreground,CentreRight,"sb\f\c\0065.png",463.8499,258.465 F,0,78352,,1 V,18,78352,79058,0.3,0.3,0,0.3 F,0,79058,,0
//Storyboard Layer 4 (Overlay)
//Storyboard Sound Samples

[TimingPoints]
30,352.941176470588,4,2,1,60,1,0
79088,-100,4,2,2,60,0,0
90382,-100,4,2,1,60,0,1
100088,-100,4,2,1,60,0,0
101677,-100,4,2,1,60,0,1
111559,-100,4,2,1,60,0,0
123206,-100,4,2,2,60,0,0
124265,-100,4,2,1,60,0,0
135559,-100,4,2,1,60,0,1
145265,-100,4,2,1,60,0,0
146853,-100,4,2,1,60,0,1
152500,-100,4,2,1,60,0,0
152853,-100,4,2,1,30,0,0
154088,-100,4,2,1,25,0,0
154441,-100,4,2,1,20,0,0
154794,-100,4,2,1,15,0,0
155677,-100,4,2,1,10,0,0

[Colours]
Combo1 : 255,179,142
Combo2 : 255,255,125
Combo3 : 111,255,255
Combo4 : 255,125,125

[HitObjects]
200,309,30,6,0,P|147:365|71:355,1,160,4|4,0:0|0:0,0:0:0:0:
115,268,1088,1,4,0:0:0:0:
96,173,1441,2,0,L|68:-1,1,160,4|4,0:0|0:0,0:0:0:0:
215,141,2853,6,4,B|254:119|303:137|273:165|328:180|363:160,1,160
417,80,3912,1,4,0:0:0:0:
456,174,4265,2,4,P|512:226|501:303,1,160
313,343,5677,6,0,B|269:337|252:305|252:305|221:383|136:366,1,160,4|4,0:0|0:0,0:0:0:0:
168,273,6735,1,4,0:0:0:0:
72,261,7088,2,0,B|78:217|110:200|110:200|32:169|49:84,1,160,4|4,0:0|0:0,0:0:0:0:
229,71,8500,6,0,P|281:15|358:25,1,160,4|4,0:0|0:0,0:0:0:0:
314,111,9558,1,4,0:0:0:0:
408,94,9912,2,4,B|430:133|412:182|384:152|369:207|389:242,1,160
460,305,10971,1,4,0:0:0:0:
370,339,11324,6,0,B|322:332|303:297|303:297|269:382|176:364,1,240,4|6,0:0|0:0,0:0:0:0:
109,295,12735,2,0,P|93:245|111:197,1,79.9999999999999,4|4,0:0|0:0,0:0:0:0:
146,135,13441,2,0,P|196:119|244:137,1,79.9999999999999,4|6,0:0|0:0,0:0:0:0:
288,193,14147,6,0,B|338:165|421:187|376:230|450:257|509:224,1,240,4|6,0:0|0:0,0:0:0:0:
466,137,15559,2,0,L|481:21,2,79.9999999999999,4|4|4,0:0|0:0|0:0,0:0:0:0:
383,87,16618,1,6,0:0:0:0:
371,182,16971,6,0,B|361:217|398:254|398:254|351:273|322:256|322:256|288:279|301:330|301:330|271:294|227:305|227:305|239:261|206:236|206:236|178:268|135:258|135:258|121:299|74:305,1,559.999999999999,8|8,0:0|0:0,0:0:0:0:
56,210,19794,2,0,B|50:170|81:148|81:148|46:129|32:88|56:51|89:31|134:35|162:70,1,240,8|8,0:0|0:0,0:0:0:0:
256,192,21206,12,4,22618,0:1:0:0:
163,91,45206,6,0,B|210:80|230:48|230:48|257:85|294:86,1,160,4|0,0:1|0:0,0:0:0:0:
387,138,46265,1,2,0:0:0:0:
386,42,46618,2,0,P|437:53|469:92,2,79.9999999999999,0|2|0,0:0|0:0|0:0,0:0:0:0:
387,138,47677,2,0,B|354:197|381:271|424:226|446:309|418:359,1,240,2|0,0:0|0:0,0:0:0:0:
235,299,49441,6,0,P|272:312|311:308,2,79.9999999999999,0|2|0,0:0|0:0|0:0,0:0:0:0:
155,244,50500,1,2,0:0:0:0:
76,299,50853,1,0,0:0:0:0:
384,63,52265,6,0,B|433:74|466:62|490:35|490:35|443:89|473:145|473:145|499:188|467:236,2,320
296,102,55441,1,2,0:0:0:0:
218,44,55794,2,0,P|181:31|142:35,1,79.9999999999999,0|2,0:0|0:0,0:0:0:0:
171,125,56500,6,0,B|148:165|166:215|196:184|211:241|192:275,1,160,4|0,0:1|0:0,0:0:0:0:
98,259,57559,1,2,0:0:0:0:
132,348,57912,2,0,P|101:371|62:376,2,79.9999999999999,0|2|0,0:0|0:0|0:0,0:0:0:0:
193,272,58971,2,0,B|261:259|261:259|270:250|270:250|282:256|282:256|345:244|345:244|338:293|391:326,1,240,2|0,0:0|0:0,0:0:0:0:
500,169,60735,6,0,P|513:132|509:93,2,79.9999999999999,0|2|0,0:0|0:0|0:0,0:0:0:0:
445,249,61794,1,2,0:0:0:0:
500,327,62147,1,0,0:0:0:0:
203,83,63559,6,0,B|89:100|89:100|73:153|100:190|145:205|145:205|98:203|70:256,2,320,0|0|0,0:0|0:0|0:0,0:0:0:0:
463,364,67794,6,0,P|423:358|392:334,1,79.9999999999999,4|2,0:1|0:0,0:0:0:0:
459,265,68500,1,2,0:0:0:0:
330,200,69029,2,0,L|319:120,1,79.9999999999999,2|2,0:0|0:0,0:0:0:0:
365,36,69735,2,0,L|246:51,1,120,2|2,0:0|0:0,0:0:0:0:
54,69,70971,5,2,0:0:0:0:
54,69,71324,1,2,0:0:0:0:
126,185,71853,2,0,P|93:207|54:212,1,79.9999999999999,2|2,0:0|0:0,0:0:0:0:
67,307,72559,2,0,P|126:300|174:266,1,120,2|2,0:0|0:0,0:0:0:0:
247,88,73794,5,2,0:0:0:0:
247,88,74147,1,2,0:0:0:0:
151,5,74677,2,0,P|124:35|114:74,1,79.9999999999999,2|2,0:0|0:0,0:0:0:0:
123,168,75382,2,0,P|162:219|231:231,1,120,2|2,0:0|0:0,0:0:0:0:
372,124,76618,6,0,P|399:94|409:55,1,79.9999999999999,2|2,0:0|0:0,0:0:0:0:
268,87,77500,2,0,B|247:155|295:243|331:180|381:258|359:333,1,280,2|2,0:0|0:0,0:0:0:0:
269,299,79088,6,0,L|155:317,1,79.9999999999999,12|8,0:0|0:0,0:0:0:0:
200,215,79794,2,0,L|86:233,1,79.9999999999999,8|8,0:0|0:0,0:0:0:0:
131,131,80500,2,0,L|17:149,1,79.9999999999999,8|8,0:0|0:0,0:0:0:0:
62,47,81206,1,8,0:0:0:0:
253,27,81912,6,0,P|257:66|244:103,1,79.9999999999999,8|8,0:0|0:0,0:0:0:0:
334,137,82618,2,0,P|311:170|277:190,1,79.9999999999999,8|8,0:0|0:0,0:0:0:0:
352,251,83324,2,0,P|320:274|281:281,1,79.9999999999999,8|8,0:0|0:0,0:0:0:0:
333,362,84029,1,8,0:0:0:0:
156,285,84735,6,0,B|80:310|80:310|54:235|54:235|130:210|130:210|104:133|104:133|28:157|28:157|6:81|6:81|121:45,1,559.999999999999,8|8,0:0|0:0,0:0:0:0:
256,192,87559,12,0,88971,0:0:0:0:
328,112,90382,5,4,0:1:0:0:
266,42,90735,1,8,0:0:0:0:
359,21,91088,2,0,P|393:40|419:71,1,79.9999999999999,4|8,0:0|0:0,0:0:0:0:
405,168,91794,2,0,B|379:209|339:212|339:212|403:277|348:355,1,240,4|8,0:0|0:0,0:0:0:0:
156,359,93559,5,8,0:0:0:0:
169,259,93912,2,0,L|55:285,1,79.9999999999999,4|8,0:0|0:0,0:0:0:0:
31,201,94618,2,0,B|186:167|186:167|161:66,1,240,4|8,0:0|0:0,0:0:0:0:
354,49,96382,5,8,0:0:0:0:
267,89,96735,2,0,P|293:118|328:137,1,79.9999999999999,4|8,0:0|0:0,0:0:0:0:
421,112,97441,2,0,B|442:165|410:244|373:194|337:264|363:327,1,240,4|8,0:0|0:0,0:0:0:0:
243,177,99206,5,8,0:0:0:0:
210,267,99559,2,0,L|123:259,2,79.9999999999999,4|8|0,0:0|0:0|0:0,0:0:0:0:
269,84,100971,2,0,L|348:91,1,79.9999999999999,0|0,0:0|0:0,0:0:0:0:
444,90,101677,5,4,0:1:0:0:
394,171,102029,1,8,0:0:0:0:
462,238,102382,2,0,P|433:264|414:299,1,79.9999999999999,4|8,0:0|0:0,0:0:0:0:
333,353,103088,2,0,B|318:297|258:271|206:303|206:303|252:351|244:440,1,240,4|8,0:0|0:0,0:0:0:0:
288,187,104853,5,8,0:0:0:0:
244,101,105206,2,0,P|214:127|196:162,1,79.9999999999999,4|8,0:0|0:0,0:0:0:0:
135,237,105912,2,0,B|96:198|89:138|126:88|126:88|98:118|50:111,1,240,4|8,0:0|0:0,0:0:0:0:
227,23,107677,5,8,0:0:0:0:
322,24,108030,2,0,L|296:138,1,79.9999999999999,4|8,0:0|2:0,0:0:0:0:
288,196,108735,2,0,B|341:175|420:207|370:244|440:280|503:254,1,240,4|8,2:0|0:0,0:0:0:0:
469,64,110500,5,8,2:0:0:0:
469,64,110853,1,4,0:0:0:0:
256,192,111559,12,4,112971,0:1:0:0:
159,29,114382,6,0,B|212:8|291:40|241:77|311:113|374:87,1,240,4|8,0:0|0:0,0:0:0:0:
457,36,115794,2,0,P|471:78|465:118,1,79.9999999999999,4|8,0:0|0:0,0:0:0:0:
401,182,116500,2,0,P|401:226|421:262,1,79.9999999999999,4|8,0:0|0:0,0:0:0:0:
512,268,117206,2,0,P|475:335|318:283,1,240,4|8,0:0|0:0,0:0:0:0:
260,249,118618,5,4,0:0:0:0:
221,336,118971,1,8,0:0:0:0:
133,295,119324,2,0,L|31:317,1,79.9999999999999,4|8,0:0|0:0,0:0:0:0:
10,226,120029,2,0,B|63:192|71:130|71:130|87:184|157:204,2,240,4|8|4,0:0|0:0|0:0,0:0:0:0:
251,67,123206,2,0,P|213:54|173:58,2,79.9999999999999,2|2|2,0:1|0:1|0:1,0:0:0:0:
315,138,124265,6,0,L|393:122,1,79.9999999999999,4|8,0:1|0:0,0:0:0:0:
487,99,124971,2,0,L|471:177,1,79.9999999999999,4|8,0:0|0:0,0:0:0:0:
485,272,125677,2,0,B|407:255|407:255|402:361|291:364,1,240,4|8,0:0|0:0,0:0:0:0:
224,315,127088,5,4,0:0:0:0:
261,226,127441,1,8,0:0:0:0:
208,145,127794,2,0,P|170:132|130:136,1,79.9999999999999,4|8,0:0|0:0,0:0:0:0:
48,184,128500,2,0,B|2:96|89:107|30:10|30:10|22:48|7:63,1,240,4|8,0:0|0:0,0:0:0:0:
256,192,129912,12,0,134147,0:0:0:0:
411,231,135559,5,4,0:1:0:0:
401,136,135912,1,8,0:0:0:0:
428,45,136265,2,0,P|388:41|350:53,1,79.9999999999999,4|8,0:0|0:0,0:0:0:0:
299,134,136971,2,0,B|272:91|230:85|230:85|200:100|168:82|168:82|157:125|104:139,1,240,4|8,0:0|0:0,0:0:0:0:
191,310,138735,5,8,0:0:0:0:
254,381,139088,2,0,P|277:348|286:309,1,79.9999999999999,4|8,0:0|0:0,0:0:0:0:
315,218,139794,2,0,B|367:196|413:223|425:270|425:270|434:267|434:267|425:270|425:270|428:328|482:336,1,240,4|8,0:0|0:0,0:0:0:0:
444,141,141559,5,8,0:0:0:0:
509,58,141912,2,0,L|431:41,1,79.9999999999999,4|8,0:0|0:0,0:0:0:0:
353,97,142618,2,0,B|254:47|259:142|178:134|149:87|187:38|223:77,1,240,4|8,0:0|0:0,0:0:0:0:
299,248,144382,5,8,0:0:0:0:
382,295,144735,2,0,P|356:325|319:340,2,79.9999999999999,4|8|0,0:0|0:0|0:0,0:0:0:0:
193,256,146147,2,0,P|201:294|227:325,1,79.9999999999999,2|2,0:1|0:1,0:0:0:0:
283,247,146853,6,0,P|319:232|345:202,1,79.9999999999999,4|8,0:1|0:0,0:0:0:0:
259,159,147559,2,0,P|244:122|214:96,1,79.9999999999999,4|8,0:0|0:0,0:0:0:0:
159,175,148265,2,0,B|117:158|114:117|114:117|77:140|30:131|8:88|8:46|36:6|84:-1,1,240,4|8,0:0|0:0,0:0:0:0:
223,32,150029,5,8,0:0:0:0:
323,19,150382,2,0,L|306:97,1,79.9999999999999,4|8,0:0|0:0,0:0:0:0:
291,192,151088,2,0,B|281:247|281:247|287:267|287:267|273:278|273:278|274:304|274:304|222:304|189:348|197:395,1,240,4|8,0:0|0:0,0:0:0:0:
374,305,152853,5,0,0:0:0:0:
374,305,153206,1,2,0:0:0:0:
291,192,153735,2,0,P|295:152|312:116,1,79.9999999999999,0|2,0:0|0:0,0:0:0:0:
392,62,154441,2,0,P|346:25|287:28,1,120,0|2,0:0|0:0,0:0:0:0:
191,194,155677,5,0,0:0:0:0:
191,194,156029,2,0,B|188:220|204:261|212:232|229:268|225:305,1,120,2|2,0:0|0:0,0:0:0:0:
256,192,156735,12,0,158147,0:0:0:0:
