osu file format v14

[General]
AudioFilename: upallnight.mp3
AudioLeadIn: 0
PreviewTime: 67614
Countdown: 0
SampleSet: Soft
StackLeniency: 0.7
Mode: 0
LetterboxInBreaks: 0
EpilepsyWarning: 1
WidescreenStoryboard: 1

[Editor]
DistanceSpacing: 0.7
BeatDivisor: 4
GridSize: 4
TimelineZoom: 2.999999

[Metadata]
Title:All Night
TitleUnicode:All Night
Artist:Stonebank
ArtistUnicode:Stonebank
Creator:Monstrata
Version:Hi-Speed Extra
Source:
Tags:monstercat rizen slayed haruto rave rave-up FCL Shiirn Ongaku Lasse Joey [Joey] haruto_aizawa haruto-
BeatmapID:895077
BeatmapSetID:410998

[Difficulty]
HPDrainRate:7.5
CircleSize:3
OverallDifficulty:7
ApproachRate:9.6
SliderMultiplier:2.24
SliderTickRate:1

[Events]
//Background and Video events
0,0,"Konachan.com - 169862 crying dark daro_(645046276) gray_hair jpeg_artifacts moon night original planet ruins short_hair sky stars.jpg",0,0
//Break Periods
//Storyboard Layer 0 (Background)
//Storyboard Layer 1 (Fail)
//Storyboard Layer 2 (Pass)
//Storyboard Layer 3 (Foreground)
//Storyboard Sound Samples

[TimingPoints]
26,352.941176470588,4,2,1,50,1,0
26,-133.333333333333,4,2,1,50,0,0
11320,-114.285714285714,4,2,1,60,0,0
22614,-100,4,2,1,70,0,0
44496,-76.9230769230769,4,2,1,70,0,0
45555,-100,4,2,1,70,0,0
56496,-100,4,3,1,40,0,0
57908,-100,4,3,1,50,0,0
59320,-90.9090909090909,4,3,1,60,0,0
60731,-90.9090909090909,4,3,1,70,0,0
62143,-83.3333333333333,4,1,1,50,0,0
62673,-76.9230769230769,4,1,1,50,0,0
63025,-71.4285714285714,4,1,1,50,0,0
63378,-66.6666666666667,4,1,1,50,0,0
63731,-62.5,4,1,1,50,0,0
64084,-58.8235294117647,4,1,1,50,0,0
64437,-55.5555555555556,4,1,1,50,0,0
64790,-52.6315789473684,4,1,1,50,0,0
65320,-47.6190476190476,4,1,1,60,0,0
65673,-43.4782608695652,4,1,1,60,0,0
66025,-40,4,1,1,60,0,0
66378,-36.3636363636364,4,1,1,70,0,0
67084,-30,4,1,1,70,0,0
67790,-66.6666666666667,4,1,1,80,0,1
88261,-66.6666666666667,4,1,1,50,0,1
88790,-66.6666666666667,4,1,1,80,0,1
88967,-50,4,1,1,80,0,1
90290,-100,4,1,1,70,0,0
90378,-66.6666666666667,4,1,1,70,0,1
100967,-44.4444444444445,4,1,1,70,0,1
101143,-36.3636363636364,4,1,1,70,0,1
101320,-30.7692307692308,4,1,1,70,0,1
101496,-26.6666666666667,4,1,1,70,0,1
101673,-66.6666666666667,4,1,1,70,0,1
110143,-117.647058823529,4,2,1,70,0,0
110496,-133.333333333333,4,2,1,70,0,0
111908,-200,4,2,1,50,0,0
112437,-400,4,2,1,40,0,0

[Colours]
Combo1 : 168,168,213
Combo2 : 80,219,254
Combo3 : 57,147,255
Combo4 : 175,96,255

[HitObjects]
10,193,26,6,0,P|87:167|161:202,1,168.000006408692,6|0,0:2|0:0,0:0:0:0:
261,111,555,2,0,B|243:161|243:161|263:274,1,168.000006408692,2|2,0:0|0:0,0:0:0:0:
263,274,1261,6,0,L|370:284,1,84.0000032043458,2|0,0:0|0:0,0:0:0:0:
417,366,1614,2,0,L|333:373,1,84.0000032043458,2|0,0:0|0:0,0:0:0:0:
179,297,1967,2,0,L|346:281,1,168.000006408692,2|0,0:0|0:0,0:0:0:0:
374,129,2496,2,0,P|356:166|323:191,1,84.0000032043458,2|0,0:0|0:0,0:0:0:0:
206,113,2849,6,0,L|373:128,1,168.000006408692,2|0,0:0|0:0,0:0:0:0:
198,29,3378,2,0,L|216:222,1,168.000006408692,2|2,0:0|0:0,0:0:0:0:
213,196,4084,6,0,P|173:218|151:250,1,84.0000032043458,2|0,0:0|0:0,0:0:0:0:
253,366,4437,2,0,P|235:328|236:286,1,84.0000032043458,2|0,0:0|0:0,0:0:0:0:
294,151,4790,2,0,P|297:232|236:286,1,168.000006408692,2|0,0:0|0:0,0:0:0:0:
294,151,5320,2,0,P|329:172|371:176,1,84.0000032043458,2|0,0:0|0:0,0:0:0:0:
438,58,5673,6,0,B|358:84|358:84|274:38,1,168.000006408692,2|0,0:0|0:0,0:0:0:0:
178,59,6202,2,0,P|257:76|293:149,1,168.000006408692,2|2,0:0|0:0,0:0:0:0:
293,149,6908,6,0,P|328:170|370:174,1,84.0000032043458,2|0,0:0|0:0,0:0:0:0:
384,196,7261,2,0,P|322:189|268:157,1,126.000004806519,2|0,0:0|0:0,0:0:0:0:
245,166,7614,2,0,P|315:209|398:217,1,168.000006408692,2|0,0:0|0:0,0:0:0:0:
253,82,8143,2,0,L|243:182,1,84.0000032043458,2|0,0:0|0:0,0:0:0:0:
128,113,8496,6,0,B|152:159|152:159|141:274,1,168.000006408692,2|0,0:0|0:0,0:0:0:0:
67,180,9025,2,0,L|259:199,1,168.000006408692,2|2,0:0|0:0,0:0:0:0:
234,196,9731,6,0,B|240:238|240:238|222:275,1,84.0000032043458,2|0,0:0|0:0,0:0:0:0:
253,299,10084,2,0,B|278:245|278:245|269:179,1,126.000004806519,2|0,0:0|0:0,0:0:0:0:
303,167,10437,2,0,B|315:254|315:254|281:326,1,168.000006408692,2|0,0:0|0:0,0:0:0:0:
394,208,10967,2,0,B|388:165|388:165|405:128,1,84.0000032043458,2|0,0:0|0:0,0:0:0:0:
375,1,11320,6,0,P|348:41|303:57,1,98.0000009346008,2|0,0:0|0:0,0:0:0:0:
200,24,11673,2,0,L|221:156,1,98.0000009346008,2|2,0:1|0:0,0:0:0:0:
253,299,12025,1,2,0:1:0:0:
291,196,12202,2,0,P|361:183|424:219,1,147.000001401901,2|0,0:0|0:0,0:0:0:0:
456,176,12555,6,0,L|444:273,1,98.0000009346008,2|0,0:0|0:0,0:0:0:0:
357,381,12908,2,0,L|345:283,1,98.0000009346008,2|0,0:0|0:0,0:0:0:0:
325,115,13261,2,0,P|291:198|196:193,1,196.000001869202,2|0,0:0|0:0,0:0:0:0:
281,62,13790,2,0,P|326:78|374:69,1,98.0000009346008,2|0,0:0|0:0,0:0:0:0:
180,1,14143,6,0,L|193:142,2,98.0000009346008,2|0|0,0:0|0:0|0:0,0:0:0:0:
92,46,14673,2,0,L|102:155,1,98.0000009346008,2|0,0:0|0:0,0:0:0:0:
4,91,15025,2,0,L|14:200,1,98.0000009346008,0|0,0:0|0:0,0:0:0:0:
189,249,15378,6,0,P|144:229|96:237,1,98.0000009346008,2|0,0:0|0:0,0:0:0:0:
239,164,15731,2,0,P|283:144|331:152,1,98.0000009346008,2|0,0:0|0:0,0:0:0:0:
488,106,16084,2,0,P|396:85|330:152,1,196.000001869202,2|0,0:0|0:0,0:0:0:0:
453,273,16614,2,0,L|424:179,1,98.0000009346008,2|0,0:0|0:0,0:0:0:0:
290,322,16967,6,0,L|385:344,1,98.0000009346008,2|0,0:0|0:0,0:0:0:0:
329,156,17320,2,0,L|261:227,1,98.0000009346008,2|2,0:1|0:0,0:0:0:0:
141,342,17673,1,2,0:1:0:0:
156,235,17849,2,0,P|129:180|30:162,1,147.000001401901,2|0,0:0|0:0,0:0:0:0:
23,109,18202,6,0,L|30:206,1,98.0000009346008,2|0,0:0|0:0,0:0:0:0:
163,137,18555,2,0,L|155:234,1,98.0000009346008,2|0,0:0|0:0,0:0:0:0:
296,183,18908,2,0,B|273:279|273:279|335:268|377:328,1,196.000001869202,2|0,0:0|0:0,0:0:0:0:
288,384,19437,2,0,P|237:379|189:342,1,98.0000009346008,2|0,0:0|0:0,0:0:0:0:
187,173,19790,6,0,B|205:208|205:208|191:265,2,98.0000009346008,2|0|0,0:0|0:0|0:0,0:0:0:0:
123,80,20320,2,0,P|156:115|205:127,1,98.0000009346008,2|0,0:0|0:0,0:0:0:0:
255,1,20673,2,0,P|266:48|301:82,1,98.0000009346008,2|0,0:0|0:0,0:0:0:0:
464,59,21025,6,0,P|430:94|384:106,1,98.0000009346008,2|0,0:0|0:0,0:0:0:0:
436,212,21378,2,0,L|339:204,1,98.0000009346008,2|0,0:0|0:0,0:0:0:0:
437,369,21731,2,0,P|366:307|280:342,1,196.000001869202,2|0,0:0|0:0,0:0:0:0:
106,286,22261,2,0,L|204:278,1,98.0000009346008,2|0,0:0|0:0,0:0:0:0:
56,142,22614,6,0,P|96:179|151:188,2,112,4|0|0,0:1|0:0|0:0,0:0:0:0:
206,69,23143,2,0,P|169:172|203:278,1,224,2|2,0:0|0:0,0:0:0:0:
202,277,23849,6,0,B|158:307|158:307|69:307,1,112,2|0,0:0|0:0,0:0:0:0:
28,192,24202,2,0,B|72:222|72:222|161:222,1,112,2|0,0:0|0:0,0:0:0:0:
314,107,24555,2,0,B|270:137|270:137|90:137,1,224,2|0,0:0|3:0,0:0:0:0:
240,49,25084,2,0,P|285:18|340:19,1,112,2|0,0:0|0:0,0:0:0:0:
504,114,25437,6,0,P|458:82|403:83,2,112,2|0|0,0:0|3:0|1:0,0:0:0:0:
390,297,25967,2,0,B|422:238|422:238|401:73,1,224,2|2,0:0|0:0,0:0:0:0:
240,49,26496,1,0,3:0:0:0:
314,107,26673,6,0,L|333:262,1,112,0|0,0:0|0:0,0:0:0:0:
210,272,27025,2,0,L|224:160,1,112,2|0,0:0|3:0,0:0:0:0:
128,86,27378,2,0,P|131:195|209:271,1,224,0|0,0:0|3:0,0:0:0:0:
432,291,27908,2,0,L|321:282,1,112,2|0,0:0|3:0,0:0:0:0:
143,381,28261,6,0,L|254:371,2,112,2|0|0,0:0|0:0|0:0,0:0:0:0:
254,370,28790,2,0,B|216:264|296:264|252:152,1,224,2|2,0:0|0:0,0:0:0:0:
252,152,29496,6,0,L|363:162,1,112,2|0,0:0|0:0,0:0:0:0:
402,311,29849,2,0,P|362:272|309:260,1,112,2|0,0:0|0:0,0:0:0:0:
125,325,30202,2,0,P|229:338|309:258,1,224,2|0,0:0|3:0,0:0:0:0:
142,113,30731,2,0,L|189:215,1,112,2|0,0:0|3:0,0:0:0:0:
30,324,31084,6,0,P|46:271|89:236,2,112,2|0|0,0:0|3:0|1:0,0:0:0:0:
29,134,31614,2,0,P|98:217|205:208,1,224,2|2,0:0|0:0,0:0:0:0:
262,111,32143,1,0,3:0:0:0:
301,272,32320,6,0,L|332:403,1,112,2|0,0:0|0:0,0:0:0:0:
374,202,32673,2,0,L|405:333,1,112,2|0,0:0|3:0,0:0:0:0:
451,93,33025,2,0,L|399:310,1,224,0|0,0:0|3:0,0:0:0:0:
262,111,33555,1,2,0:0:0:0:
301,272,33731,1,0,3:0:0:0:
350,54,33908,6,0,P|333:33|310:16,3,56,2|0|0|0,0:0|0:0|0:0|0:0,0:0:0:0:
457,37,34261,2,0,L|447:129,3,56,2|0|0|0,0:1|0:0|0:0|0:0,0:0:0:0:
368,206,34614,6,0,L|361:150,1,56,0|0,3:0|0:0,0:0:0:0:
285,239,34790,2,0,L|278:183,1,56,2|0,0:0|0:0,0:0:0:0:
202,272,34967,2,0,L|195:216,1,56,2|0,0:1|0:0,0:0:0:0:
119,305,35143,2,0,L|112:249,1,56,0|0,3:0|0:0,0:0:0:0:
36,338,35320,6,0,L|29:282,3,56,2|0|0|0,0:0|0:0|0:0|0:0,0:0:0:0:
86,157,35673,2,0,P|67:177|44:193,3,56,2|0|0|0,0:1|0:0|0:0|0:0,0:0:0:0:
17,52,36025,6,0,L|11:108,1,56,0|0,3:0|0:0,0:0:0:0:
108,11,36202,2,0,L|101:66,1,56,2|0,0:0|0:0,0:0:0:0:
189,69,36378,2,0,L|182:124,1,56,2|0,0:1|0:0,0:0:0:0:
279,27,36555,2,0,L|272:82,1,56,0|0,3:0|0:0,0:0:0:0:
360,85,36731,6,0,L|353:140,3,56,2|0|0|0,0:0|0:0|0:0|0:0,0:0:0:0:
363,296,37084,2,0,L|307:289,3,56,2|0|2|0,0:1|0:0|0:0|0:0,0:0:0:0:
152,299,37437,6,0,L|158:243,1,56,0|0,0:0|0:0,0:0:0:0:
137,126,37614,2,0,P|126:151|107:171,1,56,0|0,3:0|0:0,0:0:0:0:
161,311,37790,6,0,L|181:258,1,56,2|0,0:1|0:0,0:0:0:0:
147,113,37967,2,0,P|129:134|105:149,1,56,0|0,0:0|0:0,0:0:0:0:
6,331,38143,6,0,L|61:324,3,56,2|0|0|0,0:0|0:0|0:0|0:0,0:0:0:0:
22,179,38496,2,0,L|28:234,3,56,2|0|0|0,0:1|0:0|0:0|0:0,0:0:0:0:
216,318,38849,6,0,L|161:311,1,56,0|0,3:0|0:0,0:0:0:0:
248,195,39025,2,0,P|255:229|283:262,1,56,2|0,0:0|0:0,0:0:0:0:
356,339,39202,6,0,L|301:332,1,56,2|0,0:1|0:0,0:0:0:0:
374,161,39378,2,0,P|381:195|409:228,1,56,0|0,0:0|0:0,0:0:0:0:
496,360,39555,6,0,L|441:353,3,56,2|0|0|0,0:0|0:0|0:0|0:0,0:0:0:0:
310,303,39908,2,0,L|365:296,3,56,2|0|2|0,0:1|0:0|0:0|0:0,0:0:0:0:
140,378,40261,1,0,0:0:0:0:
112,376,40349,1,0,0:0:0:0:
86,364,40437,1,0,3:0:0:0:
67,344,40525,1,0,0:0:0:0:
56,319,40614,2,0,L|71:250,3,56,2|0|0|0,0:1|0:0|0:0|0:0,0:0:0:0:
109,146,40967,6,0,P|113:173|126:198,3,56,2|0|0|0,0:0|0:0|0:0|0:0,0:0:0:0:
256,164,41320,2,0,P|228:163|202:152,3,56,2|0|2|0,0:1|0:0|0:0|0:0,0:0:0:0:
319,82,41673,1,0,0:0:0:0:
316,109,41761,1,0,0:0:0:0:
313,137,41849,1,0,3:0:0:0:
311,165,41937,1,0,0:0:0:0:
308,193,42025,2,0,P|333:182|361:181,3,56,2|0|0|0,0:1|0:0|0:0|0:0,0:0:0:0:
506,198,42378,6,0,L|433:189,3,56,2|0|0|0,0:0|0:0|0:0|0:0,0:0:0:0:
391,316,42731,2,0,L|400:243,3,56,2|0|2|0,0:1|0:0|0:0|0:0,0:0:0:0:
308,193,43084,1,0,0:0:0:0:
304,220,43172,1,0,0:0:0:0:
290,244,43260,1,0,3:0:0:0:
269,263,43348,1,0,0:0:0:0:
243,272,43437,2,0,L|170:263,3,56,2|0|0|0,0:1|0:0|0:0|0:0,0:0:0:0:
101,145,43790,6,0,P|121:164|134:188,3,56,2|0|0|0,0:0|0:0|0:0|0:0,0:0:0:0:
63,318,44143,2,0,L|107:259,3,56,2|0|0|0,0:1|0:0|0:0|0:0,0:0:0:0:
202,50,44496,6,0,P|203:86|214:120,1,72.7999966674806,2|0,0:0|0:0,0:0:0:0:
382,275,44673,2,0,P|360:246|331:225,1,72.7999966674806,2|0,0:0|0:0,0:0:0:0:
104,198,44849,2,0,P|139:208|175:209,1,72.7999966674806,2|0,0:0|0:0,0:0:0:0:
374,97,45026,2,0,P|340:109|310:130,1,72.7999966674806,2|0,0:0|0:0,0:0:0:0:
146,361,45202,6,0,P|213:336|247:273,1,145.599993334961,2|2,0:3|3:2,0:0:0:0:
288,75,45555,6,0,L|314:234,1,112,2|0,0:1|0:0,0:0:0:0:
382,275,45908,2,0,L|400:164,2,112,8|0|0,0:0|0:0|0:0,0:0:0:0:
257,41,46437,6,0,L|283:200,1,112,2|0,0:1|0:0,0:0:0:0:
399,317,46790,2,0,L|417:206,2,112,8|0|2,0:0|0:0|0:0,0:0:0:0:
268,268,47320,6,0,P|214:257|161:272,1,112,8|0,0:0|0:0,0:0:0:0:
32,286,47673,2,0,P|68:244|83:191,1,112,8|2,0:0|0:0,0:0:0:0:
135,72,48025,5,0,3:0:0:0:
192,163,48201,1,0,3:0:0:0:
294,52,48378,6,0,P|352:35|424:66,1,112,2|0,0:1|0:0,0:0:0:0:
461,150,48731,2,0,L|351:132,2,112,8|0|0,0:0|0:0|0:0,0:0:0:0:
512,16,49261,6,0,P|454:-1|382:30,1,112,2|0,0:1|0:0,0:0:0:0:
344,114,49614,2,0,L|454:95,2,112,8|0|2,0:0|0:0|0:0,0:0:0:0:
212,222,50143,6,0,L|101:203,1,112,8|0,0:0|0:0,0:0:0:0:
249,64,50496,1,8,0:0:0:0:
278,168,50673,1,0,0:0:0:0:
307,272,50849,6,0,P|358:291|413:283,1,112,0|0,3:0|3:0,0:0:0:0:
203,245,51202,6,0,L|219:365,1,112,2|0,0:1|0:0,0:0:0:0:
39,239,51555,2,0,P|89:261|113:310,2,112,8|2|0,0:0|0:0|0:0,0:0:0:0:
217,133,52084,6,0,L|201:253,1,112,2|0,0:1|0:0,0:0:0:0:
60,85,52437,2,0,P|102:119|113:173,2,112,8|0|2,0:0|0:0|0:0,0:0:0:0:
39,239,52967,6,0,L|224:200,1,168,8|0,0:0|0:0,0:0:0:0:
287,195,53320,2,0,P|244:229|233:283,1,112,8|0,0:0|0:0,0:0:0:0:
386,208,53673,6,0,L|505:220,1,112,0|0,3:0|3:0,0:0:0:0:
329,144,54025,6,0,L|341:263,1,112,2|0,0:1|0:0,0:0:0:0:
149,288,54378,2,0,P|185:247|240:239,2,112,8|2|0,0:0|0:0|0:0,0:0:0:0:
150,0,54908,6,0,L|138:119,1,112,2|0,0:1|0:0,0:0:0:0:
329,144,55261,2,0,P|292:102|238:94,2,112,8|0|2,0:0|0:0|0:0,0:0:0:0:
242,341,55790,5,2,0:0:0:0:
251,179,55967,1,0,0:0:0:0:
338,306,56143,1,2,3:2:0:0:
238,93,56320,1,0,3:0:0:0:
131,356,56496,6,0,L|242:341,1,112,2|0,0:3|0:0,0:0:0:0:
354,267,56761,1,0,0:0:0:0:
354,267,56849,2,0,L|211:247,1,112,8|0,0:2|0:0,0:0:0:0:
131,178,57114,1,0,0:0:0:0:
131,178,57202,6,0,L|207:167,1,56,2|0,0:1|0:0,0:0:0:0:
298,96,57378,2,0,L|221:85,1,56,0|0,0:0|0:0,0:0:0:0:
75,21,57555,2,0,L|186:6,1,112,8|0,0:2|0:0,0:0:0:0:
437,21,57908,6,0,L|326:6,1,112,2|0,0:1|0:0,0:0:0:0:
187,110,58173,1,0,0:0:0:0:
187,110,58261,2,0,L|298:95,1,112,8|0,0:2|0:0,0:0:0:0:
381,191,58526,1,0,0:0:0:0:
381,191,58614,6,0,L|326:184,1,56,2|0,0:1|0:0,0:0:0:0:
242,280,58790,2,0,L|297:272,1,56,0|0,0:0|0:0,0:0:0:0:
436,375,58967,2,0,L|325:360,1,112,8|0,0:2|0:0,0:0:0:0:
63,361,59320,6,0,L|186:378,1,123.200003759766,2|0,0:1|0:0,0:0:0:0:
336,272,59584,1,0,0:0:0:0:
336,272,59673,2,0,L|214:289,1,123.200003759766,8|0,0:2|0:0,0:0:0:0:
124,191,59938,1,0,0:0:0:0:
124,191,60026,6,0,L|185:199,1,61.6000018798829,2|0,0:1|0:0,0:0:0:0:
275,103,60202,2,0,L|214:111,1,61.6000018798829,0|0,0:0|0:0,0:0:0:0:
64,7,60378,2,0,L|186:23,1,123.200003759766,8|0,0:2|0:0,0:0:0:0:
448,22,60731,6,0,L|326:6,1,123.200003759766,2|0,0:1|0:0,0:0:0:0:
176,112,60995,1,0,0:0:0:0:
175,111,61084,2,0,L|298:95,1,123.200003759766,8|0,0:2|0:0,0:0:0:0:
387,192,61349,1,0,0:0:0:0:
387,192,61437,6,0,L|326:184,1,61.6000018798829,2|0,0:1|0:0,0:0:0:0:
236,280,61613,2,0,L|297:272,1,61.6000018798829,0|0,0:0|0:0,0:0:0:0:
448,377,61790,2,0,L|325:360,1,123.200003759766,8|0,0:2|0:0,0:0:0:0:
120,368,62143,5,2,0:0:0:0:
387,192,62320,6,0,L|320:183,2,67.1999979492188,0|0|2,0:0|0:0|0:0,0:0:0:0:
71,287,62673,6,0,L|176:272,2,72.7999966674806,0|0|2,0:0|0:0|0:0,0:0:0:0:
441,287,63025,6,0,L|335:272,2,78.399997607422,0|0|2,0:0|0:0|0:0,0:0:0:0:
21,205,63378,6,0,L|126:190,2,84.0000032043458,0|0|2,0:0|0:0|0:0,0:0:0:0:
460,110,63731,6,0,L|354:95,2,89.6,0|0|2,0:0|0:0|0:0,0:0:0:0:
0,116,64084,6,0,L|94:104,2,95.2000018157959,0|0|2,0:0|0:0|0:0,0:0:0:0:
502,209,64437,6,0,L|396:194,2,100.799996923828,0|0|2,0:0|0:0|0:0,0:0:0:0:
0,304,64790,5,0,0:0:0:0:
0,304,64878,1,0,0:0:0:0:
0,304,64967,2,0,L|105:289,3,106.399997158814,0|0|2|0,0:0|0:0|0:0|0:0,0:0:0:0:
255,214,65320,6,0,L|133:198,3,117.599996411133,2|0|0|0,0:0|0:0|0:0|0:0,0:0:0:0:
180,358,65673,6,0,L|358:332,3,128.800002456665,2|0|0|0,0:0|0:0|0:0|0:0,0:0:0:0:
449,105,66025,6,0,L|265:131,3,140,2|0|0|0,0:0|0:0|0:0|0:0,0:0:0:0:
140,50,66378,6,0,L|163:213,1,154.000001468658,2|0,0:0|0:0,0:0:0:0:
97,316,66555,2,0,L|260:293,1,154.000001468658,2|0,0:0|0:0,0:0:0:0:
363,359,66731,2,0,L|340:196,1,154.000001468658,2|0,0:0|0:0,0:0:0:0:
406,93,66908,2,0,L|243:116,1,154.000001468658,2|0,0:0|0:0,0:0:0:0:
97,316,67084,6,0,L|642:393,1,373.333333333333,2|0,0:0|2:0,0:0:0:0:
444,176,67437,6,0,L|0:238,1,373.333333333333,2|0,0:0|2:0,0:0:0:0:
78,49,67790,6,0,P|170:48|227:101,1,168.000006408692,12|0,0:0|0:0,0:0:0:0:
97,316,68143,2,0,L|126:150,1,168.000006408692,10|0,0:0|0:0,0:0:0:0:
344,337,68496,2,0,L|511:323,1,168.000006408692,10|0,0:0|0:0,0:0:0:0:
373,15,68849,1,8,0:0:0:0:
238,274,69025,6,0,B|218:309|218:309|131:362|38:273,1,168.000006408692,2|8,0:0|0:0,0:0:0:0:
130,57,69378,2,0,B|159:99|159:99|153:216,2,168.000006408692,2|8|0,0:0|0:0|0:0,0:0:0:0:
7,258,69908,2,0,B|39:284|87:267|87:267|160:209,1,168.000006408692,10|0,0:0|0:0,0:0:0:0:
306,25,70261,2,0,P|246:88|238:166,1,168.000006408692,10|2,0:0|0:0,0:0:0:0:
383,304,70614,6,0,L|354:138,1,168.000006408692,8|0,0:0|0:0,0:0:0:0:
483,1,70967,2,0,B|459:41|459:41|447:117|447:117|453:160,1,168.000006408692,10|0,0:0|0:0,0:0:0:0:
512,365,71320,2,0,L|346:336,1,168.000006408692,10|0,0:0|0:0,0:0:0:0:
256,136,71673,1,8,0:0:0:0:
0,365,71849,6,0,L|166:336,1,168.000006408692,2|8,0:0|0:0,0:0:0:0:
132,112,72202,2,0,P|118:193|58:249,2,168.000006408692,2|8|0,0:0|0:0|0:0,0:0:0:0:
256,248,72731,2,0,L|422:277,1,168.000006408692,10|0,0:0|0:0,0:0:0:0:
256,36,73084,1,10,0:0:0:0:
332,307,73261,1,2,0:0:0:0:
345,72,73437,6,0,L|157:92,1,168.000006408692,8|0,0:0|0:0,0:0:0:0:
5,195,73790,2,0,P|81:165|157:195,1,168.000006408692,10|0,0:0|0:0,0:0:0:0:
214,344,74143,2,0,B|131:359|131:359|44:316,1,168.000006408692,10|0,0:0|0:0,0:0:0:0:
256,136,74496,1,8,0:0:0:0:
298,344,74673,6,0,B|381:359|381:359|468:316,1,168.000006408692,2|8,0:0|0:0,0:0:0:0:
483,153,75025,2,0,B|444:227|444:227|368:263,2,168.000006408692,2|8|0,0:0|0:0|0:0,0:0:0:0:
362,4,75555,2,0,P|396:78|378:159,1,168.000006408692,10|0,0:0|0:0,0:0:0:0:
133,159,75908,1,10,0:0:0:0:
256,40,76084,1,2,0:0:0:0:
329,277,76261,6,0,B|384:290|384:290|432:251|489:267,1,168.000006408692,8|0,0:0|0:0,0:0:0:0:
281,198,76614,2,0,L|302:364,1,168.000006408692,10|0,0:0|0:0,0:0:0:0:
181,227,76967,2,0,P|196:140|383:214,1,336.000012817383,10|8,0:0|0:0,0:0:0:0:
213,321,77496,6,0,L|46:299,1,168.000006408692,2|8,0:0|0:0,0:0:0:0:
281,198,77849,1,2,0:0:0:0:
398,340,78025,2,0,P|490:329|397:303,1,252.000009613037,8|0,0:0|0:0,0:0:0:0:
305,337,78378,6,0,B|287:355|285:372|285:372|285:355|265:325,1,84.0000032043458,10|0,0:0|2:0,0:0:0:0:
213,298,78555,6,0,B|190:287|173:290|173:290|189:285|211:257,1,84.0000032043458,2|0,0:0|2:0,0:0:0:0:
221,198,78731,6,0,B|224:173|216:158|216:158|225:171|259:184,1,84.0000032043458,10|0,0:0|2:0,0:0:0:0:
318,175,78908,6,0,B|342:170|354:158|354:158|344:171|343:207,1,84.0000032043458,2|0,0:0|2:0,0:0:0:0:
370,261,79084,6,0,B|413:290|471:276|495:233|495:233|508:177,1,168.000006408692,12|0,0:0|0:0,0:0:0:0:
409,26,79437,2,0,L|423:215,1,168.000006408692,10|0,0:0|0:0,0:0:0:0:
90,193,79790,2,0,L|103:26,1,168.000006408692,10|0,0:0|0:0,0:0:0:0:
256,0,80143,1,8,0:0:0:0:
142,261,80320,6,0,B|99:290|41:276|17:233|17:233|4:177,1,168.000006408692,2|8,0:0|0:0,0:0:0:0:
196,104,80673,1,2,0:0:0:0:
304,328,80849,2,0,B|408:336|408:336|500:288,1,168.000006408692,8|0,0:0|0:0,0:0:0:0:
365,86,81202,2,0,B|357:190|357:190|405:282,1,168.000006408692,10|0,0:0|0:0,0:0:0:0:
256,0,81555,1,10,0:0:0:0:
324,192,81731,1,2,0:0:0:0:
93,53,81908,6,0,P|25:98|6:178,1,168.000006408692,8|0,0:0|0:0,0:0:0:0:
203,294,82261,2,0,B|184:211|184:211|80:194,1,168.000006408692,10|0,0:0|0:0,0:0:0:0:
68,335,82614,1,10,0:0:0:0:
210,183,82790,2,0,L|336:48,1,168.000006408692,0|8,0:0|0:0,0:0:0:0:
176,25,83143,6,0,P|215:111|192:223,1,168.000006408692,2|8,0:0|0:0,0:0:0:0:
68,335,83496,1,2,0:0:0:0:
296,244,83673,2,0,B|345:230|345:230|487:257,1,168.000006408692,8|0,0:0|0:0,0:0:0:0:
512,41,84025,2,0,B|463:55|463:55|321:28,1,168.000006408692,10|0,0:0|0:0,0:0:0:0:
210,183,84378,1,10,0:0:0:0:
436,85,84555,1,2,0:0:0:0:
508,369,84731,6,0,B|467:338|467:338|352:317,1,168.000006408692,8|0,0:0|0:0,0:0:0:0:
68,335,85084,2,0,B|183:314|183:314|223:283,1,168.000006408692,10|0,0:0|0:0,0:0:0:0:
348,33,85437,1,10,0:0:0:0:
210,183,85614,1,0,0:0:0:0:
436,85,85791,1,8,0:0:0:0:
121,131,85967,6,0,P|111:211|163:274,1,168.000006408692,2|8,0:0|0:0,0:0:0:0:
377,168,86320,2,0,L|209:182,2,168.000006408692,2|8|0,0:0|0:0|0:0,0:0:0:0:
480,331,86849,2,0,P|423:273|338:269,1,168.000006408692,10|0,0:0|0:0,0:0:0:0:
133,372,87202,1,10,0:0:0:0:
379,372,87378,1,2,0:0:0:0:
170,267,87555,6,0,B|136:235|135:193|135:193|169:143|133:60,1,168.000006408692,8|0,0:0|0:0,0:0:0:0:
32,13,87908,2,0,P|88:96|192:103,1,168.000006408692,10|0,0:0|0:0,0:0:0:0:
385,36,88261,1,2,0:0:0:0:
271,230,88437,2,0,L|103:218,1,168.000006408692,0|8,0:0|0:0,0:0:0:0:
275,74,88790,1,0,0:0:0:0:
355,280,88967,5,0,3:0:0:0:
376,305,89055,5,0,3:0:0:0:
346,283,89143,37,0,3:0:0:0:
385,302,89231,5,0,3:0:0:0:
338,288,89320,37,0,3:0:0:0:
393,297,89408,5,0,3:0:0:0:
331,294,89496,37,0,3:0:0:0:
400,291,89584,5,0,3:0:0:0:
365,293,89673,6,0,L|367:349,6,56,2|0|0|0|0|0|0,2:0|2:0|2:0|2:0|2:0|2:0|2:0,0:0:0:0:
294,192,90025,6,0,P|429:173|365:292,1,336,2|0,0:2|2:0,0:0:0:0:
209,145,90378,6,0,P|129:132|42:184,1,168.000006408692,10|0,0:0|0:0,0:0:0:0:
275,358,90731,2,0,L|296:169,1,168.000006408692,10|0,0:0|0:0,0:0:0:0:
209,40,91084,1,8,0:0:0:0:
41,259,91261,2,0,L|230:238,1,168.000006408692,2|8,0:0|0:0,0:0:0:0:
293,93,91614,1,2,0:0:0:0:
442,376,91790,6,0,L|253:355,1,168.000006408692,10|0,0:0|0:0,0:0:0:0:
108,171,92143,2,0,P|167:239|271:228,1,168.000006408692,10|0,0:0|0:0,0:0:0:0:
209,40,92496,1,8,0:0:0:0:
22,156,92673,2,0,L|187:129,1,168.000006408692,2|8,0:0|0:0,0:0:0:0:
87,32,93025,1,2,0:3:0:0:
134,336,93202,6,0,L|107:170,1,168.000006408692,10|0,0:0|0:0,0:0:0:0:
317,19,93555,2,0,L|290:184,2,168.000006408692,10|0|8,0:0|0:0|0:0,0:0:0:0:
381,209,94084,2,0,P|329:270|247:269,1,168.000006408692,2|8,0:0|0:0,0:0:0:0:
209,40,94437,1,2,0:0:0:0:
290,184,94614,5,10,0:0:0:0:
317,19,94790,1,0,0:0:0:0:
182,205,94967,2,0,L|-43:248,1,168.000006408692,10|0,0:0|0:0,0:0:0:0:
139,112,95320,1,8,0:0:0:0:
319,286,95496,2,0,B|400:308|400:308|481:258,1,168.000006408692,2|8,0:0|0:0,0:0:0:0:
372,105,95849,1,2,0:3:0:0:
166,308,96025,6,0,B|237:263|237:263|318:285,1,168.000006408692,10|0,0:0|0:0,0:0:0:0:
139,112,96378,1,10,0:0:0:0:
233,228,96555,1,0,0:0:0:0:
289,90,96731,1,8,0:0:0:0:
252,359,96908,2,0,P|170:347|88:364,1,168.000006408692,2|8,0:0|0:0,0:0:0:0:
38,121,97261,1,2,0:0:0:0:
233,228,97437,6,0,P|315:240|397:223,1,168.000006408692,10|0,0:0|0:0,0:0:0:0:
193,138,97790,2,0,L|184:305,2,168.000006408692,10|0|8,0:0|0:0|0:0,0:0:0:0:
17,313,98320,2,0,L|184:304,1,168.000006408692,2|8,0:0|0:0,0:0:0:0:
256,56,98673,1,2,0:3:0:0:
495,313,98849,6,0,L|327:304,1,168.000006408692,10|0,0:0|0:0,0:0:0:0:
100,133,99202,1,10,0:0:0:0:
417,215,99378,2,0,P|499:152|401:118,1,252.000009613037,0|0,0:0|2:0,0:0:0:0:
327,304,99731,1,2,0:0:0:0:
152,45,99908,2,0,P|72:34|10:86,1,168.000006408692,8|2,0:0|0:0,0:0:0:0:
17,313,100261,5,10,0:0:0:0:
100,133,100437,1,0,0:0:0:0:
296,332,100614,2,0,L|464:341,1,168.000006408692,2|0,0:0|0:0,0:0:0:0:
382,177,100967,6,0,P|358:228|414:226,1,126.000004806519,2|0,2:0|2:0,0:0:0:0:
381,171,101143,6,0,P|353:231|419:229,1,154.000001468658,2|0,2:0|2:0,0:0:0:0:
380,165,101320,6,0,P|348:235|424:233,1,182.000005207062,2|0,2:0|2:0,0:0:0:0:
379,160,101496,6,0,P|354:251|435:199,1,210.00000500679,2|0,2:0|2:0,0:0:0:0:
449,78,101673,6,0,P|369:60|293:91,1,168.000006408692,14|0,0:0|0:0,0:0:0:0:
87,185,102025,2,0,P|167:166|244:198,1,168.000006408692,10|0,0:0|0:0,0:0:0:0:
159,301,102378,1,8,0:0:0:0:
178,27,102555,2,0,B|237:9|237:9|367:39,1,168.000006408692,2|8,0:0|0:0,0:0:0:0:
437,310,102908,2,0,P|475:328|517:325,1,84.0000032043458,2|0,0:0|0:0,0:0:0:0:
240,97,103084,6,0,B|159:121,1,84.0000032043458,10|0,0:0|2:0,0:0:0:0:
62,282,103261,2,0,P|99:264|141:267,1,84.0000032043458,0|0,0:0|2:0,0:0:0:0:
421,219,103437,2,0,L|376:406,1,168.000006408692,10|0,0:0|0:0,0:0:0:0:
159,301,103790,1,8,0:0:0:0:
476,147,103967,2,0,L|431:334,1,168.000006408692,2|8,0:0|0:0,0:0:0:0:
214,229,104320,1,2,0:3:0:0:
491,38,104496,6,0,P|412:56|370:126,1,168.000006408692,10|0,0:0|0:0,0:0:0:0:
104,269,104849,2,0,L|288:259,1,168.000006408692,10|0,0:0|0:0,0:0:0:0:
236,115,105202,1,8,0:0:0:0:
26,362,105378,2,0,L|193:352,1,168.000006408692,2|8,0:0|0:0,0:0:0:0:
369,126,105731,1,2,0:0:0:0:
104,269,105908,6,0,L|215:217,1,84.0000032043458,10|0,0:0|2:0,0:0:0:0:
312,5,106084,2,0,L|301:127,1,84.0000032043458,0|0,0:0|2:0,0:0:0:0:
436,317,106261,2,0,L|293:216,1,168.000006408692,10|0,0:0|0:0,0:0:0:0:
160,123,106614,1,8,0:0:0:0:
26,361,106790,2,0,P|96:320|177:337,1,168.000006408692,2|8,0:0|0:0,0:0:0:0:
403,32,107143,1,2,0:3:0:0:
436,317,107320,6,0,B|390:341|390:341|275:324,1,168.000006408692,10|0,0:0|0:0,0:0:0:0:
94,52,107673,2,0,B|140:28|140:28|254:44,1,168.000006408692,10|0,0:0|0:0,0:0:0:0:
177,337,108025,1,8,0:0:0:0:
489,109,108202,2,0,P|413:147|312:102,1,168.000006408692,2|8,0:0|0:0,0:0:0:0:
112,196,108555,1,2,0:0:0:0:
435,316,108731,6,0,P|398:298|377:263,1,84.0000032043458,10|0,0:0|2:0,0:0:0:0:
254,44,108908,2,0,P|256:85|236:121,1,84.0000032043458,0|0,0:0|2:0,0:0:0:0:
108,337,109084,2,0,P|145:296|264:306,1,168.000006408692,10|0,0:0|0:0,0:0:0:0:
357,131,109437,1,8,0:0:0:0:
198,382,109614,2,0,L|-1:367,1,168.000006408692,2|8,0:0|0:0,0:0:0:0:
155,131,109967,1,2,0:3:0:0:
314,382,110143,6,0,L|493:368,1,142.800002723694,2|0,0:0|0:0,0:0:0:0:
420,260,110496,2,0,B|393:292|393:292|347:295,2,84.0000032043458,2|2|0,0:1|0:0|0:0,0:0:0:0:
301,214,111025,2,0,L|314:390,1,168.000006408692,2|2,0:1|0:0,0:0:0:0:
301,214,111555,2,0,P|225:192|156:222,1,126.000004806519,2|0,0:0|0:0,0:0:0:0:
76,173,111908,6,0,P|100:221|88:275,1,112,2|0,0:0|0:0,0:0:0:0:
0,384,112437,6,0,P|16:361|40:349,1,56,2|0,0:0|0:0,0:0:0:0:
313,381,112967,5,2,0:0:0:0:
