osu file format v14

[General]
AudioFilename: Stigmata - September22.mp3
AudioLeadIn: 0
PreviewTime: 61159
Countdown: 0
SampleSet: Soft
StackLeniency: 0.7
Mode: 0
LetterboxInBreaks: 0
WidescreenStoryboard: 0

[Editor]
Bookmarks: 53552,104985,126408,128127,210407
DistanceSpacing: 1.1
BeatDivisor: 4
GridSize: 4
TimelineZoom: 1.5

[Metadata]
Title:September
TitleUnicode:Сентябрь
Artist:Stigmata
ArtistUnicode:Stigmata
Creator:TheMefisto
Version:Normal
Source:
Tags:Стигмата russian alternative hardcore emocore Rmdy
BeatmapID:1122507
BeatmapSetID:360357

[Difficulty]
HPDrainRate:3
CircleSize:3
OverallDifficulty:3
ApproachRate:4
SliderMultiplier:0.9
SliderTickRate:1

[Events]
//Background and Video events
0,0,"default.jpg",0,0
//Break Periods
2,26329,31447
2,82037,90804
//Storyboard Layer 0 (Background)
//Storyboard Layer 1 (Fail)
//Storyboard Layer 2 (Pass)
//Storyboard Layer 3 (Foreground)
//Storyboard Sound Samples

[TimingPoints]
1050,625,4,2,1,30,1,0
1362,545.454545454546,4,2,1,30,1,0
1907,600,4,2,1,30,1,0
2507,566.037735849057,4,2,1,30,1,0
2790,600,4,2,1,30,1,0
3090,588.235294117647,4,2,1,30,1,0
3972,612.244897959184,4,2,1,10,1,0
4584,625,4,2,1,30,1,0
5209,588.235294117647,4,2,1,30,1,0
5797,638.297872340426,4,2,1,30,1,0
7073,666.666666666667,4,2,1,20,1,0
8406,750,4,2,1,20,1,0
9531,810.810810810811,4,2,1,18,1,0
9936,882.352941176471,4,2,1,16,1,0
10377,909.090909090909,4,2,1,16,1,0
10831,1000,4,2,1,14,1,0
12410,428.571428571429,4,2,1,60,1,0
26129,428.265524625268,4,2,1,25,1,0
32981,428.571428571429,4,2,1,25,1,0
53552,-100,4,2,1,40,0,0
61267,428.571428571429,4,2,1,60,1,1
62552,-100,4,2,1,75,0,1
64695,-100,4,2,1,60,0,1
79267,-100,4,2,1,50,0,1
80124,-100,4,2,1,45,0,1
80981,-100,4,2,1,40,0,1
81838,-100,4,2,1,40,0,0
112695,-100,4,2,1,60,0,1
115267,-100,4,2,1,75,0,1
116123,428.571428571429,4,2,1,60,1,1
128123,-100,4,2,1,60,0,0
129837,-100,4,2,1,60,0,1
140123,-100,4,2,1,50,0,0
179765,428.571428571429,4,2,1,30,1,0
182336,-100,4,2,1,60,0,0
183193,-100,4,2,1,60,0,1
184885,428.571428571429,4,2,1,60,1,1
193457,408.163265306122,4,2,1,60,1,1
194681,416.666666666667,4,2,1,60,1,1
195089,405.405405405405,4,2,1,60,1,0
195433,410.958904109589,4,2,1,60,1,0
196254,419.58041958042,4,2,1,60,1,0
196693,428.571428571429,4,2,1,60,1,1
203550,-100,4,2,1,40,0,0
204407,-100,4,2,1,35,0,0
205264,-100,4,2,1,30,0,0
206121,-100,4,2,1,25,0,0
206978,-100,4,2,1,20,0,0
210365,433.996383363472,4,2,1,40,1,0
211232,-100,4,2,1,46,0,0
212100,-100,4,2,1,51,0,0
212968,-100,4,2,1,56,0,0
213835,428.571428571429,4,2,1,61,1,0
214692,-100,4,2,1,67,0,0
215549,-100,4,2,1,72,0,0
216406,-100,4,2,1,75,0,0

[Colours]
Combo1 : 255,198,26
Combo2 : 241,99,3
Combo3 : 242,242,0
Combo4 : 146,3,28

[HitObjects]
356,143,1050,6,0,P|332:147|313:157,1,45,2|0,0:0|0:0,0:0:0:0:
294,202,1634,2,0,P|267:217|236:222,1,45
212,192,2207,2,0,L|191:140,1,45,2|0,0:0|0:0,0:0:0:0:
152,131,2790,1,0,0:0:0:0:
101,135,3090,6,0,P|53:185|59:263,1,135,2|2,0:0|0:0,0:0:0:0:
121,323,4584,2,0,P|160:335|218:323,1,90,2|0,0:0|0:0,0:0:0:0:
276,307,5797,6,0,L|328:299,1,45,4|0,0:0|0:0,0:0:0:0:
309,251,6435,2,0,L|365:243,1,45,2|0,0:0|0:0,0:0:0:0:
338,199,7073,6,0,P|370:128|346:66,1,135,2|0,0:0|0:0,0:0:0:0:
313,59,8406,6,0,L|262:81,1,45,2|0,0:0|0:0,0:0:0:0:
241,37,9156,6,0,L|212:76,1,45
180,44,9936,6,0,L|167:89,1,45,2|0,0:0|0:0,0:0:0:0:
120,71,10831,6,0,L|123:117,1,45
362,88,12410,6,0,B|324:112|324:112|304:152,1,90,4|2,1:0|0:0,0:0:0:0:
324,248,13267,1,2,1:0:0:0:
197,325,13910,2,0,P|153:337|109:328,1,90,0|0,1:0|1:0,0:0:0:0:
72,296,14552,1,2,1:2:0:0:
46,200,14981,2,0,P|89:187|133:196,1,90,2|2,1:0|0:0,0:0:0:0:
218,244,15838,6,0,B|245:272|245:272|294:280,1,90,4|2,1:0|1:2,0:0:0:0:
394,281,16695,1,2,1:0:0:0:
464,152,17338,2,0,P|489:114|496:64,1,90,4|0,1:0|1:0,0:0:0:0:
475,26,17981,1,2,1:2:0:0:
379,50,18410,2,0,P|339:70|291:70,1,90,2|6,1:0|1:2,0:0:0:0:
196,55,19267,6,0,P|145:57|98:87,1,90,4|2,1:0|1:2,0:0:0:0:
58,159,20124,1,2,1:0:0:0:
159,267,20767,2,0,L|268:272,1,90,0|0,1:0|1:0,0:0:0:0:
285,238,21410,1,2,1:2:0:0:
368,292,21838,2,0,P|390:336|435:366,1,90,2|2,1:0|0:2,0:0:0:0:
465,270,22695,6,0,P|493:241|507:175,1,90,4|2,1:0|0:0,0:0:0:0:
451,113,23552,1,2,1:0:0:0:
307,150,24195,2,0,P|256:152|207:131,1,90,4|0,1:0|1:0,0:0:0:0:
178,111,24838,1,2,1:2:0:0:
79,116,25267,2,0,L|63:210,1,90,2|6,1:0|1:2,0:0:0:0:
47,302,26129,5,4,1:0:0:0:
200,208,32767,6,0,L|200:148,1,45,0|4,1:0|1:0,0:0:0:0:
280,104,33409,2,0,P|320:96|372:108,1,90,0|0,0:0|1:0,0:0:0:0:
427,184,34266,1,0,0:0:0:0:
396,276,34695,1,0,1:0:0:0:
324,207,35123,2,0,P|300:249|300:301,1,90,2|0,1:0|1:0,0:0:0:0:
228,360,35981,1,0,0:0:0:0:
136,320,36409,6,0,P|99:292|76:236,1,90,0|0,1:0|0:0,0:0:0:0:
64,156,37266,1,0,1:0:0:0:
132,84,37695,1,0,0:0:0:0:
219,37,38123,2,0,P|258:21|315:34,1,90,0|2,1:0|1:0,0:0:0:0:
352,116,38981,1,0,1:0:0:0:
308,204,39409,1,0,0:0:0:0:
216,236,39838,6,0,P|272:296|362:286,1,180,4|4,1:0|1:2,0:0:0:0:
425,209,41123,1,0,0:0:0:0:
471,121,41552,2,0,B|503:85|503:85|511:37,2,90,0|2|4,1:0|1:0|1:2,0:0:0:0:
372,128,42838,1,0,0:0:0:0:
308,204,43266,6,0,P|270:271|152:296,1,180,4|4,1:0|1:2,0:0:0:0:
92,248,44552,1,0,0:0:0:0:
66,152,44981,2,0,L|118:72,1,90,0|2,1:0|1:0,0:0:0:0:
200,24,45838,1,4,1:2:0:0:
288,72,46266,1,0,0:0:0:0:
374,120,46695,6,0,L|474:116,1,90,4|0,1:0|0:0,0:0:0:0:
492,212,47552,1,4,1:2:0:0:
428,288,47981,1,0,0:0:0:0:
365,210,48409,2,0,L|272:214,1,90,0|2,1:0|1:0,0:0:0:0:
192,160,49266,2,0,P|229:125|266:114,1,90,4|0,1:2|0:0,0:0:0:0:
364,112,50123,5,4,1:0:0:0:
365,210,50552,2,0,P|328:245|276:260,1,90,0|4,0:0|1:2,0:0:0:0:
192,267,51409,1,0,0:0:0:0:
96,289,51838,2,0,B|82:241|82:241|42:204,1,90,0|2,1:0|1:0,0:0:0:0:
136,160,52695,2,0,B|106:131|106:131|92:84,1,90,4|0,1:2|0:0,0:0:0:0:
172,28,53552,6,0,P|243:38|285:61,1,90,0|0,1:0|1:0,0:0:0:0:
301,71,54195,1,4,1:2:0:0:
417,164,54838,2,0,P|349:171|317:187,1,90,0|0,1:0|1:0,0:0:0:0:
292,211,55481,1,4,1:2:0:0:
180,304,56123,2,0,B|224:324|224:324|248:380,1,90,0|4,1:0|1:2,0:0:0:0:
330,320,56981,6,0,L|286:213,1,90,0|0,1:0|1:0,0:0:0:0:
277,190,57623,1,4,1:2:0:0:
338,55,58266,2,0,L|376:146,1,90,0|0,1:0|1:0,0:0:0:0:
392,183,58909,1,4,1:2:0:0:
416,329,59552,2,0,L|375:347,1,45,2|2,1:0|1:0,0:0:0:0:
350,304,59981,2,0,L|309:322,1,45,6|2,1:0|1:0,0:0:0:0:
221,87,61267,6,0,P|192:124|140:140,1,90,4|0,1:0|0:0,0:0:0:0:
53,141,62124,2,0,L|64:235,1,90,4|0,1:2|0:0,0:0:0:0:
123,309,62981,1,0,0:0:0:0:
218,283,63409,2,0,P|263:270|319:287,1,90,2|4,1:0|1:2,0:0:0:0:
395,320,64267,1,0,0:0:0:0:
482,273,64695,6,0,P|470:201|406:117,1,180,4|4,1:0|1:2,0:0:0:0:
316,80,65981,1,0,0:0:0:0:
222,48,66409,2,0,B|158:32|158:32|34:68,1,180,2|4,1:0|1:2,0:0:0:0:
20,160,67695,1,0,0:0:0:0:
64,248,68124,6,0,P|87:271|110:322,1,90,4|0,1:0|0:0,0:0:0:0:
180,252,68981,2,0,P|199:211|240:180,1,90,4|0,1:2|0:0,0:0:0:0:
276,272,69838,2,0,P|310:290|368:288,2,90,2|0|4,1:0|0:0|1:2,0:0:0:0:
337,194,71124,1,0,0:0:0:0:
419,139,71552,6,0,P|486:195|483:293,1,180,4|4,1:0|1:2,0:0:0:0:
415,349,72838,1,0,0:0:0:0:
334,291,73267,2,0,P|296:268|253:257,1,90,2|0,1:0|0:0,0:0:0:0:
154,276,74124,2,0,L|57:259,1,90,4|0,1:2|0:0,0:0:0:0:
99,167,74981,6,0,L|187:182,1,90,4|0,1:0|1:0,0:0:0:0:
252,256,75838,1,0,1:0:0:0:
335,201,76267,1,0,1:0:0:0:
359,105,76695,1,4,1:0:0:0:
152,104,78409,6,0,B|76:128|56:208|80:284|172:336|256:248|256:248|340:336|432:284|456:208|436:128|360:104,1,720,4|4,1:0|1:0,0:0:0:0:
96,144,92124,6,0,P|120:172|196:184,1,90,4|0,1:0|0:0,0:0:0:0:
264,160,92981,1,4,1:2:0:0:
340,96,93409,1,0,0:0:0:0:
416,32,93838,2,0,P|451:48|488:92,1,90,0|2,1:0|1:0,0:0:0:0:
500,184,94695,1,4,1:2:0:0:
420,244,95124,1,0,0:0:0:0:
348,312,95552,6,0,P|382:336|444:340,2,90,4|0|4,1:0|0:0|1:2,0:0:0:0:
269,252,96838,1,0,0:0:0:0:
172,232,97267,2,0,P|138:270|101:285,1,90,4|2,1:0|1:0,0:0:0:0:
84,186,98124,2,0,P|99:140|139:98,1,90,4|0,1:2|0:0,0:0:0:0:
215,68,98981,5,4,1:0:0:0:
312,84,99409,1,0,0:0:0:0:
404,120,99838,2,0,P|430:160|436:204,1,90,4|0,1:2|0:0,0:0:0:0:
378,283,100695,1,4,1:0:0:0:
332,196,101124,1,2,1:0:0:0:
266,121,101552,2,0,P|234:89|172:75,1,90,4|0,1:2|0:0,0:0:0:0:
94,89,102409,5,4,1:0:0:0:
64,184,102838,1,0,0:0:0:0:
160,208,103267,2,0,P|187:250|189:295,1,90,4|0,1:2|0:0,0:0:0:0:
92,280,104124,1,4,1:0:0:0:
64,184,104552,1,2,1:0:0:0:
144,126,104981,2,0,B|168:102|168:102|169:45,1,90,4|0,1:2|0:0,0:0:0:0:
265,21,105838,6,0,B|263:144,1,90,0|0,1:0|1:0,0:0:0:0:
265,160,106481,1,4,1:3:0:0:
413,158,107124,2,0,B|412:209|412:209|460:267,1,90,0|0,1:0|1:0,0:0:0:0:
470,275,107767,1,4,1:3:0:0:
337,341,108409,2,0,B|332:302|332:302|295:266,1,90,0|4,1:0|1:2,0:0:0:0:
214,208,109267,6,0,P|192:143|199:86,1,90,0|0,1:0|1:0,0:0:0:0:
200,73,109909,1,4,1:3:0:0:
338,128,110552,2,0,P|384:80|440:69,1,90,0|0,1:0|1:0,0:0:0:0:
454,68,111195,1,4,1:3:0:0:
474,215,111838,2,0,L|445:249,1,45,2|2,1:0|1:0,0:0:0:0:
402,223,112267,2,0,L|373:257,1,45,6|2,1:0|1:0,0:0:0:0:
328,279,112695,6,0,P|280:280|234:254,1,90,4|0,1:0|0:0,0:0:0:0:
302,183,113552,1,4,1:2:0:0:
277,87,113981,1,0,0:0:0:0:
183,120,114409,2,0,B|89:133|104:68|11:80,1,180,2|4,1:0|1:2,0:0:0:0:
35,176,115695,1,0,0:0:0:0:
21,274,116123,6,0,P|103:300|187:246,1,180,4|4,1:0|1:2,0:0:0:0:
209,164,117408,1,0,0:0:0:0:
250,74,117837,2,0,P|335:57|410:120,1,180,2|4,1:0|1:2,0:0:0:0:
420,208,119123,1,0,0:0:0:0:
382,299,119551,6,0,P|341:324|290:320,1,90,4|0,1:0|0:0,0:0:0:0:
224,261,120408,2,0,L|163:176,1,90,4|0,1:2|0:0,0:0:0:0:
268,168,121265,2,0,L|324:247,2,90,2|0|4,1:0|0:0|1:2,0:0:0:0:
211,86,122551,5,0,0:0:0:0:
129,30,122980,2,0,B|117:87|117:87|127:131|127:131|112:215,1,180,4|4,1:0|1:2,0:0:0:0:
117,305,124265,1,0,0:0:0:0:
207,344,124694,2,0,P|249:321|274:276,1,90,2|0,1:0|0:0,0:0:0:0:
292,190,125551,2,0,P|245:191|203:214,1,90,4|0,1:2|0:0,0:0:0:0:
134,277,126408,6,0,P|111:240|109:195,1,90,4|0,1:0|1:0,0:0:0:0:
93,97,127265,2,0,P|149:104|182:128,1,90,4|0,1:0|1:0,0:0:0:0:
243,195,128123,1,4,1:0:0:0:
57,259,128980,2,0,L|28:120,1,135,4|0,1:2|0:0,0:0:0:0:
57,85,129837,6,0,P|113:41|234:34,1,180,4|4,1:0|1:2,0:0:0:0:
291,96,131123,1,0,0:0:0:0:
277,193,131551,2,0,P|285:239|312:274,1,90,2|0,1:0|0:0,0:0:0:0:
408,291,132408,1,4,1:2:0:0:
476,220,132837,1,0,0:0:0:0:
503,124,133265,6,0,P|417:139|377:222,1,180,4|4,1:0|1:2,0:0:0:0:
399,312,134551,1,0,0:0:0:0:
309,352,134980,2,0,P|263:349|223:314,1,90,4|0,1:0|0:0,0:0:0:0:
165,247,135837,1,4,1:2:0:0:
179,148,136265,1,0,0:0:0:0:
273,118,136694,6,0,P|315:105|348:73,1,90,4|0,1:0|0:0,0:0:0:0:
436,30,137551,2,0,P|467:56|488:100,1,90,4|0,1:2|0:0,0:0:0:0:
451,193,138408,2,0,P|431:231|394:257,1,90,4|0,1:0|0:0,0:0:0:0:
298,230,139265,2,0,P|266:187|235:171,1,90,4|0,1:2|0:0,0:0:0:0:
145,213,140123,6,0,P|116:258|30:285,2,135,4|0|0,1:0|1:0|1:0,0:0:0:0:
90,130,141837,2,0,P|132:113|180:118,1,90,0|0,1:0|0:0,0:0:0:0:
272,139,142694,2,0,P|316:143|359:129,1,90,4|0,1:0|0:0,0:0:0:0:
454,101,143551,6,0,B|471:182|396:222,2,135,4|0|0,1:0|1:0|1:0,0:0:0:0:
361,66,145265,2,0,B|328:51|328:51|280:-7,2,90,0|0|4,1:0|0:0|1:2,0:0:0:0:
344,164,146551,1,4,1:2:0:0:
280,239,146980,6,0,P|217:264|150:270,2,135,4|0|0,1:0|1:0|1:0,0:0:0:0:
343,163,148694,2,0,P|368:196|378:245,2,90,0|0|4,1:0|0:0|1:0,0:0:0:0:
246,142,149980,1,0,0:0:0:0:
154,179,150408,6,0,P|123:132|117:38,2,135,4|0|0,1:0|1:0|1:0,0:0:0:0:
251,199,152123,2,0,P|195:270|111:268,1,180,4|4,1:2|1:2,0:0:0:0:
54,185,153408,1,0,1:0:0:0:
69,86,153837,6,0,P|128:118|153:177,2,135,4|0|0,1:0|1:0|1:0,0:0:0:0:
53,185,155551,2,0,P|53:232|70:292,2,90,0|0|4,1:0|0:0|1:0,0:0:0:0:
68,86,156837,1,0,1:0:0:0:
164,63,157265,6,0,B|228:87|228:87|284:143,2,135,4|0|0,1:0|1:0|1:0,0:0:0:0:
79,115,158980,2,0,B|54:152|1:156,2,90,0|0|4,1:0|0:0|1:2,0:0:0:0:
164,63,160265,1,4,1:2:0:0:
263,62,160694,6,0,P|311:98|351:161,2,135,4|0|0,1:0|1:0|1:0,0:0:0:0:
188,127,162408,2,0,B|150:152|150:152|97:159,2,90,0|0|4,1:0|0:0|1:0,0:0:0:0:
263,62,163694,1,0,0:0:0:0:
356,29,164123,6,0,B|417:17|417:17|487:47,2,135,4|0|0,1:0|1:0|1:0,0:0:0:0:
285,98,165837,2,0,P|295:185|375:233,1,180,4|4,1:2|1:2,0:0:0:0:
457,188,167123,1,0,1:0:0:0:
477,91,167551,5,4,1:0:0:0:
398,30,167980,2,0,P|351:30|298:52,1,90,0|4,1:0|1:2,0:0:0:0:
253,125,168837,1,0,1:0:0:0:
206,212,169265,2,0,P|166:231|114:229,1,90,4|0,1:0|1:0,0:0:0:0:
39,174,170123,2,0,P|58:133|94:107,1,90,4|4,1:2|1:2,0:0:0:0:
193,109,170980,6,0,B|229:125|229:125|280:120,1,90,4|0,1:0|1:0,0:0:0:0:
378,116,171837,1,4,1:2:0:0:
457,174,172265,1,0,1:0:0:0:
472,272,172694,2,0,P|466:314|436:355,2,90,4|0|4,1:0|1:0|1:2,0:0:0:0:
373,278,173980,1,4,1:2:0:0:
280,313,174408,6,0,B|236:325|236:325|176:305,1,90,4|0,1:0|1:0,0:0:0:0:
158,218,175265,1,4,1:2:0:0:
208,132,175694,2,0,L|192:36,2,90,0|4|0,1:0|1:0|1:0,0:0:0:0:
306,134,176980,2,0,P|352:136|393:159,1,90,4|4,1:2|1:2,0:0:0:0:
326,230,177837,6,0,L|299:325,1,90,4|0,1:0|0:0,0:0:0:0:
203,331,178694,2,0,L|227:244,1,90,4|0,1:0|0:0,0:0:0:0:
87,198,179765,6,0,P|73:146|90:96,2,90,2|2|2,0:0|0:0|0:0,0:0:0:0:
173,149,181050,1,2,0:0:0:0:
256,204,181479,2,0,P|336:228|432:184,1,180,2|4,1:0|1:2,0:0:0:0:
429,94,182765,1,0,1:0:0:0:
332,76,183193,6,0,P|252:52|156:95,1,180,6|4,1:0|1:2,0:0:0:0:
101,161,184479,1,0,0:0:0:0:
136,248,184885,2,0,B|214:274|214:274|245:228|297:224,1,180,6|4,1:0|1:2,0:0:0:0:
300,324,186170,1,0,0:0:0:0:
396,300,186599,6,0,P|440:284|476:245,1,90,6|0,1:0|0:0,0:0:0:0:
439,159,187456,2,0,L|336:143,1,90,4|0,1:2|0:0,0:0:0:0:
251,137,188313,2,0,P|247:82|230:49,2,90,6|0|4,1:0|0:0|1:2,0:0:0:0:
211,227,189599,1,0,0:0:0:0:
251,317,190027,6,0,B|302:333|344:305|344:305|367:347|410:354,1,180,6|4,1:0|1:2,0:0:0:0:
430,257,191313,1,0,0:0:0:0:
364,182,191742,2,0,P|319:180|275:156,1,90,6|0,1:0|0:0,0:0:0:0:
255,63,192599,2,0,P|211:41|168:41,1,90,4|0,1:2|0:0,0:0:0:0:
256,192,193457,12,0,195089,1:0:0:0:
478,328,196693,6,0,P|429:359|360:348,1,90,6|0,1:0|0:0,0:0:0:0:
300,345,197550,1,4,1:2:0:0:
320,249,197978,1,0,0:0:0:0:
393,182,198407,2,0,P|418:145|427:101,1,90,6|0,1:0|0:0,0:0:0:0:
370,20,199264,1,4,1:2:0:0:
275,48,199693,1,0,0:0:0:0:
233,137,200121,6,0,P|180:207|99:254,1,180,6|4,1:0|1:2,0:0:0:0:
4,230,201407,1,0,0:0:0:0:
2,131,201835,2,0,P|28:98|70:77,1,90,6|0,1:0|0:0,0:0:0:0:
169,85,202693,2,0,L|272:104,1,90,4|0,1:2|0:0,0:0:0:0:
256,192,203550,12,0,208264,0:0:0:0:
76,36,210365,6,0,P|124:44|170:76,1,90,2|0,0:0|0:0,0:0:0:0:
232,132,211232,1,2,0:0:0:0:
268,224,211666,1,0,0:0:0:0:
329,301,212100,2,0,P|372:318|432:303,1,90,2|2,1:3|0:0,0:0:0:0:
472,232,212968,1,2,1:3:0:0:
492,136,213402,1,2,0:0:0:0:
408,84,213835,6,0,P|364:80|308:52,1,90,2|2,1:3|1:3,0:0:0:0:
226,38,214692,1,2,1:3:0:0:
128,56,215120,1,2,1:3:0:0:
88,148,215549,2,0,P|111:183|167:220,1,90,2|2,1:3|1:3,0:0:0:0:
242,243,216406,2,0,L|355:233,1,90,2|2,1:3|1:3,0:0:0:0:
375,211,217049,5,4,0:0:0:0:
