osu file format v14

[General]
AudioFilename: Stigmata - September22.mp3
AudioLeadIn: 0
PreviewTime: 61159
Countdown: 0
SampleSet: Soft
StackLeniency: 0.3
Mode: 0
LetterboxInBreaks: 0
WidescreenStoryboard: 0

[Editor]
Bookmarks: 62926,105837,167551,179765,193242,210407
DistanceSpacing: 1.1
BeatDivisor: 4
GridSize: 8
TimelineZoom: 2.699999

[Metadata]
Title:September
TitleUnicode:Сентябрь
Artist:Stigmata
ArtistUnicode:Stigmata
Creator:TheMefisto
Version:2007
Source:
Tags:Стигмата russian alternative hardcore emocore Rmdy
BeatmapID:858389
BeatmapSetID:360357

[Difficulty]
HPDrainRate:7
CircleSize:4
OverallDifficulty:8
ApproachRate:8.4
SliderMultiplier:1.6
SliderTickRate:1

[Events]
//Background and Video events
0,0,"default.jpg",0,0
//Break Periods
//Storyboard Layer 0 (Background)
//Storyboard Layer 1 (Fail)
//Storyboard Layer 2 (Pass)
//Storyboard Layer 3 (Foreground)
//Storyboard Sound Samples

[TimingPoints]
1050,625,4,2,1,30,1,0
1362,545.454545454546,4,2,1,30,1,0
1907,600,4,2,1,30,1,0
2507,566.037735849057,4,2,1,30,1,0
2790,600,4,2,1,30,1,0
3090,588.235294117647,4,2,1,30,1,0
3972,612.244897959184,4,2,1,10,1,0
4584,625,4,2,1,30,1,0
5209,588.235294117647,4,2,1,30,1,0
5797,638.297872340426,4,2,1,30,1,0
7073,666.666666666667,4,2,1,20,1,0
7073,-111.111111111111,4,2,1,20,0,0
8406,750,4,2,1,20,1,0
8406,-125,4,2,1,20,0,0
9156,-142.857142857143,4,2,1,18,0,0
9531,810.810810810811,4,2,1,18,1,0
9936,882.352941176471,4,2,1,16,1,0
9936,-166.666666666667,4,2,1,16,0,0
10377,909.090909090909,4,2,1,16,1,0
10831,1000,4,2,1,14,1,0
10831,-200,4,2,1,14,0,0
12410,428.571428571429,4,2,1,60,1,0
12410,-83.3333333333333,4,2,1,60,0,0
26129,428.265524625268,4,2,1,25,1,0
32981,428.571428571429,4,2,1,25,1,0
53552,-100,4,2,1,40,0,0
61267,428.571428571429,4,2,1,60,1,1
61267,-83.3333333333333,4,2,1,60,0,1
62552,-83.3333333333333,4,2,1,75,0,1
64695,-83.3333333333333,4,2,1,60,0,1
79267,-100,4,2,1,50,0,1
80124,-100,4,2,1,40,0,1
80981,-100,4,2,1,45,0,1
81838,-133.333333333333,4,2,1,40,0,0
82481,-133.333333333333,4,2,1,20,0,0
82695,-133.333333333333,4,2,1,40,0,0
83338,-133.333333333333,4,2,1,20,0,0
83552,-133.333333333333,4,2,1,40,0,0
84838,-133.333333333333,4,2,1,20,0,0
85052,-133.333333333333,4,2,1,40,0,0
85909,-133.333333333333,4,2,1,20,0,0
86124,-133.333333333333,4,2,1,40,0,0
86552,-133.333333333333,4,2,1,20,0,0
86767,-133.333333333333,4,2,1,40,0,0
89338,-133.333333333333,4,2,1,20,0,0
89552,-133.333333333333,4,2,1,40,0,0
90195,-133.333333333333,4,2,1,20,0,0
90409,-117.647058823529,4,2,1,50,0,0
92124,-100,4,2,1,40,0,0
92767,-100,4,2,1,25,0,0
105837,-100,4,2,1,40,0,0
112695,-83.3333333333333,4,2,1,60,0,1
115267,-83.3333333333333,4,2,1,75,0,1
116123,428.571428571429,4,2,1,60,1,1
116123,-83.3333333333333,4,2,1,60,0,1
128123,-83.3333333333333,4,2,1,60,0,0
129837,-83.3333333333333,4,2,1,60,0,1
140123,-100,4,2,1,50,0,0
179765,428.571428571429,4,2,1,30,1,0
181479,-83.3333333333333,4,2,1,30,0,0
182336,-83.3333333333333,4,2,1,60,0,0
183193,-83.3333333333333,4,2,1,60,0,1
184885,428.571428571429,4,2,1,60,1,1
184885,-83.3333333333333,4,2,1,60,0,1
193457,408.163265306122,4,2,1,60,1,1
194681,416.666666666667,4,2,1,60,1,1
195089,405.405405405405,4,2,1,60,1,0
195433,410.958904109589,4,2,1,60,1,0
195741,-83.3333333333333,4,2,1,60,0,0
196254,419.58041958042,4,2,1,60,1,0
196254,-83.3333333333333,4,2,1,60,0,0
196693,428.571428571429,4,2,1,60,1,1
196693,-83.3333333333333,4,2,1,60,0,1
197550,-83.3333333333333,4,2,1,60,0,1
203550,-100,4,2,1,40,0,0
204407,-100,4,2,1,35,0,0
205264,-100,4,2,1,30,0,0
206121,-100,4,2,1,25,0,0
206978,-100,4,2,1,20,0,0
210365,433.996383363472,4,2,1,40,1,0
211232,-100,4,2,1,46,0,0
212100,-100,4,2,1,51,0,0
212968,-100,4,2,1,56,0,0
213835,428.571428571429,4,2,1,61,1,0
214692,-100,4,2,1,67,0,0
215549,-100,4,2,1,72,0,0
216406,-100,4,2,1,75,0,0

[Colours]
Combo1 : 255,198,26
Combo2 : 241,99,3
Combo3 : 242,242,0
Combo4 : 146,3,28

[HitObjects]
124,69,1050,6,0,P|155:91|213:94,1,80,2|0,0:0|0:0,0:0:0:0:
174,210,1634,2,0,P|211:212|262:184,1,80
297,112,2207,1,2,0:0:0:0:
348,194,2507,1,0,0:0:0:0:
297,268,2790,1,0,0:0:0:0:
281,356,3090,6,0,P|378:301|342:190,1,240,2|2,0:0|0:0,0:0:0:0:
154,222,4584,2,0,P|192:257|299:266,1,160,2|2,0:0|0:0,0:0:0:0:
233,84,5797,6,0,L|145:92,1,80,4|0,0:0|0:0,0:0:0:0:
57,164,6435,1,2,0:0:0:0:
45,276,6754,1,0,0:0:0:0:
144,337,7073,6,0,P|174:316|216:304,1,71.9999978027344,2|0,0:0|0:0,0:0:0:0:
328,288,7739,2,0,P|365:275|396:250,1,71.9999978027344
416,138,8406,6,0,L|483:114,1,64,2|0,0:0|0:0,0:0:0:0:
365,64,9156,6,0,L|306:86,1,55.9999982910157
245,172,9936,6,0,L|182:195,1,47.9999985351563,2|0,0:0|0:0,0:0:0:0:
113,288,10831,6,0,L|63:306,1,40
90,138,12410,6,0,P|122:102|175:90,1,95.9999970703126,4|0,1:0|0:0,0:0:0:0:
263,130,12838,1,2,1:2:0:0:
167,176,13052,1,0,1:0:0:0:
334,223,13267,2,0,B|404:226|466:170|466:170|408:159,1,191.999994140625,2|2,1:0|1:2,0:0:0:0:
247,224,13910,6,0,P|261:273|307:308,1,95.9999970703126,0|0,1:0|0:0,0:0:0:0:
420,161,14338,2,0,P|406:112|360:77,1,95.9999970703126,0|2,1:0|1:2,0:0:0:0:
317,172,14767,1,0,0:0:0:0:
494,264,14981,1,2,1:0:0:0:
362,357,15195,1,2,0:0:0:0:
362,357,15302,1,2,0:0:0:0:
362,357,15410,2,0,L|266:379,1,95.9999970703126,2|0,1:2|1:0,0:0:0:0:
103,278,15838,5,4,1:0:0:0:
159,189,16052,1,0,0:0:0:0:
144,368,16267,1,2,1:2:0:0:
38,370,16481,1,0,0:0:0:0:
209,276,16695,2,0,L|301:254,1,95.9999970703126,2|0,1:0|0:0,0:0:0:0:
388,315,17124,1,2,1:2:0:0:
252,182,17338,2,0,B|235:132|274:90,1,95.9999970703126,4|0,1:0|0:0,0:0:0:0:
437,40,17767,5,0,1:0:0:0:
329,153,17981,1,2,1:2:0:0:
414,228,18195,1,0,0:0:0:0:
252,182,18410,1,2,1:0:0:0:
252,182,18517,1,0,1:0:0:0:
252,182,18624,1,0,1:0:0:0:
430,136,18838,1,6,1:2:0:0:
309,259,19052,1,0,1:2:0:0:
312,63,19267,6,0,P|268:44|216:54,1,95.9999970703126,4|0,1:0|0:0,0:0:0:0:
152,210,19695,1,2,1:2:0:0:
93,121,19910,1,0,0:0:0:0:
261,130,20124,2,0,P|276:177|291:234,1,95.9999970703126,2|0,1:0|0:0,0:0:0:0:
211,299,20552,1,2,1:2:0:0:
352,151,20767,6,0,P|364:104|379:58,1,95.9999970703126,0|0,1:0|0:0,0:0:0:0:
483,34,21195,1,0,1:0:0:0:
413,199,21410,1,2,1:2:0:0:
501,142,21624,1,0,0:0:0:0:
432,303,21838,2,0,P|386:301|339:273,1,95.9999970703126,2|2,1:0|0:2,0:0:0:0:
323,255,22160,1,2,0:2:0:0:
311,228,22267,2,0,L|302:323,1,95.9999970703126,2|0,1:2|1:0,0:0:0:0:
199,184,22695,6,0,L|190:88,1,95.9999970703126,4|0,1:0|0:0,0:0:0:0:
137,242,23124,2,0,P|180:270|233:263,1,95.9999970703126,2|0,1:2|1:0,0:0:0:0:
252,36,23552,2,0,P|209:8|156:15,1,95.9999970703126,2|0,1:0|0:0,0:0:0:0:
45,103,23981,1,2,1:2:0:0:
199,184,24195,6,0,L|309:158,1,95.9999970703126,4|0,1:0|0:0,0:0:0:0:
370,89,24624,1,0,1:0:0:0:
403,263,24838,2,0,P|425:311|465:326,1,95.9999970703126,2|0,1:2|0:0,0:0:0:0:
459,161,25267,1,2,1:0:0:0:
459,161,25374,1,0,1:0:0:0:
459,161,25481,1,0,1:0:0:0:
334,304,25695,1,6,1:2:0:0:
475,254,25910,1,0,1:0:0:0:
339,204,26129,6,0,B|254:206|273:261|189:261,1,160,4|0,1:0|0:0,0:0:0:0:
334,304,26771,2,0,L|420:317,1,80,2|0,0:1|0:0,0:0:0:0:
475,254,27199,1,0,0:0:0:0:
427,179,27413,2,0,P|429:136|457:100,1,80
332,131,27842,6,0,L|251:144,1,80
117,197,28270,2,0,L|204:211,1,80,2|0,0:1|0:0,0:0:0:0:
269,257,28698,1,0,0:0:0:0:
212,325,28912,1,0,0:0:0:0:
131,290,29126,1,0,0:0:0:0:
58,339,29340,1,0,0:0:0:0:
27,205,29555,6,0,P|30:170|68:121,1,80
122,77,29983,1,0,0:0:0:0:
195,209,30197,2,0,L|104:194,1,80,2|0,0:1|0:0,0:0:0:0:
53,132,30625,1,0,0:0:0:0:
122,77,30839,1,0,0:0:0:0:
206,100,31054,1,0,0:0:0:0:
329,44,31268,6,0,L|420:28,1,80
331,160,31696,2,0,P|337:201|364:236,1,80,2|0,0:1|0:0,0:0:0:0:
418,167,32124,1,0,0:0:0:0:
444,250,32338,1,0,0:0:0:0:
385,315,32552,1,0,0:0:0:0:
255,244,32767,1,0,1:0:0:0:
418,167,32981,6,0,P|440:134|445:95,1,80,4|0,1:0|0:0,0:0:0:0:
357,102,33409,2,0,L|266:133,1,80,0|2,0:0|1:0,0:0:0:0:
172,205,33838,1,0,1:0:0:0:
86,183,34052,2,0,P|65:150|64:102,1,80,0|2,0:0|0:0,0:0:0:0:
149,121,34481,1,2,0:0:0:0:
108,273,34695,5,0,1:0:0:0:
175,329,34909,1,0,0:0:0:0:
275,207,35123,2,0,L|282:114,1,80,2|2,1:0|0:0,0:0:0:0:
364,12,35552,1,0,1:0:0:0:
424,75,35766,1,0,0:0:0:0:
405,161,35981,2,0,P|417:201|444:229,1,80,2|2,0:0|0:0,0:0:0:0:
337,304,36409,6,0,P|325:344|298:372,1,80,0|0,1:0|0:0,0:0:0:0:
249,298,36838,1,0,0:0:0:0:
99,337,37052,1,2,1:0:0:0:
180,235,37266,2,0,P|235:205|279:210,1,80,0|0,1:0|0:0,0:0:0:0:
336,222,37695,1,2,0:0:0:0:
378,144,37909,1,2,0:0:0:0:
238,104,38123,6,0,P|215:69|214:26,1,80,0|0,1:0|0:0,0:0:0:0:
379,17,38552,2,0,L|303:42,1,80,2|0,1:0|0:0,0:0:0:0:
378,144,38981,1,0,1:0:0:0:
336,222,39195,1,0,0:0:0:0:
382,297,39409,2,0,P|369:346|336:373,1,80,2|2,0:0|0:0,0:0:0:0:
183,288,39838,6,0,L|113:221,1,80,4|0,1:0|0:0,0:0:0:0:
37,224,40266,1,0,0:0:0:0:
143,355,40481,2,0,P|188:366|246:334,1,80,2|4,1:0|1:2,0:0:0:0:
269,283,40909,1,0,0:0:0:0:
229,204,41123,1,0,1:0:0:0:
259,121,41338,1,0,0:0:0:0:
145,42,41552,6,0,L|54:51,1,80,0|0,1:0|0:0,0:0:0:0:
149,196,41981,2,0,L|240:205,1,80,2|0,1:0|0:0,0:0:0:0:
360,257,42409,1,4,1:2:0:0:
422,195,42623,1,0,0:0:0:0:
404,108,42838,1,0,1:0:0:0:
448,32,43052,1,0,0:0:0:0:
342,168,43266,6,0,P|319:95|381:24,1,160,4|0,1:0|0:0,0:0:0:0:
234,114,43909,2,0,P|197:143|136:139,1,80,2|4,1:0|1:2,0:0:0:0:
79,130,44338,1,0,0:0:0:0:
11,186,44552,1,0,1:0:0:0:
33,271,44766,1,0,0:0:0:0:
166,302,44981,6,0,L|256:277,1,80,0|0,1:0|0:0,0:0:0:0:
409,333,45409,2,0,L|331:354,1,80,2|0,1:0|0:0,0:0:0:0:
243,280,45838,1,4,1:2:0:0:
268,195,46052,1,0,0:0:0:0:
340,144,46266,1,0,1:0:0:0:
428,149,46481,1,0,0:0:0:0:
268,195,46695,6,0,L|184:216,1,80,4|0,1:0|0:0,0:0:0:0:
107,250,47123,1,0,0:0:0:0:
198,124,47338,2,0,P|207:85|195:39,1,80,2|4,1:0|1:2,0:0:0:0:
118,84,47766,1,0,0:0:0:0:
86,165,47981,1,0,1:0:0:0:
107,250,48195,1,0,0:0:0:0:
0,169,48409,6,0,P|6:131|39:93,1,80,0|0,1:0|0:0,0:0:0:0:
107,250,48838,2,0,P|101:288|67:325,1,80,2|0,1:0|0:0,0:0:0:0:
194,374,49266,1,4,1:2:0:0:
268,327,49481,1,0,0:0:0:0:
355,335,49695,2,0,L|449:313,1,80,0|0,1:0|0:0,0:0:0:0:
318,200,50123,6,0,P|293:119|317:31,1,160,4|0,1:0|0:0,0:0:0:0:
455,0,50766,1,2,1:0:0:0:
481,133,50981,2,0,L|470:229,1,80,4|0,1:2|0:0,0:0:0:0:
426,291,51409,2,0,L|437:387,1,80,0|0,1:0|0:0,0:0:0:0:
315,299,51838,6,0,L|305:219,1,80,0|0,1:0|0:0,0:0:0:0:
176,302,52266,2,0,P|143:323|99:325,1,80,2|0,1:0|0:0,0:0:0:0:
32,214,52695,1,4,1:2:0:0:
116,240,52909,1,0,0:0:0:0:
196,213,53123,2,0,P|245:244|266:299,1,120,0|0,1:0|0:0,0:0:0:0:
237,370,53552,6,0,P|265:376|322:350,1,80,0|0,1:0|1:0,0:0:0:0:
196,213,53981,1,0,1:0:0:0:
385,237,54195,1,4,1:2:0:0:
385,237,54838,5,0,1:0:0:0:
196,213,55052,1,0,1:0:0:0:
319,58,55266,1,0,1:0:0:0:
281,288,55481,1,4,1:2:0:0:
281,288,56123,5,0,1:0:0:0:
177,111,56338,1,0,1:0:0:0:
333,57,56552,2,0,L|308:154,1,80,4|0,1:2|0:0,0:0:0:0:
281,288,56981,5,0,1:0:0:0:
447,183,57195,1,0,1:0:0:0:
349,13,57409,1,0,1:0:0:0:
177,111,57623,1,4,1:2:0:0:
177,111,58266,5,0,1:0:0:0:
218,307,58481,1,0,1:0:0:0:
83,184,58695,1,0,1:0:0:0:
292,137,58909,1,4,1:2:0:0:
362,99,59552,6,0,L|274:146,1,80,2|2,1:0|1:0,0:0:0:0:
12,221,59981,2,0,L|82:183,1,80,6|2,1:0|1:0,0:0:0:0:
205,274,61267,6,0,L|315:283,1,95.9999970703126,4|0,1:0|0:0,0:0:0:0:
430,247,61695,1,0,1:0:0:0:
315,176,61909,1,0,0:0:0:0:
427,330,62124,2,0,P|481:314|507:274,1,95.9999970703126,4|0,1:2|0:0,0:0:0:0:
509,176,62552,1,0,1:0:0:0:
430,247,62767,1,0,0:0:0:0:
338,70,62981,5,2,1:0:0:0:
315,176,63195,1,0,0:0:0:0:
410,121,63409,2,0,B|440:77|416:27,1,95.9999970703126
212,95,63838,1,4,1:2:0:0:
252,192,64052,1,0,0:0:0:0:
119,99,64267,2,0,P|90:54|94:2,1,95.9999970703126,0|0,1:0|1:0,0:0:0:0:
212,95,64695,6,0,P|158:180|64:175,1,191.999994140625,4|0,1:0|1:0,0:0:0:0:
16,97,65338,1,0,0:0:0:0:
185,17,65552,2,0,L|307:26,1,95.9999970703126,4|0,1:2|0:0,0:0:0:0:
407,109,65981,2,0,L|308:117,1,95.9999970703126,0|0,1:0|0:0,0:0:0:0:
221,287,66409,6,6,P|261:326|307:331,1,95.9999970703126,2|0,1:0|2:0,2:0:0:0:
390,208,66838,1,0,1:0:0:0:
294,249,67052,1,0,2:0:0:0:
444,364,67267,1,4,1:2:0:0:
473,262,67481,1,0,0:0:0:0:
361,117,67695,2,0,P|345:62|362:9,1,95.9999970703126,0|0,1:0|1:0,3:0:0:0:
261,187,68124,6,0,P|231:280|155:340,1,191.999994140625,4|0,1:0|1:0,0:0:0:0:
329,318,68767,1,0,0:0:0:0:
181,172,68981,2,0,P|200:130|250:106,1,95.9999970703126,4|0,1:2|0:0,0:0:0:0:
369,170,69409,1,0,1:0:0:0:
261,187,69624,1,0,0:0:0:0:
453,262,69838,6,0,L|490:371,1,95.9999970703126,2|0,1:0|0:0,0:0:0:0:
345,307,70267,1,0,1:0:0:0:
253,359,70481,1,0,0:0:0:0:
127,193,70695,2,0,P|104:138|129:72,1,95.9999970703126,4|0,1:2|0:0,0:0:0:0:
268,71,71124,2,0,B|194:132,1,95.9999970703126,0|0,1:0|0:0,0:0:0:0:
212,317,71552,5,4,1:0:0:0:
259,218,71767,1,0,0:0:0:0:
351,272,71981,1,0,1:0:0:0:
304,370,72195,1,0,0:0:0:0:
368,183,72409,2,0,P|416:211|436:247,1,95.9999970703126,4|0,1:2|0:0,0:0:0:0:
433,99,72838,2,0,P|433:43|454:8,1,95.9999970703126,0|0,1:0|0:0,0:0:0:0:
286,117,73267,5,2,1:0:0:0:
192,69,73481,1,0,0:0:0:0:
103,125,73695,1,0,1:0:0:0:
9,78,73909,1,0,0:0:0:0:
64,271,74124,2,0,P|90:309|135:326,1,95.9999970703126,4|0,1:2|0:0,0:0:0:0:
251,165,74552,2,0,P|204:162|163:186,1,95.9999970703126,0|0,1:0|1:0,0:0:0:0:
149,212,74874,1,0,1:0:0:0:
145,241,74981,5,4,0:0:0:0:
340,332,75195,1,2,3:0:0:0:
381,96,75409,1,0,1:0:0:0:
224,239,75624,1,2,3:0:0:0:
445,169,75838,5,0,1:0:0:0:
239,71,76052,1,2,3:0:0:0:
340,332,76267,1,0,1:0:0:0:
466,84,76481,1,2,3:0:0:0:
154,148,76695,5,4,1:0:0:0:
154,148,78409,5,4,1:0:0:0:
256,192,78517,12,0,81409,0:0:0:0:
176,152,81838,6,0,P|248:112|336:164,1,180.000006866455,4|0,1:0|0:0,0:0:0:0:
252,212,82695,2,0,L|252:28,1,180.000006866455,0|0,1:0|0:0,0:0:0:0:
129,138,83552,6,0,P|83:131|44:81,2,90.0000034332277,4|0|0,1:0|1:0|1:0,0:0:0:0:
40,256,84409,2,0,P|36:319|73:371,1,120.000004577637,0|2,1:0|0:0,0:0:0:0:
232,332,85052,1,2,0:0:0:0:
232,332,85267,6,0,B|272:312|275:261|275:261|324:276|384:228,1,180.000006866455,4|0,1:0|0:0,0:0:0:0:
300,164,86124,2,0,P|256:140|172:152,1,120.000004577637,0|2,1:0|0:0,0:0:0:0:
116,80,86767,1,2,0:0:0:0:
228,240,86981,5,4,1:0:0:0:
155,282,87195,1,0,0:0:0:0:
72,266,87409,2,0,P|45:243|29:206,1,60.0000022888184,2|2,0:0|0:0,0:0:0:0:
134,172,87838,2,0,L|202:136,1,60.0000022888184,0|0,1:0|0:0,0:0:0:0:
316,88,88267,1,0,0:0:0:0:
412,188,88481,1,0,0:0:0:0:
412,188,88695,6,0,B|428:220|408:248|408:248|340:232|292:292,1,180.000006866455,4|0,1:0|0:0,0:0:0:0:
380,344,89552,2,0,L|340:164,1,180.000006866455,0|0,1:0|0:0,0:0:0:0:
352,20,90409,6,0,L|280:68,1,68.0000012969971,0|0,1:0|0:0,0:0:0:0:
152,136,90838,2,0,L|236:136,1,68.0000012969971,0|0,1:0|0:0,0:0:0:0:
352,20,91267,5,4,3:0:0:0:
374,35,91374,1,0,1:0:0:0:
391,56,91481,1,8,1:3:0:0:
402,81,91588,1,8,1:3:0:0:
406,107,91695,2,0,P|409:137|388:172,1,68.0000012969971,0|0,1:0|0:0,0:0:0:0:
200,280,92124,5,4,1:0:0:0:
200,280,92767,2,0,P|248:290|294:274,1,80,2|4,1:0|1:2,0:0:0:0:
362,253,93195,1,0,0:0:0:0:
391,169,93409,1,0,1:0:0:0:
348,91,93624,1,0,0:0:0:0:
362,253,93838,6,0,L|371:335,1,80,0|0,1:0|0:0,0:0:0:0:
473,209,94267,2,0,L|481:129,1,80,2|0,1:0|0:0,0:0:0:0:
364,16,94695,1,4,1:2:0:0:
283,51,94909,1,0,0:0:0:0:
198,36,95124,1,0,1:0:0:0:
117,71,95338,1,0,0:0:0:0:
258,147,95552,6,0,B|337:159|330:111|413:124,1,160,4|0,1:0|0:0,0:0:0:0:
283,51,96195,1,2,1:0:0:0:
386,220,96409,1,4,1:2:0:0:
343,297,96624,1,0,0:0:0:0:
402,361,96838,2,0,L|492:352,1,80,0|0,1:0|0:0,0:0:0:0:
343,297,97267,6,0,L|256:289,1,80,0|0,1:0|0:0,0:0:0:0:
92,249,97695,2,0,L|182:241,1,80,2|0,1:0|0:0,0:0:0:0:
325,184,98124,1,4,1:2:0:0:
406,216,98338,1,0,0:0:0:0:
486,180,98552,2,0,P|507:149|504:88,1,80,0|0,1:0|0:0,0:0:0:0:
325,184,98981,6,0,L|239:191,1,80,4|0,1:0|0:0,0:0:0:0:
171,241,99409,1,0,1:0:0:0:
256,102,99624,1,2,1:0:0:0:
262,273,99838,2,0,P|232:317|204:331,1,80,4|0,1:2|0:0,0:0:0:0:
121,336,100267,1,0,1:0:0:0:
73,262,100481,1,0,0:0:0:0:
180,131,100695,6,0,L|168:233,1,80,0|0,1:0|0:0,0:0:0:0:
117,73,101124,2,0,P|151:49|189:45,1,80,2|0,1:0|0:0,0:0:0:0:
347,79,101552,2,0,P|386:74|418:50,1,80,4|0,2:0|0:0,0:0:0:0:
404,161,101981,2,0,L|391:262,1,80,0|0,1:0|0:0,0:0:0:0:
281,347,102409,5,4,1:0:0:0:
199,312,102624,1,0,0:0:0:0:
120,350,102838,1,0,1:0:0:0:
281,347,103052,1,2,1:0:0:0:
128,263,103267,2,0,P|113:231|116:174,1,80,4|0,1:2|0:0,0:0:0:0:
161,114,103695,2,0,P|176:82|173:25,1,80,0|0,1:0|0:0,0:0:0:0:
281,150,104124,5,0,1:0:0:0:
209,206,104338,1,0,0:0:0:0:
289,56,104552,2,0,P|335:71|362:103,1,80,2|0,1:0|0:0,0:0:0:0:
293,239,104981,1,4,1:2:0:0:
209,206,105195,1,0,0:0:0:0:
224,296,105409,2,0,P|274:326|332:319,1,120,0|0,1:0|0:0,0:0:0:0:
373,256,105838,6,0,P|393:276|406:334,1,80,0|0,1:0|1:0,0:0:0:0:
224,296,106267,1,0,1:0:0:0:
373,161,106481,1,4,1:3:0:0:
373,161,107124,5,0,1:0:0:0:
224,296,107338,1,0,1:0:0:0:
167,85,107552,1,0,1:0:0:0:
373,161,107767,1,4,1:3:0:0:
373,161,108409,5,0,1:0:0:0:
440,361,108624,1,0,1:0:0:0:
290,184,108838,2,4,P|288:147|310:103,1,80,4|0,1:2|0:2,1:2:0:0:
466,115,109267,5,0,1:0:0:0:
346,260,109481,1,0,1:0:0:0:
386,62,109695,1,0,1:0:0:0:
426,313,109909,1,4,1:3:0:0:
426,313,110552,5,0,1:0:0:0:
305,108,110767,1,0,1:0:0:0:
274,332,110981,1,0,1:0:0:0:
435,176,111195,1,4,1:3:0:0:
500,130,111838,6,0,L|418:187,1,80,2|2,1:0|1:0,0:0:0:0:
209,379,112267,2,0,L|282:326,1,80,6|2,1:0|1:0,0:0:0:0:
338,126,112695,6,0,P|295:83|235:74,1,95.9999970703126,4|0,1:0|0:0,0:0:0:0:
127,103,113124,1,0,1:0:0:0:
239,184,113338,1,0,0:0:0:0:
54,153,113552,2,0,L|42:252,1,95.9999970703126,4|0,1:2|0:0,0:0:0:0:
105,370,113981,1,0,1:0:0:0:
2,341,114195,1,0,0:0:0:0:
164,218,114409,6,0,P|210:193|263:193,1,95.9999970703126,2|0,1:0|0:0,0:0:0:0:
293,364,114838,2,0,L|235:288,1,95.9999970703126,0|0,1:0|0:0,0:0:0:0:
200,97,115267,1,4,1:2:0:0:
118,163,115481,1,0,0:0:0:0:
289,112,115695,2,0,P|284:59|237:16,1,95.9999970703126,0|0,1:0|1:0,0:0:0:0:
251,206,116123,6,0,B|351:228|341:156|435:178,1,191.999994140625,4|0,1:0|1:0,0:0:0:0:
406,279,116765,1,0,0:0:0:0:
289,112,116980,2,0,L|172:105,1,95.9999970703126,4|0,1:2|0:0,0:0:0:0:
301,18,117408,2,0,L|418:11,1,95.9999970703126,0|0,1:0|0:0,0:0:0:0:
495,168,117837,6,0,P|487:223|446:262,1,95.9999970703126,2|0,1:0|0:0,0:0:0:0:
333,299,118265,1,0,1:0:0:0:
418,360,118480,1,0,0:0:0:0:
408,183,118694,2,0,L|399:70,1,95.9999970703126,4|0,1:2|0:0,0:0:0:0:
284,16,119123,1,0,1:0:0:0:
400,87,119337,1,0,1:0:0:0:
215,179,119551,6,0,B|177:206|119:193|119:193|84:232|38:229,1,191.999994140625,4|0,1:0|1:0,0:0:0:0:
40,123,120194,1,0,0:0:0:0:
149,276,120408,2,0,P|167:320|164:367,1,95.9999970703126,4|0,1:2|0:0,0:0:0:0:
37,336,120837,1,0,1:0:0:0:
38,229,121051,1,0,0:0:0:0:
241,287,121265,6,0,P|289:311|337:311,1,95.9999970703126,2|0,1:0|0:0,0:0:0:0:
467,294,121694,1,0,1:0:0:0:
427,196,121908,1,0,0:0:0:0:
486,8,122123,2,0,L|473:130,1,95.9999970703126,4|0,1:2|0:0,0:0:0:0:
427,196,122551,1,0,1:0:0:0:
322,182,122765,1,0,1:0:0:0:
427,342,122980,6,0,P|474:340|510:310,1,95.9999970703126,4|0,1:0|0:0,0:0:0:0:
363,273,123408,2,0,P|315:274|279:304,1,95.9999970703126,0|0,1:0|0:0,0:0:0:0:
104,231,123837,1,4,1:2:0:0:
141,329,124051,1,0,0:0:0:0:
187,197,124265,2,0,L|197:96,1,95.9999970703126,0|0,1:0|0:0,0:0:0:0:
353,177,124694,6,0,L|362:272,1,95.9999970703126,2|0,1:0|0:0,0:0:0:0:
461,364,125123,1,0,1:0:0:0:
508,270,125337,1,0,0:0:0:0:
340,354,125551,2,0,P|302:332|280:280,1,95.9999970703126,4|0,1:2|0:0,0:0:0:0:
353,177,125980,1,0,1:0:0:0:
290,58,126194,1,0,1:0:0:0:
160,194,126408,5,4,1:2:0:0:
165,220,126515,1,0,1:0:0:0:
169,249,126623,1,2,1:3:0:0:
175,277,126730,1,0,1:0:0:0:
182,305,126837,5,4,1:2:0:0:
195,270,126944,1,0,1:0:0:0:
228,249,127051,1,2,1:3:0:0:
266,250,127158,1,0,1:0:0:0:
296,270,127265,1,4,1:2:0:0:
328,291,127373,1,0,1:0:0:0:
365,290,127480,1,2,1:3:0:0:
398,269,127587,1,0,1:0:0:0:
431,249,127694,5,4,1:2:0:0:
471,258,127801,1,0,1:0:0:0:
501,289,127908,1,2,1:3:0:0:
506,331,128015,1,0,1:0:0:0:
489,368,128123,5,4,1:2:0:0:
351,241,128765,5,0,0:0:0:0:
351,241,128873,1,0,0:0:0:0:
351,241,128980,2,0,B|333:227|325:191|325:191|280:179|275:137|275:137|231:125|225:81|225:81|182:69|166:26,1,287.999991210938,4|0,1:2|0:0,0:0:0:0:
205,216,129837,6,0,P|172:326|94:366,1,191.999994140625,4|0,1:0|1:0,0:0:0:0:
7,337,130480,1,0,0:0:0:0:
62,133,130694,1,4,1:2:0:0:
77,236,130908,1,0,0:0:0:0:
146,115,131123,2,0,P|122:71|79:48,1,95.9999970703126,0|0,1:0|0:0,0:0:0:0:
77,236,131551,5,2,1:0:0:0:
176,202,131765,1,0,0:0:0:0:
239,334,131980,2,0,P|282:354|330:350,1,95.9999970703126,0|0,1:0|0:0,0:0:0:0:
368,189,132408,2,0,L|299:256,1,95.9999970703126,4|0,1:2|0:0,0:0:0:0:
337,96,132837,2,0,P|385:92|436:119,1,95.9999970703126,0|0,1:0|1:0,0:0:0:0:
299,256,133265,5,4,1:0:0:0:
227,178,133480,1,0,0:0:0:0:
368,189,133694,2,0,L|419:298,1,95.9999970703126,0|0,1:0|0:0,0:0:0:0:
208,267,134123,2,0,P|166:245|139:201,1,95.9999970703126,4|0,1:2|0:0,0:0:0:0:
184,76,134551,1,0,1:0:0:0:
227,178,134765,1,0,0:0:0:0:
362,43,134980,6,0,B|415:98|401:177|401:177|427:161|457:169,1,191.999994140625,2|0,1:0|1:0,0:0:0:0:
449,273,135623,1,0,0:0:0:0:
266,247,135837,1,4,1:2:0:0:
336,328,136051,1,0,0:0:0:0:
198,315,136265,2,0,P|153:321|99:360,1,95.9999970703126,0|0,1:0|1:0,0:0:0:0:
167,155,136694,6,0,L|184:49,1,95.9999970703126,4|0,1:0|0:0,0:0:0:0:
282,152,137123,2,0,L|266:246,1,95.9999970703126,4|0,1:0|0:0,0:0:0:0:
83,189,137551,2,0,P|44:211|16:266,1,95.9999970703126,4|0,1:2|0:0,0:0:0:0:
110,347,137980,1,0,1:0:0:0:
265,246,138194,6,0,P|358:232|442:274,1,191.999994140625,6|0,1:0|1:0,0:0:0:0:
446,246,138730,1,0,0:0:0:0:
445,217,138837,2,0,L|439:104,1,95.9999970703126,0|0,1:0|0:0,0:0:0:0:
283,17,139265,1,4,1:2:0:0:
218,143,139480,1,0,1:0:0:0:
218,143,139587,1,0,0:0:0:0:
218,143,139694,2,0,L|212:238,1,95.9999970703126,2|0,1:0|0:0,0:0:0:0:
336,97,140123,6,0,L|373:84,2,40,4|0|0,1:0|1:0|1:0,0:0:0:0:
116,57,140765,1,0,1:0:0:0:
116,57,140873,1,0,1:0:0:0:
116,57,140980,1,4,1:0:0:0:
52,285,141408,1,4,1:0:0:0:
52,285,141515,1,0,1:0:0:0:
52,285,141623,2,0,L|127:243,1,80,0|0,1:0|0:0,0:0:0:0:
189,156,142051,5,0,1:0:0:0:
189,156,142158,1,0,1:0:0:0:
189,156,142265,1,4,1:0:0:0:
282,224,142480,1,0,0:0:0:0:
346,53,142694,2,0,P|419:79|452:156,1,160,4|0,1:2|0:0,0:0:0:0:
354,152,143337,1,0,0:0:0:0:
266,82,143551,5,4,1:0:0:0:
266,82,143658,1,0,1:0:0:0:
266,82,143765,1,0,1:0:0:0:
270,314,144194,2,0,L|287:363,2,40,0|0|4,1:0|1:0|1:0,0:0:0:0:
131,138,144837,1,4,1:0:0:0:
131,138,144944,1,0,1:0:0:0:
131,138,145051,1,0,1:0:0:0:
133,247,145265,6,0,B|73:235|73:235|30:187,2,120,2|2|2,1:0|1:0|1:0,0:0:0:0:
228,113,146123,1,4,1:2:0:0:
133,247,146337,1,0,0:0:0:0:
236,34,146551,2,0,P|272:45|299:75,1,80,4|0,1:2|0:0,0:0:0:0:
320,198,146980,5,4,1:0:0:0:
320,198,147087,1,0,1:0:0:0:
320,198,147194,1,0,1:0:0:0:
475,27,147623,1,0,1:0:0:0:
475,27,147730,1,0,1:0:0:0:
475,27,147837,1,4,1:0:0:0:
457,250,148265,1,4,1:0:0:0:
457,250,148373,1,0,1:0:0:0:
457,250,148480,2,0,L|427:346,1,80,0|0,1:0|0:0,0:0:0:0:
322,347,148908,5,0,1:0:0:0:
322,347,149015,1,0,1:0:0:0:
322,347,149123,1,4,1:0:0:0:
265,250,149337,1,0,0:0:0:0:
125,359,149551,2,0,P|56:318|34:245,1,160,4|0,1:2|0:0,0:0:0:0:
147,246,150194,1,0,0:0:0:0:
80,166,150408,5,4,1:0:0:0:
80,166,150515,1,0,1:0:0:0:
80,166,150623,1,0,1:0:0:0:
285,75,151051,2,0,L|325:49,2,40,0|0|4,1:0|1:0|1:0,0:0:0:0:
147,246,151694,1,4,1:0:0:0:
147,246,151801,1,0,1:0:0:0:
147,246,151908,1,0,1:0:0:0:
299,245,152123,6,0,L|374:197,1,80,4|4,1:2|1:2,0:0:0:0:
383,50,152551,2,0,L|385:-3,1,40,4|0,1:3|1:0,0:0:0:0:
285,53,152765,2,0,L|257:9,1,40,8|0,1:3|1:0,0:0:0:0:
179,89,152980,5,4,1:2:0:0:
166,119,153087,1,8,1:3:0:0:
160,151,153194,1,0,1:0:0:0:
164,183,153301,1,8,1:3:0:0:
175,213,153408,1,4,1:2:0:0:
184,244,153515,1,0,1:0:0:0:
184,277,153623,1,2,1:3:0:0:
177,308,153730,1,2,1:3:0:0:
164,338,153837,6,0,L|122:390,2,40,4|0|0,1:0|1:0|1:0,0:0:0:0:
291,153,154480,2,0,L|319:121,2,40,0|0|4,1:0|1:0|1:0,0:0:0:0:
241,371,155123,1,4,1:0:0:0:
241,371,155230,1,0,1:0:0:0:
241,371,155337,2,0,L|298:300,1,80,0|0,1:0|0:0,0:0:0:0:
372,232,155765,5,0,1:0:0:0:
372,232,155873,1,0,1:0:0:0:
372,232,155980,1,4,1:0:0:0:
322,131,156194,1,0,0:0:0:0:
454,225,156408,2,0,B|458:271|419:301,1,80,4|0,1:2|0:0,0:0:0:0:
322,341,156837,2,0,B|296:307|250:311,1,80
146,352,157265,5,4,1:0:0:0:
146,352,157373,1,0,1:0:0:0:
146,352,157480,1,0,1:0:0:0:
130,128,157908,2,0,L|91:80,2,40,0|0|4,1:0|1:0|1:0,0:0:0:0:
321,243,158551,1,4,1:0:0:0:
321,243,158658,1,0,1:0:0:0:
321,243,158765,1,0,1:0:0:0:
255,167,158980,6,0,B|219:213|219:213|225:279,2,120,2|2|2,1:0|1:0|1:0,0:0:0:0:
433,103,159837,1,4,1:2:0:0:
321,243,160051,1,0,0:0:0:0:
407,20,160265,2,0,P|449:16|487:34,1,80,4|0,1:2|0:0,0:0:0:0:
502,166,160694,5,4,1:0:0:0:
502,166,160801,1,0,1:0:0:0:
502,166,160908,1,0,1:0:0:0:
371,347,161337,1,0,1:0:0:0:
371,347,161444,1,0,1:0:0:0:
371,347,161551,1,4,1:0:0:0:
329,127,161980,2,0,L|306:79,2,40,4|0|0,1:0|1:0|1:0,0:0:0:0:
375,229,162408,5,0,0:0:0:0:
267,220,162623,1,0,1:0:0:0:
267,220,162730,1,0,1:0:0:0:
267,220,162837,1,4,1:0:0:0:
375,229,163051,1,0,0:0:0:0:
216,323,163265,2,0,P|159:260|167:167,1,160,4|0,1:2|0:0,0:0:0:0:
267,220,163908,1,0,0:0:0:0:
252,92,164123,5,4,1:0:0:0:
250,65,164230,1,0,1:0:0:0:
248,37,164337,1,0,1:0:0:0:
181,257,164765,2,0,L|186:315,2,40,0|0|4,1:0|1:0|1:0,0:0:0:0:
103,46,165408,1,4,1:0:0:0:
105,73,165515,1,0,1:0:0:0:
108,100,165623,1,0,1:0:0:0:
254,212,165837,6,0,P|333:244|410:202,1,160,4|0,1:2|0:0,0:0:0:0:
349,20,166480,1,0,1:0:0:0:
343,51,166587,1,8,1:3:0:0:
338,83,166694,1,4,1:2:0:0:
333,114,166801,1,8,1:3:0:0:
328,146,166908,1,0,1:0:0:0:
235,82,167123,2,0,L|248:3,1,80,0|0,1:0|0:0,0:0:0:0:
143,137,167551,5,4,1:0:0:0:
143,137,167658,1,0,1:0:0:0:
143,137,167765,1,0,1:0:0:0:
243,244,167980,2,0,L|259:334,1,80,4|0,1:2|1:0,0:0:0:0:
225,316,168301,1,0,1:0:0:0:
194,307,168408,1,4,1:0:0:0:
416,284,168837,1,4,1:0:0:0:
447,293,168944,1,0,1:0:0:0:
478,301,169051,1,0,1:0:0:0:
416,192,169265,5,0,0:0:0:0:
333,327,169480,1,0,1:0:0:0:
302,336,169587,1,0,1:0:0:0:
271,344,169694,1,4,1:0:0:0:
6,177,170123,2,0,P|45:158|92:158,1,80,6|0,1:0|1:0,0:0:0:0:
257,210,170551,2,0,P|221:227|181:230,1,80,4|2,1:2|1:0,0:0:0:0:
190,118,170980,5,4,1:0:0:0:
190,118,171087,1,0,1:0:0:0:
190,118,171194,1,0,1:0:0:0:
94,242,171408,2,0,L|82:329,1,80,4|0,1:2|1:0,0:0:0:0:
108,310,171730,1,0,1:0:0:0:
132,298,171837,1,4,1:0:0:0:
273,123,172265,2,0,L|332:91,2,40,4|0|0,1:0|1:0|1:0,0:0:0:0:
306,278,172694,6,0,B|309:352|368:371,1,120,0|0,1:0|1:0,0:0:0:0:
394,365,173123,1,4,1:0:0:0:
223,340,173337,1,0,1:0:0:0:
413,208,173551,1,6,1:0:0:0:
223,340,173765,1,0,1:0:0:0:
432,129,173980,2,0,P|392:128|345:164,1,80,6|0,1:0|1:0,0:0:0:0:
306,278,174408,5,4,1:0:0:0:
306,278,174515,1,0,1:0:0:0:
306,278,174623,1,0,1:0:0:0:
239,148,174837,1,4,1:2:0:0:
154,267,175051,1,0,1:0:0:0:
163,236,175158,1,0,1:0:0:0:
171,205,175265,1,4,1:0:0:0:
300,21,175694,1,4,1:0:0:0:
308,52,175801,1,0,1:0:0:0:
317,83,175908,2,0,L|343:175,1,80,0|0,1:0|0:0,0:0:0:0:
268,298,176337,5,0,1:0:0:0:
277,267,176444,1,0,1:0:0:0:
285,236,176551,1,4,1:0:0:0:
83,340,176980,2,0,P|40:357|-1:348,1,80,6|0,1:0|1:0,0:0:0:0:
129,229,177408,2,0,P|172:212|213:221,1,80,4|2,1:2|1:0,0:0:0:0:
371,317,177837,5,4,1:0:0:0:
403,341,177944,1,4,1:0:0:0:
435,365,178051,1,4,1:0:0:0:
211,80,178694,1,4,1:0:0:0:
178,56,178801,1,4,1:0:0:0:
146,32,178908,1,4,1:0:0:0:
147,331,179765,5,0,0:0:0:0:
156,350,179979,1,0,0:0:0:0:
260,219,180193,1,0,2:0:0:0:
251,238,180407,1,0,0:0:0:0:
137,126,180622,1,0,2:0:0:0:
146,145,180836,1,0,0:0:0:0:
281,39,181050,1,2,0:0:0:0:
241,118,181265,1,0,0:0:0:0:
78,23,181479,6,0,B|53:41|61:69|61:69|37:98|37:98|46:138|46:138|7:197|34:248|34:248|40:223|66:202,1,287.999991210938,2|0,0:0|0:0,0:0:0:0:
241,118,182336,1,0,1:0:0:0:
277,104,182443,1,8,1:3:0:0:
315,107,182550,1,0,1:0:0:0:
350,122,182657,1,8,1:3:0:0:
377,149,182765,2,0,L|292:195,1,95.9999970703126,4|0,1:2|0:0,0:0:0:0:
108,263,183193,5,6,1:0:0:0:
235,307,183407,1,0,0:0:0:0:
106,346,183622,2,0,P|58:331|28:284,1,95.9999970703126,0|0,1:0|0:0,0:0:0:0:
37,99,184050,1,4,1:2:0:0:
121,35,184265,1,0,0:0:0:0:
115,167,184479,2,0,L|107:265,1,95.9999970703126,0|0,1:0|0:0,0:0:0:0:
264,135,184885,6,0,L|256:39,1,95.9999970703126,6|0,1:0|0:0,0:0:0:0:
121,35,185313,1,0,1:0:0:0:
178,123,185527,1,0,0:0:0:0:
346,28,185742,2,0,P|392:12|446:20,1,95.9999970703126,4|0,1:2|0:0,0:0:0:0:
410,148,186170,1,0,1:0:0:0:
346,28,186385,1,0,1:0:0:0:
366,235,186599,5,6,1:0:0:0:
488,180,186813,1,0,0:0:0:0:
332,141,187027,2,0,L|224:199,1,95.9999970703126,0|0,1:0|0:0,0:0:0:0:
89,302,187456,1,4,1:2:0:0:
108,198,187670,1,0,0:0:0:0:
194,301,187885,1,0,1:0:0:0:
89,302,188099,1,0,0:0:0:0:
286,256,188313,6,0,P|331:269|360:306,1,95.9999970703126,6|0,1:0|0:0,0:0:0:0:
391,152,188742,2,0,P|396:105|430:71,1,95.9999970703126,0|0,1:0|0:0,0:0:0:0:
245,113,189170,1,4,1:2:0:0:
322,184,189385,1,0,0:0:0:0:
299,51,189599,1,0,1:0:0:0:
239,201,189813,1,0,1:0:0:0:
188,17,190027,6,0,P|151:50|135:106,1,95.9999970703126,6|0,1:0|0:0,0:0:0:0:
126,227,190456,2,0,P|109:271|73:302,1,95.9999970703126,0|0,1:0|0:0,0:0:0:0:
30,114,190885,1,4,1:2:0:0:
135,92,191099,1,0,0:0:0:0:
221,194,191313,2,0,P|267:221|314:220,1,95.9999970703126,0|0,1:0|0:0,0:0:0:0:
381,43,191742,5,6,1:0:0:0:
294,108,191956,1,0,0:0:0:0:
430,108,192170,2,0,P|457:74|453:4,1,95.9999970703126,0|0,1:0|0:0,0:0:0:0:
246,17,192599,1,4,1:2:0:0:
193,108,192813,1,0,0:0:0:0:
316,160,193027,2,0,P|364:183|385:225,1,95.9999970703126,0|4,1:0|1:0,0:0:0:0:
388,246,193349,1,4,3:0:0:0:
380,273,193457,5,4,3:0:0:0:
183,338,193661,2,0,L|73:366,1,80,0|0,3:0|0:0,0:0:0:0:
118,334,193967,1,4,3:0:0:0:
135,313,194069,1,4,3:0:0:0:
322,372,194273,1,0,3:0:0:0:
158,228,194477,1,0,3:0:0:0:
383,219,194681,2,0,L|409:229,3,26.6666666666667,4|4|4|4,3:0|3:0|3:0|3:0,0:0:0:0:
433,301,195089,5,4,3:0:0:0:
69,278,195741,5,0,3:0:0:0:
69,278,195843,2,0,L|56:335,1,47.9999985351563,4|0,3:0|0:0,0:0:0:0:
155,180,196049,2,0,L|168:237,1,47.9999985351563,4|0,3:0|0:0,0:0:0:0:
64,101,196254,2,0,L|51:158,1,47.9999985351563,4|0,3:0|0:0,0:0:0:0:
150,3,196463,2,0,L|163:60,1,47.9999985351563,4|0,3:0|0:0,0:0:0:0:
260,131,196693,6,0,B|339:194|361:125|438:183,1,191.999994140625,6|0,1:0|1:0,0:0:0:0:
370,263,197335,1,0,0:0:0:0:
334,56,197550,1,4,1:2:0:0:
260,131,197764,1,0,0:0:0:0:
219,2,197978,1,0,1:0:0:0:
260,131,198192,1,0,1:0:0:0:
69,86,198407,6,0,L|-1:169,1,95.9999970703126,6|0,1:0|0:0,0:0:0:0:
153,99,198835,2,0,P|145:47|100:5,1,95.9999970703126,0|0,1:0|0:0,0:0:0:0:
100,211,199264,1,4,1:2:0:0:
142,307,199478,1,0,0:0:0:0:
266,254,199692,1,0,1:0:0:0:
224,350,199907,1,0,0:0:0:0:
224,145,200121,6,0,P|237:103|278:64,1,95.9999970703126,6|0,1:0|0:0,0:0:0:0:
403,29,200550,1,0,1:0:0:0:
359,124,200764,1,0,0:0:0:0:
152,75,200978,2,0,L|39:69,1,95.9999970703126,4|0,1:2|0:0,0:0:0:0:
131,228,201407,2,0,L|244:222,1,95.9999970703126,0|0,1:0|1:0,0:0:0:0:
30,188,201835,6,0,P|32:280|111:336,1,191.999994140625,6|0,1:0|1:0,0:0:0:0:
131,228,202478,1,0,0:0:0:0:
31,36,202692,1,4,1:2:0:0:
125,83,202907,1,0,0:0:0:0:
131,228,203121,1,0,1:0:0:0:
131,228,203228,1,0,1:0:0:0:
131,228,203335,1,0,1:0:0:0:
251,15,203550,5,4,1:0:0:0:
256,192,203657,12,0,208264,0:0:0:0:
25,174,210365,6,0,P|65:159|113:165,1,80,2|0,0:0|0:0,0:0:0:0:
177,209,210798,2,0,P|216:210|253:196,1,80
313,131,211232,1,2,0:0:0:0:
284,47,211449,1,0,0:0:0:0:
370,63,211666,2,0,P|394:94|402:135,1,80
335,278,212100,5,2,1:3:0:0:
203,179,212317,1,0,0:0:0:0:
233,328,212534,1,2,0:0:0:0:
326,190,212751,1,0,0:0:0:0:
309,359,212968,1,2,1:3:0:0:
165,262,213185,1,0,0:0:0:0:
335,278,213402,1,2,0:0:0:0:
163,372,213619,1,0,0:0:0:0:
219,158,213835,6,0,P|217:113|196:78,1,80,2|0,1:3|0:0,0:0:0:0:
37,53,214263,1,2,1:3:0:0:
135,139,214477,1,0,0:0:0:0:
18,268,214692,2,0,L|48:170,1,80,2|0,1:3|0:0,0:0:0:0:
130,37,215120,1,2,1:3:0:0:
250,98,215335,1,0,0:0:0:0:
108,243,215549,5,2,1:3:0:0:
369,124,215763,1,0,1:0:0:0:
189,318,215977,1,2,1:3:0:0:
177,52,216192,1,0,1:0:0:0:
372,231,216406,1,2,1:3:0:0:
108,243,216620,1,0,1:0:0:0:
286,48,216835,1,2,1:3:0:0:
300,314,217049,5,4,0:0:0:0:
