osu file format v14

[General]
AudioFilename: Stigmata - September22.mp3
AudioLeadIn: 0
PreviewTime: 61159
Countdown: 0
SampleSet: Soft
StackLeniency: 0.7
Mode: 0
LetterboxInBreaks: 0
WidescreenStoryboard: 0

[Editor]
Bookmarks: 52699,104985,126413,128127,167556,210407
DistanceSpacing: 1.4
BeatDivisor: 4
GridSize: 16
TimelineZoom: 1.5

[Metadata]
Title:September
TitleUnicode:Сентябрь
Artist:Stigmata
ArtistUnicode:Stigmata
Creator:TheMefisto
Version:Advanced
Source:
Tags:Стигмата russian alternative hardcore emocore Rmdy
BeatmapID:1122506
BeatmapSetID:360357

[Difficulty]
HPDrainRate:5
CircleSize:3.5
OverallDifficulty:5
ApproachRate:6
SliderMultiplier:1.1
SliderTickRate:1

[Events]
//Background and Video events
0,0,"default.jpg",0,0
//Break Periods
2,82038,91074
//Storyboard Layer 0 (Background)
//Storyboard Layer 1 (Fail)
//Storyboard Layer 2 (Pass)
//Storyboard Layer 3 (Foreground)
//Storyboard Sound Samples

[TimingPoints]
1050,625,4,2,1,30,1,0
1362,545.454545454546,4,2,1,30,1,0
1907,600,4,2,1,30,1,0
2507,566.037735849057,4,2,1,30,1,0
2790,600,4,2,1,30,1,0
3090,588.235294117647,4,2,1,30,1,0
3972,612.244897959184,4,2,1,10,1,0
4584,625,4,2,1,30,1,0
5209,588.235294117647,4,2,1,30,1,0
5797,638.297872340426,4,2,1,30,1,0
7073,666.666666666667,4,2,1,20,1,0
8406,750,4,2,1,20,1,0
9531,810.810810810811,4,2,1,18,1,0
9936,882.352941176471,4,2,1,16,1,0
10377,909.090909090909,4,2,1,16,1,0
10831,1000,4,2,1,14,1,0
12410,428.571428571429,4,2,1,60,1,0
26129,428.265524625268,4,2,1,25,1,0
32981,428.571428571429,4,2,1,25,1,0
53552,-100,4,2,1,40,0,0
61267,428.571428571429,4,2,1,60,1,1
62552,-100,4,2,1,75,0,1
64695,-100,4,2,1,60,0,1
79267,-100,4,2,1,50,0,1
80124,-100,4,2,1,45,0,1
80981,-100,4,2,1,40,0,1
81838,-100,4,2,1,40,0,0
112695,-100,4,2,1,60,0,1
115267,-100,4,2,1,75,0,1
116123,428.571428571429,4,2,1,60,1,1
128123,-100,4,2,1,60,0,0
129837,-100,4,2,1,60,0,1
140123,-100,4,2,1,50,0,0
179765,428.571428571429,4,2,1,30,1,0
182336,-100,4,2,1,60,0,0
183193,-100,4,2,1,60,0,1
184885,428.571428571429,4,2,1,60,1,1
193457,408.163265306122,4,2,1,60,1,1
194681,416.666666666667,4,2,1,60,1,1
195089,405.405405405405,4,2,1,60,1,0
195433,410.958904109589,4,2,1,60,1,0
196254,419.58041958042,4,2,1,60,1,0
196693,428.571428571429,4,2,1,60,1,1
203550,-100,4,2,1,40,0,0
204407,-100,4,2,1,35,0,0
205264,-100,4,2,1,30,0,0
206121,-100,4,2,1,25,0,0
206978,-100,4,2,1,20,0,0
210365,433.996383363472,4,2,1,40,1,0
211232,-100,4,2,1,46,0,0
212100,-100,4,2,1,51,0,0
212968,-100,4,2,1,56,0,0
213835,428.571428571429,4,2,1,61,1,0
214692,-100,4,2,1,67,0,0
215549,-100,4,2,1,72,0,0
216406,-100,4,2,1,75,0,0

[Colours]
Combo1 : 255,198,26
Combo2 : 241,99,3
Combo3 : 242,242,0
Combo4 : 146,3,28

[HitObjects]
114,60,1050,6,0,L|178:44,1,55,2|0,0:0|0:0,0:0:0:0:
191,121,1634,2,0,L|256:122,1,55
272,195,2207,2,0,L|324:210,1,55,2|0,0:0|0:0,0:0:0:0:
351,282,2790,1,0,0:0:0:0:
291,330,3090,6,0,P|367:358|427:294,1,165,2|2,0:0|0:0,0:0:0:0:
403,159,4584,2,0,L|320:78,1,110,2|2,0:0|0:0,0:0:0:0:
185,52,5797,6,0,L|128:67,1,55,4|0,0:0|0:0,0:0:0:0:
138,142,6435,2,0,L|92:173,1,55,2|0,0:0|0:0,0:0:0:0:
130,241,7073,6,0,L|95:291,1,55,2|0,0:0|0:0,0:0:0:0:
156,338,7739,2,0,P|185:339|225:319,1,55
280,304,8406,6,0,L|336:288,1,55,2|0,0:0|0:0,0:0:0:0:
309,214,9156,6,0,L|355:185,1,55
311,122,9936,6,0,L|348:81,1,55,2|0,0:0|0:0,0:0:0:0:
386,15,10831,6,0,P|406:29|423:63,1,55
262,242,12410,6,0,P|290:229|309:211,1,55,4|0,1:0|0:0,0:0:0:0:
246,165,12838,2,0,L|192:63,2,110,2|2|2,1:2|1:0|1:2,0:0:0:0:
186,214,13910,1,0,1:0:0:0:
265,345,14338,5,0,1:0:0:0:
327,299,14552,2,0,L|377:238,1,55,2|0,1:2|0:0,0:0:0:0:
297,213,14981,2,0,L|326:144,1,55,2|2,1:0|0:0,0:0:0:0:
241,151,15410,2,0,L|252:72,1,55,2|0,1:2|1:0,0:0:0:0:
176,71,15838,6,0,L|116:108,1,55,4|0,1:0|0:0,0:0:0:0:
135,176,16267,2,0,P|79:157|55:114,2,110,2|2|2,1:2|1:0|1:2,0:0:0:0:
206,148,17338,1,4,1:0:0:0:
330,237,17767,5,0,1:0:0:0:
394,193,17981,2,0,P|371:170|343:160,1,55,2|0,1:2|0:0,0:0:0:0:
274,181,18410,2,0,L|206:165,1,55,2|0,1:0|1:0,0:0:0:0:
177,104,18838,2,0,P|207:75|233:71,1,55,6|0,1:2|1:2,0:0:0:0:
296,77,19267,6,0,L|351:75,1,55,4|0,1:0|0:0,0:0:0:0:
429,71,19695,2,0,P|413:124|360:154,2,110,2|2|2,1:2|1:0|1:2,0:0:0:0:
350,75,20767,1,0,1:0:0:0:
216,151,21195,5,0,1:0:0:0:
233,226,21410,2,0,L|302:246,1,55,2|0,1:2|0:0,0:0:0:0:
356,271,21838,1,2,1:0:0:0:
423,308,22052,2,0,L|455:353,2,55,2|2|0,0:2|1:2|1:0,0:0:0:0:
425,230,22695,6,0,L|473:178,1,55,4|0,1:0|0:0,0:0:0:0:
448,113,23124,2,0,P|418:78|358:47,2,110,2|2|2,1:2|1:0|1:2,0:0:0:0:
385,157,24195,1,4,1:0:0:0:
241,214,24624,5,0,1:0:0:0:
203,146,24838,2,0,P|187:106|167:90,1,55,2|0,1:2|0:0,0:0:0:0:
106,72,25267,2,0,L|77:125,1,55,2|0,1:0|1:0,0:0:0:0:
102,193,25695,1,6,1:2:0:0:
160,243,25910,1,0,1:0:0:0:
222,287,26129,6,0,B|266:319|338:279,1,110,4|0,1:0|0:0,0:0:0:0:
402,303,26771,2,0,P|403:278|392:246,1,55,2|0,0:1|0:0,0:0:0:0:
393,172,27199,2,0,L|459:128,2,55
338,117,27842,6,0,L|286:71,1,55
220,68,28270,2,0,P|170:81|138:136,2,110,2|0|0,0:1|0:0|0:0,0:0:0:0:
213,144,29340,1,0,0:0:0:0:
183,214,29555,6,0,L|123:245,2,55
242,263,30197,2,0,P|265:277|292:277,1,55,2|0,0:1|0:0,0:0:0:0:
369,286,30625,2,0,L|397:337,2,55
358,209,31268,6,0,L|351:154,1,55
343,77,31696,2,0,P|373:43|454:26,2,110,2|0|0,0:1|0:0|0:0,0:0:0:0:
351,154,32767,1,0,1:0:0:0:
367,229,32981,5,4,1:0:0:0:
246,325,33409,2,0,P|218:338|182:339,1,55,0|2,0:0|1:0,0:0:0:0:
121,315,33838,2,0,L|78:199,1,110,0|2,1:0|0:0,0:0:0:0:
86,134,34481,1,0,0:0:0:0:
136,76,34695,6,0,L|195:45,1,55,0|0,1:0|0:0,0:0:0:0:
261,41,35123,2,0,P|288:45|312:58,1,55,2|0,1:0|0:0,0:0:0:0:
265,119,35552,2,0,P|260:145|312:232,1,110,0|0,1:0|0:0,0:0:0:0:
361,256,36195,1,0,0:0:0:0:
436,240,36409,6,0,L|456:168,1,55,0|0,1:0|0:0,0:0:0:0:
459,110,36838,2,0,L|414:50,1,55,0|2,0:0|1:0,0:0:0:0:
353,40,37266,2,0,P|288:45|247:90,1,110,0|2,1:0|0:0,0:0:0:0:
234,147,37909,1,0,0:0:0:0:
216,221,38123,6,0,P|197:258|165:273,2,55,0|0|2,1:0|0:0|1:0,0:0:0:0:
140,204,38766,1,0,0:0:0:0:
107,273,38981,2,0,P|128:324|194:347,1,110,0|2,1:0|0:0,0:0:0:0:
248,323,39623,1,2,0:0:0:0:
299,266,39838,6,0,P|331:227|386:209,1,110,4|0,1:0|0:0,0:0:0:0:
462,219,40481,1,2,1:0:0:0:
505,155,40695,2,0,P|500:113|447:55,1,110,4|0,1:2|1:0,0:0:0:0:
383,45,41338,1,0,0:0:0:0:
310,69,41552,6,0,L|257:118,1,55,0|0,1:0|0:0,0:0:0:0:
257,182,41981,2,0,L|324:221,1,55,2|0,1:0|0:0,0:0:0:0:
361,262,42409,2,0,P|332:305|262:331,1,110,4|0,1:2|1:0,0:0:0:0:
204,317,43052,1,0,0:0:0:0:
165,249,43266,6,0,L|136:137,1,110,4|0,1:0|0:0,0:0:0:0:
97,76,43909,1,2,1:0:0:0:
36,28,44123,2,0,P|22:50|23:97,1,55,4|0,1:2|0:0,0:0:0:0:
39,152,44552,2,0,L|57:221,1,55,0|0,1:0|0:0,0:0:0:0:
77,278,44981,6,0,P|120:319|188:325,1,110,0|2,1:0|1:0,1:0:0:0:
242,308,45623,1,0,0:0:0:0:
303,262,45838,2,0,P|317:294|314:324,2,55,4|0|0,1:2|0:0|0:0,0:0:0:0:
238,218,46481,1,0,0:0:0:0:
164,241,46695,6,0,P|109:222|78:176,1,110,4|0,1:0|1:0,0:0:0:0:
95,105,47338,1,2,1:0:0:0:
162,69,47552,2,0,B|276:38,1,110,4|0,1:2|1:0,0:0:0:0:
345,39,48195,1,0,0:0:0:0:
415,70,48409,6,0,L|436:138,1,55,4|0,1:0|0:0,0:0:0:0:
439,199,48838,2,0,P|418:230|402:238,1,55,2|0,1:0|0:0,0:0:0:0:
366,171,49266,2,0,P|312:155|256:171,1,110,4|0,1:2|1:0,0:0:0:0:
207,223,49909,1,0,0:0:0:0:
162,285,50123,6,0,P|109:298|57:281,1,110,4|0,1:0|0:0,0:0:0:0:
16,216,50766,1,2,1:0:0:0:
40,143,50981,2,0,L|99:100,1,55,4|0,1:2|0:0,0:0:0:0:
157,84,51409,2,0,L|224:76,1,55,0|0,1:0|0:0,0:0:0:0:
288,83,51838,6,0,P|337:105|372:147,1,110,4|2,1:0|1:0,0:0:0:0:
382,223,52481,1,0,0:0:0:0:
332,282,52695,2,0,P|306:304|272:310,2,55,4|0|0,1:2|0:0|1:0,0:0:0:0:
271,233,53338,1,0,0:0:0:0:
204,194,53552,6,0,L|151:164,1,55,0|0,1:0|1:0,0:0:0:0:
82,178,53981,1,0,1:0:0:0:
82,178,54195,1,4,1:2:0:0:
308,150,54838,6,0,L|310:83,1,55,0|0,1:0|1:0,0:0:0:0:
351,30,55266,1,0,1:0:0:0:
351,30,55481,1,4,1:2:0:0:
237,231,56123,6,0,L|187:254,1,55,0|0,1:0|1:0,0:0:0:0:
149,321,56552,2,0,L|213:342,1,55,4|0,1:2|0:0,0:0:0:0:
273,311,56981,6,0,L|333:283,1,55,0|0,1:0|1:0,0:0:0:0:
364,222,57409,1,0,1:0:0:0:
364,222,57623,1,4,1:2:0:0:
491,29,58266,6,0,L|442:53,1,55,0|0,1:0|1:0,0:0:0:0:
414,127,58695,1,0,1:0:0:0:
414,127,58909,1,4,1:2:0:0:
270,307,59552,6,0,P|250:326|209:334,1,55,2|2,1:0|1:0,0:0:0:0:
147,325,59981,1,6,1:0:0:0:
84,280,60195,1,2,1:0:0:0:
389,51,61267,6,0,P|340:73|265:74,1,110,4|0,1:0|1:0,0:0:0:0:
212,52,61909,1,0,0:0:0:0:
137,31,62124,2,0,L|79:130,1,110,4|0,1:2|1:0,0:0:0:0:
79,203,62767,1,0,0:0:0:0:
127,262,62981,6,0,P|213:290|282:265,1,165,2|0,1:0|0:0,0:0:0:0:
356,256,63838,2,0,L|408:284,2,55,4|0|0,1:2|0:0|1:0,0:0:0:0:
312,192,64481,1,0,1:0:0:0:
280,124,64695,6,0,P|242:162|244:222,1,110,4|0,1:0|1:0,0:0:0:0:
188,272,65338,1,0,0:0:0:0:
116,242,65552,2,0,L|69:126,1,110,4|0,1:2|1:0,0:0:0:0:
80,63,66195,1,0,0:0:0:0:
153,41,66409,6,0,P|203:67|225:129,1,110,6|0,1:0|1:0,0:0:0:0:
239,189,67052,1,0,0:0:0:0:
264,261,67267,2,0,P|285:281|327:287,1,55,4|0,1:2|0:0,0:0:0:0:
383,268,67695,2,0,L|446:240,1,55
466,175,68124,6,0,P|443:150|399:145,1,55,4|0,1:0|0:0,0:0:0:0:
351,169,68552,2,0,P|322:178|291:171,1,55,0|0,1:0|0:0,0:0:0:0:
247,116,68981,2,0,L|250:46,2,55,4|0|0,1:2|0:0|1:0,0:0:0:0:
207,182,69624,1,0,0:0:0:0:
171,250,69838,6,0,P|147:273|102:277,1,55,2|0,1:0|0:0,0:0:0:0:
108,205,70267,2,0,P|74:210|36:188,1,55,0|0,1:0|0:0,0:0:0:0:
82,132,70695,2,0,P|51:117|32:77,1,55,4|0,1:2|0:0,0:0:0:0:
104,60,71124,2,0,L|171:32,1,55,0|0,1:0|1:0,0:0:0:0:
230,49,71552,6,0,P|279:75|293:141,1,110,4|0,1:0|1:0,0:0:0:0:
282,200,72195,1,0,0:0:0:0:
264,274,72409,2,0,P|287:315|361:326,1,110,4|0,1:2|1:0,0:0:0:0:
412,293,73052,1,0,0:0:0:0:
440,221,73267,6,0,L|404:114,1,110,2|0,1:0|1:0,0:0:0:0:
340,75,73909,1,0,0:0:0:0:
266,99,74124,2,0,P|238:104|206:94,1,55,4|0,1:2|0:0,0:0:0:0:
148,55,74552,1,0,1:0:0:0:
75,81,74767,1,0,1:0:0:0:
41,150,74981,6,0,L|45:212,1,55,4|2,0:0|3:0,0:0:0:0:
119,187,75409,2,0,L|136:236,1,55,0|2,1:0|3:0,0:0:0:0:
205,203,75838,2,0,L|234:245,1,55,0|2,1:0|3:0,0:0:0:0:
290,195,76267,2,0,L|331:228,1,55,0|2,1:0|3:0,0:0:0:0:
390,280,76695,5,4,1:0:0:0:
215,152,78409,5,4,1:0:0:0:
256,192,78517,12,4,81838,1:0:0:0:
124,221,92124,6,0,P|135:288|229:351,1,165,4|2,1:0|1:0,0:0:0:0:
283,351,92981,1,4,1:2:0:0:
358,336,93195,2,0,P|391:306|398:282,2,55,0|0|0,0:0|1:0|0:0,0:0:0:0:
325,265,93838,6,0,L|295:205,1,55,0|0,1:0|0:0,0:0:0:0:
244,162,94267,2,0,L|194:121,1,55,2|0,1:0|0:0,0:0:0:0:
126,110,94695,2,0,P|82:131|57:206,1,110,4|0,1:2|0:0,0:0:0:0:
76,260,95338,1,0,0:0:0:0:
138,304,95552,6,0,L|259:327,1,110,4|0,1:0|0:0,0:0:0:0:
323,318,96195,1,2,1:0:0:0:
393,286,96409,2,0,L|442:235,1,55,4|0,1:2|0:0,0:0:0:0:
458,174,96838,2,0,P|437:155|388:146,1,55,0|0,1:0|0:0,0:0:0:0:
335,157,97267,6,0,P|280:154|219:128,1,110,0|2,1:0|1:0,0:0:0:0:
171,83,97909,1,0,0:0:0:0:
103,44,98124,2,0,P|48:84|38:126,1,110,4|0,1:2|1:0,0:0:0:0:
68,193,98767,1,0,0:0:0:0:
117,253,98981,6,0,L|231:273,1,110,4|0,1:0|1:0,0:0:0:0:
297,244,99624,1,2,1:0:0:0:
326,173,99838,2,0,P|355:130|406:102,1,110,4|0,1:2|1:0,0:0:0:0:
474,136,100481,1,0,0:0:0:0:
495,210,100695,6,0,P|487:246|426:291,1,110,0|2,1:0|1:0,0:0:0:0:
416,213,101338,1,0,0:0:0:0:
339,204,101552,2,0,P|277:215|229:251,1,110,4|0,1:2|1:0,0:0:0:0:
191,302,102195,1,0,0:0:0:0:
115,287,102409,6,0,P|82:248|64:183,1,110,4|0,1:0|1:0,0:0:0:0:
88,118,103052,1,2,1:0:0:0:
145,65,103267,2,0,L|209:39,1,55,4|0,1:2|0:0,0:0:0:0:
270,62,103695,2,0,P|298:72|327:67,1,55,0|0,1:0|0:0,0:0:0:0:
395,43,104124,6,0,L|454:150,1,110,0|2,1:0|1:0,0:0:0:0:
464,214,104767,1,0,0:0:0:0:
404,262,104981,2,0,L|393:322,2,55,4|0|0,1:2|0:0|1:0,0:0:0:0:
367,193,105624,1,0,0:0:0:0:
300,154,105838,6,0,L|246:122,1,55,0|0,1:0|1:0,0:0:0:0:
217,61,106267,1,0,1:0:0:0:
217,61,106481,1,4,1:3:0:0:
359,240,107124,6,0,L|302:266,1,55,0|0,1:0|1:0,0:0:0:0:
277,333,107552,1,0,1:0:0:0:
277,333,107767,1,4,1:3:0:0:
148,141,108409,6,0,L|203:113,1,55,0|0,1:0|1:0,0:0:0:0:
242,53,108838,2,0,L|192:29,1,55,4|0,1:2|1:2,1:2:0:0:
120,57,109267,6,0,L|69:82,1,55,0|0,1:0|1:0,0:0:0:0:
54,159,109695,1,0,1:0:0:0:
54,159,109909,1,4,1:3:0:0:
287,120,110552,6,0,L|338:142,1,55,0|0,1:0|1:0,0:0:0:0:
376,215,110981,1,0,1:0:0:0:
376,215,111195,1,4,1:3:0:0:
193,357,111838,6,0,B|162:363|117:351,1,55,2|2,1:0|1:0,0:0:0:0:
68,323,112267,1,6,1:0:0:0:
26,258,112481,1,2,1:0:0:0:
36,179,112695,6,0,P|51:127|106:79,1,110,4|0,1:0|1:0,0:0:0:0:
166,75,113338,1,0,0:0:0:0:
233,113,113552,2,0,P|261:114|297:97,1,55,4|0,1:2|0:0,0:0:0:0:
362,103,113981,1,0,1:0:0:0:
394,174,114195,1,0,0:0:0:0:
317,184,114409,6,0,P|246:238|225:321,1,165,2|0,1:0|0:0,0:0:0:0:
286,353,115266,1,4,1:2:0:0:
350,309,115481,2,0,L|406:314,2,55,0|0|0,0:0|1:0|1:0,0:0:0:0:
293,259,116123,6,0,P|238:225|176:240,1,110,4|0,1:0|1:0,0:0:0:0:
135,279,116765,1,0,0:0:0:0:
58,269,116980,2,0,P|40:249|32:216,1,55,4|0,1:2|0:0,0:0:0:0:
46,146,117408,1,0,1:0:0:0:
25,71,117623,1,0,0:0:0:0:
90,30,117837,6,0,P|144:40|219:42,1,110,2|0,1:0|1:0,0:0:0:0:
275,36,118480,1,0,0:0:0:0:
345,66,118694,2,0,L|357:135,1,55,4|0,1:2|0:0,0:0:0:0:
398,183,119123,2,0,L|386:252,1,55,0|0,1:0|1:0,0:0:0:0:
326,284,119551,6,0,P|268:296|219:262,1,110,4|0,1:0|1:0,0:0:0:0:
282,219,120194,1,0,0:0:0:0:
256,146,120408,2,0,P|240:131|201:122,1,55,4|0,1:2|0:0,0:0:0:0:
132,132,120837,1,0,1:0:0:0:
89,196,121051,1,0,0:0:0:0:
124,264,121265,6,0,P|126:298|107:335,1,55,2|0,1:0|0:0,0:0:0:0:
193,339,121694,2,0,P|217:352|254:354,1,55,0|0,1:0|0:0,0:0:0:0:
241,278,122123,2,0,P|238:250|250:216,1,55,4|0,1:2|0:0,0:0:0:0:
281,156,122551,1,0,1:0:0:0:
230,98,122765,1,0,1:0:0:0:
167,145,122980,6,0,P|135:189|83:199,1,110,4|0,1:0|1:0,0:0:0:0:
23,151,123623,1,0,0:0:0:0:
95,127,123837,2,0,L|171:235,1,110,4|0,1:2|1:0,0:0:0:0:
235,214,124480,1,0,0:0:0:0:
283,154,124694,6,0,B|311:106|311:106|359:66,1,110,2|0,1:0|1:0,0:0:0:0:
427,86,125337,1,0,0:0:0:0:
465,152,125551,2,0,B|451:206|451:206|420:254,1,110,4|0,1:2|1:0,0:0:0:0:
368,307,126194,1,0,1:0:0:0:
298,339,126408,6,0,P|268:353|223:356,1,55,4|0,1:2|1:0,0:0:0:0:
242,279,126837,2,0,P|209:283|166:269,1,55,4|0,1:2|1:0,0:0:0:0:
209,203,127265,2,0,P|177:197|145:162,1,55,4|0,1:2|1:0,0:0:0:0:
210,127,127694,2,0,L|250:67,2,55,4|2|4,1:2|1:3|1:2,0:0:0:0:
260,335,129837,6,0,P|290:291|298:229,1,110,4|0,1:0|1:0,0:0:0:0:
279,160,130480,1,0,0:0:0:0:
208,128,130694,2,0,P|184:116|161:81,1,55,4|0,1:2|0:0,0:0:0:0:
232,56,131123,1,0,1:0:0:0:
308,60,131337,1,0,0:0:0:0:
380,88,131551,6,0,P|412:136|424:196,1,110,2|0,1:0|1:0,0:0:0:0:
405,261,132194,1,0,0:0:0:0:
363,325,132408,2,0,B|303:317|303:317|252:264,1,110,4|0,1:2|1:0,0:0:0:0:
219,221,133051,1,0,1:0:0:0:
145,197,133265,6,0,L|84:178,1,55,4|0,2:0|2:0,2:0:0:0:
44,120,133694,2,0,P|57:96|97:71,1,55,0|0,1:0|0:0,0:0:0:0:
149,50,134123,2,0,L|204:68,1,55,4|0,1:2|0:0,0:0:0:0:
265,109,134551,1,0,1:0:0:0:
306,173,134765,1,0,0:0:0:0:
364,222,134980,6,0,P|416:220|465:188,1,110,2|0,1:0|1:0,0:0:0:0:
495,120,135623,1,0,0:0:0:0:
462,50,135837,2,0,P|440:28|397:17,1,55,4|0,1:2|0:0,0:0:0:0:
341,23,136265,1,0,1:0:0:0:
275,62,136480,1,0,1:0:0:0:
198,54,136694,6,0,L|132:71,1,55,4|0,1:0|0:0,0:0:0:0:
183,134,137123,2,0,L|248:150,1,55,0|0,1:0|0:0,0:0:0:0:
296,195,137551,2,0,P|269:218|230:222,2,55,4|0|0,1:2|0:0|1:0,0:0:0:0:
320,122,138194,2,0,P|347:99|386:95,1,55,6|0,1:0|0:0,0:0:0:0:
441,103,138623,5,0,1:0:0:0:
472,173,138837,2,0,L|465:234,1,55,0|0,1:0|0:0,0:0:0:0:
422,291,139265,1,4,1:2:0:0:
348,267,139480,1,0,1:0:0:0:
274,289,139694,2,0,P|242:283|215:261,1,55,2|0,1:0|0:0,0:0:0:0:
274,213,140123,6,0,L|306:168,1,55,4|0,1:0|1:0,0:0:0:0:
270,18,140765,2,0,L|237:62,1,55,0|4,1:0|1:0,0:0:0:0:
391,49,141408,2,0,L|424:5,1,55,4|0,1:0|1:0,0:0:0:0:
462,154,142051,2,0,P|467:192|455:218,1,55,0|4,1:0|1:0,0:0:0:0:
371,331,142694,2,0,P|311:316|258:337,1,110,4|0,1:2|0:0,0:0:0:0:
116,367,143551,6,0,L|58:333,1,55,4|0,1:0|1:0,0:0:0:0:
101,189,144194,2,0,L|148:216,1,55,0|4,1:0|1:0,0:0:0:0:
304,232,144837,2,0,P|329:216|344:177,1,55,4|0,1:0|1:0,0:0:0:0:
300,128,145265,6,0,P|258:106|221:108,2,82.5,2|2|2,1:0|1:0|1:0,0:0:0:0:
244,184,146123,2,0,L|196:244,1,55,4|0,1:2|0:0,0:0:0:0:
178,297,146551,2,0,P|202:303|237:298,1,55,4|0,1:2|0:0,0:0:0:0:
304,274,146980,6,0,L|340:230,1,55,4|0,1:0|1:0,0:0:0:0:
372,80,147623,2,0,L|337:122,1,55,0|4,1:0|1:0,0:0:0:0:
196,184,148265,2,0,L|232:140,1,55,4|0,1:0|1:0,0:0:0:0:
360,225,148908,2,0,P|342:254|324:266,1,55,0|4,1:0|1:0,0:0:0:0:
189,338,149551,2,0,P|130:333|86:362,1,110,4|0,1:2|0:0,0:0:0:0:
4,231,150408,6,0,L|12:176,1,55,4|0,1:0|1:0,0:0:0:0:
125,72,151051,2,0,L|116:126,1,55,0|4,1:0|1:0,0:0:0:0:
263,180,151694,2,0,P|286:171|307:143,1,55,4|0,1:0|1:0,0:0:0:0:
292,72,152123,6,0,L|244:44,1,55,4|0,1:2|1:0,0:0:0:0:
168,28,152551,2,0,L|120:64,1,55,4|0,1:2|1:0,0:0:0:0:
186,105,152980,2,0,L|148:152,1,55,4|0,1:2|1:0,0:0:0:0:
223,176,153408,2,0,L|199:231,1,55,4|0,1:2|1:0,0:0:0:0:
275,246,153837,6,0,L|264:318,1,55,4|0,1:0|1:0,0:0:0:0:
412,251,154480,2,0,L|420:196,1,55,0|4,1:0|1:0,0:0:0:0:
364,52,155123,2,0,L|353:124,1,55,4|0,1:0|1:0,0:0:0:0:
255,221,155765,2,0,P|215:212|189:192,1,55,0|4,1:0|1:0,0:0:0:0:
104,88,156408,2,0,P|55:111|12:172,1,110,4|0,1:2|0:0,0:0:0:0:
39,306,157265,6,0,L|91:342,1,55,4|0,1:0|1:0,0:0:0:0:
228,282,157908,2,0,L|280:318,1,55,0|4,1:0|1:0,0:0:0:0:
415,254,158551,2,0,P|446:243|467:214,1,55,4|0,1:0|1:0,0:0:0:0:
403,176,158980,6,0,L|444:90,2,82.5,2|2|2,1:0|1:0|1:0,0:0:0:0:
332,207,159837,2,0,P|303:207|263:176,1,55,4|0,1:2|0:0,0:0:0:0:
247,126,160265,2,0,P|222:114|195:115,1,55,4|0,1:2|0:0,0:0:0:0:
127,152,160694,6,0,L|75:180,1,55,4|0,1:0|1:0,0:0:0:0:
74,333,161337,2,0,L|122:306,1,55,0|4,1:0|1:0,0:0:0:0:
275,299,161980,2,0,L|323:272,1,55,4|0,1:0|1:0,0:0:0:0:
462,207,162623,2,0,P|470:179|470:152,1,55,0|4,1:0|1:0,0:0:0:0:
318,128,163265,2,0,P|264:135|199:106,1,110,4|0,1:2|0:0,0:0:0:0:
63,78,164123,6,0,L|52:150,1,55,4|0,1:0|1:0,0:0:0:0:
167,236,164765,2,0,L|178:308,1,55,0|4,1:0|1:0,0:0:0:0:
328,321,165408,2,0,P|351:316|380:291,1,55,4|0,1:0|1:0,0:0:0:0:
368,220,165837,6,0,P|348:164|308:120,1,110,4|0,1:2|0:0,0:0:0:0:
243,98,166480,1,0,1:0:0:0:
183,147,166694,2,0,L|174:204,1,55,4|0,1:2|1:0,0:0:0:0:
104,169,167123,2,0,L|96:113,1,55,0|0,1:0|0:0,0:0:0:0:
115,39,167551,6,0,P|141:23|175:22,1,55,4|0,1:0|1:0,0:0:0:0:
241,22,167980,1,4,1:2:0:0:
316,37,168194,2,0,P|343:33|365:18,1,55,0|4,1:0|1:0,0:0:0:0:
379,171,168837,2,0,L|371:226,1,55,4|0,1:0|1:0,0:0:0:0:
285,353,169480,2,0,L|277:298,1,55,0|4,1:0|1:0,0:0:0:0:
218,158,170123,2,0,P|192:151|163:155,1,55,6|0,1:0|1:0,0:0:0:0:
99,196,170551,2,0,P|71:198|45:192,1,55,4|2,1:2|1:0,0:0:0:0:
15,263,170980,6,0,P|5:295|8:334,1,55,4|0,1:0|1:0,0:0:0:0:
81,305,171408,1,4,1:2:0:0:
150,272,171623,2,0,P|183:267|216:274,1,55,0|4,1:0|1:0,0:0:0:0:
331,356,172265,2,0,P|359:362|385:354,1,55,4|0,1:0|1:0,0:0:0:0:
356,282,172694,6,0,P|366:241|416:206,2,82.5,0|0|0,1:0|1:0|1:0,0:0:0:0:
433,281,173551,2,0,L|478:250,1,55,6|0,1:0|1:0,0:0:0:0:
505,178,173980,2,0,P|502:151|480:118,1,55,6|0,1:0|1:0,0:0:0:0:
427,80,174408,6,0,L|367:42,1,55,4|0,1:0|1:0,0:0:0:0:
303,49,174837,1,4,1:2:0:0:
229,25,175051,2,0,P|202:26|173:38,1,55,0|4,1:0|1:0,0:0:0:0:
241,175,175694,2,0,L|230:247,1,55,4|0,1:0|1:0,0:0:0:0:
140,352,176337,2,0,L|131:297,1,55,0|4,1:0|1:0,0:0:0:0:
132,143,176980,2,0,P|117:119|94:105,1,55,6|0,1:0|1:0,0:0:0:0:
23,135,177408,2,0,P|37:158|60:172,1,55,4|2,1:2|1:0,0:0:0:0:
122,218,177837,6,0,L|168:227,2,27.5,4|4|4,1:0|1:0|1:0,0:0:0:0:
275,45,178694,2,0,L|307:35,2,27.5,4|4|4,1:0|1:0|1:0,0:0:0:0:
510,246,179765,6,0,P|455:245|409:214,1,110,2|2,0:0|0:0,0:0:0:0:
327,85,180622,2,0,P|281:55|227:54,1,110,2|2,0:0|0:0,0:0:0:0:
241,208,181479,6,0,B|343:268|276:324|384:379,1,220,2|0,1:0|1:0,0:0:0:0:
451,362,182550,1,0,1:0:0:0:
495,298,182765,2,0,P|509:263|505:227,1,55,4|0,1:2|0:0,0:0:0:0:
488,172,183193,6,0,L|459:47,1,110,6|0,1:0|1:0,0:0:0:0:
407,10,183836,1,0,0:0:0:0:
336,41,184050,2,0,P|311:53|284:52,1,55,4|0,1:2|0:0,0:0:0:0:
208,38,184479,2,0,L|194:102,1,55,0|0,1:0|0:0,0:0:0:0:
218,165,184885,6,0,P|172:165|123:114,1,110,6|0,1:0|1:0,0:0:0:0:
108,49,185527,1,0,0:0:0:0:
32,33,185742,2,0,P|14:62|12:100,1,55,4|0,1:2|0:0,0:0:0:0:
42,152,186170,2,0,P|60:181|62:219,1,55,0|0,1:0|0:1,0:0:0:0:
56,278,186599,6,0,P|101:312|158:304,1,110,4|0,1:0|1:0,0:0:0:0:
220,273,187242,1,0,0:0:0:0:
296,279,187456,2,0,L|349:319,1,55,4|0,1:2|0:0,0:0:0:0:
410,343,187885,1,0,1:0:0:0:
480,312,188099,1,0,0:0:0:0:
477,235,188313,6,0,P|468:201|476:164,1,55,6|0,1:0|0:0,0:0:0:0:
393,178,188742,2,0,L|330:169,1,55,0|0,1:0|0:0,0:0:0:0:
265,192,189170,2,0,L|209:201,1,55,4|0,1:2|0:0,0:0:0:0:
134,190,189599,1,0,1:0:0:0:
78,136,189813,1,0,1:0:0:0:
100,62,190027,6,0,P|140:25|194:18,1,110,6|0,1:0|1:0,0:0:0:0:
266,46,190670,1,0,0:0:0:0:
338,73,190885,2,0,P|368:75|397:56,1,55,4|0,1:2|0:0,0:0:0:0:
465,51,191313,2,0,L|468:106,1,55,0|0,1:0|0:0,0:0:0:0:
462,182,191742,6,0,P|451:239|456:297,1,110,6|0,1:0|1:0,0:0:0:0:
481,362,192385,1,0,0:0:0:0:
405,366,192599,2,0,P|373:365|342:375,1,55,4|0,1:2|0:0,0:0:0:0:
274,377,193027,1,0,1:0:0:0:
212,330,193242,1,4,1:0:0:0:
138,344,193457,6,0,P|106:329|91:282,1,55,4|0,3:0|0:0,0:0:0:0:
104,237,193865,2,0,L|133:170,1,55,4|0,3:0|0:0,0:0:0:0:
160,117,194273,1,4,3:0:0:0:
160,117,194477,1,0,0:0:0:0:
235,124,194681,2,0,P|256:121|285:98,1,55,4|4,3:0|3:0,0:0:0:0:
227,49,195089,5,4,3:0:0:0:
252,322,196693,6,0,L|130:361,1,110,6|0,1:0|1:0,0:0:0:0:
72,373,197335,1,0,0:0:0:0:
2,338,197550,2,0,P|4:312|26:282,1,55,4|0,1:2|0:0,0:0:0:0:
63,224,197978,1,0,1:0:0:0:
41,149,198193,1,0,1:0:0:0:
80,83,198407,6,0,P|127:42|189:50,1,110,6|0,1:0|1:0,0:0:0:0:
234,88,199050,1,0,0:0:0:0:
277,151,199264,2,0,P|324:178|379:168,1,110,4|0,1:2|1:0,0:0:0:0:
337,103,199907,1,0,0:0:0:0:
391,48,200121,6,0,L|462:38,1,55,6|0,1:0|0:0,0:0:0:0:
506,89,200550,2,0,P|510:116|501:141,1,55,0|0,1:0|0:0,0:0:0:0:
449,198,200978,1,4,1:2:0:0:
376,170,201193,1,0,0:0:0:0:
303,194,201407,2,0,L|254:239,1,55,0|0,1:0|1:0,0:0:0:0:
192,263,201835,6,0,P|137:261|91:289,1,110,6|0,1:0|1:0,0:0:0:0:
41,349,202478,1,0,0:0:0:0:
2,282,202693,2,0,L|21:213,1,55,4|0,1:2|0:0,0:0:0:0:
65,169,203121,1,0,1:0:0:0:
44,94,203335,1,0,1:0:0:0:
84,28,203550,5,4,1:0:0:0:
256,192,203657,12,0,208264,0:0:0:0:
204,72,210365,6,0,L|272:64,1,55,2|0,0:0|0:0,0:0:0:0:
336,64,210798,1,0,0:0:0:0:
398,109,211015,1,0,0:0:0:0:
439,173,211232,2,0,L|404:232,1,55,2|0,0:0|0:0,0:0:0:0:
366,282,211666,1,0,0:0:0:0:
295,312,211883,1,0,0:0:0:0:
220,328,212100,6,0,P|196:336|164:336,1,55,2|0,1:3|0:0,0:0:0:0:
168,260,212534,2,0,P|142:261|111:253,1,55,2|0,0:0|0:0,0:0:0:0:
135,180,212968,2,0,P|110:174|82:158,1,55,2|0,1:3|0:0,0:0:0:0:
127,96,213402,2,0,P|104:84|81:62,1,55,2|0,0:0|0:0,0:0:0:0:
149,25,213835,6,0,P|175:39|200:77,1,55,2|0,1:3|0:0,0:0:0:0:
217,136,214263,1,2,1:3:0:0:
217,136,214477,1,0,0:0:0:0:
160,188,214692,2,0,P|138:211|131:252,1,55,2|0,1:3|0:0,0:0:0:0:
146,314,215120,1,2,1:3:0:0:
146,314,215335,1,0,0:0:0:0:
213,351,215549,6,0,L|268:362,1,55,2|0,1:3|1:0,0:0:0:0:
342,348,215977,1,2,1:3:0:0:
398,295,216192,1,0,1:0:0:0:
402,218,216406,2,0,L|379:157,1,55,2|0,1:3|1:0,0:0:0:0:
380,89,216835,1,2,1:3:0:0:
429,30,217049,5,4,0:0:0:0:
