osu file format v14

[General]
AudioFilename: audio.mp3
AudioLeadIn: 0
PreviewTime: 51835
Countdown: 0
SampleSet: Soft
StackLeniency: 0.4
Mode: 0
LetterboxInBreaks: 0
WidescreenStoryboard: 0

[Editor]
Bookmarks: 51835,169989,172451
DistanceSpacing: 1.6
BeatDivisor: 4
GridSize: 32
TimelineZoom: 2.4

[Metadata]
Title:Vart jag an gar
TitleUnicode:Vart jag än går
Artist:Stiftelsen
ArtistUnicode:Stiftelsen
Creator:bite you death
Version:anime
Source:
Tags:svenska sverige poprock takida byd
BeatmapID:1638969
BeatmapSetID:780161

[Difficulty]
HPDrainRate:6
CircleSize:3.6
OverallDifficulty:8.7
ApproachRate:9.3
SliderMultiplier:2.2
SliderTickRate:1

[Events]
//Background and Video events
//Break Periods
//Storyboard Layer 0 (Background)
//Storyboard Layer 1 (Fail)
//Storyboard Layer 2 (Pass)
//Storyboard Layer 3 (Foreground)
//Storyboard Sound Samples

[TimingPoints]
12451,307.692307692308,4,2,2,40,1,0
22297,-222.222222222221,4,2,2,40,0,0
51835,-100,4,2,2,60,0,1
70297,-83.3333333333333,4,2,2,60,0,1
71527,-83.3333333333333,4,2,2,60,0,0
71835,-100,4,2,2,60,0,0
81374,-222.222222222221,4,2,2,40,0,0
87527,-166.666666666667,4,2,2,40,0,0
99681,-181.818181818182,4,2,2,40,0,0
100451,-200,4,2,2,40,0,0
101066,-153.846153846154,4,2,2,40,0,0
109835,-153.846153846154,4,2,2,20,0,0
109989,-153.846153846154,4,2,2,25,0,0
110143,-153.846153846154,4,2,2,30,0,0
110297,-153.846153846154,4,2,2,35,0,0
110451,-153.846153846154,4,2,2,40,0,0
110604,-153.846153846154,4,2,2,50,0,0
110758,-153.846153846154,4,2,2,60,0,0
110912,-100,4,2,2,60,0,1
130604,-222.222222222223,4,2,2,30,0,0
150297,-83.3333333333333,4,2,2,60,0,1
152297,-250,4,2,2,30,0,1
152681,-250,4,2,2,5,0,1
152758,-153.846153846154,4,2,1,40,0,0
169989,-83.3333333333333,4,2,2,60,0,1
172297,-83.3333333333333,4,2,2,60,0,0
172451,-90.9090909090909,4,2,2,60,0,1

[Colours]
Combo1 : 140,198,255
Combo2 : 190,126,126
Combo3 : 111,111,255
Combo4 : 255,189,157

[HitObjects]
96,133,51835,6,0,P|146:101|239:142,1,165,6|0,3:2|0:0,0:0:0:0:
290,215,52143,1,8,0:0:0:0:
438,114,52297,2,0,P|372:126|293:137,1,110,0|0,3:0|0:0,0:0:0:0:
207,32,52604,1,0,3:0:0:0:
155,274,52758,2,0,B|257:254|221:319|316:299,1,165,10|0,0:0|0:0,0:0:0:0:
404,273,53066,5,2,0:0:0:0:
236,138,53220,1,0,3:0:0:0:
459,6,53374,2,0,P|445:66|436:130,1,110,8|0,0:0|0:0,0:0:0:0:
495,287,53681,2,0,P|484:230|330:216,1,220,2|8,3:2|0:0,0:0:0:0:
265,270,54143,1,0,0:0:0:0:
111,140,54297,6,0,P|154:122|246:185,1,165,6|0,3:2|0:0,0:0:0:0:
265,270,54604,1,8,0:0:0:0:
412,52,54758,2,0,P|343:43|268:144,1,165,0|0,3:0|0:0,0:0:0:0:
244,181,55066,1,0,3:0:0:0:
392,254,55220,2,0,P|378:193|369:132,1,110,8|0,0:0|0:0,0:0:0:0:
249,379,55527,5,2,0:0:0:0:
465,349,55681,1,2,3:2:0:0:
265,270,55835,1,10,0:0:0:0:
428,126,55989,2,0,P|416:178|409:234,1,110,2|0,0:0|3:0,0:0:0:0:
141,57,56297,2,0,P|152:109|160:165,1,110,2|8,0:0|0:0,0:0:0:0:
306,19,56604,1,0,0:0:0:0:
225,254,56758,6,0,B|167:279|167:279|32:232,1,165,6|0,3:2|0:0,0:0:0:0:
0,206,57066,1,10,0:0:0:0:
60,58,57220,2,0,P|82:99|77:173,1,110,2|0,3:2|0:0,0:0:0:0:
0,295,57527,1,2,3:2:0:0:
246,150,57681,2,0,P|224:191|229:265,1,110,10|0,0:0|0:0,0:0:0:0:
289,350,57989,5,2,0:0:0:0:
371,160,58143,1,0,3:0:0:0:
224,253,58297,2,0,P|162:245|91:237,1,110,8|0,0:0|0:0,0:0:0:0:
289,350,58604,2,0,P|372:361|445:288,1,165,2|0,3:2|0:0,0:0:0:0:
485,235,58912,1,8,0:0:0:0:
345,262,59066,1,0,0:0:0:0:
438,60,59220,6,0,P|430:116|424:172,1,110,6|0,3:2|0:0,0:0:0:0:
337,3,59527,1,8,0:0:0:0:
187,85,59681,2,0,B|238:103|277:71|277:71|313:101|358:87,1,165,0|0,3:0|0:0,0:0:0:0:
438,60,59989,1,0,3:0:0:0:
304,269,60143,2,0,P|296:213|281:151,1,110,8|0,0:0|0:0,0:0:0:0:
221,12,60451,5,0,0:0:0:0:
373,182,60604,1,0,3:0:0:0:
158,242,60758,2,0,P|217:223|311:282,1,165,12|0,0:0|0:0,0:0:0:0:
353,360,61066,1,8,0:0:0:0:
416,82,61220,1,8,0:0:0:0:
158,242,61374,1,8,0:0:0:0:
441,331,61527,1,8,0:0:0:0:
233,107,61681,6,0,P|176:120|106:136,1,110,6|0,3:2|0:0,0:0:0:0:
30,77,61989,1,8,0:0:0:0:
264,15,62143,2,0,P|316:52|310:161,1,165,0|0,3:0|0:0,0:0:0:0:
262,220,62451,1,0,3:0:0:0:
391,336,62604,2,0,P|376:278|365:223,1,110,10|0,0:0|0:0,0:0:0:0:
416,130,62912,5,2,0:0:0:0:
266,319,63066,1,0,3:0:0:0:
153,203,63220,2,0,P|207:211|270:221,1,110,8|0,0:0|0:0,0:0:0:0:
402,32,63528,2,0,P|347:58|324:162,1,165,2|0,3:2|0:0,0:0:0:0:
361,253,63835,1,8,0:0:0:0:
416,130,63989,1,0,0:0:0:0:
433,319,64143,6,0,B|378:353|378:353|237:319,1,165,2|0,3:2|0:0,0:0:0:0:
185,301,64451,1,8,0:0:0:0:
205,175,64604,2,0,B|245:201|253:243|253:243|265:202|309:179,1,165,0|0,3:0|0:0,0:0:0:0:
390,149,64912,1,0,3:0:0:0:
238,2,65066,2,0,P|248:61|259:125,1,110,8|0,0:0|0:0,0:0:0:0:
239,351,65374,5,2,0:0:0:0:
58,171,65527,1,2,3:2:0:0:
301,182,65681,1,10,0:0:0:0:
118,354,65835,2,0,P|109:300|96:245,1,110,2|0,0:0|3:0,0:0:0:0:
225,65,66143,2,0,P|216:118|203:174,1,110,2|8,0:0|0:0,0:0:0:0:
287,314,66451,1,0,0:0:0:0:
459,162,66604,6,0,B|361:144|398:214|282:190,1,165,6|0,3:2|0:0,0:0:0:0:
206,152,66912,1,8,0:0:0:0:
336,0,67066,2,0,P|326:59|323:112,1,110,0|0,3:0|0:0,0:0:0:0:
444,253,67374,1,0,3:0:0:0:
272,246,67527,2,0,P|309:212|369:216,1,110,10|0,0:0|0:0,0:0:0:0:
229,325,67835,6,0,P|154:351|81:318,1,110,2|0,0:0|3:0,0:0:0:0:
20,204,68143,1,8,0:0:0:0:
157,230,68298,1,0,0:0:0:0:
85,38,68451,6,0,P|79:90|106:159,1,110,2|0,3:2|0:0,0:0:0:0:
263,280,68758,1,8,0:0:0:0:
208,79,68912,1,0,0:0:0:0:
187,339,69066,6,0,B|251:375|251:375|364:342,1,165,6|0,3:2|0:0,0:0:0:0:
428,310,69374,1,8,0:0:0:0:
353,156,69527,2,0,P|337:237|354:270,1,110,0|0,3:0|0:0,0:0:0:0:
462,100,69835,1,0,3:0:0:0:
253,183,69989,2,0,P|194:172|132:163,1,110,8|0,0:0|0:0,0:0:0:0:
362,53,70298,6,0,P|352:113|459:215,1,197.99999395752,6|0,3:2|0:0,0:0:0:0:
462,100,70604,1,8,0:0:0:0:
290,223,70758,2,0,P|301:290|308:362,1,131.99999597168,2|0,3:2|0:0,0:0:0:0:
117,95,71066,1,10,0:0:0:0:
435,211,71220,1,8,0:0:0:0:
85,303,71374,1,10,0:0:0:0:
262,13,71527,6,0,B|306:116|209:98|277:249,1,197.99999395752,6|0,3:2|0:0,0:0:0:0:
305,302,71835,1,8,0:0:0:0:
484,213,71989,2,0,P|433:158|325:171,1,165,0|0,3:0|0:0,0:0:0:0:
260,205,72297,1,0,3:0:0:0:
413,355,72451,2,0,P|399:295|393:240,1,110,8|0,0:0|0:0,0:0:0:0:
458,104,72758,5,0,0:0:0:0:
328,184,72912,1,0,3:0:0:0:
349,0,73066,2,0,P|377:50|371:118,1,110,8|0,0:0|0:0,0:0:0:0:
166,190,73374,2,0,P|195:140|257:111,1,110,0|0,3:0|0:0,0:0:0:0:
423,254,73681,2,0,P|365:253|309:214,1,110,8|0,0:0|0:0,0:0:0:0:
191,49,73988,5,0,3:0:0:0:
376,101,74143,1,0,0:0:0:0:
205,229,74297,1,8,0:0:0:0:
464,168,74451,2,0,P|489:87|450:16,1,165,0|0,3:0|0:0,0:0:0:0:
360,0,74758,1,0,3:0:0:0:
267,117,74912,2,0,P|326:108|382:100,1,110,8|0,0:0|0:0,0:0:0:0:
175,20,75220,6,0,P|108:40|59:139,1,165,2|0,3:2|0:0,0:0:0:0:
45,210,75527,1,8,0:0:0:0:
267,307,75681,2,0,P|248:246|146:251,1,165,2|0,3:2|0:0,0:0:0:0:
179,322,75989,2,0,B|345:286|280:405|448:363,1,275,2|0,3:2|0:0,0:0:0:0:
491,172,76451,6,0,P|414:198|392:305,1,165,6|0,3:2|0:0,0:0:0:0:
385,272,76758,1,8,0:0:0:0:
199,170,76912,2,0,P|262:195|354:121,1,165,0|0,3:0|0:0,0:0:0:0:
393,73,77220,1,0,3:0:0:0:
232,0,77374,2,0,P|251:55|265:112,1,110,8|0,0:0|0:0,0:0:0:0:
204,259,77681,1,0,0:0:0:0:
141,93,77835,1,0,3:0:0:0:
167,331,77989,6,0,P|227:304|286:306,1,110,8|0,0:0|0:0,0:0:0:0:
440,350,78297,2,0,P|386:311|358:259,1,110,0|0,3:0|0:0,0:0:0:0:
320,105,78604,2,0,P|313:170|282:220,1,110,8|0,0:0|0:0,0:0:0:0:
171,246,78912,5,0,3:0:0:0:
199,88,79066,1,0,0:0:0:0:
270,302,79220,1,8,0:0:0:0:
484,195,79374,2,0,P|424:191|357:275,1,165,0|0,3:0|0:0,0:0:0:0:
337,359,79681,1,0,3:0:0:0:
199,226,79835,2,0,P|253:261|271:318,1,110,8|0,0:0|0:0,0:0:0:0:
218,384,80143,5,0,0:0:0:0:
149,120,80297,1,8,0:0:0:0:
81,343,80451,2,0,P|74:276|26:180,1,165,8|0,0:0|0:0,0:0:0:0:
129,36,80758,2,0,B|235:26|187:88|290:80,1,165,4|0,0:3|0:0,0:0:0:0:
371,17,81066,2,0,P|361:47|360:79,1,55,8|0,0:0|0:0,0:0:0:0:
420,128,81220,2,0,P|429:158|431:190,1,55,8|0,0:0|0:0,0:0:0:0:
337,257,81374,6,0,P|411:223|430:379,1,296.99999093628,6|2,3:2|0:0,0:0:0:0:
253,293,82604,6,0,B|123:269|183:348|55:327,1,197.99999395752,2|2,3:2|0:0,0:0:0:0:
107,196,83835,2,0,P|99:230|96:264,1,49.4999984893799,2|0,3:2|0:0,0:0:0:0:
35,136,84143,2,0,P|92:153|171:108,1,148.49999546814,2|0,0:0|0:0,0:0:0:0:
226,36,84758,1,2,0:0:0:0:
299,143,85066,6,0,P|354:156|436:93,1,148.49999546814,2|0,3:2|0:0,0:0:0:0:
507,60,85681,2,0,P|468:101|481:203,1,148.49999546814,2|0,0:0|0:0,0:0:0:0:
508,287,86297,6,0,P|479:279|446:276,1,49.4999984893799,2|0,3:2|0:0,0:0:0:0:
366,296,86604,2,0,P|316:256|290:376,1,247.4999924469,2|0,0:0|0:0,0:0:0:0:
309,318,87527,6,0,B|193:291|242:367|107:332,1,197.99999395752,0|0,3:2|0:0,0:0:0:0:
74,194,88143,6,0,P|129:197|164:271,1,131.99999597168,2|0,0:0|0:0,0:0:0:0:
114,339,88604,1,0,0:0:0:0:
165,258,88758,6,0,P|185:186|249:157,1,131.99999597168,2|0,3:2|0:0,0:0:0:0:
302,215,89220,2,0,P|367:199|442:189,1,131.99999597168,2|0,0:0|3:0,0:0:0:0:
507,224,89681,1,0,0:0:0:0:
369,41,89989,5,2,3:2:0:0:
198,122,90297,1,0,0:0:0:0:
198,122,90451,2,0,P|147:81|73:106,1,131.99999597168,2|0,3:2|0:0,0:0:0:0:
40,165,90912,2,0,P|81:178|116:171,1,65.9999979858399,2|0,0:0|0:0,0:0:0:0:
259,62,91220,6,0,P|249:125|242:219,1,131.99999597168,6|0,3:2|0:0,0:0:0:0:
281,300,91681,1,2,3:2:0:0:
398,247,91835,2,0,P|364:230|330:233,1,65.9999979858399,2|0,0:0|3:0,0:0:0:0:
281,300,92143,2,0,P|315:317|349:314,1,65.9999979858399,2|0,0:0|3:0,0:0:0:0:
243,192,92451,6,0,P|177:209|104:221,1,131.99999597168,2|0,3:2|0:0,0:0:0:0:
17,237,92912,2,0,P|55:237|111:305,1,131.99999597168,2|2,3:2|3:2,0:0:0:0:
167,362,93374,2,0,P|194:339|226:332,1,65.9999979858399,0|2,0:0|0:0,0:0:0:0:
357,353,93681,6,0,P|306:287|307:213,1,131.99999597168,0|0,3:2|0:0,0:0:0:0:
362,141,94143,1,0,3:0:0:0:
301,240,94297,2,0,P|271:248|222:233,1,65.9999979858399,0|0,0:0|3:0,0:0:0:0:
176,172,94604,2,0,P|143:165|112:173,1,65.9999979858399,0|2,0:0|0:0,0:0:0:0:
273,129,94912,6,0,P|257:65|248:-15,1,131.99999597168,2|0,3:2|0:0,0:0:0:0:
454,99,95374,2,0,P|427:149|352:169,2,131.99999597168,2|2|0,3:2|3:2|0:0,0:0:0:0:
370,84,96143,6,0,B|397:198|315:161|365:297,1,197.99999395752,2|2,3:2|3:2,0:0:0:0:
408,356,96758,1,0,0:0:0:0:
408,356,96911,1,0,3:0:0:0:
408,356,97066,2,0,P|358:321|273:332,1,131.99999597168,0|0,0:0|3:0,0:0:0:0:
168,384,97681,5,2,0:0:0:0:
289,323,97835,1,2,3:2:0:0:
107,263,97989,1,2,0:0:0:0:
228,202,98144,1,2,3:2:0:0:
51,185,98297,2,0,P|16:234|17:288,1,98.9999969787599,2|0,0:0|0:0,0:0:0:0:
58,343,98604,6,0,P|132:285|239:309,1,197.99999395752,2|2,3:2|3:2,0:0:0:0:
297,359,99220,6,0,P|361:344|457:328,1,131.99999597168,0|0,3:0|0:0,0:0:0:0:
228,202,99834,2,0,P|280:213|359:227,1,121.000003692627,0|0,3:0|0:0,0:0:0:0:
159,359,100451,2,0,P|211:347|290:333,1,110,0|0,3:0|0:0,0:0:0:0:
85,297,100912,1,0,0:0:0:0:
153,136,101066,6,0,P|184:176|167:275,1,142.99999345398,4|0,3:2|0:0,0:0:0:0:
94,213,101527,1,2,3:2:0:0:
169,126,101681,2,0,P|208:135|256:138,1,71.4999967269899,2|0,0:0|3:0,0:0:0:0:
305,211,101989,2,0,P|344:201|392:199,1,71.4999967269899,2|0,0:0|0:0,0:0:0:0:
448,145,102297,6,0,P|419:180|413:268,1,107.249995090485,2|0,3:2|0:0,0:0:0:0:
441,324,102604,1,0,0:0:0:0:
312,359,102758,2,0,P|278:347|236:337,1,71.4999967269899,2|0,3:2|0:0,0:0:0:0:
205,246,103066,2,0,P|171:258|129:268,1,71.4999967269899,2|0,3:2|0:0,0:0:0:0:
60,212,103374,1,0,0:0:0:0:
268,174,103527,6,0,P|301:255|265:320,1,142.99999345398,2|0,3:2|0:0,0:0:0:0:
205,246,103989,1,0,3:0:0:0:
287,154,104143,2,0,P|359:167|433:176,1,142.99999345398,2|2,0:0|0:0,0:0:0:0:
262,44,104604,1,0,0:0:0:0:
171,137,104758,6,0,P|126:168|23:145,1,142.99999345398,2|0,3:2|0:0,0:0:0:0:
120,51,105219,2,0,P|188:38|249:73,1,142.99999345398,2|0,3:2|3:0,0:0:0:0:
322,126,105681,2,0,P|358:113|396:105,1,71.4999967269899,2|0,0:0|0:0,0:0:0:0:
486,62,105989,6,0,P|445:84|436:189,1,142.99999345398,2|0,3:2|0:0,0:0:0:0:
488,267,106451,2,0,P|443:226|349:245,1,142.99999345398,2|0,3:2|3:0,0:0:0:0:
301,294,106912,2,0,P|309:332|315:367,1,71.4999967269899,2|0,0:0|0:0,0:0:0:0:
233,230,107220,6,0,P|192:208|97:251,1,142.99999345398,0|0,3:0|0:0,0:0:0:0:
50,328,107681,1,0,3:0:0:0:
105,237,107835,2,0,P|98:196|85:142,1,71.4999967269899,2|0,0:0|0:0,0:0:0:0:
244,57,108143,2,0,P|237:97|224:152,1,71.4999967269899,2|0,0:0|0:0,0:0:0:0:
301,294,108451,6,0,P|337:240|421:245,1,142.99999345398,2|0,3:2|0:0,0:0:0:0:
479,296,108912,2,0,P|465:219|451:125,1,142.99999345398,2|0,3:2|3:0,0:0:0:0:
484,60,109374,1,0,0:0:0:0:
484,60,109681,5,0,3:2:0:0:
293,134,109835,1,8,0:0:0:0:
372,12,109989,1,8,0:0:0:0:
349,234,110143,1,8,0:0:0:0:
249,38,110297,5,8,0:0:0:0:
441,232,110451,1,8,0:0:0:0:
372,12,110604,1,8,0:0:0:0:
229,207,110758,1,8,0:0:0:0:
512,302,110912,6,0,P|535:261|478:143,1,165,6|0,3:2|0:0,0:0:0:0:
418,110,111220,1,8,0:0:0:0:
303,249,111374,2,0,B|343:253|378:230|378:230|375:248|375:248|411:226|463:235,1,165,0|0,3:0|0:0,0:0:0:0:
512,302,111681,1,0,3:0:0:0:
315,163,111835,2,0,P|264:154|190:146,1,110,10|0,0:0|0:0,0:0:0:0:
54,213,112143,5,2,0:0:0:0:
152,64,112297,1,0,3:0:0:0:
107,296,112451,2,0,P|45:311|-14:287,1,110,8|0,0:0|0:0,0:0:0:0:
166,220,112758,2,0,P|253:240|344:254,1,165,2|0,3:2|0:0,0:0:0:0:
419,237,113066,1,8,0:0:0:0:
301,127,113220,1,0,0:0:0:0:
490,163,113374,6,0,P|517:209|495:303,1,110,2|0,3:2|0:0,0:0:0:0:
427,353,113681,1,8,0:0:0:0:
313,211,113835,2,0,P|370:231|432:236,1,110,0|0,3:0|0:0,0:0:0:0:
273,56,114143,1,0,3:0:0:0:
163,190,114297,2,0,P|181:247|194:314,1,110,8|0,0:0|0:0,0:0:0:0:
202,92,114604,5,2,0:0:0:0:
74,296,114758,1,2,3:2:0:0:
313,211,114912,1,10,0:0:0:0:
72,172,115066,2,0,P|29:131|31:50,1,110,2|0,0:0|3:0,0:0:0:0:
239,0,115374,2,0,P|225:57|214:114,1,110,2|8,0:0|0:0,0:0:0:0:
249,204,115681,1,0,0:0:0:0:
463,105,115835,6,0,B|358:89|400:148|294:131,1,165,6|0,3:2|0:0,0:0:0:0:
215,107,116143,1,10,0:0:0:0:
181,281,116297,2,0,P|227:253|247:186,1,110,2|0,3:2|0:0,0:0:0:0:
113,65,116604,1,2,3:2:0:0:
215,107,116758,2,0,P|270:93|324:84,1,110,10|0,0:0|0:0,0:0:0:0:
484,134,117066,5,2,0:0:0:0:
389,28,117220,1,0,3:0:0:0:
335,233,117374,2,0,P|388:219|456:207,1,110,8|0,0:0|0:0,0:0:0:0:
275,115,117681,2,0,P|215:144|201:237,1,165,2|0,3:2|0:0,0:0:0:0:
258,321,117989,1,8,0:0:0:0:
279,202,118143,1,0,0:0:0:0:
180,374,118297,6,0,P|145:311|31:328,1,165,2|0,3:2|0:0,0:0:0:0:
0,364,118604,1,8,0:0:0:0:
137,264,118758,6,0,P|116:180|99:87,1,165,2|0,3:2|0:0,0:0:0:0:
135,21,119066,1,0,3:0:0:0:
301,75,119220,2,0,P|222:93|186:77,1,110,8|0,0:0|0:0,0:0:0:0:
242,0,119527,5,0,0:0:0:0:
367,161,119681,1,0,3:0:0:0:
408,50,119835,2,0,P|351:65|297:75,1,110,8|0,0:0|0:0,0:0:0:0:
178,191,120143,5,8,0:0:0:0:
465,294,120297,1,8,0:0:0:0:
129,355,120451,1,8,0:0:0:0:
396,156,120604,1,8,0:0:0:0:
49,116,120758,6,0,P|68:189|86:290,1,165,6|0,3:2|0:0,0:0:0:0:
129,355,121066,1,8,0:0:0:0:
296,193,121220,2,0,P|253:168|145:201,1,165,0|0,3:0|0:0,0:0:0:0:
84,277,121527,1,0,3:0:0:0:
250,368,121681,2,0,P|235:308|224:244,1,110,10|0,0:0|0:0,0:0:0:0:
364,129,121989,5,2,0:0:0:0:
324,275,122143,1,0,3:0:0:0:
290,70,122297,6,0,P|344:35|395:39,1,110,8|0,0:0|0:0,0:0:0:0:
273,163,122604,2,0,P|197:142|92:127,1,165,2|0,3:2|0:0,0:0:0:0:
22,153,122912,1,8,0:0:0:0:
136,36,123066,1,0,0:0:0:0:
134,253,123220,5,2,3:2:0:0:
111,128,123374,1,0,0:0:0:0:
216,296,123527,1,8,0:0:0:0:
275,223,123681,2,0,P|207:203|127:266,1,165,0|0,3:0|0:0,0:0:0:0:
103,337,123989,1,0,3:0:0:0:
0,144,124143,2,0,P|52:176|115:164,1,110,8|0,0:0|0:0,0:0:0:0:
296,22,124451,5,2,0:0:0:0:
67,83,124604,1,0,3:0:0:0:
275,223,124758,1,8,0:0:0:0:
190,26,124912,2,0,P|178:86|160:140,1,110,2|0,0:0|3:0,0:0:0:0:
372,249,125220,2,0,P|360:188|342:135,1,110,2|8,0:0|0:0,0:0:0:0:
403,60,125527,1,0,0:0:0:0:
275,223,125681,6,0,B|191:200|209:262|96:234,1,165,2|0,3:2|0:0,0:0:0:0:
40,194,125990,1,8,0:0:0:0:
177,45,126143,2,0,P|158:104|150:160,1,110,2|0,3:2|0:0,0:0:0:0:
247,301,126451,1,0,3:0:0:0:
167,240,126604,2,0,P|115:257|82:322,1,110,8|0,0:0|0:0,0:0:0:0:
302,191,126912,6,0,P|311:131|323:61,1,110,2|0,0:0|3:0,0:0:0:0:
424,44,127220,1,8,0:0:0:0:
224,114,127374,1,0,0:0:0:0:
401,145,127527,2,0,P|363:97|304:81,1,110,2|0,3:2|0:0,0:0:0:0:
128,147,127835,1,8,0:0:0:0:
232,6,127989,1,0,0:0:0:0:
201,229,128143,5,2,3:2:0:0:
4,121,128297,1,0,0:0:0:0:
224,114,128451,1,8,0:0:0:0:
112,295,128604,2,0,P|91:213|145:133,1,165,0|0,3:0|0:0,0:0:0:0:
224,114,128912,1,0,3:0:0:0:
309,247,129066,2,0,P|253:237|182:225,1,110,8|0,0:0|0:0,0:0:0:0:
388,165,129374,5,0,0:0:0:0:
243,348,129527,1,8,0:0:0:0:
224,114,129681,2,0,P|279:104|335:87,1,110,8|0,0:0|0:0,0:0:0:0:
486,190,129989,2,0,P|447:246|314:236,1,165,4|0,3:0|0:0,0:0:0:0:
261,207,130297,6,0,P|272:242|279:278,1,55,8|0,0:0|0:0,0:0:0:0:
192,296,130451,2,0,P|180:331|174:367,1,55,8|0,0:0|0:0,0:0:0:0:
135,216,130604,6,0,P|61:171|224:120,1,395.999987915039,6|0,3:2|0:0,0:0:0:0:
223,113,133066,6,0,B|385:67|324:182|476:134|476:134|481:51|400:32,1,395.999987915039,6|0,3:2|0:0,0:0:0:0:
410,34,135527,6,0,B|422:157|438:308|438:308|406:247|347:222,1,395.999987915039,6|0,3:2|0:0,0:0:0:0:
353,224,137989,6,0,B|269:250|176:156|176:156|268:72|369:106,1,395.999987915039,6|0,3:2|0:0,0:0:0:0:
356,102,140451,6,0,P|261:180|45:52,1,395.999987915039,6|0,3:2|0:0,0:0:0:0:
48,65,142912,6,0,B|95:115|81:176|81:176|28:241|56:304|56:304|138:291|155:215,1,395.999987915039,6|0,3:2|0:0,0:0:0:0:
153,220,145374,6,0,P|220:190|306:222,2,148.49999546814,6|0|0,3:2|0:0|0:0,0:0:0:0:
349,273,146604,6,0,P|333:199|318:110,2,148.49999546814,6|0|0,3:2|0:0|0:0,0:0:0:0:
366,38,147835,6,0,B|247:13|295:81|170:62,3,197.99999395752,6|0|0|0,3:2|3:0|3:0|3:0,0:0:0:0:
57,31,150297,6,0,P|24:98|47:172,1,131.99999597168,14|0,3:2|3:0,0:0:0:0:
350,245,150604,2,0,P|358:180|327:123,1,131.99999597168,8|0,3:2|3:0,0:0:0:0:
32,249,150912,5,8,3:2:0:0:
260,200,151066,1,0,3:0:0:0:
34,152,151220,1,8,3:2:0:0:
267,301,151374,1,0,3:0:0:0:
231,55,151527,5,8,3:2:0:0:
96,330,151681,1,0,3:0:0:0:
93,47,151835,1,8,3:2:0:0:
267,301,151989,1,0,3:0:0:0:
308,3,152143,5,8,3:2:0:0:
260,200,152297,2,0,P|202:204|154:178,1,110,0|0,3:2|0:0,0:0:0:0:
157,180,152758,6,0,P|167:240|176:305,1,107.249995090485,2|0,3:2|0:0,0:0:0:0:
190,378,153066,1,8,0:0:0:0:
190,378,153220,2,0,P|234:342|320:348,1,142.99999345398,8|0,0:0|0:0,0:0:0:0:
353,255,153681,2,0,P|397:291|467:290,1,107.249995090485,10|0,0:0|0:0,0:0:0:0:
512,243,153990,5,2,0:0:0:0:
430,207,154144,1,0,3:0:0:0:
502,153,154298,1,8,0:0:0:0:
420,117,154451,1,8,0:0:0:0:
492,63,154604,2,0,P|433:28|346:63,1,142.99999345398,2|8,3:2|0:0,0:0:0:0:
364,45,155220,6,0,P|308:35|250:26,1,107.249995090485,2|0,3:2|0:0,0:0:0:0:
173,9,155527,1,8,0:0:0:0:
173,9,155681,2,0,P|213:63|192:151,1,142.99999345398,8|0,0:0|0:0,0:0:0:0:
57,259,156142,2,0,P|46:205|72:151,1,107.249995090485,8|0,0:0|0:0,0:0:0:0:
122,89,156450,5,2,0:0:0:0:
138,217,156604,1,2,3:2:0:0:
40,40,156758,1,8,0:0:0:0:
203,134,156912,2,0,P|243:135|294:109,1,71.4999967269899,10|0,0:0|3:0,0:0:0:0:
338,55,157220,2,0,P|324:125|312:218,1,142.99999345398,2|0,0:0|0:0,0:0:0:0:
371,288,157681,6,0,P|403:263|434:256,1,71.4999967269899,2|0,3:2|0:0,0:0:0:0:
512,289,157989,1,10,0:0:0:0:
408,383,158143,2,0,P|334:368|264:359,1,142.99999345398,10|0,0:0|3:0,0:0:0:0:
160,342,158604,2,0,P|192:288|180:216,1,107.249995090485,8|0,0:0|0:0,0:0:0:0:
161,154,158912,5,2,0:0:0:0:
98,268,159066,1,0,3:0:0:0:
6,161,159220,2,0,P|46:172|88:182,1,71.4999967269899,8|8,0:0|0:0,0:0:0:0:
254,146,159527,2,0,P|223:85|129:69,1,142.99999345398,2|8,3:2|0:0,0:0:0:0:
155,62,160143,6,0,P|224:52|311:36,1,142.99999345398,2|8,3:2|0:0,0:0:0:0:
416,108,160604,2,0,P|372:141|371:246,1,142.99999345398,8|0,0:0|3:0,0:0:0:0:
399,303,161066,1,8,0:0:0:0:
399,303,161527,5,0,3:0:0:0:
275,233,161681,2,0,P|238:245|195:253,1,71.4999967269899,14|8,0:0|0:0,0:0:0:0:
136,312,161989,2,0,P|99:299|56:292,1,71.4999967269899,0|0,3:0|0:0,0:0:0:0:
15,226,162297,2,0,P|54:176|60:114,1,107.249995090485,8|0,0:0|0:0,0:0:0:0:
49,49,162604,5,6,3:2:0:0:
170,81,162912,1,8,0:0:0:0:
170,81,163066,2,0,P|108:94|43:35,1,142.99999345398,8|0,0:0|3:0,0:0:0:0:
124,10,163527,1,10,0:0:0:0:
142,183,163835,5,2,0:0:0:0:
170,81,163989,1,0,3:0:0:0:
225,211,164143,2,0,P|184:203|145:197,1,71.4999967269899,8|8,0:0|0:0,0:0:0:0:
303,126,164451,2,0,P|347:184|419:184,1,142.99999345398,2|8,3:2|0:0,0:0:0:0:
484,118,164912,1,0,0:0:0:0:
399,214,165067,5,2,3:2:0:0:
399,214,165220,2,0,P|411:256|425:302,1,71.4999967269899,0|8,0:0|0:0,0:0:0:0:
349,356,165527,2,0,P|319:324|212:337,1,142.99999345398,8|0,0:0|3:0,0:0:0:0:
124,384,165989,2,0,P|114:326|100:263,1,107.249995090485,8|0,0:0|0:0,0:0:0:0:
71,197,166297,5,2,0:0:0:0:
225,326,166451,1,2,3:2:0:0:
233,126,166604,1,10,0:0:0:0:
103,278,166758,2,0,P|59:284|15:268,1,71.4999967269899,10|0,0:0|3:0,0:0:0:0:
163,125,167066,2,0,P|207:119|251:135,1,71.4999967269899,2|8,0:0|0:0,0:0:0:0:
331,198,167374,1,0,0:0:0:0:
450,52,167527,6,0,P|407:94|347:90,1,107.249995090485,2|0,3:2|0:0,0:0:0:0:
291,50,167835,1,10,0:0:0:0:
265,220,167989,2,0,P|306:199|344:200,1,71.4999967269899,10|0,0:0|0:0,0:0:0:0:
420,245,168297,1,0,3:0:0:0:
290,319,168451,2,0,P|251:311|205:307,1,71.4999967269899,8|0,0:0|0:0,0:0:0:0:
102,353,168758,5,2,0:0:0:0:
125,233,168912,1,0,3:0:0:0:
219,308,169066,1,8,0:0:0:0:
10,274,169220,1,8,0:0:0:0:
138,95,169374,2,0,B|159:178|100:150|127:243,1,142.99999345398,2|8,3:2|0:0,0:0:0:0:
59,7,169989,5,12,3:2:0:0:
252,86,170144,1,0,3:0:0:0:
53,122,170297,1,0,3:0:0:0:
307,166,170451,2,0,P|345:111|338:42,1,131.99999597168,10|0,3:2|0:0,0:0:0:0:
196,7,170758,2,0,P|158:62|165:131,1,131.99999597168,2|8,3:2|0:0,0:0:0:0:
293,271,171066,1,2,3:2:0:0:
252,86,171220,5,0,3:0:0:0:
188,292,171374,1,10,3:2:0:0:
395,248,171527,1,0,3:0:0:0:
132,205,171681,1,2,3:2:0:0:
373,370,171835,5,8,3:2:0:0:
252,86,171989,1,0,3:0:0:0:
482,333,172143,1,8,3:2:0:0:
447,46,172297,1,8,3:2:0:0:
276,260,172451,6,0,B|158:234|222:320|61:284,1,181.500005538941,6|0,3:2|0:0,0:0:0:0:
16,277,172758,1,8,0:0:0:0:
152,89,172912,2,0,B|139:152|130:208|130:208|111:184|86:158,1,181.500005538941,0|0,3:0|0:0,0:0:0:0:
28,108,173220,1,0,3:0:0:0:
95,19,173374,2,0,P|165:1|229:38,1,121.000003692627,10|0,0:0|0:0,0:0:0:0:
303,191,173681,5,2,0:0:0:0:
152,89,173835,1,0,3:0:0:0:
392,11,173989,2,0,P|379:68|368:135,1,121.000003692627,8|0,0:0|0:0,0:0:0:0:
489,248,174297,2,0,B|343:219|403:326|244:288,1,242.000007385254,2|8,3:2|0:0,0:0:0:0:
172,215,174758,1,0,0:0:0:0:
38,275,174912,6,0,P|94:243|187:306,1,181.500005538941,0|0,3:2|0:0,0:0:0:0:
209,381,175220,1,8,0:0:0:0:
317,280,175374,2,0,P|300:198|286:92,1,181.500005538941,0|0,3:0|0:0,0:0:0:0:
317,12,175681,1,0,3:0:0:0:
195,134,175835,2,0,P|127:152|75:129,1,121.000003692627,8|0,0:0|0:0,0:0:0:0:
223,15,176143,5,2,0:0:0:0:
317,280,176297,1,2,3:2:0:0:
409,25,176451,1,10,0:0:0:0:
218,239,176604,2,0,P|214:312|250:362,1,121.000003692627,2|0,0:0|3:0,0:0:0:0:
389,137,176912,2,0,P|416:83|408:24,1,121.000003692627,2|8,0:0|0:0,0:0:0:0:
195,134,177220,1,0,0:0:0:0:
317,280,177374,6,0,B|430:308|430:308|508:266,1,181.500005538941,2|0,3:2|0:0,0:0:0:0:
419,212,177681,1,10,0:0:0:0:
232,344,177835,2,0,B|181:376|181:376|87:356,1,121.000003692627,2|0,3:2|0:0,0:0:0:0:
21,334,178143,1,2,3:2:0:0:
130,168,178297,2,0,P|146:232|165:292,1,121.000003692627,10|0,0:0|0:0,0:0:0:0:
187,63,178604,5,2,0:0:0:0:
48,233,178758,1,0,3:0:0:0:
238,139,178912,2,0,P|276:88|269:22,1,121.000003692627,8|0,0:0|0:0,0:0:0:0:
300,227,179220,1,2,3:2:0:0:
187,63,179374,1,0,0:0:0:0:
162,284,179527,2,0,P|219:268|301:252,1,121.000003692627,8|0,0:0|0:0,0:0:0:0:
469,330,179835,5,2,3:2:0:0:
404,147,179989,1,0,0:0:0:0:
344,335,180143,1,8,0:0:0:0:
499,162,180297,2,0,P|491:109|376:53,1,181.500005538941,0|0,3:0|0:0,0:0:0:0:
310,99,180605,1,0,3:0:0:0:
141,37,180758,2,0,P|201:31|268:15,1,121.000003692627,8|0,0:0|0:0,0:0:0:0:
107,172,181066,5,0,0:0:0:0:
34,32,181220,1,0,3:0:0:0:
51,250,181374,2,0,B|114:268|114:268|181:234,1,121.000003692627,8|0,0:0|0:0,0:0:0:0:
358,92,181681,5,8,0:0:0:0:
107,172,181835,1,8,0:0:0:0:
431,226,181989,1,8,0:0:0:0:
173,107,182143,1,8,0:0:0:0:
253,328,182297,6,0,B|373:367|373:367|437:333,1,181.500005538941,6|0,3:2|0:0,0:0:0:0:
499,293,182604,1,8,0:0:0:0:
411,132,182758,2,0,P|352:171|360:285,1,181.500005538941,0|0,3:0|0:0,0:0:0:0:
421,341,183066,1,0,3:0:0:0:
303,193,183220,2,0,P|238:207|167:216,1,121.000003692627,10|0,0:0|0:0,0:0:0:0:
65,163,183527,5,2,0:0:0:0:
261,68,183681,1,0,3:0:0:0:
222,287,183835,2,0,P|188:295|111:257,1,121.000003692627,8|0,0:0|0:0,0:0:0:0:
329,125,184143,2,0,B|358:234|284:195|320:319,1,181.500005538941,2|0,3:2|0:0,0:0:0:0:
346,381,184451,1,8,0:0:0:0:
227,198,184604,1,0,0:0:0:0:
420,266,184757,5,2,3:2:0:0:
222,287,184912,1,0,0:0:0:0:
329,125,185066,1,8,0:0:0:0:
288,362,185220,2,0,P|224:385|123:308,1,181.500005538941,0|0,3:0|0:0,0:0:0:0:
80,256,185527,1,0,3:0:0:0:
200,79,185681,2,0,P|212:144|227:199,1,121.000003692627,8|0,0:0|0:0,0:0:0:0:
319,0,185989,5,2,0:0:0:0:
74,158,186143,1,2,3:2:0:0:
348,238,186297,1,8,0:0:0:0:
174,40,186451,2,0,P|116:54|42:67,1,121.000003692627,2|0,0:0|3:0,0:0:0:0:
341,143,186758,2,0,P|398:157|473:170,1,121.000003692627,2|8,0:0|0:0,0:0:0:0:
187,262,187066,1,0,0:0:0:0:
