osu file format v14

[General]
AudioFilename: audio.mp3
AudioLeadIn: 0
PreviewTime: 62551
Countdown: 1
SampleSet: Soft
StackLeniency: 0.7
Mode: 0
LetterboxInBreaks: 0
WidescreenStoryboard: 1

[Editor]
DistanceSpacing: 1.2
BeatDivisor: 4
GridSize: 4
TimelineZoom: 1

[Metadata]
Title:Haunted Towers
TitleUnicode:Haunted Towers
Artist:Stewart Copeland
ArtistUnicode:Stewart Copeland
Creator:Neutral
Version:Normal
Source:Spyro The Dragon
Tags:Spyro Sony Insomniac Video Game OST
BeatmapID:1557404
BeatmapSetID:689294

[Difficulty]
HPDrainRate:3
CircleSize:3.5
OverallDifficulty:4
ApproachRate:4
SliderMultiplier:1
SliderTickRate:1

[Events]
//Background and Video events
0,0,"spyro.jpg",0,0
//Break Periods
//Storyboard Layer 0 (Background)
//Storyboard Layer 1 (Fail)
//Storyboard Layer 2 (Pass)
//Storyboard Layer 3 (Foreground)
//Storyboard Sound Samples

[TimingPoints]
623,428.571428571429,4,2,0,100,1,0
623,-125,4,2,0,50,0,0
5337,-125,4,2,0,70,0,0
10908,-100,4,1,0,55,0,0
21194,-100,4,1,0,60,0,0
31480,-90.9090909090909,4,1,0,65,0,1
41980,-125,4,2,0,70,0,0
46480,-125,4,2,0,40,0,0
47123,-125,4,2,0,70,0,0
51623,-125,4,2,0,40,0,0
52051,-100,4,2,0,75,0,0
62337,-100,4,2,0,80,0,0
67480,-100,4,1,0,55,0,0
93194,-90.9090909090909,4,1,0,60,0,1
103694,-125,4,2,0,70,0,0
108194,-125,4,2,0,40,0,0
108837,-125,4,2,0,70,0,0
113337,-125,4,2,0,40,0,0
113765,-100,4,2,0,75,0,0
124051,-100,4,2,0,80,0,0
129194,-125,4,2,0,70,0,0
133908,-125,4,2,0,40,0,0
134551,-125,4,2,0,70,0,0
139051,-125,4,2,0,40,0,0
139694,-125,4,2,0,70,0,0
144623,-125,4,2,0,5,0,0

[Colours]
Combo1 : 255,192,0
Combo2 : 0,0,255
Combo3 : 128,64,0
Combo4 : 170,85,255

[HitObjects]
108,192,623,6,0,P|120:144|152:108,1,80,8|0,0:0|0:0,0:0:0:0:
204,52,1480,1,0,0:0:0:0:
296,32,1908,2,0,P|345:28|389:47,1,80,2|0,2:0|0:0,0:0:0:0:
452,96,2765,5,0,0:0:0:0:
448,192,3194,2,0,L|448:272,1,80
400,356,4051,1,0,0:0:0:0:
352,272,4480,2,0,L|352:192,1,80
304,108,5337,6,8,P|284:91|271:85,1,40
224,80,5765,1,0,0:0:0:0:
136,120,6194,2,0,P|113:151|104:190,1,80,8|0,0:0|0:0,0:0:0:0:
116,288,7051,2,0,P|125:326|149:358,1,80,8|0,0:0|0:0,0:0:0:0:
244,340,7908,6,0,P|268:308|277:269,1,80,8|0,0:0|0:0,0:0:0:0:
276,172,8765,2,0,P|268:133|244:101,1,80,8|0,0:0|0:0,0:0:0:0:
192,184,9623,6,0,L|192:264,1,80,8|0,0:0|0:0,0:0:0:0:
208,360,10480,1,8,0:0:0:0:
312,304,10908,6,0,L|356:272,1,50,2|0,0:0|0:0,0:0:0:0:
380,328,11337,2,0,L|424:296,1,50,10|0,0:0|0:0,0:0:0:0:
460,256,11765,2,0,L|512:256,2,50,2|2|10,0:0|0:0|0:0,0:0:0:0:
392,156,12623,6,0,L|392:84,1,50,2|0,0:0|0:0,0:0:0:0:
332,92,13051,2,0,L|332:20,1,50,10|0,0:0|0:0,0:0:0:0:
280,8,13480,2,0,L|228:0,2,50,2|2|10,0:0|0:0|0:0,0:0:0:0:
276,128,14337,5,0,0:0:0:0:
200,220,14765,1,8,0:0:0:0:
264,320,15194,2,0,P|223:346|162:325,2,100,2|8|2,0:0|0:0|0:0,0:0:0:0:
364,252,16480,6,0,P|388:244|404:212,1,50,10|0,0:0|0:0,0:0:0:0:
428,172,16908,2,0,P|434:147|416:116,1,50,2|0,0:0|0:0,0:0:0:0:
396,72,17337,2,0,P|340:59|279:81,2,100,10|2|10,0:0|0:0|0:0,0:0:0:0:
316,160,18623,6,0,L|272:204,2,50,2|2|10,0:0|0:0|0:0,0:0:0:0:
212,96,19480,1,0,0:0:0:0:
156,204,19908,1,8,0:0:0:0:
176,324,20337,6,0,B|160:344|160:344|124:344,1,50,2|0,0:0|0:0,0:0:0:0:
76,344,20765,2,0,B|56:328|56:328|56:292,1,50,10|0,0:0|0:0,0:0:0:0:
92,256,21194,6,0,B|112:240|112:240|112:204,1,50,2|0,0:0|0:0,0:0:0:0:
112,156,21623,2,0,B|112:131|112:131|132:115,1,50,10|0,0:0|0:0,0:0:0:0:
176,76,22051,2,0,L|176:20,2,50,2|2|10,0:0|0:0|0:0,0:0:0:0:
196,196,22908,6,0,L|236:244,1,50,2|0,0:0|0:0,0:0:0:0:
192,280,23337,2,0,L|232:328,1,50,10|0,0:0|0:0,0:0:0:0:
284,324,23765,2,0,L|348:324,2,50,2|2|10,0:0|0:0|0:0,0:0:0:0:
324,212,24623,1,0,0:0:0:0:
264,108,25051,1,8,0:0:0:0:
384,108,25480,2,0,P|421:82|493:72,2,100,2|8|2,0:0|0:0|0:0,0:0:0:0:
444,212,26765,6,0,L|444:264,1,50,10|0,0:0|0:0,0:0:0:0:
388,244,27194,2,0,L|388:296,1,50,2|0,0:0|0:0,0:0:0:0:
384,352,27623,2,0,P|352:363|277:351,2,100,10|2|10,0:0|0:0|0:0,0:0:0:0:
308,260,28908,6,0,L|260:216,2,50,2|2|10,0:0|0:0|0:0,0:0:0:0:
376,160,29765,1,0,0:0:0:0:
400,276,30194,1,8,0:0:0:0:
300,344,30623,6,0,B|280:364|280:364|236:364,1,50,2|0,0:0|0:0,0:0:0:0:
248,304,31051,2,0,B|219:304|219:304|192:332,1,50,10|0,0:0|0:0,0:0:0:0:
136,336,31480,5,0,0:0:0:0:
72,328,31694,1,0,0:0:0:0:
48,268,31908,1,8,0:0:0:0:
104,148,32337,2,2,L|104:76,2,55.0000016784668,2|2|10,0:0|0:0|0:0,0:0:0:0:
224,204,33194,1,0,0:0:0:0:
272,160,33408,1,0,0:0:0:0:
320,204,33623,1,8,0:0:0:0:
356,332,34051,2,2,L|292:376,2,55.0000016784668,2|2|10,0:0|0:0|0:0,0:0:0:0:
456,244,34908,5,0,0:0:0:0:
492,116,35337,1,8,0:0:0:0:
380,44,35765,1,0,0:0:0:0:
280,132,36194,1,8,0:0:0:0:
328,256,36623,5,0,0:0:0:0:
304,316,36837,1,0,0:0:0:0:
240,328,37051,1,8,0:0:0:0:
124,268,37480,2,2,P|99:264|72:228,2,55.0000016784668,2|2|10,0:0|0:0|0:0,0:0:0:0:
228,172,38337,1,0,0:0:0:0:
276,128,38551,1,0,0:0:0:0:
336,156,38765,1,8,0:0:0:0:
432,244,39194,2,2,P|454:254|468:280,2,55.0000016784668,2|2|10,0:0|0:0|0:0,0:0:0:0:
288,248,40051,5,0,0:0:0:0:
400,316,40480,1,8,0:0:0:0:
272,340,40908,1,0,0:0:0:0:
364,244,41337,2,2,P|360:216|292:168,1,110.000003356934,10|2,0:0|0:0,0:0:0:0:
252,184,41980,6,0,L|216:208,1,40,2|8,0:0|0:0,0:0:0:0:
180,236,42408,2,0,L|144:260,1,40
108,228,42837,2,0,L|108:184,1,40,2|8,0:0|0:0,0:0:0:0:
108,92,43480,6,0,L|152:60,1,40,0|2,0:0|0:0,0:0:0:0:
220,16,44123,1,2,0:0:0:0:
256,192,44337,12,0,46480,0:0:0:0:
224,172,47123,6,0,P|236:156|264:152,1,40,2|8,0:0|0:0,0:0:0:0:
284,188,47551,2,0,P|302:182|314:166,1,40
320,116,47980,2,0,P|332:100|360:96,1,40,2|8,0:0|0:0,0:0:0:0:
448,104,48623,6,0,L|448:160,1,40,0|2,0:0|0:0,0:0:0:0:
448,240,49265,1,2,0:0:0:0:
256,192,49480,12,0,51623,0:0:0:0:
272,248,52051,5,2,0:0:0:0:
180,324,52480,2,0,P|136:305|116:260,1,100,8|2,0:0|0:0,0:0:0:0:
112,140,53337,2,0,P|131:96|176:76,1,100,8|2,0:0|0:0,0:0:0:0:
296,84,54194,2,0,P|340:104|360:148,1,100,8|2,0:0|0:0,0:0:0:0:
360,268,55051,2,0,P|339:312|295:332,1,100,8|2,0:0|0:0,0:0:0:0:
188,276,55908,6,0,B|147:243|147:243|150:190,1,100,8|2,0:0|0:0,0:0:0:0:
188,80,56765,2,0,B|220:39|220:39|273:42,1,100,8|2,0:0|0:0,0:0:0:0:
368,108,57623,2,0,B|408:140|408:140|405:193,1,100,8|2,0:0|0:0,0:0:0:0:
368,304,58480,2,0,B|335:344|335:344|282:341,1,100,8|2,0:0|0:0,0:0:0:0:
288,220,59337,6,0,L|288:120,1,100,8|2,0:0|0:0,0:0:0:0:
408,120,60194,2,0,L|408:220,1,100,8|2,0:0|0:0,0:0:0:0:
288,220,61051,2,0,L|184:220,1,100,8|2,0:0|0:0,0:0:0:0:
188,100,61908,2,0,L|288:100,1,100,8|2,0:0|0:0,0:0:0:0:
336,136,62551,6,0,L|388:188,1,50,2|8,0:0|0:0,0:0:0:0:
404,220,62980,2,0,L|352:272,1,50
312,236,63408,2,0,L|260:184,1,50,2|8,0:0|0:0,0:0:0:0:
192,116,64051,6,0,L|136:68,1,50,0|2,0:0|0:0,0:0:0:0:
64,4,64694,1,2,0:0:0:0:
56,124,65123,6,0,P|55:153|68:186,1,50,2|8,0:0|0:0,0:0:0:0:
120,168,65551,2,0,P|120:197|107:230,1,50
60,240,65980,2,0,P|59:269|72:302,1,50,2|8,0:0|0:0,0:0:0:0:
168,348,66623,6,0,P|196:353|232:345,1,50,0|2,0:0|0:0,0:0:0:0:
320,288,67265,1,2,0:0:0:0:
368,256,67480,6,0,B|396:252|396:252|416:216,1,50,6|0,0:0|0:0,0:0:0:0:
424,176,67908,1,8,0:0:0:0:
316,120,68337,1,0,0:0:0:0:
420,56,68765,1,8,0:0:0:0:
424,176,69194,6,0,L|372:216,1,50,2|0,0:0|0:0,0:0:0:0:
336,240,69623,1,8,0:0:0:0:
256,152,70051,1,0,0:0:0:0:
176,240,70480,6,0,L|136:209,1,50,8|0,0:0|0:0,0:0:0:0:
88,176,70909,1,0,0:0:0:0:
136,64,71337,1,8,0:0:0:0:
256,68,71765,6,0,P|280:71|307:92,1,50,2|0,0:0|0:0,0:0:0:0:
349,120,72194,1,8,0:0:0:0:
416,220,72623,6,0,L|416:280,1,50,2|0,0:0|0:0,0:0:0:0:
356,268,73051,2,0,L|356:328,1,50,10|0,0:0|0:0,0:0:0:0:
300,340,73480,2,0,L|300:280,2,50,2|2|10,0:0|0:0|0:0,0:0:0:0:
180,328,74337,6,0,P|152:320|128:296,1,50,2|0,0:0|0:0,0:0:0:0:
92,268,74765,2,0,P|76:243|74:209,1,50,10|0,0:0|0:0,0:0:0:0:
120,184,75194,2,0,P|144:189|164:204,2,50,2|2|10,0:0|0:0|0:0,0:0:0:0:
36,100,76051,5,0,0:0:0:0:
152,68,76480,1,8,0:0:0:0:
208,172,76908,2,0,P|232:208|292:236,2,100,2|8|2,0:0|0:0|0:0,0:0:0:0:
328,156,78194,6,0,L|380:156,1,50,10|0,0:0|0:0,0:0:0:0:
440,156,78623,2,0,L|440:104,1,50,2|0,0:0|0:0,0:0:0:0:
428,48,79051,2,0,P|376:36|312:52,2,100,10|2|10,0:0|0:0|0:0,0:0:0:0:
496,148,80337,6,0,P|508:176|504:200,2,50,2|2|10,0:0|0:0|0:0,0:0:0:0:
400,220,81194,1,0,0:0:0:0:
484,304,81623,1,8,0:0:0:0:
372,344,82051,2,0,L|320:324,1,50,2|0,0:0|0:0,0:0:0:0:
312,268,82480,2,0,L|260:288,1,50,10|0,0:0|0:0,0:0:0:0:
212,312,82908,6,0,P|172:320|152:312,1,50,2|0,0:0|0:0,0:0:0:0:
116,280,83337,2,0,P|106:240|113:220,1,50,10|0,0:0|0:0,0:0:0:0:
148,188,83765,2,0,L|148:136,2,50,2|2|10,0:0|0:0|0:0,0:0:0:0:
256,244,84623,6,0,P|280:246|303:238,1,50,2|0,0:0|0:0,0:0:0:0:
304,176,85051,2,0,P|327:167|352:170,1,50,10|0,0:0|0:0,0:0:0:0:
388,216,85480,2,0,P|392:239|386:263,2,50,2|2|10,0:0|0:0|0:0,0:0:0:0:
316,312,86337,5,0,0:0:0:0:
208,260,86765,1,8,0:0:0:0:
256,148,87194,2,0,P|248:100|208:56,2,100,2|8|2,0:0|0:0|0:0,0:0:0:0:
208,260,88480,6,0,P|232:280|260:284,1,50,10|0,0:0|0:0,0:0:0:0:
284,336,88908,2,0,P|260:356|232:360,1,50,2|0,0:0|0:0,0:0:0:0:
184,344,89337,2,0,P|144:324|124:268,2,100,10|2|10,0:0|0:0|0:0,0:0:0:0:
288,348,90623,6,0,L|344:348,2,50,2|2|10,0:0|0:0|0:0,0:0:0:0:
228,244,91480,1,0,0:0:0:0:
348,244,91908,1,8,0:0:0:0:
280,148,92337,6,0,P|264:124|228:112,1,50,2|0,0:0|0:0,0:0:0:0:
212,164,92765,2,0,P|190:151|177:130,1,50,10|0,0:0|0:0,0:0:0:0:
164,64,93194,5,0,0:0:0:0:
112,24,93408,1,0,0:0:0:0:
60,64,93623,1,8,0:0:0:0:
60,196,94051,2,2,B|60:224|60:224|81:239,2,55.0000016784668,6|2|10,0:0|0:0|0:0,0:0:0:0:
180,140,94908,1,0,0:0:0:0:
232,180,95123,1,0,0:0:0:0:
220,244,95337,1,8,0:0:0:0:
136,348,95765,2,2,P|118:365|84:376,2,55.0000016784668,2|2|10,0:0|0:0|0:0,0:0:0:0:
272,304,96623,5,0,0:0:0:0:
400,344,97051,1,8,0:0:0:0:
316,240,97480,1,0,0:0:0:0:
440,280,97908,1,8,0:0:0:0:
496,160,98337,5,0,0:0:0:0:
480,96,98551,1,0,0:0:0:0:
424,64,98765,1,8,0:0:0:0:
320,144,99194,2,2,P|316:168|320:200,2,55.0000016784668,2|2|10,0:0|0:0|0:0,0:0:0:0:
436,204,100051,1,0,0:0:0:0:
492,236,100265,1,0,0:0:0:0:
500,300,100480,1,8,0:0:0:0:
376,348,100908,2,2,L|376:288,2,55.0000016784668,2|2|10,0:0|0:0|0:0,0:0:0:0:
248,324,101765,5,0,0:0:0:0:
116,324,102194,1,8,0:0:0:0:
116,192,102623,1,0,0:0:0:0:
248,204,103051,2,2,B|300:204|300:204|324:152,1,110.000003356934,10|2,0:0|0:0,0:0:0:0:
348,108,103694,6,0,P|367:105|387:109,1,40,2|8,0:0|0:0,0:0:0:0:
416,148,104123,2,0,P|418:179|407:200,1,40
380,216,104551,2,0,P|378:247|389:268,1,40,2|8,0:0|0:0,0:0:0:0:
376,352,105194,6,0,P|345:354|324:343,1,40,0|2,0:0|0:0,0:0:0:0:
256,296,105837,1,2,0:0:0:0:
256,192,106051,12,0,108194,0:0:0:0:
140,140,108837,6,0,P|152:160|180:172,1,40,2|8,0:0|0:0,0:0:0:0:
160,216,109265,2,0,P|172:236|200:248,1,40
184,292,109694,2,0,P|193:309|209:320,1,40,2|8,0:0|0:0,0:0:0:0:
304,312,110337,6,0,P|320:301|329:284,1,40,0|2,0:0|0:0,0:0:0:0:
364,192,110980,1,2,0:0:0:0:
256,192,111194,12,0,113337,0:0:0:0:
352,132,113765,5,2,0:0:0:0:
408,240,114194,2,0,P|356:252|304:240,1,100,8|2,0:0|0:0,0:0:0:0:
192,244,115051,2,0,P|143:255|94:247,1,100,8|2,0:0|0:0,0:0:0:0:
96,128,115908,2,0,P|144:119|193:131,1,100,8|2,0:0|0:0,0:0:0:0:
312,128,116765,2,0,P|360:119|409:131,1,100,8|2,0:0|0:0,0:0:0:0:
368,243,117623,6,0,P|339:284|297:311,1,100,8|2,0:0|0:0,0:0:0:0:
176,312,118480,2,0,P|134:284|105:243,1,100,8|2,0:0|0:0,0:0:0:0:
104,123,119337,2,0,P|132:82|173:56,1,100,8|2,0:0|0:0,0:0:0:0:
292,56,120194,2,0,P|333:82|362:123,1,100,8|2,0:0|0:0,0:0:0:0:
304,228,121051,6,0,P|248:197|209:204,1,100,8|2,0:0|0:0,0:0:0:0:
188,320,121908,2,0,P|244:351|283:344,1,100,8|2,0:0|0:0,0:0:0:0:
388,296,122765,2,0,P|419:240|412:201,1,100,8|2,0:0|0:0,0:0:0:0:
340,112,123623,2,0,P|284:81|245:88,1,100,8|2,0:0|0:0,0:0:0:0:
204,124,124265,6,0,L|164:156,1,50,2|8,0:0|0:0,0:0:0:0:
196,208,124694,2,0,L|156:240,1,50
156,300,125123,2,0,L|195:331,1,50,2|8,0:0|0:0,0:0:0:0:
316,332,125765,6,0,L|355:300,1,50,0|2,0:0|0:0,0:0:0:0:
444,220,126408,1,2,0:0:0:0:
400,108,126837,6,0,P|380:96|332:100,1,50,2|8,0:0|0:0,0:0:0:0:
308,132,127265,2,0,P|283:129|261:117,1,50
256,56,127694,2,0,P|236:44|188:48,1,50,2|8,0:0|0:0,0:0:0:0:
100,88,128337,6,0,P|82:103|71:149,1,50,0|2,0:0|0:0,0:0:0:0:
56,248,128980,1,2,0:0:0:0:
144,288,129408,6,0,P|175:290|196:279,1,40,2|8,0:0|0:0,0:0:0:0:
232,288,129837,2,0,P|263:290|284:279,1,40
320,288,130265,2,0,P|351:290|372:279,1,40,2|8,0:0|0:0,0:0:0:0:
428,220,130908,6,0,P|430:189|419:168,1,40,0|2,0:0|0:0,0:0:0:0:
384,96,131551,1,2,0:0:0:0:
256,192,131765,12,0,133908,0:0:0:0:
88,144,134551,6,0,P|100:168|124:184,1,40,2|8,0:0|0:0,0:0:0:0:
112,224,134980,2,0,P|124:248|148:264,1,40
144,304,135408,2,0,P|152:328|176:344,1,40,2|8,0:0|0:0,0:0:0:0:
256,364,136051,6,0,P|280:368|306:355,1,40,0|2,0:0|0:0,0:0:0:0:
364,296,136694,1,2,0:0:0:0:
256,192,136908,12,0,139051,0:0:0:0:
256,56,139694,6,0,L|256:96,1,40,2|8,0:0|0:0,0:0:0:0:
296,124,140123,2,0,L|296:164,1,40
256,188,140551,2,0,L|256:228,1,40,2|8,0:0|0:0,0:0:0:0:
256,324,141194,6,0,B|236:332|236:332|204:316,1,40,0|2,0:0|0:0,0:0:0:0:
144,264,141837,1,2,0:0:0:0:
256,192,142051,12,0,144623,0:0:0:0:
