osu file format v14

[General]
AudioFilename: audio.mp3
AudioLeadIn: 0
PreviewTime: 62551
Countdown: 1
SampleSet: Soft
StackLeniency: 0.7
Mode: 0
LetterboxInBreaks: 0
WidescreenStoryboard: 0

[Editor]
DistanceSpacing: 1
BeatDivisor: 4
GridSize: 4
TimelineZoom: 1

[Metadata]
Title:Haunted Towers
TitleUnicode:Haunted Towers
Artist:Stewart Copeland
ArtistUnicode:Stewart Copeland
Creator:Neutral
Version:Insane
Source:Spyro The Dragon
Tags:Spyro Sony Insomniac Video Game OST
BeatmapID:1459178
BeatmapSetID:689294

[Difficulty]
HPDrainRate:6
CircleSize:4.1
OverallDifficulty:8
ApproachRate:9
SliderMultiplier:1.4
SliderTickRate:1

[Events]
//Background and Video events
0,0,"spyro.jpg",0,0
//Break Periods
//Storyboard Layer 0 (Background)
//Storyboard Layer 1 (Fail)
//Storyboard Layer 2 (Pass)
//Storyboard Layer 3 (Foreground)
//Storyboard Sound Samples

[TimingPoints]
623,428.571428571429,4,2,0,100,1,0
623,-100,4,2,0,50,0,0
5337,-90.9090909090909,4,2,0,70,0,0
10908,-76.9230769230769,4,1,0,55,0,0
21194,-71.4285714285714,4,1,0,60,0,0
31480,-66.6666666666667,4,1,0,65,0,1
41980,-100,4,2,0,70,0,0
52480,-100,4,2,0,75,0,0
62337,-83.3333333333333,4,2,0,80,0,0
67480,-76.9230769230769,4,1,0,55,0,0
93194,-66.6666666666667,4,1,0,60,0,1
103694,-100,4,2,0,70,0,0
114194,-100,4,2,0,75,0,0
124051,-83.3333333333333,4,2,0,80,0,0
129194,-125,4,2,0,70,0,0
142051,-125,4,2,0,50,0,0

[Colours]
Combo1 : 255,192,0
Combo2 : 0,0,255
Combo3 : 128,64,0
Combo4 : 170,85,255

[HitObjects]
76,240,623,6,0,P|88:160|140:116,1,140,8|0,0:0|0:0,0:0:0:0:
256,64,1480,1,0,0:0:0:0:
384,120,1908,2,0,P|430:170|436:238,1,140,2|0,0:0|0:0,0:0:0:0:
296,228,2765,1,0,0:0:0:0:
184,140,3194,6,0,P|230:88|296:68,1,140
307,208,4051,1,0,0:0:0:0:
408,304,4480,2,0,P|361:355|295:375,1,140
140,308,5337,5,8,0:0:0:0:
140,308,5551,1,8,0:0:0:0:
120,236,5765,6,0,P|168:212|200:216,1,77.0000023498536
264,236,6194,1,8,0:0:0:0:
264,236,6408,1,0,0:0:0:0:
383,203,6623,1,0,0:0:0:0:
351,84,6837,1,0,0:0:0:0:
231,116,7051,1,8,0:0:0:0:
324,220,7265,1,0,0:0:0:0:
416,132,7480,5,0,0:0:0:0:
416,132,7694,1,0,0:0:0:0:
496,220,7908,1,8,0:0:0:0:
416,316,8123,1,0,0:0:0:0:
324,220,8337,1,0,0:0:0:0:
192,220,8551,1,0,0:0:0:0:
280,316,8765,5,8,0:0:0:0:
280,316,8980,1,0,0:0:0:0:
152,284,9194,1,0,0:0:0:0:
272,232,9408,1,0,0:0:0:0:
204,344,9623,1,8,0:0:0:0:
192,220,9837,1,0,0:0:0:0:
256,340,10051,5,0,0:0:0:0:
256,340,10265,1,0,0:0:0:0:
372,272,10480,1,8,0:0:0:0:
264,208,10694,1,0,0:0:0:0:
384,96,10908,5,2,0:0:0:0:
384,96,11123,1,2,0:0:0:0:
448,164,11337,2,0,P|454:197|432:253,1,90.9999958343508,10|0,0:0|0:0,0:0:0:0:
380,320,11765,1,0,0:0:0:0:
304,180,11980,1,0,0:0:0:0:
296,272,12194,2,2,P|241:286|136:224,1,181.999991668702,10|2,0:0|0:0,0:0:0:0:
112,140,12837,5,0,0:0:0:0:
180,24,13051,1,10,0:0:0:0:
312,56,13265,1,0,0:0:0:0:
216,104,13480,1,2,0:0:0:0:
216,104,13694,1,2,0:0:0:0:
256,184,13908,6,0,L|296:273,1,90.9999958343508,10|0,0:0|0:0,0:0:0:0:
376,304,14337,1,0,0:0:0:0:
404,216,14551,2,0,L|366:133,1,90.9999958343508,2|8,0:0|0:0,0:0:0:0:
284,92,14980,1,0,0:0:0:0:
280,184,15194,6,0,P|248:236|196:244,1,90.9999958343508,2|0,0:0|0:0,0:0:0:0:
196,156,15623,1,8,0:0:0:0:
171,68,15837,2,0,P|129:85|109:124,2,90.9999958343508,2|0|0,0:0|0:0|0:0,0:0:0:0:
360,96,16480,5,10,0:0:0:0:
360,96,16694,1,2,0:0:0:0:
324,228,16908,1,2,0:0:0:0:
456,316,17123,1,0,0:0:0:0:
268,372,17337,6,2,P|204:356|140:260,1,181.999991668702,10|2,0:0|0:0,0:0:0:0:
128,172,17980,1,0,0:0:0:0:
216,200,18194,2,0,B|252:228|252:228|320:196,1,90.9999958343508,10|0,0:0|0:0,0:0:0:0:
260,124,18623,1,2,0:0:0:0:
260,124,18837,1,2,0:0:0:0:
256,216,19051,6,2,B|256:310|256:310|348:348,1,181.999991668702,10|2,0:0|0:0,0:0:0:0:
340,252,19694,1,0,0:0:0:0:
424,288,19908,2,2,B|424:193|424:193|332:156,1,181.999991668702,10|2,0:0|0:0,0:0:0:0:
342,160,20551,1,0,0:0:0:0:
260,124,20765,2,0,L|204:52,1,90.9999958343508,10|0,0:0|0:0,0:0:0:0:
36,36,21194,5,2,0:0:0:0:
36,36,21408,1,2,0:0:0:0:
40,224,21623,1,10,0:0:0:0:
188,88,21837,1,0,0:0:0:0:
168,216,22051,1,2,0:0:0:0:
292,160,22265,1,0,0:0:0:0:
188,87,22480,2,2,P|281:63|369:101,1,195.999994018555,10|2,0:0|0:0,0:0:0:0:
440,172,23123,5,0,0:0:0:0:
368,296,23337,1,10,0:0:0:0:
296,172,23551,1,0,0:0:0:0:
192,44,23765,1,2,0:0:0:0:
192,44,23980,1,2,0:0:0:0:
124,116,24194,6,0,L|48:200,1,97.9999970092774,10|0,0:0|0:0,0:0:0:0:
56,288,24623,1,0,0:0:0:0:
152,264,24837,2,0,L|217:191,1,97.9999970092774,2|8,0:0|0:0,0:0:0:0:
284,120,25265,1,0,0:0:0:0:
372,168,25480,6,0,B|424:168|424:168|424:240,1,97.9999970092774,2|0,0:0|0:0,0:0:0:0:
336,256,25908,1,8,0:0:0:0:
248,302,26123,2,0,B|248:348|248:348|300:348,2,97.9999970092774,2|0|0,0:0|0:0|0:0,0:0:0:0:
248,108,26765,5,10,0:0:0:0:
248,108,26980,1,2,0:0:0:0:
344,232,27194,1,2,0:0:0:0:
176,232,27408,1,0,0:0:0:0:
84,72,27623,2,2,P|52:176|80:272,1,195.999994018555,10|2,0:0|0:0,0:0:0:0:
132,336,28265,1,0,0:0:0:0:
220,292,28480,2,0,P|244:284|288:224,1,97.9999970092774,10|0,0:0|0:0,0:0:0:0:
200,184,28908,1,2,0:0:0:0:
200,184,29123,1,2,0:0:0:0:
152,100,29337,6,2,B|56:92|56:92|107:177,1,195.999994018555,10|2,0:0|0:0,0:0:0:0:
200,184,29980,1,0,0:0:0:0:
248,100,30194,2,2,B|344:92|344:92|292:177,1,195.999994018555,10|2,0:0|0:0,0:0:0:0:
292,177,30837,1,0,0:0:0:0:
288,276,31051,2,0,L|360:356,1,97.9999970092774,10|0,0:0|0:0,0:0:0:0:
496,276,31480,6,0,L|496:168,1,105.000004005432,6|0,0:0|0:0,0:0:0:0:
440,80,31908,1,8,0:0:0:0:
348,132,32123,1,0,0:0:0:0:
348,236,32337,2,0,P|300:264|260:220,1,105.000004005432,2|0,0:0|0:0,0:0:0:0:
264,132,32765,2,0,P|216:104|176:148,1,105.000004005432,10|0,0:0|0:0,0:0:0:0:
128,220,33194,5,2,0:0:0:0:
232,220,33408,1,2,0:0:0:0:
180,129,33623,2,0,P|155:85|105:73,1,105.000004005432,10|0,0:0|0:0,0:0:0:0:
32,148,34051,1,2,0:0:0:0:
104,224,34265,1,2,0:0:0:0:
176,144,34480,2,0,P|232:136|296:148,1,105.000004005432,10|0,0:0|0:0,0:0:0:0:
376,188,34908,5,0,0:0:0:0:
248,320,35123,1,0,0:0:0:0:
428,256,35337,1,10,0:0:0:0:
292,132,35551,1,2,0:0:0:0:
380,344,35765,1,2,0:0:0:0:
200,220,35980,1,2,0:0:0:0:
412,152,36194,2,0,P|432:104|424:40,1,105.000004005432,10|0,0:0|0:0,0:0:0:0:
268,32,36623,6,0,P|208:40|160:84,1,105.000004005432,2|0,0:0|0:0,0:0:0:0:
116,156,37051,1,8,0:0:0:0:
220,168,37265,1,0,0:0:0:0:
252,68,37480,2,0,B|284:88|284:88|312:80|356:100,1,105.000004005432,2|0,0:0|0:0,0:0:0:0:
432,160,37908,2,0,B|420:195|420:195|393:207|376:244,1,105.000004005432,10|0,0:0|0:0,0:0:0:0:
316,332,38337,5,2,0:0:0:0:
256,244,38551,1,2,0:0:0:0:
204,336,38765,2,0,B|160:312|160:312|156:248,1,105.000004005432,10|0,0:0|0:0,0:0:0:0:
216,168,39194,1,2,0:0:0:0:
284,248,39408,1,2,0:0:0:0:
348,164,39623,2,0,B|328:117|328:117|265:107,1,105.000004005432,10|0,0:0|0:0,0:0:0:0:
176,88,40051,5,0,0:0:0:0:
418,166,40265,1,0,0:0:0:0:
176,245,40480,1,8,0:0:0:0:
325,39,40694,1,0,0:0:0:0:
325,294,40908,1,0,0:0:0:0:
175,87,41123,1,0,0:0:0:0:
448,144,41337,2,2,B|460:232|344:176|316:200|268:276,1,210.000008010865,10|2,0:0|0:0,0:0:0:0:
288,246,41980,5,0,0:0:0:0:
160,160,42194,1,8,0:0:0:0:
272,40,42408,1,0,0:0:0:0:
296,192,42623,1,0,0:0:0:0:
184,44,42837,1,0,0:0:0:0:
220,216,43051,2,0,P|232:252|260:276,1,70,10|0,0:0|0:0,0:0:0:0:
320,296,43480,5,0,0:0:0:0:
480,356,43694,1,2,0:0:0:0:
480,356,44123,1,2,0:0:0:0:
432,200,44337,6,0,L|448:168,1,35,10|0,0:0|0:0,0:0:0:0:
412,56,44551,2,0,L|396:88,1,35,10|0,0:0|0:0,0:0:0:0:
248,136,44765,5,8,0:0:0:0:
212,136,44873,1,0,0:0:0:0:
176,136,44980,2,0,P|160:136|132:144,1,35,2|0,0:0|0:0,0:0:0:0:
204,248,45194,1,8,0:0:0:0:
240,248,45302,1,0,0:0:0:0:
272,240,45408,1,0,0:0:0:0:
304,232,45515,2,0,P|319:227|343:211,1,35,2|0,0:0|0:0,0:0:0:0:
464,112,45837,5,8,0:0:0:0:
464,148,45944,1,0,0:0:0:0:
464,184,46051,2,0,L|464:232,1,35,2|0,0:0|0:0,0:0:0:0:
376,328,46265,2,0,L|376:288,1,35,8|2,0:0|0:0,0:0:0:0:
288,184,46480,1,8,0:0:0:0:
280,216,46587,1,0,0:0:0:0:
264,248,46694,1,0,0:0:0:0:
244,276,46801,2,0,P|233:288|209:304,1,35,2|8,0:0|0:0,0:0:0:0:
56,248,47123,5,0,0:0:0:0:
208,136,47337,1,0,0:0:0:0:
160,316,47551,1,0,0:0:0:0:
96,128,47765,1,10,0:0:0:0:
256,256,47980,1,0,0:0:0:0:
360,376,48194,2,0,P|408:352|432:320,1,70,2|0,0:0|0:0,0:0:0:0:
472,292,48623,5,8,0:0:0:0:
348,176,48837,1,2,0:0:0:0:
348,176,49265,1,2,0:0:0:0:
204,248,49480,6,0,L|232:216,1,35,10|0,0:0|0:0,0:0:0:0:
248,52,49694,2,0,L|224:80,1,35,10|0,0:0|0:0,0:0:0:0:
112,196,49908,5,8,0:0:0:0:
108,232,50015,1,0,0:0:0:0:
116,268,50123,2,0,P|124:288|136:300,1,35,2|0,0:0|0:0,0:0:0:0:
264,264,50337,1,8,0:0:0:0:
264,228,50444,1,0,0:0:0:0:
256,196,50551,1,0,0:0:0:0:
244,164,50658,2,0,P|236:143|224:131,1,35,2|0,0:0|0:0,0:0:0:0:
84,32,50980,5,8,0:0:0:0:
96,64,51087,1,0,0:0:0:0:
108,96,51194,2,0,L|128:144,1,35,2|0,0:0|0:0,0:0:0:0:
188,240,51408,2,0,L|220:216,1,35,10|0,0:0|0:0,0:0:0:0:
328,128,51623,1,8,0:0:0:0:
352,156,51730,1,0,0:0:0:0:
368,188,51837,1,0,0:0:0:0:
376,224,51944,2,0,P|381:238|384:267,1,35,2|8,0:0|0:0,0:0:0:0:
232,312,52265,5,0,0:0:0:0:
160,136,52480,2,0,P|124:126|72:147,1,70,2|0,0:0|0:0,0:0:0:0:
32,248,52908,5,8,0:0:0:0:
192,232,53123,1,0,0:0:0:0:
60,372,53337,2,0,P|106:371|144:356,1,70,2|0,0:0|0:0,0:0:0:0:
240,312,53765,5,8,0:0:0:0:
258,157,53980,1,2,0:0:0:0:
396,300,54194,2,0,P|425:265|440:227,1,70,0|2,0:0|0:0,0:0:0:0:
432,112,54623,5,8,0:0:0:0:
300,24,54837,1,0,0:0:0:0:
220,192,55051,2,0,P|180:224|138:227,1,70,2|0,0:0|0:0,0:0:0:0:
60,136,55480,5,8,0:0:0:0:
184,16,55694,1,0,0:0:0:0:
292,192,55908,2,0,P|332:224|374:227,1,70,2|0,0:0|0:0,0:0:0:0:
480,176,56337,5,8,0:0:0:0:
400,324,56551,1,0,0:0:0:0:
384,128,56765,2,0,P|356:92|328:80,1,70,2|0,0:0|0:0,0:0:0:0:
204,56,57194,5,8,0:0:0:0:
176,208,57408,1,0,0:0:0:0:
16,80,57623,2,0,P|22:127|46:163,1,70,2|0,0:0|0:0,0:0:0:0:
88,264,58051,5,8,0:0:0:0:
180,124,58265,1,0,0:0:0:0:
312,272,58480,2,0,P|359:247|377:218,1,70,2|0,0:0|0:0,0:0:0:0:
420,120,58908,5,8,0:0:0:0:
288,32,59123,1,2,0:0:0:0:
180,144,59337,2,0,P|210:127|244:120,1,70,0|2,0:0|0:0,0:0:0:0:
368,176,59765,5,8,0:0:0:0:
368,16,59980,1,0,0:0:0:0:
444,196,60194,2,0,P|472:172|488:144,1,70,2|0,0:0|0:0,0:0:0:0:
480,12,60623,5,8,0:0:0:0:
412,124,60837,1,0,0:0:0:0:
304,276,61051,2,0,P|268:284|232:258,1,70,2|0,0:0|0:0,0:0:0:0:
144,188,61480,5,8,0:0:0:0:
184,376,61694,1,0,0:0:0:0:
248,188,61908,2,0,L|312:161,1,70,2|0,0:0|0:0,0:0:0:0:
460,96,62337,5,8,0:0:0:0:
396,320,62551,1,0,0:0:0:0:
188,232,62765,1,0,0:0:0:0:
312,36,62980,1,0,0:0:0:0:
108,196,63194,1,8,0:0:0:0:
232,0,63409,1,0,0:0:0:0:
260,228,63623,6,0,P|288:240|344:224,1,83.9999974365235,2|0,0:0|0:0,0:0:0:0:
468,80,64051,1,8,0:0:0:0:
436,300,64265,1,2,0:0:0:0:
436,300,64694,1,2,0:0:0:0:
372,144,64908,5,8,0:0:0:0:
164,56,65123,1,0,0:0:0:0:
280,252,65337,1,0,0:0:0:0:
296,32,65551,1,0,0:0:0:0:
156,208,65765,1,8,0:0:0:0:
252,124,65980,1,0,0:0:0:0:
384,84,66194,6,0,P|412:112|427:154,1,83.9999974365235,2|0,0:0|0:0,0:0:0:0:
380,340,66623,1,8,0:0:0:0:
176,252,66837,1,2,0:0:0:0:
176,252,67265,1,2,0:0:0:0:
296,320,67480,5,4,0:0:0:0:
176,360,67694,1,0,0:0:0:0:
240,204,67908,1,8,0:0:0:0:
240,204,68123,1,0,0:0:0:0:
306,95,68337,1,0,0:0:0:0:
370,263,68551,1,0,0:0:0:0:
115,133,68765,1,8,0:0:0:0:
199,354,68980,1,0,0:0:0:0:
240,204,69194,5,0,0:0:0:0:
240,204,69408,1,0,0:0:0:0:
372,136,69623,1,8,0:0:0:0:
180,80,69837,1,0,0:0:0:0:
384,308,70051,1,0,0:0:0:0:
72,216,70265,1,0,0:0:0:0:
256,48,70480,5,8,0:0:0:0:
256,48,70694,1,0,0:0:0:0:
78,241,70908,1,0,0:0:0:0:
340,176,71122,1,0,0:0:0:0:
108,76,71337,1,8,0:0:0:0:
252,296,71551,1,0,0:0:0:0:
256,44,71765,5,0,0:0:0:0:
256,44,71980,1,0,0:0:0:0:
252,296,72194,1,8,0:0:0:0:
104,80,72408,1,0,0:0:0:0:
340,180,72623,5,2,0:0:0:0:
340,180,72837,1,2,0:0:0:0:
260,320,73051,2,0,P|236:308|200:252,1,90.9999958343508,10|0,0:0|0:0,0:0:0:0:
192,92,73480,1,0,0:0:0:0:
312,256,73694,1,0,0:0:0:0:
388,136,73908,2,2,P|416:176|412:304,1,181.999991668702,10|2,0:0|0:0,0:0:0:0:
340,360,74551,5,0,0:0:0:0:
336,204,74765,1,10,0:0:0:0:
220,304,74980,1,0,0:0:0:0:
420,272,75194,1,2,0:0:0:0:
420,272,75408,1,2,0:0:0:0:
480,159,75623,6,0,P|498:120|480:80,1,90.9999958343508,10|0,0:0|0:0,0:0:0:0:
404,32,76051,1,0,0:0:0:0:
324,80,76265,2,0,P|305:119|324:159,1,90.9999958343508,2|8,0:0|0:0,0:0:0:0:
404,208,76694,1,0,0:0:0:0:
380,296,76908,6,0,B|356:336|356:336|300:308,1,90.9999958343508,2|0,0:0|0:0,0:0:0:0:
324,224,77337,1,8,0:0:0:0:
268,152,77551,2,0,B|292:112|292:112|332:132,2,90.9999958343508,2|0|0,0:0|0:0|0:0,0:0:0:0:
144,284,78194,5,10,0:0:0:0:
144,284,78408,1,2,0:0:0:0:
216,144,78623,1,2,0:0:0:0:
304,332,78837,1,0,0:0:0:0:
384,112,79051,6,2,P|332:72|208:52,1,181.999991668702,10|2,0:0|0:0,0:0:0:0:
132,80,79694,1,0,0:0:0:0:
200,140,79908,2,0,L|268:200,1,90.9999958343508,10|0,0:0|0:0,0:0:0:0:
280,108,80337,1,2,0:0:0:0:
280,108,80551,1,2,0:0:0:0:
352,164,80765,6,2,B|392:192|392:192|304:312,1,181.999991668702,10|2,0:0|0:0,0:0:0:0:
272,196,81408,1,0,0:0:0:0:
192,236,81623,2,2,B|152:208|152:208|240:88,1,181.999991668702,10|2,0:0|0:0,0:0:0:0:
230,100,82265,1,0,0:0:0:0:
316,136,82480,2,0,L|400:180,1,90.9999958343508,10|0,0:0|0:0,0:0:0:0:
472,356,82908,5,2,0:0:0:0:
472,356,83123,1,2,0:0:0:0:
316,232,83337,1,10,0:0:0:0:
472,232,83551,1,0,0:0:0:0:
316,352,83765,1,2,0:0:0:0:
408,208,83980,1,0,0:0:0:0:
256,88,84194,2,2,B|176:128|144:4|68:56,1,181.999991668702,10|2,0:0|0:0,0:0:0:0:
16,204,84837,5,0,0:0:0:0:
116,320,85051,1,10,0:0:0:0:
228,204,85265,1,0,0:0:0:0:
364,68,85480,1,2,0:0:0:0:
364,68,85694,1,2,0:0:0:0:
364,160,85908,6,0,L|364:251,1,90.9999958343508,10|0,0:0|0:0,0:0:0:0:
308,324,86337,1,0,0:0:0:0:
252,252,86551,2,0,L|252:161,1,90.9999958343508,2|8,0:0|0:0,0:0:0:0:
308,88,86980,1,0,0:0:0:0:
232,40,87194,6,0,P|187:31|143:41,1,90.9999958343508,2|0,0:0|0:0,0:0:0:0:
66,89,87623,1,8,0:0:0:0:
139,146,87837,2,0,P|183:155|227:145,2,90.9999958343508,2|0|0,0:0|0:0|0:0,0:0:0:0:
336,84,88480,5,10,0:0:0:0:
336,84,88694,1,2,0:0:0:0:
344,252,88908,1,2,0:0:0:0:
168,175,89123,1,0,0:0:0:0:
400,56,89337,6,2,P|424:136|416:244,1,181.999991668702,10|2,0:0|0:0,0:0:0:0:
384,320,89980,1,0,0:0:0:0:
348,236,90194,2,0,B|316:204|316:204|276:244,1,90.9999958343508,10|0,0:0|0:0,0:0:0:0:
232,312,90623,1,2,0:0:0:0:
232,312,90837,1,2,0:0:0:0:
202,224,91051,6,2,B|178:158|178:158|137:99|172:56,1,181.999991668702,10|2,0:0|0:0,0:0:0:0:
232,104,91694,1,0,0:0:0:0:
260,36,91908,2,2,B|312:56|307:127|307:127|320:196,1,181.999991668702,10|2,0:0|0:0,0:0:0:0:
320,196,92551,1,0,0:0:0:0:
328,280,92765,2,0,P|304:312|248:308,1,90.9999958343508,10|0,0:0|0:0,0:0:0:0:
124,160,93194,6,0,L|208:88,1,105.000004005432,6|0,0:0|0:0,0:0:0:0:
284,20,93623,1,8,0:0:0:0:
304,124,93837,1,0,0:0:0:0:
204,92,94051,2,0,P|124:64|96:72,1,105.000004005432,2|0,0:0|0:0,0:0:0:0:
140,168,94480,2,0,P|220:196|248:188,1,105.000004005432,10|0,0:0|0:0,0:0:0:0:
312,120,94908,5,2,0:0:0:0:
372,208,95123,1,2,0:0:0:0:
328,304,95337,2,0,P|271:330|208:324,1,105.000004005432,10|0,0:0|0:0,0:0:0:0:
144,272,95765,1,2,0:0:0:0:
184,176,95980,1,2,0:0:0:0:
248,260,96194,2,0,L|328:184,1,105.000004005432,10|0,0:0|0:0,0:0:0:0:
400,116,96623,5,0,0:0:0:0:
444,340,96837,1,0,0:0:0:0:
264,192,97051,1,10,0:0:0:0:
512,220,97265,1,2,0:0:0:0:
304,324,97480,1,2,0:0:0:0:
480,132,97694,1,2,0:0:0:0:
244,28,97908,2,0,P|220:32|152:80,1,105.000004005432,10|0,0:0|0:0,0:0:0:0:
96,252,98337,6,0,P|126:298|211:316,1,105.000004005432
276,324,98765,1,8,0:0:0:0:
228,232,98980,1,0,0:0:0:0:
332,232,99194,2,0,P|316:176|284:136,1,105.000004005432
376,96,99623,2,0,P|388:148|424:192,1,105.000004005432
428,292,100051,5,2,0:0:0:0:
492,208,100265,1,2,0:0:0:0:
468,104,100480,2,0,P|440:48|388:20,1,105.000004005432,10|0,0:0|0:0,0:0:0:0:
300,28,100908,1,2,0:0:0:0:
276,132,101123,1,2,0:0:0:0:
172,148,101337,2,0,P|144:204|144:264,1,105.000004005432,10|0,0:0|0:0,0:0:0:0:
164,348,101765,5,0,0:0:0:0:
392,220,101980,1,0,0:0:0:0:
164,80,102194,1,10,0:0:0:0:
304,312,102408,1,2,0:0:0:0:
80,176,102623,1,2,0:0:0:0:
316,64,102837,1,2,0:0:0:0:
236,336,103051,2,2,P|288:352|424:292,1,210.000008010865,10|2,0:0|0:0,0:0:0:0:
423,292,103694,5,0,0:0:0:0:
444,90,103908,1,8,0:0:0:0:
242,68,104122,1,0,0:0:0:0:
221,270,104337,1,0,0:0:0:0:
396,184,104551,1,0,0:0:0:0:
300,360,104765,2,0,P|256:352|208:328,1,70,10|0,0:0|0:0,0:0:0:0:
176,300,105194,5,0,0:0:0:0:
108,148,105408,1,2,0:0:0:0:
108,148,105837,1,2,0:0:0:0:
256,200,106051,6,0,L|280:156,1,35,10|0,0:0|0:0,0:0:0:0:
416,96,106265,2,0,L|392:140,1,35,10|0,0:0|0:0,0:0:0:0:
328,264,106480,5,8,0:0:0:0:
300,288,106587,1,0,0:0:0:0:
264,296,106694,2,0,P|240:296|216:280,1,35,2|0,0:0|0:0,0:0:0:0:
252,164,106908,1,8,0:0:0:0:
215,156,107015,1,0,0:0:0:0:
180,164,107123,1,0,0:0:0:0:
148,180,107230,2,0,P|132:188|112:212,1,35,2|0,0:0|0:0,0:0:0:0:
28,344,107551,5,8,0:0:0:0:
28,308,107658,1,0,0:0:0:0:
28,272,107765,2,0,L|28:216,1,35,2|0,0:0|0:0,0:0:0:0:
144,128,107980,2,0,L|144:93,1,35,10|0,0:0|0:0,0:0:0:0:
296,72,108194,1,8,0:0:0:0:
328,84,108301,1,0,0:0:0:0:
356,108,108408,1,0,0:0:0:0:
380,132,108515,2,0,P|392:148|408:192,1,35,2|8,0:0|0:0,0:0:0:0:
456,308,108837,5,0,0:0:0:0:
256,188,109051,1,0,0:0:0:0:
492,176,109265,1,0,0:0:0:0:
320,312,109480,1,8,0:0:0:0:
372,92,109694,1,0,0:0:0:0:
240,8,109908,6,0,P|200:16|168:44,1,70,2|0,0:0|0:0,0:0:0:0:
140,92,110337,1,8,0:0:0:0:
184,252,110551,1,2,0:0:0:0:
184,252,110980,1,2,0:0:0:0:
412,200,111194,6,0,L|376:196,1,35,10|0,0:0|0:0,0:0:0:0:
224,136,111408,2,0,L|260:132,1,35,10|0,0:0|0:0,0:0:0:0:
400,44,111623,5,8,0:0:0:0:
380,72,111730,1,0,0:0:0:0:
360,100,111837,2,0,L|324:148,1,35,2|0,0:0|0:0,0:0:0:0:
256,252,112051,1,8,0:0:0:0:
292,248,112158,1,0,0:0:0:0:
328,256,112265,1,0,0:0:0:0:
360,272,112373,2,0,P|376:280|404:312,1,35,2|0,0:0|0:0,0:0:0:0:
512,368,112694,5,8,0:0:0:0:
512,332,112801,1,0,0:0:0:0:
504,300,112908,2,0,P|500:276|488:256,1,35,2|0,0:0|0:0,0:0:0:0:
408,136,113123,2,0,L|384:168,1,35,10|0,0:0|0:0,0:0:0:0:
284,288,113337,1,8,0:0:0:0:
248,280,113444,1,0,0:0:0:0:
220,260,113551,1,0,0:0:0:0:
200,232,113658,2,0,P|188:212|188:184,1,35,2|8,0:0|0:0,0:0:0:0:
184,28,113980,5,0,0:0:0:0:
292,224,114194,2,0,P|332:216|356:192,1,70,2|0,0:0|0:0,0:0:0:0:
408,44,114623,5,8,0:0:0:0:
412,244,114837,1,0,0:0:0:0:
224,104,115051,2,0,P|184:112|160:136,1,70,2|0,0:0|0:0,0:0:0:0:
80,268,115480,5,8,0:0:0:0:
256,200,115694,1,2,0:0:0:0:
24,164,115908,2,0,P|65:183|109:177,1,70,0|2,0:0|0:0,0:0:0:0:
236,96,116337,5,8,0:0:0:0:
196,288,116551,1,0,0:0:0:0:
368,124,116765,2,0,L|332:188,1,70,2|0,0:0|0:0,0:0:0:0:
256,328,117194,5,8,0:0:0:0:
236,132,117408,1,0,0:0:0:0:
440,240,117623,2,0,P|456:216|456:148,1,70,2|0,0:0|0:0,0:0:0:0:
444,12,118051,5,8,0:0:0:0:
256,40,118265,1,0,0:0:0:0:
364,232,118480,2,0,P|352:256|308:276,1,70,2|0,0:0|0:0,0:0:0:0:
160,216,118908,5,8,0:0:0:0:
328,100,119123,1,0,0:0:0:0:
428,292,119337,2,0,P|404:324|359:343,1,70,2|0,0:0|0:0,0:0:0:0:
216,332,119765,5,8,0:0:0:0:
296,164,119980,1,0,0:0:0:0:
80,208,120194,2,0,P|60:172|76:120,1,70,2|0,0:0|0:0,0:0:0:0:
132,4,120623,5,8,0:0:0:0:
328,40,120837,1,2,0:0:0:0:
128,128,121051,2,0,P|158:144|192:151,1,70,0|2,0:0|0:0,0:0:0:0:
344,200,121480,5,8,0:0:0:0:
392,4,121694,1,0,0:0:0:0:
456,232,121908,2,0,P|456:260|416:292,1,70,2|0,0:0|0:0,0:0:0:0:
268,224,122337,5,8,0:0:0:0:
412,92,122551,1,0,0:0:0:0:
328,308,122765,2,0,P|304:324|244:304,1,70,2|0,0:0|0:0,0:0:0:0:
144,200,123194,5,8,0:0:0:0:
328,120,123408,1,0,0:0:0:0:
184,296,123623,2,0,P|155:297|113:250,1,70,2|0,0:0|0:0,0:0:0:0:
60,116,124051,5,8,0:0:0:0:
308,28,124265,1,0,0:0:0:0:
228,272,124480,1,0,0:0:0:0:
152,24,124694,1,0,0:0:0:0:
403,68,124908,1,8,0:0:0:0:
358,320,125123,1,0,0:0:0:0:
106,276,125337,6,0,B|79:242|79:242|96:184,1,83.9999974365235,2|0,0:0|0:0,0:0:0:0:
152,24,125765,1,8,0:0:0:0:
264,196,125980,1,2,0:0:0:0:
264,196,126408,1,2,0:0:0:0:
151,336,126623,5,8,0:0:0:0:
425,136,126837,1,0,0:0:0:0:
86,136,127051,1,0,0:0:0:0:
360,336,127265,1,0,0:0:0:0:
256,28,127480,1,8,0:0:0:0:
256,216,127694,1,0,0:0:0:0:
132,360,127908,6,0,P|108:348|76:288,1,83.9999974365235,2|0,0:0|0:0,0:0:0:0:
68,116,128337,1,8,0:0:0:0:
208,260,128551,1,2,0:0:0:0:
208,260,128980,1,2,0:0:0:0:
256,100,129194,5,8,0:0:0:0:
427,148,129408,1,0,0:0:0:0:
317,209,129623,1,0,0:0:0:0:
365,37,129837,1,0,0:0:0:0:
240,184,130051,1,8,0:0:0:0:
440,64,130265,1,0,0:0:0:0:
400,240,130480,6,0,P|388:272|360:296,1,56,2|0,0:0|0:0,0:0:0:0:
324,316,130908,1,8,0:0:0:0:
196,264,131123,1,2,0:0:0:0:
196,264,131551,1,2,0:0:0:0:
288,144,131765,2,0,L|264:184,1,28,10|0,0:0|0:0,0:0:0:0:
120,168,131980,2,0,L|105:143,1,28,10|0,0:0|0:0,0:0:0:0:
200,32,132194,5,8,0:0:0:0:
228,36,132301,1,0,0:0:0:0:
256,48,132408,2,0,P|280:66|280:88,1,28,2|0,0:0|0:0,0:0:0:0:
232,184,132623,1,8,0:0:0:0:
252,204,132730,1,0,0:0:0:0:
280,212,132837,1,0,0:0:0:0:
308,212,132944,2,0,P|324:212|344:204,1,28,2|0,0:0|0:0,0:0:0:0:
460,140,133265,5,8,0:0:0:0:
460,168,133373,1,0,0:0:0:0:
460,196,133480,2,0,L|460:240,1,28,2|0,0:0|0:0,0:0:0:0:
400,336,133694,2,0,L|368:304,1,28,10|0,0:0|0:0,0:0:0:0:
296,212,133908,1,8,0:0:0:0:
272,196,134016,1,0,0:0:0:0:
244,192,134123,1,0,0:0:0:0:
216,196,134230,2,0,P|192:204|180:220,1,28,2|8,0:0|0:0,0:0:0:0:
96,304,134551,5,0,0:0:0:0:
16,188,134765,1,0,0:0:0:0:
152,172,134980,1,0,0:0:0:0:
26,269,135194,1,8,0:0:0:0:
162,255,135408,1,0,0:0:0:0:
80,140,135623,6,0,P|92:108|120:88,1,56,2|0,0:0|0:0,0:0:0:0:
156,64,136051,1,8,0:0:0:0:
288,32,136265,1,2,0:0:0:0:
288,32,136694,1,2,0:0:0:0:
388,164,136908,6,0,L|368:192,1,28,10|0,0:0|0:0,0:0:0:0:
216,224,137123,2,0,L|236:252,1,28,10|0,0:0|0:0,0:0:0:0:
308,352,137337,5,8,0:0:0:0:
308,324,137444,1,0,0:0:0:0:
308,296,137551,2,0,L|308:256,1,28,2|0,0:0|0:0,0:0:0:0:
308,136,137765,1,8,0:0:0:0:
284,124,137873,1,0,0:0:0:0:
256,120,137980,1,0,0:0:0:0:
228,120,138087,2,0,P|208:124|188:136,1,28,2|0,0:0|0:0,0:0:0:0:
128,232,138408,5,8,0:0:0:0:
148,252,138515,1,0,0:0:0:0:
176,264,138623,2,0,P|193:267|220:264,1,28,2|0,0:0|0:0,0:0:0:0:
336,224,138837,2,0,L|316:200,1,28,10|0,0:0|0:0,0:0:0:0:
244,92,139051,1,8,0:0:0:0:
268,76,139158,1,0,0:0:0:0:
296,72,139266,1,0,0:0:0:0:
324,76,139373,2,0,B|348:76|364:96,1,28,2|8,0:0|0:0,0:0:0:0:
444,180,139694,5,0,0:0:0:0:
384,308,139908,1,0,0:0:0:0:
312,192,140123,1,0,0:0:0:0:
444,180,140337,1,8,0:0:0:0:
312,192,140551,1,0,0:0:0:0:
384,308,140765,6,0,P|360:336|328:344,1,56,2|0,0:0|0:0,0:0:0:0:
288,332,141194,1,8,0:0:0:0:
208,224,141408,1,2,0:0:0:0:
208,224,141837,1,2,0:0:0:0:
256,192,142051,12,0,144623,0:0:0:0:
