osu file format v14

[General]
AudioFilename: audio.mp3
AudioLeadIn: 0
PreviewTime: 62551
Countdown: 1
SampleSet: Soft
StackLeniency: 0.7
Mode: 0
LetterboxInBreaks: 0
WidescreenStoryboard: 1

[Editor]
DistanceSpacing: 1
BeatDivisor: 4
GridSize: 4
TimelineZoom: 1

[Metadata]
Title:Haunted Towers
TitleUnicode:Haunted Towers
Artist:Stewart Copeland
ArtistUnicode:Stewart Copeland
Creator:Neutral
Version:Easy
Source:Spyro The Dragon
Tags:Spyro Sony Insomniac Video Game OST
BeatmapID:1559594
BeatmapSetID:689294

[Difficulty]
HPDrainRate:2
CircleSize:3
OverallDifficulty:2
ApproachRate:2
SliderMultiplier:0.9
SliderTickRate:1

[Events]
//Background and Video events
0,0,"spyro.jpg",0,0
//Break Periods
2,44323,45777
2,49466,50491
2,106037,107491
2,111180,112205
2,131751,133205
2,136894,138348
//Storyboard Layer 0 (Background)
//Storyboard Layer 1 (Fail)
//Storyboard Layer 2 (Pass)
//Storyboard Layer 3 (Foreground)
//Storyboard Sound Samples

[TimingPoints]
623,428.571428571429,4,2,0,100,1,0
623,-111.111111111111,4,2,0,50,0,0
5337,-111.111111111111,4,2,0,70,0,0
10908,-100,4,1,0,55,0,0
21194,-100,4,1,0,60,0,0
31480,-100,4,1,0,65,0,1
41980,-111.111111111111,4,2,0,70,0,0
46480,-111.111111111111,4,2,0,40,0,0
47337,-111.111111111111,4,2,0,70,0,0
51408,-111.111111111111,4,2,0,40,0,0
52051,-100,4,2,0,75,0,0
62551,-100,4,2,0,80,0,0
67908,-100,4,1,0,55,0,0
93194,-100,4,1,0,60,0,1
103694,-111.111111111111,4,2,0,70,0,0
108194,-111.111111111111,4,2,0,40,0,0
109051,-111.111111111111,4,2,0,70,0,0
113123,-111.111111111111,4,2,0,40,0,0
113765,-100,4,2,0,75,0,0
124480,-100,4,2,0,80,0,0
129194,-111.111111111111,4,2,0,70,0,0
133908,-111.111111111111,4,2,0,40,0,0
134765,-111.111111111111,4,2,0,70,0,0
139051,-111.111111111111,4,2,0,40,0,0
139908,-111.111111111111,4,2,0,50,0,0
144623,-111.111111111111,4,2,0,5,0,0

[Colours]
Combo1 : 255,192,0
Combo2 : 0,0,255
Combo3 : 128,64,0
Combo4 : 170,85,255

[HitObjects]
428,132,623,6,0,P|404:96|280:56,1,161.999995056153,8|0,0:0|0:0,0:0:0:0:
216,48,1908,2,0,P|138:66|85:126,1,161.999995056153,2|0,0:0|0:0,0:0:0:0:
84,208,3194,2,0,P|137:267|214:286,1,161.999995056153
296,284,4480,2,0,P|373:265|426:205,1,161.999995056153,0|8,0:0|0:0,0:0:0:0:
420,124,5765,6,0,P|400:88|352:60,1,80.9999975280763,0|8,0:0|0:0,0:0:0:0:
336,140,6623,2,0,P|312:172|277:191,1,80.9999975280763,0|8,0:0|0:0,0:0:0:0:
228,128,7480,2,0,P|191:108|136:109,1,80.9999975280763,0|8,0:0|0:0,0:0:0:0:
96,160,8337,2,0,P|83:198|88:238,1,80.9999975280763,0|8,0:0|0:0,0:0:0:0:
140,300,9194,6,0,P|178:312|218:307,2,80.9999975280763,0|8|0,0:0|0:0|0:0,0:0:0:0:
80,244,10480,1,8,0:0:0:0:
156,196,10908,5,2,0:0:0:0:
108,120,11337,1,10,0:0:0:0:
184,72,11765,2,2,L|156:28,2,45,2|2|10,0:0|0:0|0:0,0:0:0:0:
240,144,12623,6,0,L|328:128,1,90,0|10,0:0|0:0,0:0:0:0:
412,164,13480,2,2,L|456:164,2,45,2|2|10,0:0|0:0|0:0,0:0:0:0:
352,232,14337,5,0,0:0:0:0:
284,288,14765,1,10,0:0:0:0:
196,264,15194,2,0,B|152:252|152:252|128:192,2,90,2|8|2,0:0|0:0|0:0,0:0:0:0:
216,176,16480,6,2,L|196:128,2,45,10|2|2,0:0|0:0|0:0,0:0:0:0:
296,216,17337,2,2,P|332:200|388:196,1,90,10|2,0:0|0:0,0:0:0:0:
444,260,18194,1,10,0:0:0:0:
356,288,18623,6,2,P|320:304|264:308,1,90,2|10,0:0|0:0,0:0:0:0:
180,304,19480,2,0,P|146:282|110:240,1,90,0|10,0:0|0:0,0:0:0:0:
152,164,20337,2,2,L|152:116,2,45,2|2|10,0:0|0:0|0:0,0:0:0:0:
216,228,21194,5,2,0:0:0:0:
280,168,21623,1,10,0:0:0:0:
344,108,22051,2,2,L|344:56,2,45,2|2|10,0:0|0:0|0:0,0:0:0:0:
368,196,22908,6,0,P|343:237|290:256,1,90,0|10,0:0|0:0,0:0:0:0:
232,208,23765,2,2,L|184:228,2,45,2|2|10,0:0|0:0|0:0,0:0:0:0:
280,132,24623,5,0,0:0:0:0:
208,76,25051,1,10,0:0:0:0:
148,144,25480,2,0,B|107:164|107:164|67:144,2,90,2|8|2,0:0|0:0|0:0,0:0:0:0:
224,192,26765,6,2,L|224:248,2,45,10|2|2,0:0|0:0|0:0,0:0:0:0:
292,132,27623,2,2,P|332:160|352:196,1,90,10|2,0:0|0:0,0:0:0:0:
300,268,28480,1,10,0:0:0:0:
224,320,28908,6,2,P|184:323|130:308,1,90,2|10,0:0|0:0,0:0:0:0:
132,220,29765,2,0,P|175:208|220:211,1,90,0|10,0:0|0:0,0:0:0:0:
292,264,30623,2,2,L|356:264,2,45,2|2|10,0:0|0:0|0:0,0:0:0:0:
292,172,31480,6,0,P|261:140|202:131,1,90,6|10,0:0|0:0,0:0:0:0:
136,96,32337,2,2,P|176:52|220:44,1,90,2|10,0:0|0:0,0:0:0:0:
292,44,33194,2,0,P|320:78|362:92,1,90,2|10,0:0|0:0,0:0:0:0:
416,164,34051,2,2,P|382:192|338:199,1,90,2|10,0:0|0:0,0:0:0:0:
248,184,34908,5,0,0:0:0:0:
160,160,35337,1,10,0:0:0:0:
216,88,35765,1,2,0:0:0:0:
132,56,36194,1,10,0:0:0:0:
76,128,36623,6,0,P|65:190|88:201,1,90,2|10,0:0|0:0,0:0:0:0:
168,208,37480,2,2,P|178:270|155:281,1,90,2|10,0:0|0:0,0:0:0:0:
76,288,38337,2,0,P|65:350|88:361,1,90,2|10,0:0|0:0,0:0:0:0:
168,360,39194,2,2,P|230:371|260:348,1,90,2|10,0:0|0:0,0:0:0:0:
332,320,40051,5,0,0:0:0:0:
412,276,40480,1,10,0:0:0:0:
356,208,40908,1,2,0:0:0:0:
444,192,41337,2,0,P|448:144|416:100,1,90,10|0,0:0|0:0,0:0:0:0:
348,124,42194,5,8,0:0:0:0:
288,72,42623,1,2,0:0:0:0:
272,152,43051,2,0,P|261:190|284:272,1,121.499996292114,10|2,0:0|0:0,0:0:0:0:
328,332,44123,1,2,0:0:0:0:
320,184,47337,5,8,0:0:0:0:
352,260,47765,1,2,0:0:0:0:
272,252,48194,2,0,P|228:235|176:184,1,121.499996292114,8|2,0:0|0:0,0:0:0:0:
136,112,49266,1,2,0:0:0:0:
244,152,52051,5,2,0:0:0:0:
312,212,52480,2,0,B|296:256|296:256|317:294,1,90,8|2,0:0|0:0,0:0:0:0:
392,248,53337,2,0,B|412:210|412:210|396:166,1,90,8|2,0:0|0:0,0:0:0:0:
320,124,54194,2,0,B|301:84|301:84|256:72,1,90,8|2,0:0|0:0,0:0:0:0:
168,72,55051,2,0,B|122:84|122:84|104:123,1,90,8|2,0:0|0:0,0:0:0:0:
188,156,55908,6,0,B|208:176|208:176|248:184|248:184|263:197,1,90,8|2,0:0|0:0,0:0:0:0:
264,288,56765,2,0,B|244:308|244:308|204:316|204:316|188:329,1,90,8|2,0:0|0:0,0:0:0:0:
97,330,57623,2,0,B|81:316|81:316|41:308|41:308|21:288,1,90,8|2,0:0|0:0,0:0:0:0:
22,198,58480,2,0,B|37:184|37:184|77:176|77:176|97:156,1,90,8|2,0:0|0:0,0:0:0:0:
164,96,59337,6,0,P|204:88|264:108,1,90,8|2,0:0|0:0,0:0:0:0:
244,188,60194,2,0,P|231:226|245:288,1,90,8|2,0:0|0:0,0:0:0:0:
320,236,61051,2,0,P|332:197|318:135,1,90,8|2,0:0|0:0,0:0:0:0:
300,64,61908,2,0,P|334:42|397:39,1,90,8|2,0:0|0:0,0:0:0:0:
444,104,62765,5,8,0:0:0:0:
476,188,63194,1,2,0:0:0:0:
432,268,63623,2,0,P|396:297|306:283,1,135,8|2,0:0|0:0,0:0:0:0:
256,208,64694,1,2,0:0:0:0:
188,92,65337,5,8,0:0:0:0:
104,60,65765,1,2,0:0:0:0:
36,120,66194,2,0,P|16:161|48:256,1,135,8|2,0:0|0:0,0:0:0:0:
92,316,67265,1,2,0:0:0:0:
212,256,67908,6,0,B|230:277|267:239|304:259,1,90,8|0,0:0|0:0,0:0:0:0:
272,344,68765,2,0,B|290:365|327:327|364:347,1,90,8|0,0:0|0:0,0:0:0:0:
424,284,69623,6,0,P|404:233|368:200,1,90,8|0,0:0|0:0,0:0:0:0:
308,156,70480,2,0,P|254:146|207:160,1,90,8|0,0:0|0:0,0:0:0:0:
212,244,71337,6,0,B|212:288|212:288|166:288,1,90,8|0,0:0|0:0,0:0:0:0:
76,288,72194,2,0,B|30:288|30:288|30:244,2,90,8|2|10,0:0|0:0|0:0,0:0:0:0:
120,208,73480,2,2,L|120:164,2,45,2|2|10,0:0|0:0|0:0,0:0:0:0:
164,284,74337,6,0,P|212:320|256:328,1,90,0|10,0:0|0:0,0:0:0:0:
332,324,75194,2,2,L|356:368,2,45,2|2|10,0:0|0:0|0:0,0:0:0:0:
288,244,76051,5,0,0:0:0:0:
380,244,76480,1,10,0:0:0:0:
455,297,76908,2,0,P|471:237|457:198,2,90,2|8|2,0:0|0:0|0:0,0:0:0:0:
372,332,78194,6,2,P|384:356|416:373,2,45,10|2|2,0:0|0:0|0:0,0:0:0:0:
284,339,79051,2,2,P|240:351|197:340,1,90,10|2,0:0|0:0,0:0:0:0:
144,268,79908,1,10,0:0:0:0:
196,196,80337,6,2,P|239:206|281:195,1,90,2|10,0:0|0:0,0:0:0:0:
284,104,81194,2,0,P|241:93|198:103,1,90,0|10,0:0|0:0,0:0:0:0:
108,84,82051,2,2,L|64:56,2,45,2|2|10,0:0|0:0|0:0,0:0:0:0:
136,168,82908,5,2,0:0:0:0:
196,236,83337,1,10,0:0:0:0:
256,304,83765,2,2,L|256:352,2,45,2|2|10,0:0|0:0|0:0,0:0:0:0:
316,236,84623,6,0,L|367:160,1,90,0|10,0:0|0:0,0:0:0:0:
416,88,85480,2,2,L|456:112,2,45,2|2|10,0:0|0:0|0:0,0:0:0:0:
336,48,86337,5,0,0:0:0:0:
280,120,86765,1,10,0:0:0:0:
192,104,87194,2,0,P|182:147|193:190,1,90,2|8,0:0|0:0,0:0:0:0:
248,264,88051,1,0,0:0:0:0:
308,196,88480,6,2,L|364:204,2,45,10|2|2,0:0|0:0|0:0,0:0:0:0:
264,116,89337,2,2,B|248:80|248:80|216:84|184:72,1,90,10|2,0:0|0:0,0:0:0:0:
108,80,90194,1,10,0:0:0:0:
60,156,90623,6,2,P|69:203|116:238,1,90,2|10,0:0|0:0,0:0:0:0:
172,280,91480,2,0,P|215:299|247:278,1,90,0|10,0:0|0:0,0:0:0:0:
260,188,92337,2,2,L|244:140,2,45,2|2|10,0:0|0:0|0:0,0:0:0:0:
336,240,93194,6,0,P|383:240|404:209,1,90,2|10,0:0|0:0,0:0:0:0:
400,120,94051,2,2,P|374:85|331:88,1,90,2|10,0:0|0:0,0:0:0:0:
280,164,94908,2,0,P|237:185|204:166,1,90,2|10,0:0|0:0,0:0:0:0:
164,84,95765,2,2,P|121:62|88:81,1,90,2|10,0:0|0:0,0:0:0:0:
60,168,96623,5,0,0:0:0:0:
40,256,97051,1,10,0:0:0:0:
108,316,97480,1,2,0:0:0:0:
176,256,97908,1,10,0:0:0:0:
244,316,98337,6,0,P|288:332|332:328,1,90,2|10,0:0|0:0,0:0:0:0:
412,292,99194,2,2,P|440:254|449:211,1,90,2|10,0:0|0:0,0:0:0:0:
412,132,100051,2,0,P|368:116|324:120,1,90,2|10,0:0|0:0,0:0:0:0:
244,156,100908,2,2,P|215:193|206:236,1,90,2|10,0:0|0:0,0:0:0:0:
288,268,101765,5,0,0:0:0:0:
344,200,102194,1,10,0:0:0:0:
388,280,102623,1,2,0:0:0:0:
324,340,103051,2,0,P|281:345|229:323,1,90,10|0,0:0|0:0,0:0:0:0:
172,280,103908,5,8,0:0:0:0:
208,208,104337,1,2,0:0:0:0:
284,184,104765,2,0,P|322:173|404:196,1,121.499996292114,10|2,0:0|0:0,0:0:0:0:
452,256,105837,1,2,0:0:0:0:
256,144,109051,5,8,0:0:0:0:
232,220,109479,1,2,0:0:0:0:
312,208,109908,2,0,P|356:191|408:140,1,121.499996292114,8|2,0:0|0:0,0:0:0:0:
456,72,110980,1,2,0:0:0:0:
280,176,113765,5,2,0:0:0:0:
196,144,114194,2,0,B|154:143|147:168|112:173,1,90,8|2,0:0|0:0,0:0:0:0:
60,248,115051,2,0,B|54:283|77:297|65:336,1,90,8|2,0:0|0:0,0:0:0:0:
156,336,115908,2,0,B|144:296|166:282|161:247,1,90,8|2,0:0|0:0,0:0:0:0:
248,232,116765,2,0,B|288:233|297:209|332:205,1,90,8|2,0:0|0:0,0:0:0:0:
355,119,117623,6,0,P|341:78|306:51,1,90,8|2,0:0|0:0,0:0:0:0:
216,52,118480,2,0,P|181:79|167:121,1,90,8|2,0:0|0:0,0:0:0:0:
168,212,119337,2,0,P|182:253|217:280,1,90,8|2,0:0|0:0,0:0:0:0:
318,280,120194,2,0,P|353:253|367:211,1,90,8|2,0:0|0:0,0:0:0:0:
368,120,121051,6,0,P|380:77|366:35,1,90,10|2,0:0|0:0,0:0:0:0:
276,35,121908,2,0,P|262:77|274:119,1,90,10|2,0:0|0:0,0:0:0:0:
276,211,122765,2,0,P|262:253|274:295,1,90,10|2,0:0|0:0,0:0:0:0:
364,295,123623,2,0,P|376:252|362:210,1,90,10|2,0:0|0:0,0:0:0:0:
412,136,124480,5,8,0:0:0:0:
380,52,124908,1,2,0:0:0:0:
328,124,125337,2,0,P|281:121|196:80,1,135,8|2,0:0|0:0,0:0:0:0:
144,16,126408,1,2,0:0:0:0:
64,124,127051,5,8,0:0:0:0:
108,204,127480,1,2,0:0:0:0:
40,264,127908,2,0,P|57:315|135:347,1,135,8|2,0:0|0:0,0:0:0:0:
216,336,128980,1,2,0:0:0:0:
292,240,129623,5,8,0:0:0:0:
232,184,130051,1,2,0:0:0:0:
260,108,130480,2,0,P|224:88|140:100,1,121.499996292114,8|2,0:0|0:0,0:0:0:0:
72,132,131551,1,2,0:0:0:0:
204,252,134765,5,8,0:0:0:0:
284,264,135194,1,2,0:0:0:0:
256,192,135623,2,0,P|287:167|368:144,1,121.499996292114,8|2,0:0|0:0,0:0:0:0:
444,140,136694,1,2,0:0:0:0:
180,176,139908,5,8,0:0:0:0:
136,244,140337,1,2,0:0:0:0:
216,252,140765,2,0,P|254:247|324:200,1,121.499996292114,8|2,0:0|0:0,0:0:0:0:
368,136,141837,1,2,0:0:0:0:
256,192,142480,12,0,144623,0:0:0:0:
