osu file format v14

[General]
AudioFilename: audio.mp3
AudioLeadIn: 0
PreviewTime: 130517
Countdown: 0
SampleSet: Normal
StackLeniency: 0.7
Mode: 0
LetterboxInBreaks: 0
WidescreenStoryboard: 1

[Editor]
DistanceSpacing: 0.9
BeatDivisor: 2
GridSize: 32
TimelineZoom: 1.1

[Metadata]
Title:Faith feat. Ariana Grande
TitleUnicode:Faith feat. Ariana Grande
Artist:Stevie Wonder
ArtistUnicode:Stevie Wonder
Creator:Asphyxia
Version:Normal
Source:
Tags:english pop lcfc LowComboFC Haruto haruto_aizawa
BeatmapID:2176094
BeatmapSetID:966422

[Difficulty]
HPDrainRate:3
CircleSize:3.5
OverallDifficulty:4
ApproachRate:5
SliderMultiplier:1.2
SliderTickRate:1

[Events]
//Background and Video events
0,0,"74502138_p0_master1200.jpg",0,0
//Break Periods
2,76654,78292
2,79692,84368
2,152413,154305
//Storyboard Layer 0 (Background)
//Storyboard Layer 1 (Fail)
//Storyboard Layer 2 (Pass)
//Storyboard Layer 3 (Foreground)
//Storyboard Layer 4 (Overlay)
//Storyboard Sound Samples

[TimingPoints]
505,379.746835443038,4,1,1,40,1,0
6201,-100,4,1,1,5,0,0
6580,-100,4,1,1,40,0,0
36960,-100,4,1,1,60,0,1
39998,-100,4,1,1,40,0,0
73416,-100,4,1,1,60,0,1
76454,-100,4,1,1,40,0,0
111580,-100,4,1,1,40,0,0
111960,-100,4,1,1,40,0,0
112340,-100,4,1,1,40,0,0
112910,-100,4,1,1,60,0,1
128099,-100,4,1,1,40,0,0
131137,-100,4,1,1,60,0,1
152403,-100,4,1,1,40,0,0
155505,-100,4,1,1,40,0,0
159478,379.746835443038,4,1,1,40,1,0

[Colours]
Combo1 : 128,255,255
Combo2 : 255,191,255
Combo3 : 128,255,128
Combo4 : 255,128,128
Combo5 : 255,255,128

[HitObjects]
155,231,6580,6,0,P|106:263|48:254,1,120,2|8,0:2|0:2,0:0:0:0:
30,147,7340,2,0,P|78:114|136:123,1,120,0|8,0:0|0:2,0:0:0:0:
186,154,7910,1,2,0:2:0:0:
186,154,8099,2,0,L|202:32,1,120,2|8,0:2|0:2,0:0:0:0:
301,77,8859,2,0,L|419:92,1,120,0|8,0:0|0:2,0:0:0:0:
473,102,9429,1,2,0:2:0:0:
473,102,9618,6,0,L|457:220,1,120,2|8,0:2|0:2,0:0:0:0:
488,324,10378,2,0,P|440:357|382:348,1,120,0|8,0:0|0:2,0:0:0:0:
341,311,10948,1,2,0:2:0:0:
341,311,11137,2,0,L|222:326,1,120,2|8,0:2|0:2,0:0:0:0:
168,232,11897,2,0,L|286:216,1,120,0|8,0:0|0:2,0:0:0:0:
340,210,12467,1,2,0:2:0:0:
340,210,12656,6,0,P|349:152|316:103,1,120,2|8,0:2|0:2,0:0:0:0:
248,18,13416,2,0,P|222:70|167:91,1,120,0|8,0:0|0:2,0:0:0:0:
117,72,13986,1,2,0:2:0:0:
117,72,14175,2,0,L|140:198,1,120,2|8,0:2|0:2,0:0:0:0:
33,217,14935,2,0,L|10:343,1,120,0|8,0:0|0:2,0:0:0:0:
52,370,15505,1,2,0:2:0:0:
52,370,15694,5,2,0:2:0:0:
134,300,16074,1,8,0:2:0:0:
218,367,16454,1,0,0:0:0:0:
300,297,16834,2,0,L|371:309,1,60,8|2,0:2|0:2,0:0:0:0:
412,318,17213,2,0,L|379:118,1,180,2|2,0:2|0:2,0:0:0:0:
401,89,17973,2,0,P|343:55|294:69,2,120,0|8|2,0:0|0:2|0:2,0:0:0:0:
499,44,19112,5,8,0:2:0:0:
484,151,19492,2,0,L|468:269,1,120,2|8,0:2|0:2,0:0:0:0:
448,376,20251,1,2,0:2:0:0:
364,307,20631,1,8,0:2:0:0:
467,269,21011,2,0,L|480:166,1,60,2|0,0:2|0:0,0:0:0:0:
431,175,21391,2,0,L|445:72,1,60,8|0,0:2|0:0,0:0:0:0:
287,58,22150,5,8,0:2:0:0:
71,36,22910,1,8,0:2:0:0:
20,190,23479,2,0,P|158:211|392:248,1,360,4|4,3:2|3:2,0:0:0:0:
409,203,24808,6,0,L|428:324,1,120,4|12,3:2|0:2,0:0:0:0:
438,374,25378,1,2,0:2:0:0:
330,359,25758,2,0,L|311:240,1,120,0|0,3:0|3:0,0:0:0:0:
258,250,26327,2,0,L|267:190,1,60,0|0,3:0|0:0,0:0:0:0:
278,137,26707,1,12,0:2:0:0:
119,101,27277,2,0,L|128:160,2,60,2|8|2,0:2|0:2|0:2,0:0:0:0:
141,51,27846,6,0,P|95:17|37:28,1,120,0|8,0:0|0:2,0:0:0:0:
7,74,28416,1,2,0:2:0:0:
34,178,28796,2,0,L|14:303,1,120,0|0,3:0|3:0,0:0:0:0:
5,349,29365,2,0,P|51:315|109:326,1,120,0|8,3:0|0:2,0:0:0:0:
154,356,29935,1,0,0:0:0:0:
154,356,30125,2,0,L|272:337,1,120,0|8,0:0|0:2,0:0:0:0:
318,365,30694,1,0,0:0:0:0:
318,365,30884,6,0,L|436:383,1,120,0|10,0:0|0:2,0:0:0:0:
484,356,31454,1,2,0:2:0:0:
484,356,31644,2,0,P|514:310|494:239,1,120,0|8,0:0|0:2,0:0:0:0:
411,190,32403,2,0,P|381:236|401:307,1,120,0|12,3:0|0:2,0:0:0:0:
190,220,33542,2,0,L|177:142,1,60,8|0,0:2|0:0,0:0:0:0:
168,107,33922,6,0,L|299:126,1,120,0|8,0:0|0:2,0:0:0:0:
361,46,34682,2,0,L|242:28,1,120,0|8,0:0|0:2,0:0:0:0:
135,13,35441,2,0,P|69:4|27:45,1,120,0|8,3:0|0:2,0:0:0:0:
23,91,36011,1,0,0:0:0:0:
23,91,36201,2,0,L|42:222,1,120,0|8,0:0|0:2,0:0:0:0:
52,262,36770,1,0,0:0:0:0:
52,262,36960,6,0,P|117:270|159:229,1,120,4|8,3:2|0:0,0:0:0:0:
164,183,37530,1,0,0:0:0:0:
268,210,37910,2,0,L|387:194,1,120,0|0,3:0|0:0,0:0:0:0:
428,229,38479,2,0,P|463:182|453:125,1,120,0|8,3:0|0:0,0:0:0:0:
437,73,39049,2,0,L|317:88,1,120
275,54,39618,1,8,0:0:0:0:
182,110,39998,5,0,0:0:0:0:
182,110,41517,1,4,3:2:0:0:
287,133,41897,2,0,L|297:206,1,60,8|4,0:2|3:2,0:0:0:0:
305,245,42277,1,8,0:2:0:0:
412,245,42656,2,0,L|402:318,1,60,8|4,0:2|3:2,0:0:0:0:
400,358,43036,6,0,P|456:366|509:332,1,120,0|8,3:0|0:2,0:0:0:0:
490,226,43796,2,0,L|507:108,1,120,0|8,0:0|0:2,0:0:0:0:
454,12,44555,2,0,P|398:4|345:38,1,120,2|8,3:2|0:2,0:0:0:0:
327,87,45125,1,2,0:2:0:0:
327,87,45315,2,0,L|209:104,1,120,0|8,0:0|0:2,0:0:0:0:
155,115,45884,1,2,0:2:0:0:
155,115,46074,5,2,3:2:0:0:
114,14,46454,1,8,0:2:0:0:
20,67,46834,1,0,0:0:0:0:
59,167,47213,2,0,L|48:239,1,60,8|2,0:2|3:2,0:0:0:0:
36,278,47593,2,0,P|93:247|155:259,1,120,2|8,3:2|0:2,0:0:0:0:
229,323,48353,2,0,P|286:354|348:342,1,120,0|8,0:0|0:2,0:0:0:0:
304,244,49112,5,2,3:2:0:0:
230,165,49492,2,0,P|281:135|340:142,1,120,8|0,0:2|0:0,0:0:0:0:
442,110,50251,2,0,L|451:169,1,60,8|2,0:2|3:2,0:0:0:0:
501,189,50631,2,0,L|482:320,1,120,2|8,3:2|0:2,0:0:0:0:
385,352,51391,1,0,0:0:0:0:
290,299,51770,2,0,L|231:308,1,60,8|2,0:2|0:2,0:0:0:0:
177,317,52150,5,2,3:2:0:0:
73,346,52530,2,0,L|82:287,1,60,8|2,0:2|3:2,0:0:0:0:
93,233,52910,1,0,0:0:0:0:
184,175,53289,2,0,L|175:116,1,60,8|2,0:2|3:2,0:0:0:0:
167,61,53669,1,2,3:2:0:0:
270,29,54049,1,8,0:2:0:0:
365,79,54429,1,0,0:0:0:0:
465,41,54808,2,0,L|456:100,1,60,8|2,0:2|0:2,0:0:0:0:
452,154,55188,6,0,P|475:210|454:265,1,120,2|8,3:2|0:2,0:0:0:0:
413,297,55758,1,2,0:2:0:0:
413,297,55948,2,0,L|295:280,1,120,0|8,0:0|0:2,0:0:0:0:
190,310,56707,2,0,P|170:254|193:200,1,120,2|8,3:2|0:2,0:0:0:0:
239,171,57277,1,2,0:2:0:0:
239,171,57467,2,0,L|357:188,1,120,0|8,0:0|0:2,0:0:0:0:
455,141,58226,5,4,3:2:0:0:
455,141,59745,1,0,3:0:0:0:
455,141,59935,2,0,L|477:22,1,120,4|4,3:2|3:2,0:0:0:0:
369,33,60694,2,0,L|279:45,1,60,4|8,3:2|0:2,0:0:0:0:
256,51,61074,1,4,3:2:0:0:
256,51,61264,5,4,3:2:0:0:
230,156,61644,2,0,P|171:160|127:123,1,120,12|0,0:2|0:0,0:0:0:0:
30,73,62403,2,0,L|22:132,1,60,8|0,0:2|3:0,0:0:0:0:
38,184,62783,2,0,L|30:243,1,60,0|0,3:0|0:0,0:0:0:0:
46,295,63163,1,12,0:2:0:0:
205,321,63732,2,0,L|264:329,2,60,2|8|2,0:2|0:2|0:2,0:0:0:0:
151,312,64302,6,0,P|125:273|156:191,1,120,0|12,3:0|0:2,0:0:0:0:
184,173,64872,1,2,0:2:0:0:
281,219,65251,2,0,L|418:237,1,120,0|0,3:0|3:0,0:0:0:0:
450,253,65821,2,0,P|476:214|445:132,1,120,0|8,3:0|0:2,0:0:0:0:
411,122,66391,1,0,0:0:0:0:
411,122,66580,2,0,L|292:106,1,120,0|8,0:0|0:2,0:0:0:0:
289,56,67150,1,0,0:0:0:0:
289,56,67340,6,0,L|170:71,1,120,0|8,3:0|0:2,0:0:0:0:
115,75,67910,1,2,0:2:0:0:
115,75,68099,2,0,P|97:130|125:181,1,120,0|8,0:0|0:2,0:0:0:0:
135,289,68859,2,0,P|191:276|222:226,1,120,0|8,3:0|0:2,0:0:0:0:
358,58,69998,2,0,L|417:68,1,60,8|2,0:2|0:2,0:0:0:0:
459,34,70378,6,0,L|478:165,1,120,0|8,3:0|0:2,0:0:0:0:
370,174,71137,2,0,L|352:292,1,120,0|8,0:0|0:2,0:0:0:0:
379,339,71707,1,2,3:2:0:0:
379,339,71897,2,0,P|322:364|241:354,1,120,2|8,3:2|0:2,0:0:0:0:
239,314,72467,1,2,0:2:0:0:
239,314,72656,2,0,P|179:315|125:290,1,120,0|8,0:0|0:2,0:0:0:0:
76,313,73226,1,0,3:0:0:0:
76,313,73416,6,0,L|56:179,1,120,4|8,3:2|0:0,0:0:0:0:
48,140,73986,1,0,0:0:0:0:
95,43,74365,2,0,L|35:33,2,60,0|8|0,3:0|0:0|0:0,0:0:0:0:
148,50,74935,2,0,P|207:51|261:26,1,120,0|8,3:0|0:0,0:0:0:0:
357,75,75694,2,0,P|416:74|470:99,1,120,0|8,0:0|0:0,0:0:0:0:
395,178,76454,5,0,3:0:0:0:
395,178,79492,5,4,3:2:0:0:
0,21,85568,6,0,P|111:36|367:68,1,360,4|8,3:2|0:2,0:0:0:0:
464,80,87087,1,0,3:0:0:0:
319,152,87656,2,0,L|328:211,1,60,0|2,3:0|0:2,0:0:0:0:
386,214,88036,1,2,0:2:0:0:
386,214,88226,2,0,L|376:276,1,60,8|0,0:2|0:0,0:0:0:0:
419,306,88606,6,0,P|340:316|158:339,1,240,2|0,3:2|0:0,0:0:0:0:
73,343,89745,1,8,0:2:0:0:
128,250,90125,1,0,3:0:0:0:
28,122,90694,2,0,L|37:59,1,60,0|2,3:0|0:2,0:0:0:0:
45,8,91074,1,2,0:2:0:0:
45,8,91264,1,8,0:2:0:0:
139,60,91644,6,0,L|262:41,1,120,6|10,3:2|0:2,0:0:0:0:
301,73,92213,1,0,3:0:0:0:
301,73,92403,2,0,L|419:91,1,120,0|8,0:0|0:2,0:0:0:0:
466,64,92973,1,2,3:2:0:0:
466,64,93163,2,0,L|480:145,1,60,0|2,3:0|0:2,0:0:0:0:
387,185,93732,2,0,L|373:266,1,60,0|2,3:0|0:2,0:0:0:0:
402,292,94112,1,2,0:2:0:0:
402,292,94302,2,0,L|416:373,1,60,10|0,0:2|0:0,0:0:0:0:
365,378,94682,5,2,3:2:0:0:
283,318,95061,2,0,L|223:328,1,60,8|0,0:2|3:0,0:0:0:0:
187,368,95441,2,0,L|127:357,1,60,0|2,0:0|3:2,0:0:0:0:
99,310,95821,2,0,L|39:320,1,60,8|2,0:2|3:2,0:0:0:0:
0,357,96201,2,0,L|22:222,1,120,0|10,3:0|0:2,0:0:0:0:
66,212,96770,2,0,P|36:161|45:92,1,120,0|2,3:0|0:2,0:0:0:0:
73,59,97340,1,10,0:2:0:0:
180,46,97720,6,0,L|308:63,1,120,4|10,3:2|0:2,0:0:0:0:
345,159,98479,2,0,L|226:143,1,120,2|8,0:2|0:2,0:0:0:0:
117,148,99239,2,0,P|133:229|143:346,2,180,0|0|10,3:0|3:0|0:2,0:0:0:0:
226,143,100758,6,0,P|277:176|360:158,1,120,4|10,3:2|0:2,0:0:0:0:
403,89,101517,2,0,P|461:86|511:118,1,120,0|8,0:0|0:2,0:0:0:0:
431,195,102277,2,0,P|415:276|405:393,2,180,0|0|8,3:0|3:0|0:2,0:0:0:0:
323,187,103796,6,0,P|327:124|293:74,1,120,2|10,3:2|0:2,0:0:0:0:
190,62,104555,1,0,0:0:0:0:
184,169,104935,2,0,P|131:237|104:81,1,360,8|2,0:2|0:2,0:0:0:0:
190,62,106454,1,8,0:2:0:0:
279,122,106834,6,0,L|410:148,1,120,2|10,3:2|0:2,0:0:0:0:
432,43,107593,2,0,B|371:128|431:238|491:175|548:284|487:365,1,360,2|10,0:2|0:2,0:0:0:0:
403,296,109112,2,0,L|343:283,1,60,2|2,0:2|3:2,0:0:0:0:
309,324,109492,1,10,0:2:0:0:
270,222,109872,5,0,0:0:0:0:
270,222,111580,2,0,P|296:170|285:96,1,120,4|4,3:2|3:2,0:0:0:0:
187,148,112340,2,0,L|128:159,1,60,4|4,3:2|0:2,0:0:0:0:
74,170,112720,1,4,3:2:0:0:
74,170,112910,6,0,P|68:110|95:57,1,120,6|8,3:2|0:0,0:0:0:0:
144,35,113479,1,2,0:2:0:0:
247,64,113859,2,0,L|365:81,1,120,0|0,3:0|3:0,0:0:0:0:
417,63,114429,2,0,L|431:152,1,60,2|0,3:2|0:0,0:0:0:0:
504,197,114998,2,0,L|494:256,2,60,2|0|0,0:2|0:0|3:0,0:0:0:0:
509,142,115568,1,8,0:0:0:0:
496,34,115948,6,0,P|436:37|388:71,1,120,2|8,3:2|0:0,0:0:0:0:
368,122,116517,1,2,0:2:0:0:
403,224,116897,2,0,L|285:207,1,120,0|0,3:0|3:0,0:0:0:0:
292,260,117467,2,0,L|174:277,1,120,0|8,3:0|0:0,0:0:0:0:
119,284,118036,1,0,0:0:0:0:
119,284,118226,2,0,P|88:213|125:168,1,120,0|8,0:0|0:0,0:0:0:0:
149,148,118796,1,2,0:2:0:0:
149,148,118986,6,0,P|181:99|162:45,1,120,2|8,3:2|0:0,0:0:0:0:
113,20,119555,1,2,0:2:0:0:
113,20,119745,2,0,L|26:34,1,60,0|0,0:0|3:0,0:0:0:0:
1,44,120125,1,8,0:0:0:0:
87,108,120505,1,0,3:0:0:0:
7,180,120884,1,8,0:0:0:0:
7,180,121644,2,0,L|-8:251,1,60,8|0,0:0|0:0,0:0:0:0:
3,292,122023,6,0,P|57:306|117:270,1,120,2|8,3:2|0:0,0:0:0:0:
134,228,122593,1,2,0:2:0:0:
134,228,122783,2,0,P|191:214|242:242,1,120,0|8,0:0|0:0,0:0:0:0:
300,334,123542,2,0,P|357:347|408:319,1,120,2|8,3:2|0:0,0:0:0:0:
443,277,124112,1,0,0:0:0:0:
443,277,124302,2,0,L|464:135,1,120,2|8,0:2|0:0,0:0:0:0:
469,104,124872,1,0,0:0:0:0:
469,104,125061,6,0,B|410:74|333:95|375:138|300:160|245:134,1,240,2|0,3:2|0:0,0:0:0:0:
198,162,126011,2,0,P|179:91|65:79,1,180,2|2,3:2|3:2,0:0:0:0:
11,148,126960,1,8,0:0:0:0:
92,219,127340,2,0,L|104:285,1,60,0|0,0:0|3:0,0:0:0:0:
81,328,127720,2,0,L|140:338,1,60,8|0,0:0|0:0,0:0:0:0:
192,351,128099,5,2,3:2:0:0:
192,351,129618,2,0,L|334:375,1,120,4|8,3:2|0:2,0:0:0:0:
360,349,130188,1,4,3:2:0:0:
360,349,130378,2,0,L|347:269,1,60,8|6,0:2|3:2,0:0:0:0:
312,251,130758,2,0,L|325:171,1,60,10|4,0:2|3:2,0:0:0:0:
300,142,131137,6,0,P|342:104|405:109,1,120,6|8,3:2|0:0,0:0:0:0:
446,138,131707,1,2,0:2:0:0:
461,245,132087,2,0,P|417:283|358:279,1,120,2|2,3:2|3:2,0:0:0:0:
310,254,132656,2,0,L|296:329,1,60,2|2,3:2|0:2,0:0:0:0:
245,319,133036,1,8,0:0:0:0:
245,319,133226,2,0,L|231:394,2,60,2|0|2,0:2|0:0|3:2,0:0:0:0:
203,284,133796,1,8,0:0:0:0:
235,181,134175,6,0,P|177:177|126:207,1,120,2|8,3:2|0:0,0:0:0:0:
97,254,134745,1,2,0:2:0:0:
27,171,135125,2,0,L|16:38,1,120,2|2,3:2|3:2,0:0:0:0:
42,3,135694,2,0,P|100:0|151:29,1,120,2|8,3:2|0:0,0:0:0:0:
166,81,136264,1,2,0:2:0:0:
166,81,136454,2,0,P|216:50|275:54,1,120,0|8,0:0|0:0,0:0:0:0:
318,86,137023,1,2,0:2:0:0:
318,86,137213,6,0,L|446:72,1,120,2|8,3:2|0:0,0:0:0:0:
383,166,137973,2,0,L|263:179,1,120,0|8,0:0|0:0,0:0:0:0:
185,253,138732,2,0,P|247:285|331:262,1,120,2|8,3:2|0:0,0:0:0:0:
343,255,139302,1,2,0:2:0:0:
437,308,139682,2,0,L|430:370,2,60,2|8|2,3:2|0:0|0:2,0:0:0:0:
491,307,140251,6,0,L|476:183,1,120,2|8,3:2|0:0,0:0:0:0:
469,133,140821,1,2,0:2:0:0:
469,133,141011,2,0,P|428:91|369:92,1,120,0|8,0:0|0:0,0:0:0:0:
295,169,141770,2,0,P|254:210|195:210,1,120,2|8,3:2|0:0,0:0:0:0:
151,238,142340,1,2,0:2:0:0:
151,238,142530,2,0,L|136:114,1,120,0|8,0:0|0:0,0:0:0:0:
153,67,143099,1,0,0:0:0:0:
153,67,143289,6,0,P|94:66|53:108,1,120,6|8,3:2|0:0,0:0:0:0:
36,159,143859,1,0,0:0:0:0:
116,231,144239,2,0,P|174:231|215:189,1,120,2|0,3:2|0:0,0:0:0:0:
237,140,144808,2,0,L|254:263,1,120,2|8,3:2|0:0,0:0:0:0:
264,312,145378,1,2,0:2:0:0:
370,292,145758,2,0,L|454:303,1,60,0|8,3:0|0:0,0:0:0:0:
483,303,146137,1,0,0:0:0:0:
483,303,146327,6,0,P|469:221|442:56,1,240,6|2,3:2|0:2,0:0:0:0:
438,12,147277,2,0,P|384:4|318:49,1,120,2|0,3:2|0:0,0:0:0:0:
310,85,147846,1,2,3:2:0:0:
209,44,148226,1,8,0:0:0:0:
223,151,148606,2,0,L|206:217,1,60,0|2,0:0|3:2,0:0:0:0:
156,226,148986,2,0,L|173:292,1,60,8|0,0:0|0:0,0:0:0:0:
161,337,149365,6,0,L|306:356,1,120,6|8,3:2|0:0,0:0:0:0:
332,366,149935,1,2,0:2:0:0:
439,377,150315,2,0,L|454:258,1,120,2|0,3:2|0:0,0:0:0:0:
489,216,150884,2,0,P|456:167|389:161,1,120,2|8,3:2|0:0,0:0:0:0:
362,198,151454,1,0,0:0:0:0:
263,153,151834,2,0,L|256:80,1,60,2|8,3:2|0:0,0:0:0:0:
252,39,152213,1,2,3:2:0:0:
256,192,155505,12,0,159604,0:0:0:0:
