osu file format v14

[General]
AudioFilename: audio.mp3
AudioLeadIn: 0
PreviewTime: 130517
Countdown: 0
SampleSet: Normal
StackLeniency: 0.7
Mode: 0
LetterboxInBreaks: 0
WidescreenStoryboard: 1

[Editor]
Bookmarks: 76454,85568
DistanceSpacing: 1.1
BeatDivisor: 6
GridSize: 8
TimelineZoom: 1.9

[Metadata]
Title:Faith feat. Ariana Grande
TitleUnicode:Faith feat. Ariana Grande
Artist:Stevie Wonder
ArtistUnicode:Stevie Wonder
Creator:Asphyxia
Version:LCFC's Hard
Source:
Tags:english pop lcfc LowComboFC Haruto haruto_aizawa
BeatmapID:2124409
BeatmapSetID:966422

[Difficulty]
HPDrainRate:5
CircleSize:4
OverallDifficulty:6
ApproachRate:7.5
SliderMultiplier:1.4
SliderTickRate:1

[Events]
//Background and Video events
0,0,"74502138_p0_master1200.jpg",0,0
//Break Periods
2,79691,84743
//Storyboard Layer 0 (Background)
//Storyboard Layer 1 (Fail)
//Storyboard Layer 2 (Pass)
//Storyboard Layer 3 (Foreground)
//Storyboard Layer 4 (Overlay)
//Storyboard Sound Samples

[TimingPoints]
505,379.746835443038,4,1,1,40,1,0
6201,-100,4,1,1,5,0,0
6580,-100,4,1,1,40,0,0
23859,-80,4,1,1,40,0,0
24239,-66.6666666666667,4,1,1,40,0,0
24808,-100,4,1,1,40,0,0
36960,-80,4,1,1,60,0,1
39998,-100,4,1,1,40,0,0
60315,-80,4,1,1,40,0,0
60694,-66.6666666666667,4,1,1,40,0,0
61264,-100,4,1,1,40,0,0
73416,-80,4,1,1,60,0,1
76454,-100,4,1,1,40,0,0
111580,-100,4,1,1,40,0,0
111960,-80,4,1,1,40,0,0
112340,-66.6666666666667,4,1,1,40,0,0
112910,-100,4,1,1,60,0,1
125061,-80,4,1,1,60,0,1
128099,-100,4,1,1,40,0,0
131137,-100,4,1,1,60,0,1
143289,-80,4,1,1,60,0,1
152403,-100,4,1,1,40,0,0
155505,-100,4,1,1,40,0,0
159478,379.746835443038,4,1,1,40,1,0

[Colours]
Combo1 : 128,255,255
Combo2 : 255,191,255
Combo3 : 128,255,128
Combo4 : 255,128,128
Combo5 : 255,255,128

[HitObjects]
10,76,6960,5,8,0:2:0:0:
10,76,7150,1,2,0:2:0:0:
64,130,7340,2,0,P|132:114|201:102,1,140,0|8,0:0|0:2,0:0:0:0:
267,142,7910,1,2,0:2:0:0:
319,86,8099,2,0,L|339:6,2,70,2|0|8,0:2|0:0|0:2,0:0:0:0:
345,158,8669,1,2,0:2:0:0:
411,196,8859,1,0,0:0:0:0:
306,309,9239,1,8,0:2:0:0:
79,265,9808,5,0,0:0:0:0:
143,222,9998,2,0,P|183:211|219:205,1,70,8|2,0:2|0:2,0:0:0:0:
252,141,10378,2,0,P|320:141|356:197,1,140,0|8,0:0|0:2,0:0:0:0:
314,262,10948,1,2,0:2:0:0:
344,332,11137,2,0,P|377:334|417:342,2,70,2|0|8,0:2|0:0|0:2,0:0:0:0:
278,373,11707,1,2,0:2:0:0:
226,315,11897,1,0,0:0:0:0:
149,318,12087,1,2,0:2:0:0:
149,318,12277,2,0,L|57:352,1,70,8|2,0:2|0:2,0:0:0:0:
241,173,13036,6,0,P|211:169|171:150,1,70,8|2,0:2|0:2,0:0:0:0:
132,87,13416,1,0,0:0:0:0:
209,86,13606,2,0,P|239:82|279:63,1,70,2|8,0:2|0:2,0:0:0:0:
327,8,13986,1,2,0:2:0:0:
384,59,14175,2,0,L|399:156,1,70,2|0,0:2|0:0,0:0:0:0:
348,190,14555,2,0,L|333:287,1,70,8|2,0:2|0:2,0:0:0:0:
373,327,14935,1,0,0:0:0:0:
222,293,15315,1,8,0:2:0:0:
197,366,15505,1,2,0:2:0:0:
71,276,15884,5,0,0:0:0:0:
23,215,16074,2,0,L|12:139,1,70,8|2,0:2|0:2,0:0:0:0:
47,76,16454,1,0,0:0:0:0:
47,76,16644,1,2,0:2:0:0:
106,125,16834,2,0,P|140:142|180:137,1,70,8|2,0:2|0:2,0:0:0:0:
235,98,17213,2,0,L|225:14,2,70,2|0|8,0:2|0:0|0:2,0:0:0:0:
289,152,17783,1,2,0:2:0:0:
365,160,17973,1,0,0:0:0:0:
430,118,18163,2,0,L|442:46,1,70,2|8,0:2|0:2,0:0:0:0:
483,28,18479,6,0,L|466:119,1,93.3333333333333
426,268,19112,1,8,0:2:0:0:
355,236,19302,1,2,0:2:0:0:
278,239,19492,2,0,P|264:185|273:83,1,140,2|8,0:2|0:2,0:0:0:0:
104,86,20251,1,2,0:2:0:0:
62,151,20441,1,0,0:0:0:0:
112,210,20631,2,0,P|144:195|194:190,2,70,8|2|2,0:2|0:2|0:2,0:0:0:0:
83,282,21201,1,0,0:0:0:0:
18,323,21391,1,8,0:2:0:0:
18,323,21580,1,0,0:0:0:0:
256,352,22150,5,8,0:2:0:0:
256,256,22910,1,8,0:2:0:0:
256,160,23479,6,0,P|225:174|182:187,1,70,4|8,3:2|0:2,0:0:0:0:
255,255,23859,6,0,P|296:271|339:279,1,87.5,4|0,3:2|0:0,0:0:0:0:
256,352,24239,5,4,3:2:0:0:
256,352,24429,2,0,P|225:366|157:383,1,105.000004005432,8|4,0:2|3:2,0:0:0:0:
98,332,24808,6,0,P|116:299|33:265,1,140,4|12,3:2|0:2,0:0:0:0:
3,318,25378,1,2,0:2:0:0:
141,250,25758,2,0,L|285:270,1,140,0|0,3:0|3:0,0:0:0:0:
349,236,26327,1,0,3:0:0:0:
349,236,26517,1,0,0:0:0:0:
333,158,26707,2,0,L|189:178,1,140,12|0,0:2|0:0,0:0:0:0:
148,114,27277,1,2,0:2:0:0:
194,52,27467,1,8,0:2:0:0:
194,52,27561,2,0,P|228:56|261:68,1,70
300,70,27846,6,0,P|338:117|415:115,1,140,0|8,0:0|0:2,0:0:0:0:
464,58,28416,1,2,0:2:0:0:
406,200,28796,2,0,P|398:246|413:341,1,140,0|0,3:0|3:0,0:0:0:0:
343,372,29365,2,0,L|252:356,1,70,0|0,3:0|0:0,0:0:0:0:
242,288,29745,2,0,L|173:300,1,70,8|0,0:2|0:0,0:0:0:0:
141,372,30125,2,0,L|72:359,1,70
29,295,30505,1,8,0:2:0:0:
75,234,30694,1,0,0:0:0:0:
150,219,30884,6,0,P|214:206|219:140,1,140,0|10,0:0|0:2,0:0:0:0:
165,86,31454,1,2,0:2:0:0:
165,86,31644,2,0,P|155:46|150:5,1,70,0|0,0:0|3:0,0:0:0:0:
84,55,32023,2,0,P|78:89|70:123,1,70,8|0,0:2|3:0,0:0:0:0:
10,172,32403,1,0,3:0:0:0:
10,172,32593,1,0,0:0:0:0:
67,222,32783,2,0,B|113:210|113:210|139:183|139:183|192:169,1,140,12|0,0:2|0:0,0:0:0:0:
266,189,33353,1,0,0:0:0:0:
266,189,33542,1,8,0:2:0:0:
317,246,33732,6,0,P|306:304|286:390,1,140
364,375,34302,2,0,P|397:357|437:351,1,70,8|2,0:2|0:2,0:0:0:0:
459,279,34682,2,0,P|424:272|394:255,1,70,0|0,0:0|3:0,0:0:0:0:
366,183,35061,1,8,0:2:0:0:
366,183,35251,1,0,3:0:0:0:
423,131,35441,2,0,L|437:58,1,70,0|0,3:0|0:0,0:0:0:0:
359,70,35821,2,0,L|345:-3,1,70,8|0,0:2|0:0,0:0:0:0:
278,39,36201,1,0,0:0:0:0:
278,39,36391,1,0,0:0:0:0:
294,113,36580,2,0,L|280:181,1,70,8|0,0:2|0:0,0:0:0:0:
289,260,36960,6,0,P|359:282|354:208,1,175,4|8,3:2|0:0,0:0:0:0:
127,142,37910,1,0,3:0:0:0:
101,216,38099,1,8,0:0:0:0:
101,216,38194,2,0,P|106:256|159:266,1,87.5,0|0,3:0|0:0,0:0:0:0:
174,298,38479,2,0,P|200:214|204:127,1,175,0|8,3:0|0:0,0:0:0:0:
148,71,39049,1,0,0:0:0:0:
282,153,39429,1,0,0:0:0:0:
358,136,39618,1,8,0:0:0:0:
434,119,39808,1,0,0:0:0:0:
434,119,39998,1,0,0:0:0:0:
434,119,41517,5,4,3:2:0:0:
380,63,41707,2,0,P|371:47|369:30,2,35,4|0|8,3:2|0:0|0:2,0:0:0:0:
358,136,42087,1,4,3:2:0:0:
304,80,42277,1,8,0:2:0:0:
228,66,42467,2,0,P|219:81|217:98,2,35,4|0|8,3:2|0:0|0:2,0:0:0:0:
166,19,42846,1,4,3:2:0:0:
90,35,43036,5,0,3:0:0:0:
51,184,43416,1,8,0:2:0:0:
51,184,43606,1,2,0:2:0:0:
115,225,43796,2,0,P|182:207|251:199,1,140,0|8,0:0|0:2,0:0:0:0:
315,242,44365,1,2,3:2:0:0:
383,207,44555,2,0,L|469:172,2,70,2|0|8,3:2|0:0|0:2,0:0:0:0:
319,162,45125,1,2,0:2:0:0:
344,89,45315,1,0,0:0:0:0:
202,28,45694,1,8,0:2:0:0:
202,28,45884,6,0,L|217:126,1,70,2|2,0:2|3:2,0:0:0:0:
180,167,46264,1,0,0:0:0:0:
105,148,46454,2,0,P|91:116|88:81,1,70,8|2,0:2|0:2,0:0:0:0:
23,40,46834,2,0,P|8:80|20:199,1,140,0|8,0:0|0:2,0:0:0:0:
72,222,47403,1,2,3:2:0:0:
75,298,47593,2,0,P|109:305|140:320,1,70,2|0,3:2|0:0,0:0:0:0:
214,297,47973,2,0,P|206:262|191:231,1,70,8|2,0:2|0:2,0:0:0:0:
244,175,48353,1,0,0:0:0:0:
379,247,48732,1,8,0:2:0:0:
379,247,48922,2,0,L|448:237,1,70,2|2,0:2|3:2,0:0:0:0:
380,98,49492,6,0,L|310:88,1,70,8|2,0:2|3:2,0:0:0:0:
256,32,49872,1,0,0:0:0:0:
202,88,50061,2,0,L|132:98,1,70,2|8,3:2|0:2,0:0:0:0:
95,165,50441,1,2,3:2:0:0:
151,217,50631,2,0,P|182:232|216:233,1,70,2|0,3:2|0:0,0:0:0:0:
295,233,51011,2,0,P|329:232|361:217,1,70,8|2,0:2|0:2,0:0:0:0:
417,165,51391,1,0,0:0:0:0:
256,128,51770,1,8,0:2:0:0:
256,204,51960,1,2,0:2:0:0:
256,52,52340,5,0,0:0:0:0:
323,85,52530,2,0,P|358:87|391:76,1,70,8|2,0:2|3:2,0:0:0:0:
444,19,52910,1,0,0:0:0:0:
444,19,53099,1,2,3:2:0:0:
489,80,53289,2,0,L|475:154,1,70,8|2,0:2|3:2,0:0:0:0:
407,184,53669,1,2,3:2:0:0:
256,224,54049,1,8,0:2:0:0:
105,184,54429,1,0,0:0:0:0:
36,148,54618,2,0,L|23:80,1,70,2|8,3:2|0:2,0:0:0:0:
44,32,54935,6,0,L|63:132,1,93.3333333333333
19,271,55568,1,8,0:2:0:0:
87,304,55758,1,2,0:2:0:0:
160,279,55948,2,0,P|195:219|200:150,1,140,0|8,0:0|0:2,0:0:0:0:
341,88,56707,1,2,3:2:0:0:
404,131,56897,1,0,0:0:0:0:
386,206,57087,2,0,P|351:213|319:227,1,70,8|2,0:2|0:2,0:0:0:0:
256,272,57467,2,0,P|198:253|100:247,1,140,0|8,0:0|0:2,0:0:0:0:
64,296,58036,1,0,0:0:0:0:
64,296,58226,1,4,3:2:0:0:
256,360,58606,5,8,0:2:0:0:
256,272,59175,1,0,3:0:0:0:
256,272,59365,1,8,0:2:0:0:
328,224,59555,1,0,3:0:0:0:
256,184,59745,1,0,3:0:0:0:
256,184,59935,6,0,P|239:153|238:118,1,70,4|8,3:2|0:2,0:0:0:0:
184,224,60315,6,0,P|157:251|103:260,1,87.5,4|0,3:2|0:0,0:0:0:0:
256,272,60694,5,4,3:2:0:0:
256,272,60884,2,0,P|300:297|321:345,1,105.000004005432,8|4,0:2|3:2,0:0:0:0:
396,364,61264,6,0,P|450:336|412:269,1,140,4|12,3:2|0:2,0:0:0:0:
395,202,61834,1,2,0:2:0:0:
256,272,62213,2,0,L|110:252,1,140,0|0,3:0|3:0,0:0:0:0:
59,304,62783,1,0,3:0:0:0:
59,304,62973,1,0,0:0:0:0:
47,223,63163,2,0,L|67:77,1,140,12|0,0:2|0:0,0:0:0:0:
130,42,63732,1,2,0:2:0:0:
201,82,63922,1,8,0:2:0:0:
201,82,64017,2,0,P|238:95|276:97,1,70
293,127,64302,6,0,P|331:78|407:79,1,140,0|12,3:0|0:2,0:0:0:0:
435,148,64872,1,2,0:2:0:0:
397,297,65251,2,0,P|328:285|258:284,1,140,0|0,3:0|3:0,0:0:0:0:
184,307,65821,2,0,L|194:237,1,70,0|0,3:0|0:0,0:0:0:0:
266,209,66201,2,0,L|254:130,1,70,8|0,0:2|0:0,0:0:0:0:
184,111,66580,2,0,L|196:32,1,70,0|0,0:0|3:0,0:0:0:0:
270,28,66960,1,8,0:2:0:0:
318,87,67150,1,0,0:0:0:0:
391,68,67340,6,0,P|449:103|453:170,1,140,0|8,3:0|0:2,0:0:0:0:
407,232,67910,1,2,0:2:0:0:
407,232,68099,2,0,P|441:242|472:259,1,70,0|0,0:0|3:0,0:0:0:0:
415,312,68479,2,0,P|381:321|350:338,1,70,8|0,0:2|3:0,0:0:0:0:
279,308,68859,1,0,3:0:0:0:
279,308,69049,1,0,0:0:0:0:
212,346,69239,2,0,B|174:289|174:289|190:220,1,140,8|0,0:2|0:0,0:0:0:0:
253,174,69808,1,0,3:0:0:0:
253,174,69998,1,8,0:2:0:0:
234,99,70188,6,0,L|66:71,1,140,2|0,0:2|0:0,0:0:0:0:
31,117,70758,2,0,P|19:150|29:183,1,70,8|2,0:2|0:2,0:0:0:0:
88,233,71137,2,0,P|99:265|89:298,1,70,0|0,0:0|3:0,0:0:0:0:
35,354,71517,1,8,0:2:0:0:
35,354,71707,1,2,3:2:0:0:
109,373,71897,2,0,L|178:364,1,70,2|2,3:2|0:2,0:0:0:0:
229,305,72277,2,0,L|298:313,1,70,8|2,0:2|0:2,0:0:0:0:
376,293,72656,1,0,0:0:0:0:
376,293,72846,1,0,3:0:0:0:
362,217,73036,2,0,L|292:225,1,70,8|0,0:2|3:0,0:0:0:0:
220,192,73416,6,0,B|195:125|277:100|244:26,1,175,4|8,3:2|0:0,0:0:0:0:
48,159,74365,1,0,3:0:0:0:
18,232,74555,1,8,0:0:0:0:
18,232,74650,2,0,P|14:282|23:328,1,87.5,0|0,3:0|0:0,0:0:0:0:
50,344,74935,2,0,P|117:301|97:212,1,175,0|8,3:0|0:0,0:0:0:0:
48,159,75505,1,0,0:0:0:0:
201,124,75884,1,0,3:0:0:0:
256,176,76074,1,8,0:0:0:0:
311,124,76264,1,0,0:0:0:0:
311,124,76454,1,0,3:0:0:0:
256,176,79112,5,10,0:2:0:0:
256,100,79302,2,0,L|256:52,2,35,0|0|4,3:0|0:0|3:2,0:0:0:0:
256,176,85568,5,4,3:2:0:0:
320,218,85758,2,0,P|346:228|392:222,1,70,0|10,0:0|0:2,0:0:0:0:
438,166,86137,2,0,L|454:91,2,70,0|0|2,3:0|0:0|0:2,0:0:0:0:
461,239,86707,1,8,0:2:0:0:
412,298,86897,1,0,0:0:0:0:
340,327,87087,1,0,3:0:0:0:
190,291,87467,1,10,0:2:0:0:
115,273,87656,2,0,B|61:317|61:317|136:346,1,140,0|2,3:0|0:2,0:0:0:0:
198,371,88226,2,0,L|274:359,1,70,8|0,0:2|0:0,0:0:0:0:
340,327,88606,5,2,3:2:0:0:
276,283,88796,2,0,B|266:251|266:251|265:214,1,70,0|10,0:0|0:2,0:0:0:0:
305,148,89175,2,0,B|315:116|315:116|315:79,2,70,0|0|2,3:0|0:0|0:2,0:0:0:0:
227,148,89745,1,8,0:2:0:0:
163,103,89935,1,0,0:0:0:0:
90,128,90125,1,0,3:0:0:0:
84,282,90505,1,10,0:2:0:0:
141,332,90694,2,0,L|237:317,1,70,0|2,3:0|0:2,0:0:0:0:
238,348,90979,2,0,L|307:337,1,70
340,356,91264,6,0,P|367:291|362:222,1,140,8|6,0:2|3:2,0:0:0:0:
306,169,91834,2,0,P|273:181|226:191,1,70,0|10,0:0|0:2,0:0:0:0:
174,147,92213,2,0,L|95:133,2,70,0|0|2,3:0|0:0|3:2,0:0:0:0:
229,93,92783,1,8,0:2:0:0:
305,81,92973,1,2,3:2:0:0:
381,69,93163,1,0,3:0:0:0:
319,209,93542,1,10,0:2:0:0:
256,256,93732,2,0,B|232:313|259:357|259:357|283:332,1,140,0|2,3:0|0:2,0:0:0:0:
344,283,94302,2,0,P|378:276|413:276,1,70,10|0,0:2|0:0,0:0:0:0:
480,315,94682,5,2,3:2:0:0:
480,237,94872,2,0,L|498:154,1,70,0|8,0:0|0:2,0:0:0:0:
452,104,95251,2,0,P|424:116|380:116,2,70,0|0|2,3:0|0:0|3:2,0:0:0:0:
405,41,95821,1,8,0:2:0:0:
330,60,96011,1,2,3:2:0:0:
260,26,96201,1,0,3:0:0:0:
320,167,96580,1,10,0:2:0:0:
266,222,96770,2,0,P|229:243|134:246,1,140,0|2,3:0|0:2,0:0:0:0:
64,280,97340,2,0,P|49:248|44:213,1,70,10|2,0:2|0:2,0:0:0:0:
80,145,97720,5,4,3:2:0:0:
149,112,97910,2,0,L|227:136,1,70,0|10,0:0|0:2,0:0:0:0:
290,115,98289,2,0,L|341:67,2,70,0|2|2,3:0|0:2|3:2,0:0:0:0:
270,189,98859,1,8,0:2:0:0:
288,263,99049,1,2,3:2:0:0:
306,337,99239,1,0,3:0:0:0:
402,217,99618,1,10,0:2:0:0:
443,151,99808,2,0,L|409:15,1,140,0|2,3:0|3:2,0:0:0:0:
341,67,100378,2,0,L|323:147,1,70,10|2,0:2|0:2,0:0:0:0:
270,189,100758,5,4,3:2:0:0:
197,162,100948,2,0,P|161:157|116:167,1,70,0|10,0:0|0:2,0:0:0:0:
86,227,101327,2,0,P|81:263|91:308,2,70,0|0|2,3:0|0:0|3:2,0:0:0:0:
50,158,101897,1,8,0:2:0:0:
30,83,102087,1,2,3:2:0:0:
38,6,102277,1,0,3:0:0:0:
177,69,102656,1,10,0:2:0:0:
215,134,102846,2,0,P|276:156|304:98,1,140,0|2,3:0|3:2,0:0:0:0:
350,36,103416,2,0,P|377:58|412:56,1,70,8|0,0:2|3:0,0:0:0:0:
483,26,103796,5,2,3:2:0:0:
387,146,104175,2,0,L|368:213,1,70,10|0,0:2|3:0,0:0:0:0:
394,291,104555,1,0,0:0:0:0:
394,291,104745,2,0,L|230:342,1,140,2|2,3:2|0:2,0:0:0:0:
113,285,105505,1,2,0:2:0:0:
71,220,105694,1,10,0:2:0:0:
94,146,105884,2,0,P|101:96|97:55,1,70,0|2,3:0|0:2,0:0:0:0:
132,54,106169,2,0,P|125:104|129:145,1,70
135,160,106454,1,8,0:2:0:0:
207,184,106644,1,2,3:2:0:0:
269,138,106834,5,2,3:2:0:0:
395,225,107213,2,0,P|433:246|459:246,1,70,10|0,0:2|3:0,0:0:0:0:
450,168,107593,1,2,0:2:0:0:
388,121,107783,2,0,L|374:37,1,70,2|8,3:2|0:2,0:0:0:0:
318,0,108163,2,0,P|286:62|233:105,1,140,2|2,3:2|0:2,0:0:0:0:
157,123,108732,1,10,0:2:0:0:
108,183,108922,1,2,3:2:0:0:
108,183,109112,1,2,0:2:0:0:
131,256,109302,1,2,3:2:0:0:
203,283,109492,1,10,0:2:0:0:
203,283,109682,2,0,P|232:302|256:328,1,70,0|0,3:0|0:0,0:0:0:0:
254,328,111580,6,0,P|286:312|320:310,1,70,4|0,3:2|0:0,0:0:0:0:
256,240,111960,6,0,P|219:216|176:217,1,87.5,4|0,3:2|0:0,0:0:0:0:
256,151,112340,5,4,3:2:0:0:
256,151,112530,2,0,P|277:138|303:137,2,52.5000020027161,4|4|4,0:2|0:2|3:2,0:0:0:0:
193,105,112910,6,0,P|129:110|117:47,1,140,6|8,3:2|0:0,0:0:0:0:
192,29,113479,1,2,0:2:0:0:
303,137,113859,2,0,L|289:276,1,140,0|0,3:0|3:0,0:0:0:0:
257,348,114429,1,2,3:2:0:0:
257,348,114618,1,0,0:0:0:0:
187,314,114808,2,0,L|173:174,1,140,8|0,0:0|0:0,0:0:0:0:
104,139,115378,1,0,3:0:0:0:
171,101,115568,1,8,0:0:0:0:
171,101,115663,2,0,P|215:96|271:99,1,70
262,128,115948,6,0,P|330:136|390:103,1,140,2|8,3:2|0:0,0:0:0:0:
397,26,116517,1,2,0:2:0:0:
447,171,116897,2,0,P|455:227|442:315,1,140,0|0,3:0|3:0,0:0:0:0:
389,364,117467,2,0,L|295:353,1,70,0|2,3:0|0:2,0:0:0:0:
273,294,117846,2,0,L|284:200,1,70,8|0,0:0|0:0,0:0:0:0:
239,159,118226,2,0,L|145:148,1,70,0|2,0:0|0:2,0:0:0:0:
123,89,118606,1,8,0:0:0:0:
131,12,118796,1,2,0:2:0:0:
58,40,118986,6,0,P|16:93|30:159,1,140,2|8,3:2|0:0,0:0:0:0:
97,208,119555,1,2,0:2:0:0:
97,208,119745,2,0,P|94:254|78:293,1,70,0|0,0:0|3:0,0:0:0:0:
161,295,120125,2,0,P|164:341|180:380,1,70,8|2,0:0|3:2,0:0:0:0:
236,322,120505,1,0,3:0:0:0:
236,322,120694,1,2,0:2:0:0:
302,361,120884,2,0,B|345:373|345:373|448:354,1,140,8|0,0:0|0:0,0:0:0:0:
482,292,121454,1,0,3:0:0:0:
482,292,121644,1,8,0:0:0:0:
430,234,121834,6,0,L|413:87,1,140
354,45,122403,2,0,P|328:62|288:62,1,70,8|2,0:0|0:2,0:0:0:0:
232,114,122783,2,0,P|197:114|167:96,1,70,0|0,0:0|3:0,0:0:0:0:
138,24,123163,1,8,0:0:0:0:
138,24,123353,1,0,3:0:0:0:
90,84,123542,2,0,L|100:175,1,70,2|0,3:2|0:0,0:0:0:0:
162,196,123922,2,0,L|154:265,1,70,8|0,0:0|0:0,0:0:0:0:
106,326,124302,1,2,0:2:0:0:
106,326,124492,1,0,3:0:0:0:
171,367,124682,2,0,L|262:357,1,70,8|0,0:0|0:0,0:0:0:0:
293,301,125061,6,0,P|306:247|407:265,1,175,2|8,3:2|0:0,0:0:0:0:
218,286,126011,1,2,3:2:0:0:
171,222,126201,1,8,0:0:0:0:
171,222,126296,2,0,L|183:128,1,87.5,0|0,3:0|0:0,0:0:0:0:
201,100,126580,6,0,B|120:89|143:172|44:158,1,175,2|8,3:2|0:0,0:0:0:0:
1,92,127150,1,2,0:2:0:0:
50,241,127530,1,0,3:0:0:0:
128,232,127720,1,8,0:0:0:0:
206,262,127910,1,0,0:0:0:0:
206,262,128099,1,2,3:2:0:0:
206,262,129618,5,4,3:2:0:0:
196,338,129808,2,0,P|197:355|205:371,2,35,4|0|8,3:2|0:0|0:2,0:0:0:0:
135,289,130188,1,4,3:2:0:0:
57,286,130378,1,8,0:2:0:0:
35,212,130568,2,0,P|19:204|1:202,2,35,6|0|10,3:2|0:0|0:2,0:0:0:0:
107,184,130948,1,4,3:2:0:0:
149,119,131137,6,0,P|206:93|232:150,1,140,6|8,3:2|0:0,0:0:0:0:
274,216,131707,1,2,0:2:0:0:
424,181,132087,2,0,L|440:33,1,140,2|2,3:2|3:2,0:0:0:0:
366,16,132656,1,2,3:2:0:0:
366,16,132846,1,2,0:2:0:0:
339,88,133036,2,0,L|354:227,1,140,8|0,0:0|0:0,0:0:0:0:
309,290,133606,1,2,3:2:0:0:
233,273,133796,1,8,0:0:0:0:
233,273,133891,2,0,P|194:263|154:264,1,70
131,282,134175,6,0,P|83:233|101:146,1,140,2|8,3:2|0:0,0:0:0:0:
146,116,134745,1,2,0:2:0:0:
293,161,135125,2,0,P|303:122|299:6,1,140,2|2,3:2|3:2,0:0:0:0:
225,29,135694,2,0,L|217:121,1,70,2|0,3:2|0:0,0:0:0:0:
146,116,136074,2,0,L|154:208,1,70,8|2,0:0|0:2,0:0:0:0:
225,203,136454,2,0,L|217:295,1,70,0|2,0:0|3:2,0:0:0:0:
146,290,136834,1,8,0:0:0:0:
199,345,137023,1,2,0:2:0:0:
274,328,137213,6,0,P|309:296|368:367,1,140,2|8,3:2|0:0,0:0:0:0:
451,366,137783,1,2,0:2:0:0:
451,366,137973,2,0,P|468:324|470:296,1,70,0|2,0:0|3:2,0:0:0:0:
411,248,138353,2,0,P|394:206|392:178,1,70,8|2,0:0|3:2,0:0:0:0:
443,124,138732,1,2,3:2:0:0:
443,124,138922,1,0,0:0:0:0:
394,63,139112,2,0,B|343:74|343:74|326:71|326:71|312:80|312:80|260:93,1,140,8|0,0:0|0:0,0:0:0:0:
288,170,139682,1,2,3:2:0:0:
288,170,139872,1,8,0:0:0:0:
211,152,140061,6,0,L|73:127,1,140,2|0,0:2|0:0,0:0:0:0:
18,182,140631,2,0,P|23:216|58:245,1,70,8|2,0:0|0:2,0:0:0:0:
116,275,141011,2,0,P|121:241|156:212,1,70,0|2,0:0|3:2,0:0:0:0:
221,229,141391,1,8,0:0:0:0:
221,229,141580,1,2,3:2:0:0:
295,208,141770,2,0,L|313:299,1,70,2|0,3:2|0:0,0:0:0:0:
379,308,142150,2,0,L|397:217,1,70,8|2,0:0|0:2,0:0:0:0:
455,193,142530,1,0,0:0:0:0:
455,193,142720,1,2,3:2:0:0:
381,164,142910,2,0,L|367:95,1,70,8|0,0:0|0:0,0:0:0:0:
304,46,143289,6,0,P|226:39|218:117,1,175,6|8,3:2|0:0,0:0:0:0:
67,300,144239,1,2,3:2:0:0:
14,241,144429,1,8,0:0:0:0:
14,241,144523,2,0,P|17:193|50:163,1,87.5,0|0,3:0|0:0,0:0:0:0:
82,164,144808,2,0,P|140:227|224:219,1,175,2|8,3:2|0:0,0:0:0:0:
242,142,145378,1,2,0:2:0:0:
384,73,145758,1,0,3:0:0:0:
436,131,145948,2,0,L|423:247,1,87.5,8|0,0:0|0:0,0:0:0:0:
494,257,146327,6,0,B|416:249|434:332|340:319,1,175,6|8,3:2|0:0,0:0:0:0:
179,145,147277,1,2,3:2:0:0:
134,210,147467,1,8,0:0:0:0:
134,210,147561,2,0,L|156:309,1,87.5,0|0,3:0|0:0,0:0:0:0:
186,317,147846,2,0,P|217:278|347:244,1,175,2|8,3:2|0:0,0:0:0:0:
395,192,148416,2,0,P|410:169|410:146,2,43.75,2|0|0,0:2|0:0|0:0,0:0:0:0:
408,270,148796,1,2,3:2:0:0:
460,328,148986,2,0,P|483:343|506:343,2,43.75,8|0|0,0:0|0:0|0:0,0:0:0:0:
383,346,149365,6,0,P|300:352|261:279,1,175,6|8,3:2|0:0,0:0:0:0:
56,160,150315,1,2,3:2:0:0:
113,213,150505,1,8,0:0:0:0:
113,213,150599,2,0,P|152:200|197:169,1,87.5,0|0,3:0|0:0,0:0:0:0:
226,192,150884,2,0,P|268:149|263:13,1,175,2|8,3:2|0:0,0:0:0:0:
489,143,151834,1,2,3:2:0:0:
442,205,152023,1,8,0:0:0:0:
364,191,152213,2,0,B|357:221|345:233|345:233|368:239|380:252,1,87.5,2|0,3:2|2:0,0:0:0:0:
256,192,155505,12,0,159604,0:0:0:0:
