osu file format v14

[General]
AudioFilename: audio.mp3
AudioLeadIn: 0
PreviewTime: 130517
Countdown: 0
SampleSet: Normal
StackLeniency: 0.7
Mode: 0
LetterboxInBreaks: 0
WidescreenStoryboard: 1

[Editor]
Bookmarks: 159365
DistanceSpacing: 0.9
BeatDivisor: 4
GridSize: 32
TimelineZoom: 4.799997

[Metadata]
Title:Faith feat. Ariana Grande
TitleUnicode:Faith feat. Ariana Grande
Artist:Stevie Wonder
ArtistUnicode:Stevie Wonder
Creator:Asphyxia
Version:Elevation
Source:
Tags:english pop lcfc LowComboFC Haruto haruto_aizawa
BeatmapID:2022876
BeatmapSetID:966422

[Difficulty]
HPDrainRate:6
CircleSize:3.8
OverallDifficulty:8
ApproachRate:9
SliderMultiplier:2.1
SliderTickRate:1

[Events]
//Background and Video events
0,0,"74502138_p0_master1200.jpg",0,0
//Break Periods
2,79692,84968
2,152413,154905
//Storyboard Layer 0 (Background)
//Storyboard Layer 1 (Fail)
//Storyboard Layer 2 (Pass)
//Storyboard Layer 3 (Foreground)
//Storyboard Layer 4 (Overlay)
//Storyboard Sound Samples

[TimingPoints]
505,379.746835443038,4,1,1,40,1,0
6201,-100,4,1,1,5,0,0
6580,-100,4,1,1,40,0,0
36960,-83.3333333333333,4,1,1,60,0,1
39998,-100,4,1,1,40,0,0
73416,-83.3333333333333,4,1,1,60,0,1
76454,-100,4,1,1,40,0,0
111580,-71.4285714285714,4,1,1,40,0,0
111960,-62.5,4,1,1,40,0,0
112340,-55.5555555555556,4,1,1,40,0,0
112910,-71.4285714285714,4,1,1,60,0,1
128099,-100,4,1,1,40,0,0
131137,-66.6666666666667,4,1,1,60,0,1
152403,-125,4,1,1,40,0,0
155505,-71.4285714285714,4,1,1,40,0,0
159478,379.746835443038,4,1,1,40,1,0

[Colours]
Combo1 : 128,255,255
Combo2 : 255,191,255
Combo3 : 128,255,128
Combo4 : 255,128,128
Combo5 : 255,255,128

[HitObjects]
357,194,505,6,0,P|273:212|239:103,1,210,2|0,0:2|0:0,0:0:0:0:
302,140,1074,2,0,P|322:213|311:356,2,210,2|2|2,0:2|0:2|0:2,0:0:0:0:
233,112,2023,6,0,P|261:205|357:194,1,210,2|0,0:2|0:0,0:0:0:0:
302,140,2593,2,0,P|322:213|311:356,2,210,2|2|2,0:2|0:2|0:2,0:0:0:0:
356,194,3542,6,0,P|261:205|233:112,1,210,2|0,0:2|0:0,0:0:0:0:
302,140,4112,2,0,P|322:213|311:356,2,210,2|2|2,0:2|0:2|0:2,0:0:0:0:
233,111,5061,6,0,P|259:204|356:194,1,210,2|0,0:2|0:0,0:0:0:0:
302,140,5631,1,2,0:2:0:0:
233,111,5821,2,0,P|259:204|356:194,1,210,2|0,0:2|0:0,0:0:0:0:
233,111,6580,6,0,P|259:204|356:194,1,210,2|8,0:2|0:2,0:0:0:0:
398,121,7150,1,2,0:2:0:0:
398,121,7340,2,0,L|368:354,1,210,0|8,0:0|0:2,0:0:0:0:
450,300,7910,1,2,0:2:0:0:
381,347,8099,6,0,P|325:368|270:356,1,105,2|0,0:2|0:0,0:0:0:0:
223,284,8479,2,0,P|168:259|138:211,1,105,8|2,0:2|0:2,0:0:0:0:
123,141,8859,2,0,L|93:374,1,210,0|8,0:0|0:2,0:0:0:0:
96,349,9429,1,2,0:2:0:0:
142,223,9618,6,0,P|181:164|328:138,1,210,2|8,0:2|0:2,0:0:0:0:
457,239,10188,1,2,0:2:0:0:
244,228,10378,2,0,B|298:198|355:221|327:259|388:277|438:253,1,210,0|8,0:0|0:2,0:0:0:0:
406,174,10948,1,2,0:2:0:0:
510,58,11137,5,2,0:2:0:0:
432,91,11327,1,0,0:0:0:0:
335,19,11517,5,8,0:2:0:0:
342,103,11707,1,2,0:2:0:0:
244,176,11897,5,0,0:0:0:0:
326,195,12087,1,2,0:2:0:0:
366,312,12277,5,8,0:2:0:0:
409,239,12467,1,2,0:2:0:0:
512,313,12656,5,2,0:2:0:0:
406,174,13036,2,0,P|353:202|297:197,1,105,8|2,0:2|0:2,0:0:0:0:
479,96,13416,2,0,P|426:68|370:73,2,105,0|2|8,0:0|0:2|0:2,0:0:0:0:
492,179,13986,1,2,0:2:0:0:
479,96,14175,5,2,0:2:0:0:
492,179,14365,1,0,0:0:0:0:
309,200,14555,2,0,P|361:200|406:174,1,105,8|2,0:2|0:2,0:0:0:0:
287,23,14935,2,0,P|231:76|263:164,1,157.5
309,200,15315,2,0,P|361:200|406:174,2,105,8|2|2,0:2|0:2|0:2,0:0:0:0:
245,148,15884,1,0,0:0:0:0:
241,265,16074,6,0,P|285:290|337:290,1,105,8|2,0:2|0:2,0:0:0:0:
136,366,16454,1,0,0:0:0:0:
136,366,16644,1,2,0:2:0:0:
154,230,16834,2,0,P|110:205|58:205,1,105,8|2,0:2|0:2,0:0:0:0:
217,351,17213,5,2,0:2:0:0:
217,351,17403,1,0,0:0:0:0:
263,162,17593,2,0,L|234:292,1,105,8|2,0:2|0:2,0:0:0:0:
298,336,17973,5,0,0:0:0:0:
298,336,18163,1,2,0:2:0:0:
131,127,18353,2,0,L|160:257,1,105,8|2,0:2|0:2,0:0:0:0:
33,92,18732,6,0,B|87:122|144:99|116:61|177:43|227:67,1,210,2|8,0:2|0:2,0:0:0:0:
272,138,19302,1,2,0:2:0:0:
512,24,19492,2,0,L|276:62,1,210,2|8,0:2|0:2,0:0:0:0:
272,138,20251,6,0,P|310:169|393:161,1,105,2|0,0:2|0:0,0:0:0:0:
304,57,20631,2,0,P|355:60|396:92,1,105,8|2,0:2|0:2,0:0:0:0:
331,254,21011,1,2,0:2:0:0:
331,254,21201,1,0,0:0:0:0:
512,211,21391,6,0,P|474:242|391:234,1,105,8|0,0:2|0:0,0:0:0:0:
304,57,22150,5,8,0:2:0:0:
57,87,22910,1,8,0:2:0:0:
57,87,23479,6,0,L|74:18,1,52.5,4|0,3:2|0:0,0:0:0:0:
128,232,23669,1,8,0:2:0:0:
128,232,23859,6,0,L|111:163,1,52.5,4|0,3:2|0:0,0:0:0:0:
57,377,24049,1,0,0:0:0:0:
57,377,24239,6,0,L|74:308,1,52.5,4|0,3:2|0:0,0:0:0:0:
224,284,24429,2,0,L|207:215,1,52.5,8|0,0:2|0:0,0:0:0:0:
143,72,24618,2,0,L|160:3,1,52.5,4|0,3:2|0:0,0:0:0:0:
274,170,24808,6,0,L|495:214,1,210,4|12,3:2|0:2,0:0:0:0:
253,166,25378,1,2,0:2:0:0:
473,288,25758,2,0,P|409:348|281:349,1,210,0|0,3:0|3:0,0:0:0:0:
223,295,26327,6,0,L|209:221,1,52.5,0|0,3:0|0:0,0:0:0:0:
253,166,26517,2,0,L|239:92,1,52.5
256,33,26707,6,0,L|294:253,1,210,12|0,0:2|0:0,0:0:0:0:
362,193,27277,1,2,0:2:0:0:
341,333,27467,6,0,L|331:384,2,52.5,8|0|2,0:2|0:0|0:2,0:0:0:0:
285,158,27846,6,0,P|349:98|477:97,1,210,0|8,0:0|0:2,0:0:0:0:
291,239,28416,1,2,0:2:0:0:
249,33,28796,6,0,L|290:238,1,210,0|0,3:0|3:0,0:0:0:0:
145,73,29365,6,0,L|133:124,1,52.5,0|0,3:0|0:0,0:0:0:0:
128,147,29555,2,0,L|116:198,1,52.5
232,125,29745,6,0,L|244:176,1,52.5,8|0,0:2|0:0,0:0:0:0:
249,199,29935,2,0,L|261:250,1,52.5
111,213,30125,6,0,L|99:264,1,52.5
94,287,30315,2,0,L|82:338,1,52.5
264,259,30505,6,0,L|276:310,1,52.5,8|0,0:2|0:0,0:0:0:0:
281,333,30695,2,0,L|293:384,1,52.5
435,339,30884,6,0,P|503:296|486:164,1,210,0|10,0:0|0:2,0:0:0:0:
422,140,31454,1,2,0:2:0:0:
435,339,31644,2,0,P|487:315|515:272,1,105,0|0,0:0|3:0,0:0:0:0:
422,140,32023,2,0,L|228:161,1,157.5,8|0,0:2|0:0,0:0:0:0:
206,210,32403,6,0,P|154:186|126:143,2,105,0|0|12,3:0|0:0|0:2,0:0:0:0:
206,210,33353,1,0,0:0:0:0:
278,251,33542,1,8,0:2:0:0:
205,293,33732,1,0,0:0:0:0:
289,86,33922,6,0,P|338:138|360:273,1,210,0|8,0:0|0:2,0:0:0:0:
278,251,34492,1,2,0:2:0:0:
459,194,34682,6,0,P|410:246|388:381,1,210,0|8,0:0|0:2,0:0:0:0:
468,356,35251,1,0,3:0:0:0:
289,348,35441,6,0,L|227:339,1,52.5,0|0,3:0|0:0,0:0:0:0:
157,358,35631,2,0,L|95:349,1,52.5
59,107,35821,6,0,L|121:116,1,52.5,8|0,0:2|0:0,0:0:0:0:
191,97,36011,2,0,L|253:106,1,52.5
260,264,36201,6,0,L|198:255,1,52.5
128,274,36391,2,0,L|66:265,1,52.5
93,188,36580,6,0,L|155:197,1,52.5,8|0,0:2|0:0,0:0:0:0:
225,178,36770,2,0,L|287:187,1,52.5
196,356,36960,6,0,B|222:302|199:226|152:261|123:190|160:123,1,251.999992309571,4|8,3:2|0:0,0:0:0:0:
352,124,37530,2,0,B|389:190|360:261|313:226|290:302|316:356,1,251.999992309571,0|0,0:0|3:0,0:0:0:0:
256,160,38099,5,8,0:0:0:0:
256,160,38194,2,0,L|255:81,2,62.9999980773926,0|0|0,3:0|0:0|0:0,0:0:0:0:
348,233,38479,6,0,P|374:265|406:276,1,62.9999980773926,0|0,3:0|0:0,0:0:0:0:
164,233,38669,2,0,P|138:265|106:276,1,62.9999980773926
256,0,38859,1,8,0:0:0:0:
255,286,39049,2,0,L|255:94,1,188.999994232178
163,87,39429,6,0,L|137:158,1,62.9999980773926
349,87,39618,2,0,L|375:158,1,62.9999980773926,8|0,0:0|0:0,0:0:0:0:
256,0,39808,2,0,L|256:62,1,62.9999980773926
256,362,39998,1,0,0:0:0:0:
355,245,41517,6,0,L|370:170,1,52.5,4|0,3:2|0:0,0:0:0:0:
336,113,41707,1,4,3:2:0:0:
400,338,41897,5,8,0:2:0:0:
400,338,41992,1,0,0:0:0:0:
400,338,42087,1,4,3:2:0:0:
231,295,42277,6,0,L|246:220,1,52.5,8|0,0:2|0:0,0:0:0:0:
212,163,42467,1,4,3:2:0:0:
107,345,42656,6,0,L|122:270,1,52.5,8|0,0:2|0:0,0:0:0:0:
88,213,42846,2,0,L|103:138,1,52.5,4|0,3:2|0:0,0:0:0:0:
152,37,43036,6,0,P|199:13|259:23,1,105,0|0,3:0|0:0,0:0:0:0:
464,175,43416,2,0,P|412:180|366:156,1,105,8|2,0:2|0:2,0:0:0:0:
341,17,43796,2,0,L|301:240,1,210,0|8,0:0|0:2,0:0:0:0:
281,326,44365,1,2,3:2:0:0:
212,98,44555,5,2,3:2:0:0:
212,98,44745,1,0,0:0:0:0:
464,175,44935,1,8,0:2:0:0:
464,175,45125,1,2,0:2:0:0:
246,356,45315,6,0,P|291:315|299:211,1,157.5
290,171,45694,2,0,L|304:227,1,52.5,8|0,0:2|0:0,0:0:0:0:
319,67,45884,1,2,0:2:0:0:
182,243,46074,5,2,3:2:0:0:
182,243,46264,1,0,0:0:0:0:
212,98,46454,2,0,P|165:74|105:84,1,105,8|2,0:2|0:2,0:0:0:0:
303,222,46834,2,0,L|289:278,2,52.5,0|0|2,0:0|0:0|3:2,0:0:0:0:
53,135,47213,2,0,P|100:159|160:149,1,105,8|2,0:2|3:2,0:0:0:0:
383,150,47593,6,0,P|356:91|369:38,1,105,2|0,3:2|0:0,0:0:0:0:
478,201,47973,2,0,P|505:260|492:313,1,105,8|2,0:2|0:2,0:0:0:0:
381,356,48353,2,0,L|390:305,1,52.5
393,291,48542,1,2,0:2:0:0:
134,114,48732,5,8,0:2:0:0:
378,114,48922,1,2,0:2:0:0:
256,352,49112,1,2,3:2:0:0:
256,352,49492,6,0,P|199:340|158:301,1,105,8|2,0:2|3:2,0:0:0:0:
231,181,49872,2,0,L|218:130,2,52.5,0|0|2,0:0|0:0|3:2,0:0:0:0:
0,290,50251,2,0,P|57:278|98:239,1,105,8|2,0:2|3:2,0:0:0:0:
194,34,50631,5,2,3:2:0:0:
257,264,50821,1,0,0:0:0:0:
258,92,51011,5,8,0:2:0:0:
189,320,51201,1,2,0:2:0:0:
234,179,51391,5,0,0:0:0:0:
342,280,51580,1,2,3:2:0:0:
257,264,51770,5,8,0:2:0:0:
400,224,51960,1,2,0:2:0:0:
366,364,52150,5,2,3:2:0:0:
366,364,52340,1,0,0:0:0:0:
459,163,52530,2,0,P|481:213|469:273,1,105,8|2,0:2|3:2,0:0:0:0:
360,34,52910,2,0,P|353:85|375:132,1,105,0|2,0:0|3:2,0:0:0:0:
474,261,53289,2,0,P|480:210|459:163,1,105,8|2,0:2|3:2,0:0:0:0:
233,355,53669,6,0,B|283:379|344:361|316:323|373:300|427:330,2,210,2|8|0,3:2|0:2|0:0,0:0:0:0:
174,267,54618,1,2,3:2:0:0:
253,198,54808,2,0,L|236:128,2,52.5,8|0|2,0:2|0:0|0:2,0:0:0:0:
174,267,55188,6,0,P|85:247|74:140,1,210,2|8,3:2|0:2,0:0:0:0:
209,128,55758,1,2,0:2:0:0:
145,187,55948,2,0,P|203:212|257:202,1,105,0|2,0:0|3:2,0:0:0:0:
396,155,56327,2,0,P|349:131|297:134,1,105,8|2,0:2|3:2,0:0:0:0:
227,342,56707,6,0,P|285:318|316:273,1,105,2|0,3:2|0:0,0:0:0:0:
295,32,57087,2,0,P|236:55|205:100,1,105,8|2,0:2|0:2,0:0:0:0:
256,192,57467,1,0,0:0:0:0:
256,192,57561,1,0,0:0:0:0:
256,192,57656,1,2,3:2:0:0:
245,208,57846,5,8,0:2:0:0:
245,174,57941,1,0,0:0:0:0:
275,192,58036,1,0,0:0:0:0:
256,192,58226,5,4,3:2:0:0:
285,99,58416,1,0,0:0:0:0:
177,248,58606,1,8,0:2:0:0:
352,192,58796,1,0,0:0:0:0:
177,135,58985,1,0,0:0:0:0:
285,284,59175,1,0,3:0:0:0:
285,99,59365,1,8,0:2:0:0:
177,248,59555,1,0,3:0:0:0:
256,192,59745,5,0,3:0:0:0:
313,356,59935,2,0,L|288:291,1,52.5,4|0,3:2|0:0,0:0:0:0:
256,192,60125,1,8,0:2:0:0:
199,356,60315,6,0,L|224:291,1,52.5,4|0,3:2|0:0,0:0:0:0:
256,160,60505,1,0,0:0:0:0:
313,356,60694,6,0,L|288:291,1,52.5,4|0,3:2|0:0,0:0:0:0:
256,128,60884,1,8,0:2:0:0:
256,0,61074,1,4,3:2:0:0:
256,0,61169,1,0,0:0:0:0:
256,0,61264,1,4,3:2:0:0:
256,0,61644,5,12,0:2:0:0:
256,128,61834,2,0,B|202:158|145:135|173:97|112:79|62:103,1,210,2|0,0:2|3:0,0:0:0:0:
42,206,62403,1,8,0:2:0:0:
98,294,62593,1,0,3:0:0:0:
20,365,62783,6,0,L|81:372,1,52.5,0|0,3:0|0:0,0:0:0:0:
161,346,62973,2,0,L|222:353,1,52.5
306,316,63163,6,0,L|97:293,1,210,12|0,0:2|0:0,0:0:0:0:
401,329,63732,1,2,0:2:0:0:
223,220,63922,2,0,L|170:214,2,52.5,8|0|2,0:2|0:0|0:2,0:0:0:0:
401,329,64302,6,0,P|460:274|437:145,1,210,0|12,3:0|0:2,0:0:0:0:
333,36,64872,2,0,P|300:87|386:121,1,157.5,2|0,0:2|0:0,0:0:0:0:
446,154,65251,2,0,P|459:97|450:30,2,105,0|8|0,3:0|0:2|3:0,0:0:0:0:
298,204,65821,6,0,L|309:265,1,52.5,0|0,3:0|0:0,0:0:0:0:
324,333,66011,2,0,L|335:394,1,52.5
228,323,66201,6,0,L|217:262,1,52.5,8|0,0:2|0:0,0:0:0:0:
202,194,66391,2,0,L|191:133,1,52.5
95,114,66580,6,0,L|104:165,1,52.5
121,242,66770,2,0,L|130:293,1,52.5,0|0,3:0|0:0,0:0:0:0:
35,236,66960,6,0,L|25:184,1,52.5,8|0,0:2|0:0,0:0:0:0:
9,108,67150,2,0,L|0:56,1,52.5
219,0,67340,6,0,P|287:48|255:179,1,210,0|8,3:0|0:2,0:0:0:0:
186,222,67910,1,2,0:2:0:0:
219,0,68099,2,0,P|271:27|298:74,1,105,0|0,0:0|3:0,0:0:0:0:
186,222,68479,2,0,L|17:193,1,157.5,8|0,0:2|0:0,0:0:0:0:
68,283,68859,6,0,P|45:329|2:359,2,105,0|0|8,3:0|0:0|0:2,0:0:0:0:
68,283,69618,2,0,P|45:329|2:359,1,105,0|0,0:0|3:0,0:0:0:0:
30,195,69998,1,8,0:2:0:0:
30,195,70188,1,2,0:2:0:0:
151,353,70378,6,0,P|232:364|363:294,1,210,0|8,3:0|0:2,0:0:0:0:
335,162,70948,1,2,0:2:0:0:
335,162,71137,6,0,P|269:211|226:353,1,210,0|8,0:0|0:2,0:0:0:0:
404,377,71707,1,2,3:2:0:0:
404,377,71897,6,0,L|421:309,1,52.5,2|0,3:2|0:0,0:0:0:0:
493,286,72087,2,0,L|476:218,1,52.5,2|0,0:2|0:0,0:0:0:0:
308,331,72277,6,0,L|325:263,1,52.5,8|0,0:2|0:0,0:0:0:0:
397,240,72467,2,0,L|380:172,1,52.5,2|0,0:2|0:0,0:0:0:0:
213,278,72656,6,0,L|230:210,1,52.5
302,187,72846,2,0,L|285:119,1,52.5,0|0,3:0|0:0,0:0:0:0:
113,232,73036,6,0,L|130:164,1,52.5,8|0,0:2|0:0,0:0:0:0:
202,141,73226,2,0,L|185:73,1,52.5,0|0,3:0|0:0,0:0:0:0:
96,32,73416,6,0,B|150:6|226:29|191:76|262:105|327:68,1,251.999992309571,4|8,3:2|0:0,0:0:0:0:
416,352,73986,2,0,B|362:378|286:355|321:308|250:279|184:315,1,251.999992309571,0|0,0:0|3:0,0:0:0:0:
256,192,74555,1,8,0:0:0:0:
256,192,74650,2,0,L|256:269,2,62.9999980773926,0|0|0,3:0|0:0|0:0,0:0:0:0:
402,181,74935,6,0,P|366:128|364:106,1,62.9999980773926,0|0,3:0|0:0,0:0:0:0:
110,181,75125,2,0,P|146:128|148:106,1,62.9999980773926
256,0,75315,1,8,0:0:0:0:
256,96,75505,1,0,0:0:0:0:
256,192,75694,1,0,0:0:0:0:
256,288,75884,1,0,3:0:0:0:
168,336,76074,5,8,0:0:0:0:
344,336,76264,1,0,0:0:0:0:
256,384,76454,5,0,3:0:0:0:
256,384,76834,5,8,0:2:0:0:
156,351,77023,2,0,P|132:291|239:206,1,210,2|0,0:2|3:0,0:0:0:0:
315,260,77593,1,8,0:2:0:0:
315,260,77783,1,0,3:0:0:0:
368,169,77973,6,0,L|345:379,1,210,0|8,3:0|0:2,0:0:0:0:
345,377,78542,1,0,0:0:0:0:
481,361,78732,1,0,0:0:0:0:
441,286,78922,1,2,3:2:0:0:
486,215,79112,1,10,0:2:0:0:
446,140,79302,2,0,L|458:79,1,52.5,0|0,3:0|0:0,0:0:0:0:
436,10,79492,5,4,3:2:0:0:
256,192,85568,5,4,3:2:0:0:
217,104,85758,5,0,0:0:0:0:
338,239,85948,1,10,0:2:0:0:
161,201,86137,1,0,3:0:0:0:
326,128,86327,1,0,0:0:0:0:
236,285,86517,1,2,0:2:0:0:
217,104,86707,1,8,0:2:0:0:
338,239,86897,1,0,0:0:0:0:
161,201,87087,6,0,L|79:191,1,52.5,0|0,3:0|0:0,0:0:0:0:
161,201,87656,6,0,L|71:183,1,52.5,0|0,3:0|0:0,0:0:0:0:
161,201,88036,6,0,L|75:187,1,52.5,2|0,0:2|0:0,0:0:0:0:
161,201,88226,2,0,L|79:191,1,52.5,8|0,0:2|0:0,0:0:0:0:
256,192,88606,1,2,3:2:0:0:
217,104,88796,5,0,0:0:0:0:
338,239,88986,1,10,0:2:0:0:
161,201,89175,1,0,3:0:0:0:
326,128,89365,1,0,0:0:0:0:
236,285,89555,1,2,0:2:0:0:
217,104,89745,1,8,0:2:0:0:
338,239,89935,1,0,0:0:0:0:
161,201,90125,6,0,L|79:191,1,52.5,0|0,3:0|0:0,0:0:0:0:
161,201,90694,6,0,L|71:183,1,52.5,0|0,3:0|0:0,0:0:0:0:
161,201,90979,6,0,L|75:187,1,52.5,0|2,0:0|0:2,0:0:0:0:
161,201,91264,6,0,L|79:191,1,52.5,8|0,0:2|0:0,0:0:0:0:
256,192,91644,1,6,3:2:0:0:
407,278,91834,5,0,0:0:0:0:
183,29,92024,1,10,0:2:0:0:
218,364,92213,1,0,3:0:0:0:
385,73,92403,1,0,0:0:0:0:
80,208,92593,1,2,3:2:0:0:
407,278,92783,1,8,0:2:0:0:
183,29,92973,1,2,3:2:0:0:
218,364,93163,6,0,L|233:296,1,52.5,0|0,3:0|0:0,0:0:0:0:
195,218,93353,2,0,L|210:150,1,52.5,2|0,0:2|0:0,0:0:0:0:
407,278,93542,6,0,L|422:210,1,52.5,10|0,0:2|0:0,0:0:0:0:
384,132,93732,2,0,L|399:64,1,52.5,0|0,3:0|0:0,0:0:0:0:
314,314,93922,6,0,L|329:246,1,52.5,2|0,0:2|0:0,0:0:0:0:
283,89,94112,1,2,0:2:0:0:
499,259,94302,6,0,L|514:191,1,52.5,10|0,0:2|0:0,0:0:0:0:
477,105,94492,2,0,L|492:37,1,52.5
256,192,94682,1,2,3:2:0:0:
127,73,94872,5,0,0:0:0:0:
432,208,95062,1,8,0:2:0:0:
105,278,95251,1,0,3:0:0:0:
329,29,95441,1,0,0:0:0:0:
294,364,95631,1,2,3:2:0:0:
127,73,95821,1,8,0:2:0:0:
432,208,96011,1,2,3:2:0:0:
105,278,96201,6,0,L|188:293,1,52.5,0|0,3:0|0:0,0:0:0:0:
294,364,96391,2,0,L|377:379,1,52.5,2|0,0:2|0:0,0:0:0:0:
242,233,96580,2,0,L|325:248,1,52.5,10|0,0:2|0:0,0:0:0:0:
496,285,96770,5,0,3:0:0:0:
496,285,97150,1,2,0:2:0:0:
345,373,97340,1,10,0:2:0:0:
295,201,97530,1,2,0:2:0:0:
157,315,97720,1,4,3:2:0:0:
157,315,97910,6,0,P|106:338|46:329,1,105,0|10,0:0|0:2,0:0:0:0:
134,152,98289,1,0,3:0:0:0:
68,90,98479,2,0,P|119:67|179:76,1,105,2|2,0:2|3:2,0:0:0:0:
329,116,98859,2,0,P|278:139|218:130,1,105,8|2,0:2|3:2,0:0:0:0:
402,68,99239,6,0,P|363:160|354:266,1,157.5,0|0,3:0|0:0,0:0:0:0:
376,300,99618,1,10,0:2:0:0:
379,309,99808,1,0,3:0:0:0:
382,318,99998,1,2,0:2:0:0:
385,327,100188,1,2,3:2:0:0:
388,336,100378,1,10,0:2:0:0:
391,345,100568,1,2,0:2:0:0:
204,16,100758,6,0,P|243:108|252:214,1,157.5,4|0,3:2|0:0,0:0:0:0:
230,248,101137,1,10,0:2:0:0:
227,257,101327,1,0,3:0:0:0:
224,266,101517,1,0,0:0:0:0:
221,275,101707,1,2,3:2:0:0:
218,284,101897,1,8,0:2:0:0:
215,293,102087,1,2,3:2:0:0:
44,204,102277,6,0,P|21:144|35:91,1,105,0|0,3:0|0:0,0:0:0:0:
128,270,102656,1,10,0:2:0:0:
128,270,102846,2,0,P|151:330|137:383,1,105,0|10,3:0|0:2,0:0:0:0:
44,204,103226,1,2,3:2:0:0:
44,204,103416,2,0,P|21:144|35:91,1,105,8|0,0:2|3:0,0:0:0:0:
112,278,103796,6,0,B|162:302|223:284|195:246|252:223|306:253,1,210,2|10,3:2|0:2,0:0:0:0:
362,314,104365,1,0,3:0:0:0:
387,132,104555,2,0,P|410:186|408:247,1,105,0|2,0:0|3:2,0:0:0:0:
362,314,104935,2,0,P|321:216|487:285,1,420,8|10,0:2|0:2,0:0:0:0:
411,231,105884,6,0,P|384:293|404:388,2,157.5,0|0|8,3:0|0:0|0:2,0:0:0:0:
411,231,106644,1,2,3:2:0:0:
293,149,106834,6,0,B|239:119|182:142|210:180|149:198|99:174,1,210,2|10,3:2|0:2,0:0:0:0:
51,96,107403,1,0,3:0:0:0:
51,96,107593,2,0,P|10:194|176:125,1,420,2|0,0:2|3:0,0:0:0:0:
130,66,108542,5,2,0:2:0:0:
105,146,108732,1,10,0:2:0:0:
158,210,108922,1,2,3:2:0:0:
205,279,109112,1,2,0:2:0:0:
196,362,109302,1,2,3:2:0:0:
366,226,109492,5,10,0:2:0:0:
256,0,109872,5,0,0:0:0:0:
243,72,111580,6,0,L|256:0,1,73.4999977569581,4|0,3:2|0:0,0:0:0:0:
326,153,111770,1,0,0:0:0:0:
128,152,111960,6,0,L|143:65,1,84,4|0,3:2|0:0,0:0:0:0:
390,211,112150,1,0,0:0:0:0:
16,215,112340,6,0,L|33:115,1,94.499997116089,4|0,3:2|0:0,0:0:0:0:
454,269,112530,1,4,0:2:0:0:
454,269,112625,1,4,0:2:0:0:
454,269,112720,1,4,3:2:0:0:
84,268,112910,6,0,P|163:332|296:279,1,220.499993270874,6|0,3:2|0:0,0:0:0:0:
313,238,113289,2,0,L|290:386,2,146.999995513916,8|2|0,0:0|0:2|0:0,0:0:0:0:
335,121,113859,1,0,3:0:0:0:
512,344,114049,2,0,P|440:347|383:303,1,146.999995513916,8|0,0:0|3:0,0:0:0:0:
335,121,114429,6,0,L|346:48,1,73.4999977569581,2|0,3:2|0:0,0:0:0:0:
313,238,114618,2,0,L|302:311,1,73.4999977569581
121,144,114808,1,8,0:0:0:0:
144,342,114998,2,0,B|188:319|256:339|225:382|289:408|346:376,1,220.499993270874,2|0,0:2|0:0,0:0:0:0:
302,310,115378,2,0,P|290:238|316:169,1,146.999995513916,0|8,3:0|0:0,0:0:0:0:
396,84,115758,1,2,0:2:0:0:
70,66,115948,6,0,P|26:163|75:257,1,220.499993270874,2|0,3:2|0:0,0:0:0:0:
156,241,116327,1,8,0:0:0:0:
156,241,116517,2,0,P|168:169|142:100,1,146.999995513916,2|0,0:2|0:0,0:0:0:0:
31,343,116897,1,0,3:0:0:0:
248,257,117087,2,0,P|304:303|377:315,1,146.999995513916,8|0,0:0|3:0,0:0:0:0:
496,151,117467,6,0,P|436:160|416:180,1,73.4999977569581,0|0,3:0|0:0,0:0:0:0:
375,315,117656,2,0,P|435:306|455:286,1,73.4999977569581,2|0,0:2|0:0,0:0:0:0:
316,174,117846,6,0,P|256:183|236:203,1,73.4999977569581,8|0,0:0|0:0,0:0:0:0:
220,331,118036,2,0,P|280:322|300:302,1,73.4999977569581
127,203,118226,6,0,P|67:212|47:232,1,73.4999977569581
31,360,118416,2,0,P|91:351|111:331,1,73.4999977569581,2|0,0:2|0:0,0:0:0:0:
165,76,118606,5,8,0:0:0:0:
165,76,118796,1,2,0:2:0:0:
165,76,118986,6,0,P|126:163|172:289,1,220.499993270874,2|0,3:2|0:0,0:0:0:0:
223,221,119365,2,0,P|237:310|196:358,2,146.999995513916,8|2|0,0:0|0:2|0:0,0:0:0:0:
165,76,119935,1,0,3:0:0:0:
405,80,120125,2,0,P|334:136|272:125,1,146.999995513916,8|2,0:0|3:2,0:0:0:0:
165,76,120505,6,0,L|154:-1,1,73.4999977569581,0|0,3:0|0:0,0:0:0:0:
161,277,120694,2,0,L|150:200,1,73.4999977569581,2|0,0:2|0:0,0:0:0:0:
2,106,120884,2,0,B|46:82|118:103|86:149|153:176|202:148,1,220.499993270874,8|0,0:0|0:0,0:0:0:0:
282,130,121264,2,0,P|353:130|405:80,2,146.999995513916,0|0|8,0:0|3:0|0:0,0:0:0:0:
215,32,121834,1,0,0:0:0:0:
247,289,122023,6,0,P|145:321|57:261,1,220.499993270874,2|0,3:2|0:0,0:0:0:0:
38,177,122403,1,8,0:0:0:0:
247,289,122593,1,2,0:2:0:0:
403,112,122783,1,0,0:0:0:0:
403,112,122973,1,0,3:0:0:0:
381,286,123163,2,0,P|326:225|335:163,1,146.999995513916,8|0,0:0|3:0,0:0:0:0:
371,11,123542,6,0,L|446:26,1,73.4999977569581,2|0,3:2|0:0,0:0:0:0:
512,57,123732,2,0,L|439:42,1,73.4999977569581
344,124,123922,6,0,L|419:139,1,73.4999977569581,8|0,0:0|0:0,0:0:0:0:
485,170,124112,2,0,L|412:155,1,73.4999977569581
308,271,124302,6,0,L|383:286,1,73.4999977569581,2|0,0:2|0:0,0:0:0:0:
449,317,124492,2,0,L|376:302,1,73.4999977569581,0|0,3:0|0:0,0:0:0:0:
186,266,124682,1,8,0:0:0:0:
186,266,124872,1,0,0:0:0:0:
186,266,125061,6,0,P|86:178|146:25,1,293.999991027832,2|8,3:2|0:0,0:0:0:0:
385,38,125631,2,0,P|428:171|326:266,1,293.999991027832,0|2,0:0|3:2,0:0:0:0:
256,32,126201,1,8,0:0:0:0:
256,32,126296,2,0,L|256:114,2,73.4999977569581,0|0|0,3:0|0:0|0:0,0:0:0:0:
96,188,126580,6,0,P|35:177|13:142,1,73.4999977569581,2|0,3:2|0:0,0:0:0:0:
416,188,126770,2,0,P|477:177|499:142,1,73.4999977569581
256,32,126960,1,8,0:0:0:0:
256,352,127150,2,0,L|256:128,1,220.499993270874,2|0,0:2|0:0,0:0:0:0:
256,32,127530,6,0,L|256:113,1,73.4999977569581,0|0,3:0|0:0,0:0:0:0:
416,188,127720,2,0,L|358:245,1,73.4999977569581,8|0,0:0|0:0,0:0:0:0:
96,188,127910,2,0,L|153:245,1,73.4999977569581
256,384,128099,6,0,P|197:356|41:353,2,210,2|8|0,3:2|0:2|0:0,0:0:0:0:
256,384,129049,1,0,3:0:0:0:
339,325,129239,2,0,P|399:300|456:309,1,105,8|0,0:2|3:0,0:0:0:0:
364,138,129618,6,0,L|345:71,1,52.5,4|0,3:2|0:0,0:0:0:0:
383,1,129808,1,4,3:2:0:0:
329,241,129998,5,8,0:2:0:0:
329,241,130093,1,0,0:0:0:0:
329,241,130188,1,4,3:2:0:0:
475,169,130378,6,0,L|456:102,1,52.5,8|0,0:2|0:0,0:0:0:0:
364,138,130568,6,0,L|345:71,1,52.5,6|0,3:2|0:0,0:0:0:0:
253,107,130758,6,0,L|234:40,1,52.5,10|0,0:2|0:0,0:0:0:0:
142,76,130948,6,0,L|123:9,1,52.5,4|0,3:2|0:0,0:0:0:0:
211,227,131137,6,0,P|133:292|-12:258,1,236.250009012223,6|0,3:2|0:0,0:0:0:0:
59,203,131517,2,0,P|93:288|53:346,2,157.500006008148,8|2|0,0:0|0:2|0:0,0:0:0:0:
238,56,132087,1,2,3:2:0:0:
9,96,132277,2,0,P|77:34|145:52,1,157.500006008148,8|2,0:0|3:2,0:0:0:0:
383,143,132656,6,0,L|299:131,1,78.7500030040742,2|0,3:2|0:0,0:0:0:0:
222,178,132846,2,0,L|138:166,1,78.7500030040742,2|0,0:2|0:0,0:0:0:0:
333,17,133036,1,8,0:0:0:0:
380,362,133226,6,0,P|345:276|392:131,1,236.250009012223,2|0,0:2|0:0,0:0:0:0:
464,185,133606,1,2,3:2:0:0:
464,185,133796,2,0,P|485:279|452:353,1,157.500006008148,8|0,0:0|0:0,0:0:0:0:
289,302,134175,2,0,B|227:336|158:308|191:262|118:240|72:264,1,236.250009012223,2|0,3:2|0:0,0:0:0:0:
37,338,134555,6,0,P|-7:272|35:187,2,157.500006008148,8|2|0,0:0|0:2|0:0,0:0:0:0:
241,235,135125,1,2,3:2:0:0:
157,47,135315,1,8,0:0:0:0:
241,235,135505,1,2,3:2:0:0:
356,51,135694,6,0,L|441:32,1,78.7500030040742,2|0,3:2|0:0,0:0:0:0:
512,162,135884,2,0,L|427:143,1,78.7500030040742
161,141,136074,6,0,L|246:122,1,78.7500030040742,8|0,0:0|0:0,0:0:0:0:
317,252,136264,2,0,L|232:233,1,78.7500030040742,2|0,0:2|0:0,0:0:0:0:
0,247,136454,6,0,L|85:228,1,78.7500030040742
156,358,136644,2,0,L|71:339,1,78.7500030040742,2|0,3:2|0:0,0:0:0:0:
412,279,136834,1,8,0:0:0:0:
412,279,137023,1,2,0:2:0:0:
412,279,137118,1,0,0:0:0:0:
412,279,137213,6,0,P|463:185|382:84,1,236.250009012223,2|0,3:2|0:0,0:0:0:0:
325,72,137593,2,0,P|335:133|418:160,2,157.500006008148,8|2|0,0:0|0:2|0:0,0:0:0:0:
495,12,138163,1,2,3:2:0:0:
293,214,138353,2,0,P|220:245|132:223,1,157.500006008148,8|2,0:0|3:2,0:0:0:0:
122,18,138732,6,0,L|106:103,1,78.7500030040742,2|0,3:2|0:0,0:0:0:0:
145,230,138922,2,0,L|161:315,1,78.7500030040742
0,384,139112,2,0,L|42:152,1,236.250009012223,8|0,0:0|0:0,0:0:0:0:
145,230,139492,2,0,P|74:268|-13:254,2,157.500006008148,0|2|8,0:0|3:2|0:0,0:0:0:0:
122,18,140061,1,2,0:2:0:0:
246,261,140251,6,0,B|291:237|364:259|331:305|400:333|462:299,1,236.250009012223,2|0,3:2|0:0,0:0:0:0:
414,227,140631,2,0,P|446:297|449:375,2,157.500006008148,8|2|0,0:0|0:2|0:0,0:0:0:0:
163,333,141201,1,2,3:2:0:0:
207,132,141391,2,0,P|264:78|337:51,1,157.500006008148,8|2,0:0|3:2,0:0:0:0:
414,227,141770,6,0,L|428:132,1,78.7500030040742,2|0,3:2|0:0,0:0:0:0:
479,363,141960,2,0,L|493:268,1,78.7500030040742
256,242,142150,6,0,L|270:147,1,78.7500030040742,8|0,0:0|0:0,0:0:0:0:
321,378,142340,2,0,L|335:283,1,78.7500030040742,2|0,0:2|0:0,0:0:0:0:
92,245,142530,6,0,L|106:150,1,78.7500030040742
157,381,142720,2,0,L|171:286,1,78.7500030040742,2|0,3:2|0:0,0:0:0:0:
123,42,142910,1,8,0:0:0:0:
123,42,143099,1,0,0:0:0:0:
123,42,143194,1,0,0:0:0:0:
123,42,143289,6,0,B|155:102|125:199|64:155|26:248|72:331,1,315.000012016297,6|8,3:2|0:0,0:0:0:0:
389,42,143859,2,0,B|356:102|386:199|447:155|485:248|439:331,1,315.000012016297,0|2,0:0|3:2,0:0:0:0:
256,192,144429,1,8,0:0:0:0:
256,192,144523,2,0,L|256:288,2,78.7500030040742,0|0|0,3:0|0:0|0:0,0:0:0:0:
144,258,144808,6,0,P|176:218|178:178,1,78.7500030040742,2|0,3:2|0:0,0:0:0:0:
368,258,144998,2,0,P|336:218|334:178,1,78.7500030040742
145,75,145188,6,0,P|113:115|111:155,1,78.7500030040742,8|0,0:0|0:0,0:0:0:0:
367,75,145378,2,0,P|399:115|401:155,1,78.7500030040742,2|0,0:2|0:0,0:0:0:0:
182,337,145568,1,2,0:2:0:0:
330,337,145758,1,0,3:0:0:0:
182,337,145948,2,0,L|108:298,1,78.7500030040742,8|0,0:0|0:0,0:0:0:0:
330,337,146137,2,0,L|404:298,1,78.7500030040742
36,114,146327,6,0,P|97:33|240:75,1,236.250009012223,6|0,3:2|0:0,0:0:0:0:
307,125,146707,1,8,0:0:0:0:
476,270,146897,6,0,P|415:351|272:309,1,236.250009012223,2|0,0:2|0:0,0:0:0:0:
205,259,147277,1,2,3:2:0:0:
256,0,147467,1,8,0:0:0:0:
256,0,147561,2,0,L|256:96,2,78.7500030040742,0|0|0,3:0|0:0|0:0,0:0:0:0:
93,172,147846,6,0,P|25:195|-5:184,1,78.7500030040742,2|0,3:2|0:0,0:0:0:0:
419,172,148036,2,0,P|487:195|517:184,1,78.7500030040742
149,115,148226,6,0,P|81:92|51:103,1,78.7500030040742,8|0,0:0|0:0,0:0:0:0:
363,115,148416,2,0,P|431:92|461:103,1,78.7500030040742,2|0,0:2|0:0,0:0:0:0:
176,316,148606,6,0,P|137:314|103:293,1,78.7500030040742
336,316,148796,2,0,P|374:314|408:293,1,78.7500030040742,2|0,3:2|0:0,0:0:0:0:
256,0,148986,1,8,0:0:0:0:
256,32,149080,1,0,0:0:0:0:
256,64,149175,1,0,0:0:0:0:
256,96,149270,1,0,0:0:0:0:
256,128,149365,6,0,L|21:92,1,236.250009012223,6|0,3:2|0:0,0:0:0:0:
22,92,149745,1,8,0:0:0:0:
256,256,149935,6,0,L|491:292,1,236.250009012223,2|0,0:2|0:0,0:0:0:0:
489,291,150315,1,2,3:2:0:0:
256,78,150505,1,8,0:0:0:0:
256,78,150599,2,0,L|256:-18,2,78.7500030040742,0|0|0,3:0|0:0|0:0,0:0:0:0:
129,260,150884,6,0,P|99:229|100:177,1,78.7500030040742,2|0,3:2|0:0,0:0:0:0:
383,260,151074,2,0,P|413:229|412:177,1,78.7500030040742
172,196,151264,6,0,P|172:152|210:116,1,78.7500030040742,8|0,0:0|0:0,0:0:0:0:
340,196,151454,2,0,P|339:152|301:116,1,78.7500030040742
143,341,151644,6,0,P|99:340|63:302,1,78.7500030040742,2|0,0:2|0:0,0:0:0:0:
369,341,151834,2,0,P|412:340|448:302,1,78.7500030040742,2|0,3:2|0:0,0:0:0:0:
256,32,152023,1,8,0:0:0:0:
256,32,152213,1,2,3:2:0:0:
306,277,155505,6,0,B|308:169|392:125|495:171|495:63|467:39|375:108|375:177|375:177|337:107|293:81|123:52|95:212|95:212|126:105|79:24|-5:86|-52:106|-92:-10|4:-13|40:61|40:96|40:96|102:-73|285:-1|310:72|287:307|22:314|22:314|162:266|244:330|244:330|354:269|413:375|413:375|349:248|408:213|482:216|493:297|493:297|448:88|589:252|607:-9|488:-49|375:-4|329:76,1,2988.99990878296,4|0,0:2|0:0,0:0:0:0:
329,75,159478,1,0,0:0:0:0:
329,75,159541,1,0,0:0:0:0:
329,75,159604,1,0,0:0:0:0:
