osu file format v14

[General]
AudioFilename: audio.mp3
AudioLeadIn: 0
PreviewTime: -1
Countdown: 1
SampleSet: None
StackLeniency: 0.7
Mode: 0
LetterboxInBreaks: 0
WidescreenStoryboard: 0

[Editor]
DistanceSpacing: 1.3
BeatDivisor: 4
GridSize: 4
TimelineZoom: 1

[Metadata]
Title:i wanna die
TitleUnicode:i wanna die
Artist:StevenSuptic
ArtistUnicode:StevenSuptic
Creator:Kyshiro
Version:Kill me
Source:
Tags:
BeatmapID:1077159
BeatmapSetID:506383

[Difficulty]
HPDrainRate:6
CircleSize:4.3
OverallDifficulty:8.4
ApproachRate:8.6
SliderMultiplier:1.6
SliderTickRate:1

[Events]
//Background and Video events
0,0,"6776467-beautiful-sky-wallpaper.jpg",0,0
//Break Periods
//Storyboard Layer 0 (Background)
//Storyboard Layer 1 (Fail)
//Storyboard Layer 2 (Pass)
//Storyboard Layer 3 (Foreground)
//Storyboard Sound Samples

[TimingPoints]
30,461.538461538462,4,2,0,50,1,0
16645,-114.942528735632,4,2,0,50,0,0
36905,461.538461538462,4,2,0,50,1,0
66443,-86.9565217391304,4,2,0,50,0,1
81212,-133.333333333333,4,2,0,50,0,0
82597,-133.333333333333,4,2,0,5,0,0
83058,-133.333333333333,4,2,0,50,0,0
84443,-133.333333333333,4,2,0,5,0,0
84905,-133.333333333333,4,2,0,50,0,0
86289,-133.333333333333,4,2,0,5,0,0
86751,-133.333333333333,4,2,0,50,0,0
88135,-133.333333333333,4,2,0,5,0,0
88597,-133.333333333333,4,2,0,50,0,0
89981,-133.333333333333,4,2,0,5,0,0
90443,-133.333333333333,4,2,0,50,0,0
91828,-133.333333333333,4,2,0,5,0,0
92289,-133.333333333333,4,2,0,50,0,0
96905,-133.333333333333,4,2,0,5,0,0
97828,-133.333333333333,4,2,0,50,0,0
98751,-133.333333333333,4,2,0,5,0,0
99674,-133.333333333333,4,2,0,50,0,0
100597,-133.333333333333,4,2,0,5,0,0
101520,-133.333333333333,4,2,0,50,0,0
102443,-133.333333333333,4,2,0,5,0,0
103366,-133.333333333333,4,2,0,50,0,0
110751,-83.3333333333333,4,2,0,50,0,1
117443,-133.333333333333,4,2,0,50,0,1
117674,-133.333333333333,4,2,0,50,0,0

[Colours]
Combo1 : 250,160,174
Combo2 : 199,158,222
Combo3 : 150,202,231

[HitObjects]
29,152,30,6,0,P|106:169|177:114,1,160,0|2,0:0|0:0,0:0:0:0:
86,67,722,1,0,0:0:0:0:
274,39,953,2,0,L|294:200,1,160
293,197,1876,6,0,P|336:205|375:194,1,80
194,158,2337,2,0,P|186:201|197:240,1,80,2|0,0:0|0:0,0:0:0:0:
281,99,2799,1,0,0:0:0:0:
272,288,3030,1,0,0:0:0:0:
113,190,3260,1,2,0:0:0:0:
332,196,3491,1,0,0:0:0:0:
164,283,3722,6,0,P|150:312|141:364,1,80
169,96,4183,2,0,P|149:69|109:36,1,80,2|0,0:0|0:0,0:0:0:0:
332,196,4645,2,0,P|423:201|485:161,1,160,0|2,0:0|0:0,0:0:0:0:
479,166,5568,6,0,L|390:154,1,80
250,193,6030,1,2,0:0:0:0:
361,356,6260,2,0,P|366:311|355:272,2,80
185,308,6953,2,0,P|243:311|275:325,1,80,2|0,0:0|0:0,0:0:0:0:
85,343,7414,6,0,P|50:297|42:194,1,160,0|2,0:0|0:0,0:0:0:0:
127,127,8106,1,0,0:0:0:0:
219,192,8337,2,0,L|231:278,1,80
127,127,8799,2,0,L|138:47,1,80,2|0,0:0|0:0,0:0:0:0:
389,78,9260,6,0,B|343:110|343:110|239:96,1,160,0|2,0:0|0:0,0:0:0:0:
313,12,9953,1,0,0:0:0:0:
429,160,10183,2,0,P|443:219|439:249,1,80
259,262,10645,2,0,P|303:220|331:208,1,80,2|0,0:0|0:0,0:0:0:0:
361,320,11106,5,0,0:0:0:0:
361,320,11568,1,2,0:0:0:0:
188,268,11799,1,0,0:0:0:0:
289,142,12030,2,0,L|299:236,1,80
399,133,12491,2,0,L|407:53,1,80,2|0,0:0|0:0,0:0:0:0:
239,43,12953,6,0,P|187:71|87:68,1,160,0|2,0:0|0:0,0:0:0:0:
0,151,13645,1,0,0:0:0:0:
121,263,13876,2,0,L|117:178,1,80
256,338,14337,1,2,0:0:0:0:
256,338,14799,5,2,0:0:0:0:
221,2,15260,1,2,0:0:0:0:
447,254,15722,1,2,0:0:0:0:
117,183,16183,1,2,0:0:0:0:
425,47,16645,6,0,L|411:131,1,69.6000005841065,2|0,0:0|0:0,0:0:0:0:
313,159,17106,2,0,L|327:243,1,69.6000005841065,2|0,0:0|0:0,0:0:0:0:
251,315,17568,1,2,0:0:0:0:
72,139,18030,1,2,0:0:0:0:
313,74,18491,5,2,0:0:0:0:
111,279,18953,1,2,0:0:0:0:
350,212,19415,1,2,0:0:0:0:
174,36,19876,1,2,0:0:0:0:
94,288,20337,6,0,P|87:338|89:368,1,69.6000005841065,2|0,0:0|0:0,0:0:0:0:
183,211,20799,2,0,P|182:176|176:142,1,69.6000005841065,2|0,0:0|0:0,0:0:0:0:
204,317,21260,2,0,P|267:336|347:318,1,139.200001168213,2|2,0:0|0:0,0:0:0:0:
470,68,22183,5,2,0:0:0:0:
175,139,22645,1,2,0:0:0:0:
356,210,23106,1,2,0:0:0:0:
30,68,23568,1,2,0:0:0:0:
325,139,24030,5,2,0:0:0:0:
144,210,24491,1,2,0:0:0:0:
256,332,24953,1,2,0:0:0:0:
256,332,25414,1,2,0:0:0:0:
454,206,25876,6,0,L|474:133,1,69.6000005841065,2|0,0:0|0:0,0:0:0:0:
361,125,26337,2,0,L|364:49,1,69.6000005841065,2|0,0:0|0:0,0:0:0:0:
289,203,26799,1,2,0:0:0:0:
58,206,27260,6,0,L|38:133,1,69.6000005841065,2|0,0:0|0:0,0:0:0:0:
151,125,27721,2,0,L|147:49,1,69.6000005841065,2|0,0:0|0:0,0:0:0:0:
223,203,28183,1,2,0:0:0:0:
461,103,28645,1,2,0:0:0:0:
304,63,29106,1,2,0:0:0:0:
397,239,29568,6,0,L|389:381,1,139.200001168213,0|2,0:0|0:0,0:0:0:0:
243,213,30260,1,0,0:0:0:0:
155,288,30491,2,0,P|207:318|298:308,1,139.200001168213,0|2,0:0|0:0,0:0:0:0:
125,114,31414,6,0,L|134:195,1,69.6000005841065
48,232,31876,1,2,0:0:0:0:
223,142,32106,1,0,0:0:0:0:
38,77,32337,2,0,P|112:80|169:33,1,139.200001168213,0|2,0:0|0:0,0:0:0:0:
420,177,33260,6,0,B|433:263|433:263|410:315,1,139.200001168213,0|2,0:0|0:0,0:0:0:0:
317,241,33953,1,0,0:0:0:0:
262,332,34183,2,0,P|304:348|335:348,1,69.6000005841065
200,239,34645,1,2,0:0:0:0:
430,148,35106,5,0,0:0:0:0:
123,193,35568,1,2,0:0:0:0:
200,239,35799,1,0,0:0:0:0:
119,281,36030,1,0,0:0:0:0:
408,328,36491,1,2,0:0:0:0:
346,124,36905,6,0,P|253:111|201:145,1,160,0|2,0:0|0:0,0:0:0:0:
286,219,37597,1,0,0:0:0:0:
413,224,37828,2,0,P|459:171|450:72,1,160,0|2,0:0|0:0,0:0:0:0:
186,223,38751,6,0,L|194:304,1,80
97,268,39212,1,2,0:0:0:0:
274,191,39443,1,0,0:0:0:0:
156,63,39674,2,0,L|148:142,1,80
330,111,40135,2,0,L|250:103,1,80,2|0,0:0|0:0,0:0:0:0:
360,279,40597,6,0,P|420:290|505:237,1,160,0|2,0:0|0:0,0:0:0:0:
410,179,41289,1,0,0:0:0:0:
258,238,41520,2,0,P|253:292|266:326,1,80
296,141,41981,2,0,P|251:109|215:103,1,80,2|0,0:0|0:0,0:0:0:0:
12,169,42443,6,0,B|108:200|108:200|165:182,1,160,0|2,0:0|0:0,0:0:0:0:
108,96,43135,1,0,0:0:0:0:
34,261,43366,2,0,L|42:345,1,80
108,96,43828,2,0,L|115:16,1,80,2|0,0:0|0:0,0:0:0:0:
360,115,44289,6,0,P|290:131|216:83,1,160,0|2,0:0|0:0,0:0:0:0:
304,29,44981,1,0,0:0:0:0:
454,141,45212,2,0,L|467:225,1,80
354,319,45674,2,0,L|366:239,1,80,2|0,0:0|0:0,0:0:0:0:
137,184,46135,6,0,B|240:153|240:153|310:174,1,160,0|2,0:0|0:0,0:0:0:0:
242,254,46828,1,0,0:0:0:0:
45,227,47058,2,0,P|34:176|42:145,1,80
133,307,47520,2,0,P|94:342|63:350,1,80,2|0,0:0|0:0,0:0:0:0:
158,205,47981,6,0,P|214:191|309:238,1,160,0|2,0:0|0:0,0:0:0:0:
371,336,48674,1,0,0:0:0:0:
447,156,48905,2,0,L|436:239,1,80
332,55,49366,2,0,L|342:134,1,80,2|0,0:0|0:0,0:0:0:0:
88,114,49828,6,0,B|189:137|189:137|251:114,1,160,0|2,0:0|0:0,0:0:0:0:
181,43,50520,1,0,0:0:0:0:
71,196,50751,2,0,P|65:248|75:283,1,80
249,236,51212,2,0,P|197:230|162:240,1,80,2|0,0:0|0:0,0:0:0:0:
211,337,51674,6,0,L|378:320,1,160,0|2,0:0|0:0,0:0:0:0:
452,227,52366,1,0,0:0:0:0:
322,137,52597,2,0,L|330:220,1,80
433,118,53058,2,0,L|441:38,1,80,2|0,0:0|0:0,0:0:0:0:
196,29,53520,6,0,P|292:16|356:64,1,160,0|2,0:0|0:0,0:0:0:0:
184,152,54212,1,0,0:0:0:0:
83,79,54443,2,0,P|61:33|58:1,1,80
184,152,54905,2,0,P|155:194|128:212,1,80,2|0,0:0|0:0,0:0:0:0:
196,29,55366,6,0,P|292:16|356:64,1,160,0|2,0:0|0:0,0:0:0:0:
368,174,56058,1,0,0:0:0:0:
469,93,56289,2,0,L|481:2,1,80
368,174,56751,2,0,L|378:253,1,80,2|0,0:0|0:0,0:0:0:0:
118,214,57212,6,0,B|214:245|214:245|274:227,1,160,0|2,0:0|0:0,0:0:0:0:
217,133,57905,1,0,0:0:0:0:
9,175,58135,2,0,P|3:229|15:258,1,80
110,107,58597,2,0,P|66:74|35:70,1,80,2|0,0:0|0:0,0:0:0:0:
118,214,59058,6,0,P|188:216|265:162,1,160,0|2,0:0|0:0,0:0:0:0:
309,47,59751,1,0,0:0:0:0:
465,155,59981,2,0,L|376:147,1,80
206,250,60443,2,0,L|295:242,1,80,2|0,0:0|0:0,0:0:0:0:
248,44,60905,6,0,B|256:123|256:123|166:87,1,160,0|2,0:0|0:0,0:0:0:0:
81,48,61597,1,0,0:0:0:0:
6,149,61828,2,0,P|70:145|152:210,1,160,0|2,0:0|0:0,0:0:0:0:
44,258,62520,1,0,0:0:0:0:
149,314,62751,6,0,L|230:305,1,80
380,230,63212,2,0,L|299:221,1,80,2|0,0:0|0:0,0:0:0:0:
169,120,63674,2,0,L|178:201,1,80
296,96,64135,2,0,L|304:16,1,80,2|0,0:0|0:0,0:0:0:0:
419,144,64597,6,0,P|445:213|417:298,1,160,0|2,0:0|0:0,0:0:0:0:
320,330,65289,1,0,0:0:0:0:
240,211,65520,2,0,L|335:218,1,80
191,317,65981,2,0,L|96:324,1,80,2|0,0:0|0:0,0:0:0:0:
42,250,66443,5,2,0:0:0:0:
262,122,66674,1,0,0:0:0:0:
158,355,66905,1,2,0:0:0:0:
106,105,67135,1,0,0:0:0:0:
297,277,67366,1,2,0:0:0:0:
22,253,67597,1,0,0:0:0:0:
275,107,67828,1,2,0:0:0:0:
156,374,68059,1,0,0:0:0:0:
96,88,68289,6,0,P|55:52|14:34,1,92.0000017547608,2|0,0:0|0:0,0:0:0:0:
314,284,68751,2,0,P|365:266|401:239,1,92.0000017547608,2|0,0:0|0:0,0:0:0:0:
365,79,69212,1,2,0:0:0:0:
362,72,69674,1,2,0:0:0:0:
359,65,70135,5,2,0:0:0:0:
447,298,70366,1,0,0:0:0:0:
293,108,70597,1,2,0:0:0:0:
316,355,70828,1,0,0:0:0:0:
212,129,71058,1,2,0:0:0:0:
170,373,71289,1,0,0:0:0:0:
129,120,71520,1,2,0:0:0:0:
25,345,71751,1,0,0:0:0:0:
227,261,71981,5,2,0:0:0:0:
28,163,72212,1,0,0:0:0:0:
213,40,72443,1,2,0:0:0:0:
155,323,72674,5,0,0:0:0:0:
9,69,72905,1,2,0:0:0:0:
302,71,73136,1,0,0:0:0:0:
155,156,73366,1,2,0:0:0:0:
155,156,73828,5,2,0:0:0:0:
418,288,74058,1,0,0:0:0:0:
218,353,74289,1,2,0:0:0:0:
350,90,74519,1,0,0:0:0:0:
147,122,74751,5,2,0:0:0:0:
425,322,74981,1,0,0:0:0:0:
184,360,75212,1,2,0:0:0:0:
383,82,75442,1,0,0:0:0:0:
126,247,75674,6,0,P|90:212|66:156,1,92.0000017547608,2|0,0:0|0:0,0:0:0:0:
311,322,76135,2,0,P|276:358|220:382,1,92.0000017547608,2|0,0:0|0:0,0:0:0:0:
386,137,76597,2,0,P|422:172|446:228,1,92.0000017547608,2|0,0:0|0:0,0:0:0:0:
201,62,77058,2,0,P|236:26|292:2,1,92.0000017547608,2|0,0:0|0:0,0:0:0:0:
254,182,77520,5,2,0:0:0:0:
35,100,77751,1,0,0:0:0:0:
75,330,77981,1,2,0:0:0:0:
347,121,78212,1,0,0:0:0:0:
117,163,78443,1,2,0:0:0:0:
269,340,78673,1,0,0:0:0:0:
396,29,78905,1,2,0:0:0:0:
229,192,79136,1,0,0:0:0:0:
454,253,79366,5,2,0:0:0:0:
387,298,79828,1,2,0:0:0:0:
343,232,80289,1,2,0:0:0:0:
410,187,80751,1,2,0:0:0:0:
89,269,81212,6,0,P|58:170|239:192,1,360.000013732911,2|0,0:0|0:0,0:0:0:0:
147,197,83058,2,0,B|215:212|257:280|257:280|269:207|319:155|414:136,1,360.000013732911,2|0,0:0|0:0,0:0:0:0:
490,276,84905,6,0,B|447:313|423:359|423:359|380:329|355:290|355:290|321:304|305:332|305:332|260:319|213:330,1,360.000013732911,2|0,0:0|0:0,0:0:0:0:
58,196,86751,2,0,B|113:140|223:140|223:251|333:251|389:196,1,360.000013732911,2|0,0:0|0:0,0:0:0:0:
351,80,88597,6,0,B|273:75|191:149|264:231|182:305|105:301,1,360.000013732911,2|0,0:0|0:0,0:0:0:0:
2,77,90443,2,0,P|112:42|46:182,1,360.000013732911,2|0,0:0|0:0,0:0:0:0:
74,109,92289,5,2,0:0:0:0:
390,266,94135,1,2,0:0:0:0:
405,73,95981,6,0,P|319:50|212:147,1,240.000009155274,2|0,0:0|0:0,0:0:0:0:
88,185,97828,2,0,P|165:270|279:253,1,240.000009155274,2|0,0:0|0:0,0:0:0:0:
395,49,99674,6,0,B|357:125|357:125|412:278,1,240.000009155274,2|0,0:0|0:0,0:0:0:0:
464,126,101520,2,0,B|388:88|388:88|235:143,1,240.000009155274,2|0,0:0|0:0,0:0:0:0:
129,197,103366,5,2,0:0:0:0:
420,270,105212,1,2,0:0:0:0:
135,327,107058,5,2,0:0:0:0:
374,146,108904,1,2,0:0:0:0:
146,80,110751,6,0,B|119:140|119:140|150:191|150:191|114:273,1,191.999994140625,4|2,0:0|0:0,0:0:0:0:
31,202,111443,1,0,0:0:0:0:
230,133,111674,2,0,P|293:136|327:154,1,95.9999970703126
490,46,112135,2,0,P|445:64|398:63,1,95.9999970703126,2|0,0:0|0:0,0:0:0:0:
441,175,112597,5,0,0:0:0:0:
298,40,112828,1,0,0:0:0:0:
255,228,113058,1,2,0:0:0:0:
441,175,113289,1,0,0:0:0:0:
187,109,113520,2,0,P|116:114|76:132,1,95.9999970703126
357,131,113981,2,0,P|388:67|392:23,1,95.9999970703126,2|0,0:0|0:0,0:0:0:0:
255,228,114443,6,0,L|267:336,1,95.9999970703126
371,269,114905,1,2,0:0:0:0:
141,220,115135,1,0,0:0:0:0:
387,150,115366,2,0,P|325:186|211:134,1,191.999994140625,0|2,0:0|0:0,0:0:0:0:
305,77,116058,1,0,0:0:0:0:
143,59,116289,6,0,B|202:155|202:155|188:239,1,191.999994140625,0|2,0:0|0:0,0:0:0:0:
81,177,116981,1,0,0:0:0:0:
319,227,117212,1,0,0:0:0:0:
178,364,117443,6,0,L|163:302,1,60.0000022888184,0|2,0:0|0:0,0:0:0:0:
