osu file format v14

[General]
AudioFilename: The Sims 3 Theme.mp3
AudioLeadIn: 0
PreviewTime: 94803
Countdown: 0
SampleSet: Soft
StackLeniency: 0.7
Mode: 0
LetterboxInBreaks: 0
WidescreenStoryboard: 0

[Editor]
DistanceSpacing: 0.2
BeatDivisor: 4
GridSize: 8
TimelineZoom: 2.2

[Metadata]
Title:The Sims 3 Theme
TitleUnicode:The Sims 3 Theme
Artist:Steve Jablonsky
ArtistUnicode:Steve Jablonsky
Creator:Element120
Version:Gerbit
Source:The Sims 3
Tags:The Sims 3 sims EA Electronic Arts Origin soundtrack main theme ts3
BeatmapID:1387192
BeatmapSetID:654429

[Difficulty]
HPDrainRate:5.5
CircleSize:3.8
OverallDifficulty:8
ApproachRate:9.2
SliderMultiplier:1.5
SliderTickRate:1

[Events]
//Background and Video events
0,0,"bg.jpg",0,0
//Break Periods
//Storyboard Layer 0 (Background)
//Storyboard Layer 1 (Fail)
//Storyboard Layer 2 (Pass)
//Storyboard Layer 3 (Foreground)
//Storyboard Sound Samples

[TimingPoints]
128,389.61038961039,4,2,0,100,1,0
95192,-100,4,2,0,100,0,1
110387,-100,4,2,0,100,0,0

[Colours]
Combo1 : 137,138,150
Combo2 : 228,22,48
Combo3 : 252,165,20
Combo4 : 245,251,36
Combo5 : 92,254,46
Combo6 : 19,7,233
Combo7 : 19,248,253
Combo8 : 237,3,237

[HitObjects]
240,32,128,5,0,0:0:0:0:
152,160,322,1,0,0:0:0:0:
272,248,517,1,0,0:0:0:0:
248,48,712,5,0,0:0:0:0:
152,176,907,1,0,0:0:0:0:
280,264,1102,1,0,0:0:0:0:
328,136,1296,5,0,0:0:0:0:
192,248,1491,1,0,0:0:0:0:
336,144,1686,5,0,0:0:0:0:
200,256,1881,1,0,0:0:0:0:
424,288,2076,1,0,0:0:0:0:
344,152,2270,5,0,0:0:0:0:
208,264,2465,1,0,0:0:0:0:
432,296,2660,1,0,0:0:0:0:
96,136,2855,6,0,L|128:88,3,37.5
160,72,3244,1,0,0:0:0:0:
352,216,3439,1,0,0:0:0:0:
136,312,3634,1,0,0:0:0:0:
168,80,3829,5,0,0:0:0:0:
360,224,4024,1,0,0:0:0:0:
144,320,4218,1,0,0:0:0:0:
352,72,4413,5,0,0:0:0:0:
216,176,4608,1,0,0:0:0:0:
360,80,4803,5,0,0:0:0:0:
120,112,4998,1,0,0:0:0:0:
192,320,5192,1,0,0:0:0:0:
328,136,5387,1,0,0:0:0:0:
88,72,5582,1,0,0:0:0:0:
240,336,5777,1,0,0:0:0:0:
376,112,5972,1,0,0:0:0:0:
144,216,6166,1,0,0:0:0:0:
144,96,6361,6,0,P|200:96|248:112,1,75
256,168,6751,1,0,0:0:0:0:
360,128,6946,1,0,0:0:0:0:
280,64,7140,2,0,P|232:64|200:72,1,75
112,288,7530,5,0,0:0:0:0:
208,304,7725,1,0,0:0:0:0:
168,216,7920,2,0,P|208:216|256:240,1,75
296,304,8309,2,0,P|360:304|392:296,1,75
448,288,8699,2,0,P|440:248|416:216,1,75
296,72,9089,5,0,0:0:0:0:
392,96,9283,1,0,0:0:0:0:
320,168,9478,2,0,P|272:168|240:184,1,75
448,176,9868,2,0,P|448:232|440:264,1,75
360,320,10257,6,0,P|328:296|280:296,1,75
264,200,10647,2,0,B|224:200|224:200|208:232,1,75
216,344,11037,1,0,0:0:0:0:
32,272,11231,1,0,0:0:0:0:
136,264,11426,6,0,P|152:216|168:192,1,75
192,144,11816,1,0,0:0:0:0:
144,16,12011,1,0,0:0:0:0:
248,48,12205,6,0,P|296:64|312:88,1,75
336,160,12595,2,0,P|344:216|328:248,1,75
296,304,12985,2,0,P|248:336|216:336,1,75
152,336,13374,2,0,P|112:320|80:272,1,75
112,176,13764,5,0,0:0:0:0:
200,224,13959,1,0,0:0:0:0:
160,312,14153,1,0,0:0:0:0:
272,288,14348,1,0,0:0:0:0:
248,176,14543,1,0,0:0:0:0:
136,200,14738,1,0,0:0:0:0:
88,272,14933,2,0,P|48:264|48:224,1,75
176,80,15322,6,0,P|232:80|272:88,1,75
264,144,15712,2,0,P|320:144|368:160,1,75
368,208,16102,2,0,P|352:264|328:288,1,75
280,280,16491,2,0,P|256:240|256:184,1,75
368,288,16881,2,0,L|464:288,1,75
144,136,17270,5,0,0:0:0:0:
176,160,17465,1,0,0:0:0:0:
200,120,17660,1,0,0:0:0:0:
232,144,17855,1,0,0:0:0:0:
264,104,18050,2,0,P|280:152|280:192,1,75
296,96,18439,2,0,P|304:144|304:184,1,75
408,80,18829,5,0,0:0:0:0:
368,312,19024,1,0,0:0:0:0:
144,256,19218,1,0,0:0:0:0:
200,48,19413,1,0,0:0:0:0:
152,256,19608,5,0,0:0:0:0:
208,48,19803,1,0,0:0:0:0:
400,80,19998,2,0,L|392:128,2,37.5
120,144,20387,6,0,P|176:152|216:176,1,75
296,56,20777,2,0,P|296:104|272:152,1,75
224,184,21166,1,0,0:0:0:0:
304,296,21361,1,0,0:0:0:0:
328,184,21556,2,0,B|368:176|368:176|408:184,1,75
416,272,21946,2,0,P|416:328|400:360,1,75
312,352,22335,5,0,0:0:0:0:
312,216,22530,1,0,0:0:0:0:
208,280,22725,2,0,P|200:240|176:208,1,75
80,96,23115,6,0,P|128:112|144:144,1,75
216,96,23504,2,0,B|216:152|216:152|192:192,1,75
176,240,23894,1,0,0:0:0:0:
296,184,24089,5,0,0:0:0:0:
360,96,24283,1,0,0:0:0:0:
432,256,24478,1,0,0:0:0:0:
360,320,24673,2,0,P|320:320|280:288,1,75
280,112,25063,6,0,L|248:184,1,75
216,248,25452,1,0,0:0:0:0:
320,312,25647,1,0,0:0:0:0:
352,192,25842,2,0,P|320:168|280:160,1,75
72,104,26231,6,0,P|64:160|80:208,1,75
176,72,26621,2,0,P|240:72|272:88,1,75
176,184,27011,2,0,P|168:224|144:248,1,75
264,184,27400,1,0,0:0:0:0:
304,96,27595,1,0,0:0:0:0:
360,184,27790,2,0,L|440:184,1,75
464,256,28179,2,0,P|469:312|453:336,1,75
368,272,28569,5,0,0:0:0:0:
288,208,28764,1,0,0:0:0:0:
272,304,28959,2,0,B|232:320|232:320|208:296,1,75
104,120,29348,6,0,B|104:168|104:168|128:216,1,75
184,152,29738,2,0,B|208:200|208:200|208:248,1,75
208,272,30128,1,0,0:0:0:0:
248,216,30322,1,0,0:0:0:0:
288,272,30517,1,0,0:0:0:0:
320,216,30712,1,0,0:0:0:0:
360,272,30907,2,0,B|400:272|400:272|432:248,1,75
144,104,31296,5,0,0:0:0:0:
144,240,31491,1,0,0:0:0:0:
272,184,31686,1,0,0:0:0:0:
272,40,31881,1,0,0:0:0:0:
392,112,32076,5,0,0:0:0:0:
392,272,32270,1,0,0:0:0:0:
272,184,32465,1,0,0:0:0:0:
272,40,32660,1,0,0:0:0:0:
152,96,32855,5,0,0:0:0:0:
360,48,33050,1,0,0:0:0:0:
344,288,33244,1,0,0:0:0:0:
128,328,33439,1,0,0:0:0:0:
152,96,33634,1,0,0:0:0:0:
256,192,33829,1,0,0:0:0:0:
344,288,34024,2,0,L|384:288,2,37.5
336,112,34413,6,0,L|336:72,2,37.5
208,136,34803,1,0,0:0:0:0:
296,240,34998,1,0,0:0:0:0:
120,280,35192,6,0,L|160:256,2,37.5
128,144,35582,1,0,0:0:0:0:
248,208,35777,1,0,0:0:0:0:
336,72,35972,6,0,L|360:104,2,37.5
352,208,36361,1,0,0:0:0:0:
224,144,36556,1,0,0:0:0:0:
232,296,36751,5,0,0:0:0:0:
152,192,36946,1,0,0:0:0:0:
184,80,37140,1,0,0:0:0:0:
288,16,37335,1,0,0:0:0:0:
344,144,37530,6,0,L|344:184,2,37.5
424,256,37920,1,0,0:0:0:0:
272,256,38115,1,0,0:0:0:0:
136,120,38309,6,0,L|152:72,2,37.5
264,128,38699,1,0,0:0:0:0:
200,232,38894,1,0,0:0:0:0:
376,280,39089,6,0,L|360:320,2,37.5
424,168,39478,1,0,0:0:0:0:
368,40,39673,1,0,0:0:0:0:
120,144,39868,6,0,L|120:96,2,37.5
232,80,40257,1,0,0:0:0:0:
232,224,40452,1,0,0:0:0:0:
408,168,40647,6,0,L|376:208,2,37.5
304,136,41037,1,0,0:0:0:0:
384,56,41231,1,0,0:0:0:0:
96,144,41426,6,0,L|96:192,2,37.5
96,256,41816,1,0,0:0:0:0:
216,144,42011,1,0,0:0:0:0:
304,224,42205,6,0,L|312:264,2,37.5
328,112,42595,1,0,0:0:0:0:
416,184,42790,1,0,0:0:0:0:
152,48,42985,6,0,L|128:80,2,37.5
144,168,43374,1,0,0:0:0:0:
256,240,43569,1,0,0:0:0:0:
320,64,43764,5,0,0:0:0:0:
368,232,43959,1,0,0:0:0:0:
256,176,44153,1,0,0:0:0:0:
408,80,44348,1,0,0:0:0:0:
464,280,44543,5,0,0:0:0:0:
272,256,44738,1,0,0:0:0:0:
168,104,44933,1,0,0:0:0:0:
144,288,45128,1,0,0:0:0:0:
248,160,45322,5,0,0:0:0:0:
304,296,45517,1,0,0:0:0:0:
104,208,45712,1,0,0:0:0:0:
144,48,45907,1,0,0:0:0:0:
320,80,46102,5,0,0:0:0:0:
296,168,46296,1,0,0:0:0:0:
224,224,46491,1,0,0:0:0:0:
128,208,46686,1,0,0:0:0:0:
112,88,46881,6,0,P|168:72|200:72,1,75
120,168,47270,1,0,0:0:0:0:
128,248,47465,1,0,0:0:0:0:
136,328,47660,6,0,P|176:320|216:320,1,75
216,248,48050,1,0,0:0:0:0:
208,168,48244,1,0,0:0:0:0:
200,88,48439,6,0,B|248:80|248:80|288:80,1,75
296,160,48829,1,0,0:0:0:0:
304,240,49024,1,0,0:0:0:0:
312,320,49218,6,0,B|352:320|352:320|384:304,1,75
384,232,49608,2,0,P|384:192|368:152,1,75
352,80,49998,6,0,P|288:96|264:128,1,75
280,176,50387,1,0,0:0:0:0:
360,160,50582,1,0,0:0:0:0:
368,240,50777,6,0,P|320:256|264:256,1,75
216,256,51166,1,0,0:0:0:0:
216,168,51361,1,0,0:0:0:0:
168,80,51556,5,0,0:0:0:0:
280,48,51751,1,0,0:0:0:0:
320,152,51946,1,0,0:0:0:0:
424,208,52140,1,0,0:0:0:0:
384,288,52335,5,0,0:0:0:0:
280,240,52530,1,0,0:0:0:0:
328,144,52725,1,0,0:0:0:0:
216,160,52920,1,0,0:0:0:0:
128,96,53115,6,0,P|120:160|128:184,1,75
128,248,53504,2,0,P|176:256|216:248,1,75
208,168,53894,2,0,P|216:128|208:88,1,75
288,96,54283,2,0,B|328:88|328:88|368:96,1,75
368,176,54673,6,0,P|376:216|368:256,1,75
288,256,55063,2,0,B|248:272|248:272|208:256,1,75
216,176,55452,2,0,P|256:144|304:144,1,75
352,136,55842,2,0,B|352:176|352:176|392:176,1,75
448,176,56231,5,0,0:0:0:0:
448,176,56426,1,0,0:0:0:0:
296,232,56621,1,0,0:0:0:0:
344,128,56816,1,0,0:0:0:0:
232,112,57011,5,0,0:0:0:0:
232,112,57205,1,0,0:0:0:0:
200,240,57400,1,0,0:0:0:0:
344,184,57595,1,0,0:0:0:0:
96,96,57790,5,0,0:0:0:0:
128,176,57985,1,0,0:0:0:0:
192,248,58179,1,0,0:0:0:0:
272,312,58374,1,0,0:0:0:0:
304,192,58569,1,0,0:0:0:0:
264,96,58764,1,0,0:0:0:0:
368,112,58959,1,0,0:0:0:0:
456,152,59153,1,0,0:0:0:0:
480,240,59348,5,0,0:0:0:0:
336,192,59543,1,0,0:0:0:0:
368,328,59738,1,0,0:0:0:0:
224,280,59933,1,0,0:0:0:0:
104,192,60128,1,0,0:0:0:0:
104,192,60322,5,0,0:0:0:0:
104,192,60420,1,0,0:0:0:0:
104,192,60517,1,0,0:0:0:0:
104,192,60615,1,0,0:0:0:0:
104,192,60712,1,0,0:0:0:0:
176,112,60907,5,0,0:0:0:0:
272,48,61102,1,0,0:0:0:0:
288,160,61296,1,0,0:0:0:0:
384,232,61491,1,0,0:0:0:0:
416,120,61686,5,0,0:0:0:0:
288,160,61881,1,0,0:0:0:0:
224,248,62076,1,0,0:0:0:0:
192,352,62270,1,0,0:0:0:0:
104,304,62465,5,0,0:0:0:0:
120,184,62660,1,0,0:0:0:0:
224,248,62855,1,0,0:0:0:0:
320,328,63050,1,0,0:0:0:0:
352,208,63244,5,0,0:0:0:0:
240,136,63439,1,0,0:0:0:0:
120,184,63634,2,0,L|136:224,3,37.5
152,256,64024,1,0,0:0:0:0:
224,168,64218,1,0,0:0:0:0:
320,120,64413,1,0,0:0:0:0:
360,216,64608,5,0,0:0:0:0:
288,312,64803,1,0,0:0:0:0:
432,312,64998,1,0,0:0:0:0:
480,192,65192,5,0,0:0:0:0:
432,80,65387,1,0,0:0:0:0:
264,80,65582,5,0,0:0:0:0:
224,184,65777,1,0,0:0:0:0:
224,184,65874,1,0,0:0:0:0:
224,184,65972,1,0,0:0:0:0:
224,184,66069,1,0,0:0:0:0:
224,184,66166,1,0,0:0:0:0:
224,184,66264,1,0,0:0:0:0:
224,184,66361,2,0,L|280:184,7,37.5
256,248,67140,5,0,0:0:0:0:
296,304,67335,1,0,0:0:0:0:
352,264,67530,2,0,P|352:208|384:192,1,75
440,200,67920,1,0,0:0:0:0:
336,152,68115,2,0,L|312:224,2,75
216,216,68699,5,0,0:0:0:0:
160,128,68894,2,0,P|200:120|224:88,2,75
288,160,69478,1,0,0:0:0:0:
376,96,69673,1,0,0:0:0:0:
400,184,69868,6,0,B|400:224|400:224|368:248,1,75
312,264,70257,2,0,P|256:264|232:248,1,75
192,224,70647,1,0,0:0:0:0:
120,144,70842,2,0,B|136:96|136:96|176:80,2,75
240,80,71426,1,0,0:0:0:0:
304,152,71621,1,0,0:0:0:0:
304,256,71816,5,0,0:0:0:0:
160,208,72011,1,0,0:0:0:0:
200,64,72205,1,0,0:0:0:0:
344,104,72400,1,0,0:0:0:0:
200,64,72595,1,0,0:0:0:0:
160,208,72790,1,0,0:0:0:0:
304,256,72985,2,0,P|352:256|384:272,1,75
440,200,73374,6,0,B|440:160|440:160|416:120,1,75
336,120,73764,2,0,B|296:136|296:136|296:184,1,75
336,248,74153,1,0,0:0:0:0:
216,296,74348,1,0,0:0:0:0:
232,176,74543,2,0,P|168:184|160:200,1,75
112,128,74933,5,0,0:0:0:0:
192,48,75128,2,0,B|240:48|240:48|240:88,2,75
248,176,75712,1,0,0:0:0:0:
336,136,75907,2,0,P|384:112|416:112,2,75
416,208,76491,2,0,L|416:288,1,75
336,312,76881,1,0,0:0:0:0:
240,232,77076,6,0,P|200:240|176:272,2,75
336,192,77660,2,0,P|400:184|424:176,1,75
336,96,78050,5,0,0:0:0:0:
240,72,78244,1,0,0:0:0:0:
256,160,78439,1,0,0:0:0:0:
176,216,78634,1,0,0:0:0:0:
120,136,78829,1,0,0:0:0:0:
208,72,79024,1,0,0:0:0:0:
264,152,79218,2,0,P|304:152|336:176,1,75
384,200,79608,5,0,0:0:0:0:
336,296,79803,1,0,0:0:0:0:
248,248,79998,1,0,0:0:0:0:
288,160,80192,1,0,0:0:0:0:
176,160,80387,1,0,0:0:0:0:
248,248,80582,1,0,0:0:0:0:
344,176,80777,1,0,0:0:0:0:
272,88,80972,1,0,0:0:0:0:
168,96,81166,6,0,P|160:144|168:184,1,75
176,248,81556,2,0,P|224:248|248:232,1,75
296,160,81946,1,0,0:0:0:0:
384,224,82140,6,0,B|352:272|352:272|352:320,2,75
392,144,82725,1,0,0:0:0:0:
328,96,82920,1,0,0:0:0:0:
264,136,83115,2,0,P|248:184|240:224,2,75
320,240,83699,6,0,P|368:224|392:200,2,75
416,128,84283,2,0,P|352:104|320:104,1,75
264,104,84673,2,0,P|200:120|176:136,1,75
151,240,85063,2,0,P|188:231|225:237,1,75
227,320,85452,2,0,P|184:328|152:320,1,75
312,240,85842,5,0,0:0:0:0:
328,128,86037,1,0,0:0:0:0:
208,104,86231,1,0,0:0:0:0:
168,200,86426,2,0,P|152:248|168:280,1,75
320,232,86816,2,0,P|320:176|312:152,2,75
272,88,87400,6,0,P|216:112|184:144,1,75
152,200,87790,2,0,P|168:248|168:288,2,75
48,232,88374,1,0,0:0:0:0:
64,96,88569,2,0,B|96:72|96:72|144:72,2,75
224,48,89153,1,0,0:0:0:0:
304,104,89348,2,0,P|352:104|376:120,2,75
424,192,89933,1,0,0:0:0:0:
336,256,90128,2,0,P|336:304|312:320,1,75
240,200,90517,5,0,0:0:0:0:
152,160,90712,1,0,0:0:0:0:
136,256,90907,1,0,0:0:0:0:
224,304,91102,1,0,0:0:0:0:
304,240,91296,2,0,P|352:232|392:232,1,75
376,152,91686,2,0,P|360:104|328:96,1,75
248,72,92076,5,0,0:0:0:0:
232,152,92270,1,0,0:0:0:0:
208,232,92465,1,0,0:0:0:0:
184,312,92660,1,0,0:0:0:0:
112,304,92855,5,0,0:0:0:0:
136,216,93050,1,0,0:0:0:0:
160,136,93244,1,0,0:0:0:0:
184,48,93439,1,0,0:0:0:0:
272,16,93634,5,0,0:0:0:0:
320,96,93829,1,0,0:0:0:0:
328,184,94024,1,0,0:0:0:0:
288,264,94218,1,0,0:0:0:0:
200,248,94413,5,0,0:0:0:0:
160,168,94608,1,0,0:0:0:0:
184,88,94803,2,0,P|224:72|256:64,1,75
352,64,95192,6,0,P|384:120|384:144,1,75
392,200,95582,2,0,P|368:240|336:256,1,75
256,256,95972,2,0,P|240:208|240:184,2,75
184,296,96556,1,0,0:0:0:0:
96,256,96751,2,0,P|112:176|112:176,1,75
176,136,97140,2,0,P|224:136|264:120,1,75
352,104,97530,2,0,P|360:160|384:192,1,75
304,272,97920,5,0,0:0:0:0:
184,248,98115,1,0,0:0:0:0:
256,168,98309,2,0,P|304:144|320:112,1,75
384,56,98699,2,0,P|440:64|480:96,1,75
456,176,99089,6,0,P|456:232|440:264,1,75
400,328,99478,2,0,P|344:336|296:352,1,75
200,344,99868,5,0,0:0:0:0:
144,272,100063,1,0,0:0:0:0:
184,184,100257,1,0,0:0:0:0:
272,136,100452,1,0,0:0:0:0:
376,120,100647,2,0,L|456:120,1,75
440,208,101037,6,0,P|416:264|384:280,1,75
288,264,101426,2,0,P|232:232|240:208,1,75
192,144,101816,2,0,P|168:112|112:104,1,75
48,96,102205,1,0,0:0:0:0:
112,16,102400,1,0,0:0:0:0:
200,72,102595,2,0,P|240:64|288:64,1,75
360,96,102985,5,0,0:0:0:0:
344,208,103179,1,0,0:0:0:0:
288,312,103374,2,0,B|224:304|224:304|216:272,1,75
152,224,103764,1,0,0:0:0:0:
192,112,103959,1,0,0:0:0:0:
312,88,104153,6,0,P|312:136|296:168,2,75
400,88,104738,1,0,0:0:0:0:
424,192,104933,1,0,0:0:0:0:
384,288,105128,1,0,0:0:0:0:
296,344,105322,1,0,0:0:0:0:
184,368,105517,1,0,0:0:0:0:
88,336,105712,2,0,P|88:296|64:272,1,75
96,160,106102,6,0,P|136:144|176:144,1,75
248,144,106491,2,0,P|312:144|352:160,1,75
400,176,106881,2,0,B|416:232|416:232|416:272,1,75
368,312,107270,2,0,P|328:336|288:344,1,75
216,280,107660,5,0,0:0:0:0:
256,112,107855,1,0,0:0:0:0:
432,160,108050,1,0,0:0:0:0:
400,328,108244,1,0,0:0:0:0:
208,320,108439,5,0,0:0:0:0:
88,152,108634,1,0,0:0:0:0:
256,24,108829,1,0,0:0:0:0:
440,120,109024,1,0,0:0:0:0:
320,296,109218,5,0,0:0:0:0:
208,144,109413,1,0,0:0:0:0:
152,336,109608,1,0,0:0:0:0:
168,56,109803,1,0,0:0:0:0:
400,176,109998,1,0,0:0:0:0:
416,328,110192,2,0,L|456:328,2,37.5
