osu file format v14

[General]
AudioFilename: Wolf's Rain - Steve Conte - Stray (TV Size).mp3
AudioLeadIn: 0
PreviewTime: 46842
Countdown: 0
SampleSet: Soft
StackLeniency: 0.7
Mode: 0
LetterboxInBreaks: 0
WidescreenStoryboard: 0

[Editor]
Bookmarks: 13972
DistanceSpacing: 1
BeatDivisor: 2
GridSize: 4
TimelineZoom: 1

[Metadata]
Title:Stray (TV Size)
TitleUnicode:
Artist:Steve Conte
ArtistUnicode:
Creator:Heldrith
Version:Raving Easy
Source:Wolf's Rain [ウルフズ・レイン]
Tags:Wolf's Rain ウルフズ・レイン Urufuzu rein Opening op OST Theme Steve Conte Stray Soundtrack
BeatmapID:1064394
BeatmapSetID:351077

[Difficulty]
HPDrainRate:2.5
CircleSize:2.5
OverallDifficulty:2.5
ApproachRate:2
SliderMultiplier:0.9
SliderTickRate:1

[Events]
//Background and Video events
Video,0,"Wolf's Rain Opening.avi"
0,0,"Wolf's Rain.jpg",0,0
//Break Periods
//Storyboard Layer 0 (Background)
//Storyboard Layer 1 (Fail)
//Storyboard Layer 2 (Pass)
//Storyboard Layer 3 (Foreground)
//Storyboard Sound Samples

[TimingPoints]
820,291.26213592233,4,2,1,100,1,0
47421,-100,4,2,1,100,0,1
63441,-100,4,2,1,100,0,0

[Colours]
Combo1 : 203,207,156
Combo2 : 104,128,109
Combo3 : 219,219,210
Combo4 : 104,105,92
SliderBorder : 150,160,150
SliderTrackOverride : 1,5,1 SpinnerBackground :
255,255,255

[HitObjects]
424,248,14218,6,0,P|370:232|308:256,1,90
260,280,14800,2,0,P|188:232|192:124,1,180,2|0,0:0|0:0,0:0:0:0:
272,136,15674,1,0,0:0:0:0:
324,64,15965,2,0,P|424:80|448:156,1,180
412,228,16839,1,0,0:0:0:0:
324,260,17130,6,0,B|288:228|288:228|216:232,1,90
256,320,17713,1,2,0:0:0:0:
92,252,18295,2,0,B|44:292|44:292|36:332,2,90,0|0|4,0:0|0:0|0:0,0:0:0:0:
36,184,19169,6,0,P|88:148|120:136,1,90
188,184,19752,1,0,0:0:0:0:
244,252,20043,1,4,0:0:0:0:
212,76,20625,6,0,B|264:36|264:36|296:36,2,90
152,144,21499,1,0,0:0:0:0:
208,216,21790,2,0,B|160:264|160:264|160:320,1,90
240,328,22373,1,4,0:0:0:0:
404,256,22955,6,0,P|424:176|404:152,1,90
332,172,23538,1,0,0:0:0:0:
292,252,23829,1,4,0:0:0:0:
204,268,24120,1,0,0:0:0:0:
120,236,24412,2,0,B|168:184|168:184|220:172,1,90,0|4,0:0|0:0,0:0:0:0:
316,52,25286,6,0,B|276:96|276:96|276:164,1,90,2|0,0:0|0:0,0:0:0:0:
364,132,25868,1,4,0:0:0:0:
328,308,26451,2,0,P|424:344|428:356,2,90
240,328,27324,1,0,0:0:0:0:
176,264,27616,2,0,B|136:296|136:296|112:352,2,90,0|2|4,0:0|0:0|0:0,0:0:0:0:
196,176,28489,38,0,P|268:184|288:208,1,90
348,256,29072,2,0,P|348:312|304:348,1,90,2|4,0:0|0:0,0:0:0:0:
380,164,29946,2,0,B|372:108|372:108|344:76,2,90,0|0|2,0:0|0:0|0:0,0:0:0:0:
292,180,30820,1,0,0:0:0:0:
216,232,31111,2,0,B|144:172|144:172|136:64,1,180,0|4,0:0|0:0,0:0:0:0:
256,192,32276,12,2,33441,0:0:0:0:
328,64,34023,6,0,P|384:68|416:128,1,90,4|0,0:0|0:0,0:0:0:0:
384,176,34606,2,0,B|456:228|456:228|472:304,2,135
362,263,35771,2,0,P|314:315|206:319,1,180,2|4,0:0|0:0,0:0:0:0:
141,262,36645,1,0,0:0:0:0:
64,99,37227,1,2,0:0:0:0:
151,121,37519,70,0,P|191:53|219:49,1,90
247,124,38101,1,0,0:0:0:0:
290,202,38392,2,0,L|374:134,1,90,2|4,0:0|0:0,0:0:0:0:
390,60,38975,1,0,0:0:0:0:
455,121,39266,2,0,B|479:203|479:203|473:242,1,90,2|0,0:0|0:0,0:0:0:0:
419,275,39849,1,4,0:0:0:0:
329,271,40140,6,0,B|241:303|241:303|213:339,2,135,0|0|4,0:0|0:0|0:0,0:0:0:0:
312,182,41305,1,0,0:0:0:0:
224,200,41596,2,0,P|144:184|128:148,1,90,2|0,0:0|0:0,0:0:0:0:
108,100,42179,1,0,0:0:0:0:
188,56,42470,1,4,0:0:0:0:
356,84,43053,6,0,B|428:104|428:104|436:148,1,90,0|2,0:0|0:0,0:0:0:0:
452,208,43635,2,0,P|432:268|308:284,1,180
240,312,44509,2,0,P|176:280|132:288,1,90,2|0,0:0|0:0,0:0:0:0:
72,244,45091,5,0,0:0:0:0:
74,153,45383,2,0,P|82:89|118:61,1,90
182,103,45965,2,0,P|246:49|345:91,1,180,2|0,0:0|0:0,0:0:0:0:
378,150,46839,1,4,0:0:0:0:
282,302,47421,5,2,0:0:0:0:
200,340,47713,1,0,0:0:0:0:
112,319,48004,1,8,0:0:0:0:
256,212,48586,1,0,0:0:0:0:
238,123,48878,2,0,P|190:71|146:63,1,90,2|8,0:0|0:0,0:0:0:0:
123,139,49460,38,0,P|63:191|47:191,1,90
92,274,50043,2,0,P|136:314|196:318,1,90,2|8,0:0|0:0,0:0:0:0:
260,324,50625,1,0,0:0:0:0:
352,324,50917,2,0,P|424:268|424:236,1,90,0|2,0:0|0:0,0:0:0:0:
444,188,51499,2,0,P|440:104|408:88,1,90,8|0,0:0|0:0,0:0:0:0:
360,140,52082,70,0,B|324:196|324:196|264:208,1,90,0|2,0:0|0:0,0:0:0:0:
216,228,52664,2,0,P|136:160|136:152,1,90,8|0,0:0|0:0,0:0:0:0:
156,96,53247,1,0,0:0:0:0:
245,84,53538,2,0,L|349:36,1,90,2|8,0:0|0:0,0:0:0:0:
367,221,54412,6,0,P|423:289|419:325,2,90,2|0|8,0:0|0:0|0:0,0:0:0:0:
279,200,55286,1,0,0:0:0:0:
300,288,55577,2,0,B|244:340|244:340|212:340,2,90,0|0|8,0:0|0:0|0:0,0:0:0:0:
216,253,56451,1,0,0:0:0:0:
132,220,56742,6,0,P|192:160|192:128,1,90,2|0,0:0|0:0,0:0:0:0:
108,124,57324,1,8,0:0:0:0:
180,72,57616,2,0,B|220:44|220:44|288:44,1,90,0|2,0:0|0:0,0:0:0:0:
348,72,58198,1,0,0:0:0:0:
437,66,58489,1,8,0:0:0:0:
420,236,59072,6,0,P|384:308|348:312,1,90,2|0,0:0|0:0,0:0:0:0:
304,264,59654,2,0,P|220:220|200:224,1,90,8|0,0:0|0:0,0:0:0:0:
220,308,60237,2,0,P|160:296|144:272,1,90
92,204,60820,2,0,P|89:135|124:112,1,90,8|0,0:0|0:0,0:0:0:0:
168,64,61402,5,2,0:0:0:0:
216,140,61693,1,0,0:0:0:0:
296,100,61985,1,0,0:0:0:0:
380,64,62276,2,0,B|424:68|424:68|472:100,2,90,0|0|2,0:0|0:0|0:0,0:0:0:0:
296,100,63150,1,8,0:0:0:0:
356,168,63441,6,0,P|356:256|336:276,1,90,0|2,0:0|0:0,0:0:0:0:
288,308,64023,1,0,0:0:0:0:
200,296,64315,2,0,P|144:332|88:320,1,90
116,152,65188,2,0,B|52:72,1,90,2|4,0:0|0:0,0:0:0:0:
140,40,65771,5,0,0:0:0:0:
228,44,66062,2,0,B|296:84|296:84|296:128,2,90,2|0|4,0:0|0:0|0:0,0:0:0:0:
204,132,66936,1,0,0:0:0:0:
60,240,67519,1,0,0:0:0:0:
144,212,67810,6,0,P|172:252|232:256,1,90,4|0,0:0|0:0,0:0:0:0:
292,300,68392,1,0,0:0:0:0:
382,294,68684,2,0,P|446:218|446:202,1,90,2|4,0:0|0:0,0:0:0:0:
396,160,69266,1,0,0:0:0:0:
236,72,69849,2,0,B|284:128|284:128|272:180,1,90,2|4,0:0|0:0,0:0:0:0:
236,220,70431,1,4,0:0:0:0:
156,180,70722,37,0,0:0:0:0:
288,300,71305,2,0,P|216:328|124:304,2,135,2|0|0,0:0|0:0|0:0,0:0:0:0:
376,316,72470,1,4,0:0:0:0:
408,232,72761,2,0,B|436:172|436:172|428:128,1,90,4|0,0:0|0:0,0:0:0:0:
304,208,73489,1,0,0:0:0:0:
108,320,74218,38,0,B|61:279|61:279|64:232,1,90,0|2,0:0|0:0,0:0:0:0:
124,184,74800,1,4,0:0:0:0:
152,100,75091,2,0,P|180:84|256:96,1,90,4|2,0:0|0:0,0:0:0:0:
320,244,75965,6,0,P|304:312|252:348,2,135,2|4|0,0:0|0:0|0:0,0:0:0:0:
332,156,77130,2,0,L|392:124,2,45,2|4|0,0:0|0:0|0:0,0:0:0:0:
248,192,77713,1,4,0:0:0:0:
256,192,78004,12,8,80334,0:0:0:0:
256,192,80625,12,2,84412,0:0:0:0:
