osu file format v14

[General]
AudioFilename: audio.mp3
AudioLeadIn: 0
PreviewTime: 13366
Countdown: 0
SampleSet: Soft
StackLeniency: 0.7
Mode: 0
LetterboxInBreaks: 0
WidescreenStoryboard: 0

[Editor]
DistanceSpacing: 0.7
BeatDivisor: 4
GridSize: 16
TimelineZoom: 1

[Metadata]
Title:Mighty Little Man (TV Size)
TitleUnicode:Mighty Little Man (TV Size)
Artist:Steve Burns
ArtistUnicode:Steve Burns
Creator:AJT
Version:Normal
Source:Young Sheldon
Tags:english alternative rock the big bang theory
BeatmapID:3794719
BeatmapSetID:1847277

[Difficulty]
HPDrainRate:2
CircleSize:4
OverallDifficulty:4
ApproachRate:5
SliderMultiplier:2.2
SliderTickRate:1

[Events]
//Background and Video events
0,0,"MV5BMDI2ZGEyYWItNWIzNC00YWJlLWFhOWYtZjMyMGU2MmFhOTBkXkEyXkFqcGdeQXRyYW5zY29kZS13b3JrZmxvdw@@._V1_.jpg",0,0
Video,13750,"aaaaaaaa.mp4"
//Break Periods
//Storyboard Layer 0 (Background)
//Storyboard Layer 1 (Fail)
//Storyboard Layer 2 (Pass)
//Storyboard Layer 3 (Foreground)
//Storyboard Layer 4 (Overlay)
//Storyboard Sound Samples

[TimingPoints]
280,685.714285714286,4,2,0,20,1,0
3022,689.655172413793,4,2,0,40,1,0
14056,681.818181818182,4,2,0,50,1,0
14056,-90.9090909090909,4,2,0,50,0,0
31101,-90.9090909090909,4,2,0,5,0,0

[Colours]
Combo1 : 128,64,0
Combo2 : 128,64,64
Combo3 : 0,128,192

[HitObjects]
256,192,280,12,0,2337,0:0:0:0:
0,144,3022,5,4,1:0:0:0:
0,144,3194,2,0,P|34:136|119:122,1,110,2|0,1:2|1:0,0:0:0:0:
150,159,3711,1,8,1:0:0:0:
170,266,4055,1,0,1:0:0:0:
207,307,4228,2,0,P|241:299|326:285,1,110,2|2,1:2|1:2,0:0:0:0:
369,276,4746,2,0,P|361:310|347:395,2,110,2|8|2,1:2|1:0|0:0,0:0:0:0:
476,244,5780,5,0,1:0:0:0:
508,199,5953,1,2,1:2:0:0:
421,131,6297,1,0,1:0:0:0:
385,91,6470,2,0,P|351:99|266:113,1,110,8|0,1:0|1:0,0:0:0:0:
223,122,6988,2,0,P|231:88|245:3,1,110,0|0,1:0|1:0,0:0:0:0:
189,6,7504,1,0,1:0:0:0:
87,49,7849,5,8,1:0:0:0:
117,154,8194,1,2,3:2:0:0:
49,240,8539,5,0,1:0:0:0:
97,266,8712,2,0,P|105:300|119:385,1,110,2|0,1:2|1:0,0:0:0:0:
171,365,9228,2,0,L|149:246,1,110,8|0,1:0|1:0,0:0:0:0:
204,243,9746,2,0,P|212:277|226:362,1,110,0|0,1:0|1:0,0:0:0:0:
278,364,10263,1,0,1:0:0:0:
349,280,10608,1,8,1:0:0:0:
275,197,10953,1,2,3:2:0:0:
193,124,11297,5,0,1:0:0:0:
219,76,11470,2,0,P|253:68|338:54,1,110,2|0,1:2|1:0,0:0:0:0:
372,24,11987,2,0,P|406:16|491:2,1,110,8|0,1:0|1:0,0:0:0:0:
507,50,12504,2,0,P|499:84|485:169,1,110,0|0,1:0|1:0,0:0:0:0:
447,196,13021,1,6,1:2:0:0:
453,305,13366,6,0,P|419:315|380:319,1,55,8|8,1:0|1:0,0:0:0:0:
359,355,13711,2,0,P|325:365|286:369,1,55,8|8,1:0|1:0,0:0:0:0:
266,320,14056,5,4,1:0:0:0:
266,320,14226,2,0,P|274:286|288:201,1,121.000003692627,2|0,0:0|1:0,0:0:0:0:
241,161,14737,1,8,1:0:0:0:
285,50,15078,1,0,1:0:0:0:
285,50,15249,2,0,P|226:24|171:8,1,121.000003692627,2|2,1:2|0:0,0:0:0:0:
172,68,15760,2,0,P|153:90|116:102,1,60.5000018463135,0|2,1:2|3:2,3:2:0:0:
65,113,16101,2,0,P|39:172|23:227,1,121.000003692627,8|2,1:0|0:0,0:0:0:0:
60,344,16783,6,0,P|88:364|128:379,1,60.5000018463135,0|2,1:0|1:2,0:0:0:0:
172,373,17124,2,0,P|200:352|226:322,1,60.5000018463135,2|0,3:2|1:0,0:0:0:0:
225,273,17465,1,8,1:0:0:0:
310,187,17806,2,0,P|346:181|383:184,1,60.5000018463135,0|0,1:0|1:0,0:0:0:0:
420,215,18146,2,0,B|452:175|430:138|462:101,1,121.000003692627,2|0,3:2|1:0,0:0:0:0:
507,63,18658,1,2,0:0:0:0:
507,63,18828,2,0,P|450:41|395:17,1,121.000003692627,8|2,1:0|0:0,0:0:0:0:
325,116,19510,6,0,P|315:90|296:62,1,60.5000018463135,0|0,1:0|1:0,0:0:0:0:
241,39,19851,2,0,P|214:43|181:56,1,60.5000018463135,2|0,3:2|1:0,0:0:0:0:
142,99,20192,1,8,1:0:0:0:
123,222,20533,1,0,1:0:0:0:
155,272,20703,2,0,B|195:304|232:282|269:314,1,121.000003692627,0|0,1:0|1:0,0:0:0:0:
315,349,21215,1,0,1:0:0:0:
434,330,21556,1,8,1:0:0:0:
461,212,21896,1,2,3:2:0:0:
376,125,22237,6,0,P|363:94|357:61,1,60.5000018463135,0|0,1:0|1:0,0:0:0:0:
329,20,22578,2,0,P|277:53|217:71,1,121.000003692627,2|8,3:2|1:0,0:0:0:0:
104,105,23260,1,0,1:0:0:0:
145,149,23431,2,0,P|127:206|94:257,1,121.000003692627,2|0,1:2|1:0,0:0:0:0:
37,278,23942,1,0,1:0:0:0:
140,346,24283,6,0,P|172:349|203:359,1,60.5000018463135,8|8,1:0|1:0,0:0:0:0:
240,349,24624,1,8,1:0:0:0:
273,323,24794,1,8,1:0:0:0:
270,280,24965,1,4,1:0:0:0:
256,192,25135,12,0,31101,0:0:0:0:
