osu file format v14

[General]
AudioFilename: audio.mp3
AudioLeadIn: 0
PreviewTime: 13366
Countdown: 0
SampleSet: Soft
StackLeniency: 0.7
Mode: 0
LetterboxInBreaks: 0
WidescreenStoryboard: 1

[Editor]
DistanceSpacing: 1
BeatDivisor: 4
GridSize: 16
TimelineZoom: 1

[Metadata]
Title:Mighty Little Man (TV Size)
TitleUnicode:Mighty Little Man (TV Size)
Artist:Steve Burns
ArtistUnicode:Steve Burns
Creator:AJT
Version:Courage
Source:Young Sheldon
Tags:english alternative rock the big bang theory
BeatmapID:3794749
BeatmapSetID:1847277

[Difficulty]
HPDrainRate:3
CircleSize:5
OverallDifficulty:5
ApproachRate:6
SliderMultiplier:2.6
SliderTickRate:1

[Events]
//Background and Video events
0,0,"MV5BMDI2ZGEyYWItNWIzNC00YWJlLWFhOWYtZjMyMGU2MmFhOTBkXkEyXkFqcGdeQXRyYW5zY29kZS13b3JrZmxvdw@@._V1_.jpg",0,0
Video,13750,"aaaaaaaa.mp4"
//Break Periods
//Storyboard Layer 0 (Background)
//Storyboard Layer 1 (Fail)
//Storyboard Layer 2 (Pass)
//Storyboard Layer 3 (Foreground)
//Storyboard Layer 4 (Overlay)
//Storyboard Sound Samples

[TimingPoints]
280,685.714285714286,4,2,0,20,1,0
3022,689.655172413793,4,2,0,40,1,0
14056,681.818181818182,4,2,0,50,1,0
14056,-90.9090909090909,4,2,0,50,0,0
31101,-90.9090909090909,4,2,0,5,0,0

[Colours]
Combo1 : 128,64,0
Combo2 : 128,64,64
Combo3 : 0,128,192

[HitObjects]
256,192,280,12,0,2680,0:0:0:0:
37,369,3022,5,4,1:0:0:0:
93,337,3194,2,0,P|101:303|117:197,1,130,2|0,1:2|1:0,0:0:0:0:
76,156,3711,1,8,1:0:0:0:
198,113,4055,1,0,1:0:0:0:
164,57,4228,1,2,1:2:0:0:
293,73,4573,1,2,1:2:0:0:
327,17,4746,1,2,1:2:0:0:
424,102,5090,1,8,1:0:0:0:
339,200,5435,1,2,3:2:0:0:
463,236,5780,5,0,1:0:0:0:
463,236,5953,1,2,1:2:0:0:
431,379,6297,1,0,1:0:0:0:
367,346,6470,2,0,P|333:338|240:324,1,130,8|0,1:0|1:0,0:0:0:0:
182,356,6987,2,0,P|148:364|55:378,1,130,0|0,1:0|1:0,0:0:0:0:
9,330,7504,1,0,1:0:0:0:
51,206,7849,1,8,1:0:0:0:
107,88,8194,1,2,3:2:0:0:
0,0,8539,5,0,1:0:0:0:
57,30,8712,2,0,P|91:38|187:54,1,130,2|0,1:2|1:0,0:0:0:0:
245,31,9228,2,0,P|279:39|375:55,1,130,8|0,1:0|1:0,0:0:0:0:
426,92,9746,2,0,P|361:101|298:115,1,130,0|0,1:0|1:0,0:0:0:0:
238,142,10263,1,0,1:0:0:0:
300,256,10608,1,8,1:0:0:0:
202,342,10953,1,2,3:2:0:0:
326,378,11297,5,0,1:0:0:0:
367,327,11470,2,0,P|359:293|341:185,1,130,2|0,1:2|1:0,0:0:0:0:
366,138,11987,2,0,P|400:130|496:114,1,130,8|0,1:0|1:0,0:0:0:0:
494,49,12504,1,0,1:0:0:0:
366,22,12849,1,0,1:0:0:0:
324,71,13021,1,6,1:2:0:0:
281,193,13366,5,8,1:0:0:0:
295,256,13538,1,8,1:0:0:0:
253,306,13711,1,8,1:0:0:0:
239,369,13883,1,8,1:0:0:0:
162,321,14056,5,4,1:0:0:0:
162,321,14226,2,0,P|154:287|134:173,1,143.000004364014,2|0,3:2|1:0,0:0:0:0:
72,145,14737,1,8,1:0:0:0:
209,98,15078,1,0,1:0:0:0:
209,98,15249,2,0,P|270:79|345:41,1,143.000004364014,2|2,1:2|0:0,0:0:0:0:
409,22,15760,1,0,1:0:0:0:
399,93,15931,2,0,P|373:152|366:174,1,71.5000021820069,2|8,0:0|1:0,0:0:0:0:
463,208,16442,1,2,3:2:0:0:
428,349,16783,5,0,1:0:0:0:
428,349,16953,1,2,1:2:0:0:
363,381,17124,2,0,P|327:376|293:366,1,71.5000021820069,2|0,3:2|1:0,0:0:0:0:
223,349,17465,1,8,1:0:0:0:
283,218,17806,2,0,P|293:184|296:139,1,71.5000021820069,0|0,1:0|1:0,0:0:0:0:
309,78,18146,2,0,B|262:40|219:66|177:29,1,143.000004364014,2|0,3:2|1:0,0:0:0:0:
108,8,18658,1,2,0:0:0:0:
66,66,18828,2,0,P|46:125|4:208,1,143.000004364014,8|2,1:0|0:0,0:0:0:0:
31,342,19510,5,0,1:0:0:0:
31,342,19681,1,0,1:0:0:0:
97,368,19851,2,0,P|128:364|167:343,1,71.5000021820069,2|0,3:2|1:0,0:0:0:0:
202,384,20192,2,0,P|206:344|224:208,1,143.000004364014,8|0,1:0|1:0,0:0:0:0:
249,177,20703,2,0,B|299:132|333:175|384:127,1,143.000004364014,0|0,1:0|1:0,0:0:0:0:
449,108,21215,1,0,1:0:0:0:
309,74,21556,1,8,1:0:0:0:
169,43,21896,1,2,3:2:0:0:
27,66,22237,6,0,P|14:97|5:139,1,71.5000021820069,0|0,1:0|1:0,0:0:0:0:
41,196,22578,1,2,3:2:0:0:
169,43,22919,2,0,B|225:57|242:5|314:21,1,143.000004364014,8|0,1:0|1:0,0:0:0:0:
367,58,23431,1,2,1:2:0:0:
256,192,23771,1,0,1:0:0:0:
256,192,23942,1,0,1:0:0:0:
281,270,24283,5,8,1:0:0:0:
188,240,24453,1,8,1:0:0:0:
188,143,24624,1,8,1:0:0:0:
281,113,24794,1,8,1:0:0:0:
338,192,24965,1,4,1:0:0:0:
256,192,25135,12,0,31101,0:0:0:0:
