osu file format v14

[General]
AudioFilename: audio.mp3
AudioLeadIn: 0
PreviewTime: 188821
Countdown: 1
SampleSet: Normal
StackLeniency: 0.7
Mode: 1
LetterboxInBreaks: 0
WidescreenStoryboard: 0

[Editor]
Bookmarks: 11940,26594,33747,41131,52667,62360,68850,83592,91786,100093,111746
DistanceSpacing: 1.5
BeatDivisor: 4
GridSize: 4
TimelineZoom: 2.999999

[Metadata]
Title:Azukita
TitleUnicode:Azukita
Artist:Steve Aoki, Daddy Yankee, Play-N-Skillz & Elvis Crespo
ArtistUnicode:Steve Aoki, Daddy Yankee, Play-N-Skillz & Elvis Crespo
Creator:Warfu
Version:Semi-Converted Diabetes
Source:
Tags:
BeatmapID:1754966
BeatmapSetID:838241

[Difficulty]
HPDrainRate:5
CircleSize:2
OverallDifficulty:5
ApproachRate:5
SliderMultiplier:1.40399919045627
SliderTickRate:1

[Events]
//Background and Video events
0,0,"azukita loading.jpg",0,0
Video,360,"la coreo esta bien prrona.mp4"
//Break Periods
//Storyboard Layer 0 (Background)
//Storyboard Layer 1 (Fail)
//Storyboard Layer 2 (Pass)
//Storyboard Layer 3 (Foreground)
//Storyboard Sound Samples

[TimingPoints]
11594,461.538461538462,4,1,0,40,1,0
19324,-95.2380952380952,4,1,0,40,0,0
21170,-90.9090909090909,4,1,0,40,0,0
22094,-86.9565217391304,4,1,0,40,0,0
23940,-71.4285714285714,4,1,0,40,0,0
24863,-58.8235294117647,4,1,0,40,0,0
25209,-50,4,1,0,40,0,0
25324,-34.4827586206897,4,1,0,40,0,0
25613,-40,4,1,0,40,0,0
25786,-37.7358490566038,4,1,0,40,0,0
26247,-40,4,1,0,40,0,0
26824,-125,4,1,0,40,0,0
28670,-117.647058823529,4,1,0,40,0,0
30517,-111.111111111111,4,1,0,40,0,0
32594,-107.52688172043,4,1,0,45,0,0
33747,-105.263157894737,4,1,0,50,0,0
36055,-100,4,1,0,55,0,0
37440,-97.0873786407767,4,1,0,55,0,0
39055,-90.9090909090909,4,1,0,55,0,0
39286,-83.3333333333333,4,1,0,57,0,0
39517,-76.9230769230769,4,1,0,60,0,0
39747,-71.4285714285714,4,1,0,80,0,0
39978,-66.6666666666667,4,1,0,80,0,0
40209,-58.8235294117647,4,1,0,85,0,0
40440,-47.6190476190476,4,1,0,70,0,0
40824,-40,4,1,0,70,0,0
40978,230.769230769231,4,1,0,85,1,0
40978,-62.5,4,1,0,85,0,0
41132,230.769230769231,4,1,0,85,1,0
41132,-33.3333333333333,4,1,0,85,0,1
42516,-50,4,1,0,85,0,0
42978,-55.5555555555556,4,1,0,85,0,1
44363,-62.5,4,1,0,85,0,0
44824,-62.5,4,1,0,85,0,1
46209,-55.5555555555556,4,1,0,85,0,0
46670,-62.5,4,1,0,85,0,1
47363,461.538461538462,4,1,0,85,1,1
47478,-40,4,1,0,40,0,1
47593,-40,4,1,0,85,0,0
47766,-40,4,1,0,40,0,0
48516,461.538461538462,4,1,0,85,1,1
48516,-36.3636363636364,4,1,0,85,0,1
49900,-33.3333333333333,4,1,0,85,0,0
50362,-33.3333333333333,4,1,0,85,0,1
51746,-38.4615384615385,4,1,0,85,0,0
52208,-38.4615384615385,4,1,0,85,0,1
53592,-40,4,1,0,85,0,0
54054,-41.6666666666667,4,1,0,75,0,1
54169,-41.6666666666667,4,1,0,40,0,1
54400,-43.4782608695652,4,1,0,40,0,1
54746,-45.4545454545455,4,1,0,40,0,1
54977,-47.6190476190476,4,1,0,70,0,0
55208,-48.780487804878,4,1,0,55,0,0
55900,-47.6190476190476,4,1,0,55,0,1
56246,-47.6190476190476,4,1,0,55,0,1
63283,-67.5675675675676,4,1,0,55,0,1
63514,-57.1428571428571,4,1,0,55,0,1
63744,-48.3091787439614,4,1,0,55,0,1
63975,-44.0528634361233,4,1,0,55,0,1
64206,-41.1522633744856,4,1,0,55,0,1
64437,-39.2156862745098,4,1,0,55,0,1
64667,-38.4615384615385,4,1,0,55,0,1
65129,-28.5714285714286,4,1,0,55,0,1
66977,230.769230769231,4,1,0,55,1,1
66977,-50,4,1,0,55,0,1
67092,230.769230769231,4,1,0,55,1,1
67092,-50,4,1,0,55,0,1
67208,230.769230769231,4,1,0,55,1,1
67208,-50,4,1,0,55,0,1
67323,230.769230769231,4,1,0,55,1,1
67323,-50,4,1,0,55,0,1
67439,230.769230769231,4,1,0,55,1,1
67439,-50,4,1,0,55,0,1
67554,230.769230769231,4,1,0,55,1,1
67554,-50,4,1,0,55,0,1
67669,230.769230769231,4,1,0,55,1,1
67669,-50,4,1,0,55,0,1
67784,230.769230769231,4,1,0,55,1,1
67784,-50,4,1,0,55,0,1
67900,230.769230769231,4,1,0,55,1,1
67900,-50,4,1,0,55,0,1
68015,230.769230769231,4,1,0,55,1,1
68015,-50,4,1,0,55,0,1
68131,230.769230769231,4,1,0,55,1,1
68131,-50,4,1,0,55,0,1
68246,230.769230769231,4,1,0,55,1,1
68246,-50,4,1,0,55,0,1
68362,461.538461538462,4,1,0,55,1,1
68362,-33.3333333333333,4,1,0,55,0,1
68708,-33.3333333333333,4,1,0,55,0,0
69285,461.538461538462,4,1,0,55,1,0
69285,-55.5555555555556,4,1,0,70,0,0
70669,461.538461538462,4,1,0,60,1,1
70669,-43.4782608695652,4,1,0,60,0,1
72515,-55.5555555555556,4,1,0,60,0,0
73438,-76.9230769230769,4,1,0,60,0,0
74361,-125,4,1,0,60,0,1
75630,-76.9230769230769,4,1,0,60,0,1
76207,-55.5555555555556,4,1,0,60,0,0
77130,-43.4782608695652,4,1,0,60,0,0
77592,-41.6666666666667,4,1,0,60,0,0
78053,-47.6190476190476,4,1,0,55,0,1
79899,-47.6190476190476,4,1,0,55,0,0
80822,-37.037037037037,4,1,0,55,0,0
81169,-43.4782608695652,4,1,0,55,0,0
81745,-47.6190476190476,4,1,0,55,0,1
83476,-47.6190476190476,4,1,0,55,0,0
83592,-25,4,1,0,55,0,0
84286,461.538461538462,4,1,0,55,1,0
84286,-55.5555555555556,4,1,0,55,0,0
84361,-46.5116279069767,4,1,0,55,0,0
84439,-40,4,1,0,55,0,0
84516,-35.0877192982456,4,1,0,55,0,0
84670,-38.4615384615385,4,1,0,55,0,0
84824,-42.5531914893617,4,1,0,55,0,0
84978,-33.3333333333333,4,1,0,55,0,0
85440,461.538461538462,4,1,0,70,1,1
85440,-28.5714285714286,4,1,0,70,0,1
85555,-55.5555555555556,4,1,0,70,0,1
91209,-54.054054054054,4,1,0,70,0,1
91555,-52.9100529100529,4,1,0,70,0,1
91901,-51.8134715025907,4,1,0,70,0,1
92247,-50.761421319797,4,1,0,70,0,1
92593,-49.7512437810945,4,1,0,70,0,1
92824,-48.780487804878,4,1,0,70,0,1
96286,-52.6315789473684,4,1,0,65,0,1
97209,-55.5555555555556,4,1,0,60,0,1
98363,-100,4,1,0,40,0,0
98478,-98.0392156862745,4,1,0,42,0,0
98593,-95.2380952380952,4,1,0,45,0,0
98709,-90.9090909090909,4,1,0,48,0,0
98824,-86.9565217391304,4,1,0,50,0,0
98940,-83.3333333333333,4,1,0,52,0,0
99055,-76.9230769230769,4,1,0,55,0,0
99170,-71.4285714285714,4,1,0,58,0,0
99286,-50,4,1,0,40,0,0
99363,-50,4,1,0,55,0,0
99440,-50,4,1,0,50,0,0
99516,-50,4,1,0,67,0,0
99747,-33.3333333333333,4,1,0,75,0,0
100093,-40,4,1,0,70,0,0
100209,230.769230769231,4,1,0,80,1,1
100209,-33.3333333333333,4,1,0,80,0,1
101593,-50,4,1,0,80,0,0
102055,-55.5555555555556,4,1,0,80,0,1
103439,-62.5,4,1,0,80,0,0
103901,-62.5,4,1,0,80,0,1
105285,-55.5555555555556,4,1,0,80,0,0
105747,-62.5,4,1,0,80,0,1
106440,461.538461538462,4,1,0,60,1,1
106440,-40,4,1,0,80,0,1
106670,-44.4444444444445,4,1,0,80,0,0
107132,-40,4,1,0,80,0,0
107594,461.538461538462,4,1,0,65,1,1
107594,-36.3636363636364,4,1,0,65,0,1
108978,-33.3333333333333,4,1,0,65,0,0
109440,-33.3333333333333,4,1,0,65,0,1
110824,-38.4615384615385,4,1,0,65,0,0
111286,-38.4615384615385,4,1,0,65,0,1
112670,-40,4,1,0,65,0,0
113132,-41.6666666666667,4,1,0,65,0,1
113478,-43.4782608695652,4,1,0,65,0,1
113594,-43.4782608695652,4,1,0,40,0,1
113824,-45.4545454545455,4,1,0,55,0,1
114055,-38.4615384615385,4,1,0,70,0,0
114170,-47.6190476190476,4,1,0,55,0,0
114286,-48.780487804878,4,1,0,55,0,0
114978,-45.4545454545455,4,1,0,55,0,1
116363,-33.3333333333333,4,1,0,55,0,1
116940,-45.4545454545455,4,1,0,55,0,1
118209,-33.3333333333333,4,1,0,55,0,1
118728,-45.4545454545455,4,1,0,55,0,1
120747,-43.4782608695652,4,1,0,55,0,1
120863,-47.6190476190476,4,1,0,55,0,1
120978,-43.4782608695652,4,1,0,55,0,1
121209,-47.6190476190476,4,1,0,55,0,1
121324,-43.4782608695652,4,1,0,55,0,1
121440,-47.6190476190476,4,1,0,55,0,1
121670,-43.4782608695652,4,1,0,55,0,1
121786,-47.6190476190476,4,1,0,55,0,1
121901,-43.4782608695652,4,1,0,55,0,1
122132,-47.6190476190476,4,1,0,55,0,1
122247,-43.4782608695652,4,1,0,55,0,1
122363,-25,4,1,0,55,0,1
122594,-303.030303030303,4,1,0,55,0,1
122824,-27.3224043715847,4,1,0,55,0,1
123055,-151.515151515152,4,1,0,55,0,1
123286,-30.03003003003,4,1,0,55,0,1
123517,-100,4,1,0,55,0,1
123747,-33.3333333333333,4,1,0,55,0,1
123978,-75.187969924812,4,1,0,55,0,1
124209,-37.593984962406,4,1,0,55,0,1
124440,-60.2409638554217,4,1,0,55,0,1
124670,-42.9184549356223,4,1,0,55,0,1
124901,-50,4,1,0,55,0,1
125132,-50,4,1,0,55,0,1
125363,-42.9184549356223,4,1,0,55,0,1
125594,-60.2409638554217,4,1,0,55,0,1
125824,-37.593984962406,4,1,0,55,0,1
126055,-75.187969924812,4,1,0,55,0,1
126286,-33.3333333333333,4,1,0,55,0,1
126517,-100,4,1,0,55,0,1
126747,-30.03003003003,4,1,0,55,0,1
126978,-151.515151515152,4,1,0,55,0,1
127209,-27.3224043715847,4,1,0,55,0,1
127440,-303.030303030303,4,1,0,55,0,1
127670,-25,4,1,0,55,0,1
127786,-45.4545454545455,4,1,0,55,0,0
127786,-45.4545454545455,4,1,0,55,0,0
203325,-100,4,1,0,40,0,0
203594,-100,4,1,0,40,0,1
216517,-100,4,1,0,40,0,0
218363,-100,4,1,0,40,0,1
231286,-100,4,1,0,40,0,0

[HitObjects]
256,191,11940,5,8,0:0:0:0:
256,191,12055,1,0,0:0:0:0:
256,191,12286,1,8,0:0:0:0:
256,191,12517,1,0,0:0:0:0:
256,191,12863,1,8,0:0:0:0:
256,191,12978,1,0,0:0:0:0:
256,191,13209,1,8,0:0:0:0:
256,191,13440,1,0,0:0:0:0:
256,191,13786,1,8,0:0:0:0:
256,191,13901,1,0,0:0:0:0:
256,191,14132,1,8,0:0:0:0:
256,191,14363,1,0,0:0:0:0:
256,191,14709,1,8,0:0:0:0:
256,191,14824,1,0,0:0:0:0:
256,191,15055,1,8,0:0:0:0:
256,191,15286,1,0,0:0:0:0:
256,191,15517,1,2,0:0:0:0:
256,191,15747,1,2,0:0:0:0:
256,191,15978,1,10,0:0:0:0:
256,191,16209,1,0,0:0:0:0:
256,191,16555,1,8,0:0:0:0:
256,191,16670,1,0,0:0:0:0:
256,191,16901,1,8,0:0:0:0:
256,191,17132,1,0,0:0:0:0:
256,191,17478,1,8,0:0:0:0:
256,191,17594,1,0,0:0:0:0:
256,191,17824,1,2,0:0:0:0:
256,191,18055,1,2,0:0:0:0:
256,191,18286,1,2,0:0:0:0:
256,191,18517,1,2,0:0:0:0:
256,191,18747,1,2,0:0:0:0:
256,191,18863,1,2,0:0:0:0:
256,191,18978,1,0,0:0:0:0:
256,191,19324,1,8,0:0:0:0:
256,191,19440,1,0,0:0:0:0:
256,191,19670,1,8,0:0:0:0:
256,191,19901,1,0,0:0:0:0:
256,191,20017,1,0,0:0:0:0:
256,191,20247,1,8,0:0:0:0:
256,191,20363,1,0,0:0:0:0:
256,191,20478,1,8,0:0:0:0:
256,191,20709,1,2,0:0:0:0:
256,191,20824,1,0,0:0:0:0:
256,191,21170,1,8,0:0:0:0:
256,191,21286,1,0,0:0:0:0:
256,191,21517,1,8,0:0:0:0:
256,191,21632,1,8,0:0:0:0:
256,191,21747,1,0,0:0:0:0:
256,191,22094,1,2,0:0:0:0:
256,191,22209,1,0,0:0:0:0:
256,191,22324,1,2,0:0:0:0:
256,191,22555,1,10,0:0:0:0:
256,191,22670,1,0,0:0:0:0:
256,191,22786,1,8,0:0:0:0:
256,191,23017,1,8,0:0:0:0:
256,191,23132,1,0,0:0:0:0:
256,191,23363,1,8,0:0:0:0:
256,191,23594,1,0,0:0:0:0:
256,191,23940,1,8,0:0:0:0:
256,191,24055,1,0,0:0:0:0:
256,191,24286,1,8,0:0:0:0:
256,191,24517,1,0,0:0:0:0:
256,191,24863,1,8,0:0:0:0:
256,191,24978,1,0,0:0:0:0:
256,191,25209,1,8,0:0:0:0:
256,191,25324,1,0,0:0:0:0:
256,191,25382,1,0,0:0:0:0:
256,191,25440,1,8,0:0:0:0:
256,191,25613,1,8,0:0:0:0:
256,191,25786,1,8,0:0:0:0:
256,191,25901,1,8,0:0:0:0:
256,191,25988,1,0,0:0:0:0:
256,191,26074,1,8,0:0:0:0:
256,191,26247,1,8,0:0:0:0:
256,191,26363,1,4,0:0:0:0:
256,191,27286,1,0,0:0:0:0:
256,191,27632,1,0,0:0:0:0:
256,191,27747,1,0,0:0:0:0:
256,191,27978,1,0,0:0:0:0:
256,191,28209,1,8,0:0:0:0:
256,191,28670,1,0,0:0:0:0:
256,191,28901,1,0,0:0:0:0:
256,191,29132,1,0,0:0:0:0:
256,191,29247,1,0,0:0:0:0:
256,191,29478,1,0,0:0:0:0:
256,191,29594,1,0,0:0:0:0:
256,191,29824,1,0,0:0:0:0:
256,191,30055,1,8,0:0:0:0:
256,191,30517,1,0,0:0:0:0:
256,191,30747,1,0,0:0:0:0:
256,191,30978,1,0,0:0:0:0:
256,191,31094,1,0,0:0:0:0:
256,191,31324,1,8,0:0:0:0:
256,191,31440,1,0,0:0:0:0:
256,191,31670,1,8,0:0:0:0:
256,191,31901,1,0,0:0:0:0:
256,191,32132,1,2,0:0:0:0:
256,191,32594,1,2,0:0:0:0:
256,191,32824,1,0,0:0:0:0:
256,191,32940,1,8,0:0:0:0:
256,191,33170,1,8,0:0:0:0:
256,191,33286,1,0,0:0:0:0:
256,191,33517,1,8,0:0:0:0:
256,191,33747,1,0,0:0:0:0:
256,191,33978,1,2,0:0:0:0:
256,191,34209,1,0,0:0:0:0:
256,191,34440,1,2,0:0:0:0:
256,191,34670,1,0,0:0:0:0:
256,191,34786,1,8,0:0:0:0:
256,191,35017,1,8,0:0:0:0:
256,191,35132,1,0,0:0:0:0:
256,191,35363,1,0,0:0:0:0:
256,191,35594,1,2,0:0:0:0:
256,191,36055,1,8,0:0:0:0:
256,191,36286,1,0,0:0:0:0:
256,191,36517,1,0,0:0:0:0:
256,191,36632,1,8,0:0:0:0:
256,191,36863,1,8,0:0:0:0:
256,191,36978,1,0,0:0:0:0:
256,191,37209,1,8,0:0:0:0:
256,191,37440,1,0,0:0:0:0:
256,191,37670,1,8,0:0:0:0:
256,191,37901,1,0,0:0:0:0:
256,191,38132,1,8,0:0:0:0:
256,191,38363,1,0,0:0:0:0:
256,191,38478,1,8,0:0:0:0:
256,191,38709,1,8,0:0:0:0:
256,191,38824,1,0,0:0:0:0:
256,191,39055,1,8,0:0:0:0:
256,191,39286,1,0,0:0:0:0:
256,191,39517,1,8,0:0:0:0:
256,191,39747,1,0,0:0:0:0:
256,191,39978,1,8,0:0:0:0:
256,191,40209,1,0,0:0:0:0:
256,191,40324,1,8,0:0:0:0:
256,191,40440,1,0,0:0:0:0:
256,191,40497,1,0,0:0:0:0:
256,191,40555,1,0,0:0:0:0:
256,191,40613,1,0,0:0:0:0:
256,191,40670,1,2,0:0:0:0:
256,191,40824,1,2,0:0:0:0:
256,191,40978,1,2,0:0:0:0:
256,191,41132,1,4,0:0:0:0:
256,191,42516,1,12,0:0:0:0:
256,191,42978,1,4,0:0:0:0:
256,191,44363,1,4,0:0:0:0:
256,191,44517,1,4,0:0:0:0:
256,191,44670,1,4,0:0:0:0:
256,191,44824,1,12,0:0:0:0:
256,191,46209,1,12,0:0:0:0:
256,191,46670,1,4,0:0:0:0:
256,191,47478,1,8,0:0:0:0:
256,191,47536,1,8,0:0:0:0:
256,191,47593,1,8,0:0:0:0:
256,191,47766,1,8,0:0:0:0:
256,191,47939,1,8,0:0:0:0:
256,191,48055,1,8,0:0:0:0:
256,191,48228,1,8,0:0:0:0:
256,191,48401,1,8,0:0:0:0:
256,191,48516,1,4,0:0:0:0:
256,191,49900,1,12,0:0:0:0:
256,191,50362,1,4,0:0:0:0:
256,191,51746,1,4,0:0:0:0:
256,191,51900,1,4,0:0:0:0:
256,191,52054,1,4,0:0:0:0:
256,191,52208,1,12,0:0:0:0:
256,191,53592,1,12,0:0:0:0:
256,191,54054,1,4,0:0:0:0:
256,191,54169,1,8,0:0:0:0:
256,191,54400,1,8,0:0:0:0:
256,191,54746,1,8,0:0:0:0:
256,191,54977,1,4,0:0:0:0:
256,191,55208,1,0,0:0:0:0:
256,191,55266,1,0,0:0:0:0:
256,191,55323,1,0,0:0:0:0:
256,191,55381,1,0,0:0:0:0:
256,191,55439,1,2,0:0:0:0:
256,191,55554,1,8,0:0:0:0:
201,183,55669,1,0,0:0:0:0:
201,183,55785,1,2,0:0:0:0:
256,191,55900,1,4,0:0:0:0:
256,191,56246,1,0,0:0:0:0:
256,191,56362,1,8,0:0:0:0:
256,191,56592,1,8,0:0:0:0:
256,191,56708,1,8,0:0:0:0:
256,191,56823,1,0,0:0:0:0:
256,191,56939,1,8,0:0:0:0:
256,191,57169,1,8,0:0:0:0:
256,191,57285,1,0,0:0:0:0:
256,191,57516,1,8,0:0:0:0:
256,191,57746,1,8,0:0:0:0:
256,191,57977,1,0,0:0:0:0:
256,191,58092,1,0,0:0:0:0:
256,191,58208,1,8,0:0:0:0:
256,191,58439,1,8,0:0:0:0:
256,191,58669,1,0,0:0:0:0:
256,191,58785,1,8,0:0:0:0:
256,191,58900,1,0,0:0:0:0:
256,191,59016,1,8,0:0:0:0:
256,191,59246,1,0,0:0:0:0:
256,191,59362,1,8,0:0:0:0:
256,191,59592,1,8,0:0:0:0:
256,191,59823,1,8,0:0:0:0:
256,191,59939,1,0,0:0:0:0:
256,191,60054,1,8,0:0:0:0:
256,191,60285,1,8,0:0:0:0:
256,191,60516,1,8,0:0:0:0:
256,191,60631,1,0,0:0:0:0:
256,191,60746,1,0,0:0:0:0:
256,191,60862,1,8,0:0:0:0:
256,191,60977,1,8,0:0:0:0:
256,191,61092,1,0,0:0:0:0:
256,191,61208,1,8,0:0:0:0:
256,191,61439,1,8,0:0:0:0:
256,191,61554,1,0,0:0:0:0:
256,191,61669,1,8,0:0:0:0:
256,191,61785,1,8,0:0:0:0:
256,191,61900,1,8,0:0:0:0:
256,191,62016,1,0,0:0:0:0:
256,191,62131,1,8,0:0:0:0:
256,191,62362,1,8,0:0:0:0:
256,191,62477,1,0,0:0:0:0:
256,191,62592,1,8,0:0:0:0:
256,191,62708,1,8,0:0:0:0:
256,191,62823,1,8,0:0:0:0:
256,191,62939,1,0,0:0:0:0:
256,191,63054,1,8,0:0:0:0:
256,191,63285,1,8,0:0:0:0:
256,191,63400,1,0,0:0:0:0:
256,191,63516,1,8,0:0:0:0:
256,191,63631,1,0,0:0:0:0:
256,191,63746,1,8,0:0:0:0:
256,191,63862,1,0,0:0:0:0:
256,191,63977,1,8,0:0:0:0:
256,191,64092,1,0,0:0:0:0:
256,191,64208,1,8,0:0:0:0:
256,191,64323,1,0,0:0:0:0:
256,191,64439,1,8,0:0:0:0:
256,191,64554,1,0,0:0:0:0:
256,191,64669,1,8,0:0:0:0:
256,191,64785,1,0,0:0:0:0:
256,191,64900,1,8,0:0:0:0:
256,191,65016,1,0,0:0:0:0:
256,191,65131,1,12,0:0:0:0:
256,191,65362,1,12,0:0:0:0:
256,191,65592,1,12,0:0:0:0:
256,191,65823,1,12,0:0:0:0:
256,191,66054,1,12,0:0:0:0:
256,191,66285,1,12,0:0:0:0:
256,191,66516,1,12,0:0:0:0:
256,191,66746,1,12,0:0:0:0:
256,191,66977,1,12,0:0:0:0:
256,191,67092,1,4,0:0:0:0:
256,191,67208,1,12,0:0:0:0:
256,191,67323,1,4,0:0:0:0:
256,191,67439,1,12,0:0:0:0:
256,191,67554,1,4,0:0:0:0:
256,191,67669,1,12,0:0:0:0:
256,191,67784,1,4,0:0:0:0:
256,191,67900,1,12,0:0:0:0:
256,191,68015,1,4,0:0:0:0:
256,191,68131,1,12,0:0:0:0:
256,191,68246,1,4,0:0:0:0:
256,191,68362,1,8,0:0:0:0:
256,191,68477,1,8,0:0:0:0:
256,191,68592,1,8,0:0:0:0:
256,191,68708,1,0,0:0:0:0:
256,191,68823,1,0,0:0:0:0:
256,191,69631,1,0,0:0:0:0:
256,191,69688,1,0,0:0:0:0:
256,191,69746,1,8,0:0:0:0:
256,191,69919,1,8,0:0:0:0:
256,191,70092,1,8,0:0:0:0:
256,191,70208,1,8,0:0:0:0:
256,191,70381,1,8,0:0:0:0:
256,191,70554,1,8,0:0:0:0:
256,191,70669,1,4,0:0:0:0:
256,191,70899,1,8,0:0:0:0:
256,191,71015,1,0,0:0:0:0:
256,191,71130,1,0,0:0:0:0:
256,191,71361,1,8,0:0:0:0:
256,191,71592,1,0,0:0:0:0:
256,191,71707,1,8,0:0:0:0:
256,191,71938,1,8,0:0:0:0:
256,191,72053,1,0,0:0:0:0:
256,191,72284,1,8,0:0:0:0:
256,191,72515,1,0,0:0:0:0:
256,191,72745,1,8,0:0:0:0:
256,191,72976,1,0,0:0:0:0:
256,191,73438,1,0,0:0:0:0:
256,191,73553,1,8,0:0:0:0:
256,191,73784,1,8,0:0:0:0:
256,191,73899,1,0,0:0:0:0:
256,191,74130,1,8,0:0:0:0:
256,191,74361,1,0,0:0:0:0:
256,191,74822,1,8,0:0:0:0:
256,191,75284,1,0,0:0:0:0:
256,191,75630,1,8,0:0:0:0:
256,191,75745,1,0,0:0:0:0:
256,191,75976,1,8,0:0:0:0:
256,191,76207,1,0,0:0:0:0:
256,191,76438,1,8,0:0:0:0:
256,191,76669,1,0,0:0:0:0:
256,191,77130,1,0,0:0:0:0:
256,191,77245,1,8,0:0:0:0:
256,191,77476,1,8,0:0:0:0:
256,191,77592,1,0,0:0:0:0:
256,191,77745,1,8,0:0:0:0:
256,191,77899,1,8,0:0:0:0:
256,191,78053,1,4,0:0:0:0:
256,191,78284,1,0,0:0:0:0:
256,191,78399,1,0,0:0:0:0:
256,191,78515,1,8,0:0:0:0:
256,191,78745,1,0,0:0:0:0:
256,191,78861,1,0,0:0:0:0:
256,191,78976,1,8,0:0:0:0:
256,191,79207,1,0,0:0:0:0:
256,191,79322,1,8,0:0:0:0:
256,191,79438,1,0,0:0:0:0:
256,191,79669,1,8,0:0:0:0:
256,191,79784,1,8,0:0:0:0:
256,191,79899,1,0,0:0:0:0:
256,191,80130,1,8,0:0:0:0:
256,191,80245,1,8,0:0:0:0:
256,191,80361,1,0,0:0:0:0:
256,191,80592,1,8,0:0:0:0:
256,191,80707,1,0,0:0:0:0:
256,191,80822,1,8,0:0:0:0:
256,191,80880,1,8,0:0:0:0:
256,191,80938,1,8,0:0:0:0:
256,191,80995,1,8,0:0:0:0:
256,191,81053,1,8,0:0:0:0:
256,191,81169,1,8,0:0:0:0:
256,191,81284,1,0,0:0:0:0:
256,191,81399,1,0,0:0:0:0:
256,191,81515,1,8,0:0:0:0:
256,191,81630,1,8,0:0:0:0:
256,191,81745,1,0,0:0:0:0:
256,191,81976,1,8,0:0:0:0:
256,191,82092,1,0,0:0:0:0:
256,191,82207,1,8,0:0:0:0:
256,191,82438,1,0,0:0:0:0:
256,191,82553,1,0,0:0:0:0:
256,191,82669,1,8,0:0:0:0:
256,191,82899,1,8,0:0:0:0:
256,191,83015,1,0,0:0:0:0:
256,191,83130,1,0,0:0:0:0:
256,191,83361,1,0,0:0:0:0:
256,191,83476,1,0,0:0:0:0:
263,310,83592,2,0,P|364:240|134:194,1,561.599676182508
256,191,84286,1,0,0:0:0:0:
256,191,84362,1,0,0:0:0:0:
256,191,84439,1,0,0:0:0:0:
256,191,84516,1,8,0:0:0:0:
256,191,84670,1,0,0:0:0:0:
256,191,84824,1,0,0:0:0:0:
256,191,84978,1,12,0:0:0:0:
256,191,85209,1,12,0:0:0:0:
256,191,85440,1,4,0:0:0:0:
256,191,85670,1,8,0:0:0:0:
256,191,85786,1,8,0:0:0:0:
256,191,85901,1,0,0:0:0:0:
256,191,86016,1,0,0:0:0:0:
256,191,86132,1,8,0:0:0:0:
256,191,86247,1,8,0:0:0:0:
256,191,86363,1,0,0:0:0:0:
256,191,86478,1,8,0:0:0:0:
256,191,86536,1,8,0:0:0:0:
256,191,86593,1,0,0:0:0:0:
256,191,86709,1,8,0:0:0:0:
256,191,86824,1,0,0:0:0:0:
256,191,86940,1,0,0:0:0:0:
256,191,87055,1,8,0:0:0:0:
256,191,87170,1,8,0:0:0:0:
256,191,87286,1,0,0:0:0:0:
256,191,87343,1,0,0:0:0:0:
256,191,87401,1,0,0:0:0:0:
256,191,87516,1,8,0:0:0:0:
256,191,87632,1,8,0:0:0:0:
256,191,87747,1,0,0:0:0:0:
256,191,87863,1,0,0:0:0:0:
256,191,87978,1,8,0:0:0:0:
256,191,88093,1,8,0:0:0:0:
256,191,88209,1,0,0:0:0:0:
256,191,88324,1,8,0:0:0:0:
256,191,88382,1,8,0:0:0:0:
256,191,88440,1,0,0:0:0:0:
256,191,88555,1,8,0:0:0:0:
256,191,88670,1,0,0:0:0:0:
256,191,88786,1,0,0:0:0:0:
256,191,88901,1,8,0:0:0:0:
256,191,89016,1,8,0:0:0:0:
256,191,89132,1,0,0:0:0:0:
256,191,89190,1,0,0:0:0:0:
256,191,89247,1,8,0:0:0:0:
256,191,89363,1,8,0:0:0:0:
256,191,89478,1,0,0:0:0:0:
256,191,89593,1,0,0:0:0:0:
256,191,89709,1,8,0:0:0:0:
256,191,89824,1,8,0:0:0:0:
256,191,89940,1,0,0:0:0:0:
256,191,89997,1,0,0:0:0:0:
256,191,90055,1,8,0:0:0:0:
256,191,90170,1,0,0:0:0:0:
256,191,90228,1,0,0:0:0:0:
256,191,90286,1,8,0:0:0:0:
256,191,90402,1,8,0:0:0:0:
256,191,90516,1,8,0:0:0:0:
256,191,90632,1,0,0:0:0:0:
256,191,90747,1,0,0:0:0:0:
256,191,90863,1,8,0:0:0:0:
256,191,90978,1,8,0:0:0:0:
256,191,91093,1,0,0:0:0:0:
256,191,91209,1,8,0:0:0:0:
256,191,91324,1,0,0:0:0:0:
256,191,91440,1,0,0:0:0:0:
256,191,91555,1,8,0:0:0:0:
256,191,91670,1,0,0:0:0:0:
256,191,91786,1,0,0:0:0:0:
256,191,91901,1,8,0:0:0:0:
256,191,92016,1,0,0:0:0:0:
256,191,92074,1,0,0:0:0:0:
256,191,92132,1,0,0:0:0:0:
256,191,92190,1,0,0:0:0:0:
256,191,92247,1,8,0:0:0:0:
256,191,92363,1,8,0:0:0:0:
256,191,92478,1,0,0:0:0:0:
256,191,92593,1,8,0:0:0:0:
256,191,92670,1,8,0:0:0:0:
256,191,92747,1,8,0:0:0:0:
256,191,92824,1,8,0:0:0:0:
256,191,92940,1,0,0:0:0:0:
256,191,93055,1,8,0:0:0:0:
256,191,93171,1,8,0:0:0:0:
256,191,93286,1,0,0:0:0:0:
256,191,93401,1,0,0:0:0:0:
256,191,93517,1,8,0:0:0:0:
256,191,93632,1,8,0:0:0:0:
256,191,93748,1,0,0:0:0:0:
256,191,93863,1,8,0:0:0:0:
256,191,93920,1,8,0:0:0:0:
256,191,93978,1,0,0:0:0:0:
256,191,94036,1,0,0:0:0:0:
256,191,94093,1,8,0:0:0:0:
256,191,94209,1,0,0:0:0:0:
256,191,94325,1,0,0:0:0:0:
256,191,94440,1,8,0:0:0:0:
256,191,94555,1,8,0:0:0:0:
256,191,94671,1,0,0:0:0:0:
256,191,94728,1,0,0:0:0:0:
256,191,94786,1,0,0:0:0:0:
256,191,94901,1,8,0:0:0:0:
256,191,94959,1,8,0:0:0:0:
256,191,95017,1,8,0:0:0:0:
256,191,95132,1,0,0:0:0:0:
256,191,95248,1,0,0:0:0:0:
256,191,95363,1,8,0:0:0:0:
256,191,95478,1,8,0:0:0:0:
256,191,95594,1,0,0:0:0:0:
256,191,95709,1,8,0:0:0:0:
256,191,95767,1,8,0:0:0:0:
256,191,95825,1,0,0:0:0:0:
256,191,95882,1,0,0:0:0:0:
256,191,95940,1,8,0:0:0:0:
256,191,96055,1,0,0:0:0:0:
256,191,96171,1,0,0:0:0:0:
256,191,96286,1,8,0:0:0:0:
256,191,96401,1,8,0:0:0:0:
256,191,96517,1,0,0:0:0:0:
256,191,96632,1,0,0:0:0:0:
256,191,96747,1,8,0:0:0:0:
256,191,96805,1,8,0:0:0:0:
256,191,96863,1,8,0:0:0:0:
256,191,96978,1,0,0:0:0:0:
256,191,97093,1,0,0:0:0:0:
256,191,97209,1,8,0:0:0:0:
256,191,97324,1,8,0:0:0:0:
256,191,97440,1,0,0:0:0:0:
256,191,97555,1,8,0:0:0:0:
256,191,97613,1,8,0:0:0:0:
256,191,97670,1,0,0:0:0:0:
256,191,97786,1,8,0:0:0:0:
256,191,97901,1,0,0:0:0:0:
256,191,98016,1,0,0:0:0:0:
256,191,98132,1,8,0:0:0:0:
256,191,98247,1,8,0:0:0:0:
256,191,98363,1,0,0:0:0:0:
256,191,98479,1,0,0:0:0:0:
256,191,98594,1,8,0:0:0:0:
256,191,98709,1,0,0:0:0:0:
256,191,98825,1,0,0:0:0:0:
256,191,98940,1,8,0:0:0:0:
256,191,99055,1,0,0:0:0:0:
256,191,99171,1,0,0:0:0:0:
256,191,99286,1,0,0:0:0:0:
256,191,99363,1,0,0:0:0:0:
256,191,99440,1,0,0:0:0:0:
256,191,99516,1,0,0:0:0:0:
256,191,99593,1,0,0:0:0:0:
256,191,99670,1,0,0:0:0:0:
256,191,99747,1,8,0:0:0:0:
256,191,99805,1,8,0:0:0:0:
256,191,99863,1,8,0:0:0:0:
256,191,99920,1,8,0:0:0:0:
256,191,99978,1,0,0:0:0:0:
256,191,100093,1,8,0:0:0:0:
256,191,100209,1,4,0:0:0:0:
256,191,101593,1,12,0:0:0:0:
256,191,102055,1,4,0:0:0:0:
256,191,103439,1,4,0:0:0:0:
256,191,103593,1,4,0:0:0:0:
256,191,103747,1,4,0:0:0:0:
256,191,103901,1,12,0:0:0:0:
256,191,105285,1,12,0:0:0:0:
256,191,105747,1,4,0:0:0:0:
256,191,106441,1,0,0:0:0:0:
256,191,106517,1,0,0:0:0:0:
256,191,106594,1,0,0:0:0:0:
256,191,106671,1,8,0:0:0:0:
256,191,106844,1,0,0:0:0:0:
256,191,107017,1,0,0:0:0:0:
256,191,107133,1,8,0:0:0:0:
256,191,107306,1,8,0:0:0:0:
256,191,107479,1,8,0:0:0:0:
256,191,107593,1,4,0:0:0:0:
256,191,108978,1,12,0:0:0:0:
256,191,109440,1,4,0:0:0:0:
256,191,110824,1,4,0:0:0:0:
256,191,110978,1,4,0:0:0:0:
256,191,111132,1,4,0:0:0:0:
256,191,111286,1,12,0:0:0:0:
256,191,112670,1,12,0:0:0:0:
256,191,113132,1,4,0:0:0:0:
256,191,113247,1,8,0:0:0:0:
256,191,113478,1,8,0:0:0:0:
256,191,113594,1,0,0:0:0:0:
256,191,113824,1,0,0:0:0:0:
256,191,113940,1,0,0:0:0:0:
256,191,114055,1,4,0:0:0:0:
256,191,114170,1,8,0:0:0:0:
256,191,114286,1,0,0:0:0:0:
256,191,114344,1,0,0:0:0:0:
256,191,114401,1,8,0:0:0:0:
256,191,114517,1,8,0:0:0:0:
256,191,114632,1,8,0:0:0:0:
256,191,114747,1,0,0:0:0:0:
256,191,114863,1,8,0:0:0:0:
256,191,114978,1,4,0:0:0:0:
256,191,115094,1,0,0:0:0:0:
256,191,115209,1,0,0:0:0:0:
256,191,115324,1,0,0:0:0:0:
256,191,115440,1,8,0:0:0:0:
256,191,115555,1,0,0:0:0:0:
256,191,115670,1,8,0:0:0:0:
256,191,115786,1,8,0:0:0:0:
256,191,115901,1,0,0:0:0:0:
256,191,116017,1,8,0:0:0:0:
256,191,116132,1,0,0:0:0:0:
256,191,116247,1,8,0:0:0:0:
256,191,116363,1,0,0:0:0:0:
256,191,116594,1,8,0:0:0:0:
256,191,116824,1,8,0:0:0:0:
256,191,116940,1,8,0:0:0:0:
256,191,117055,1,8,0:0:0:0:
256,191,117170,1,0,0:0:0:0:
256,191,117286,1,8,0:0:0:0:
256,191,117401,1,0,0:0:0:0:
256,191,117517,1,8,0:0:0:0:
256,191,117632,1,8,0:0:0:0:
256,191,117747,1,0,0:0:0:0:
256,191,117863,1,8,0:0:0:0:
256,191,117978,1,0,0:0:0:0:
256,191,118094,1,8,0:0:0:0:
256,191,118209,1,0,0:0:0:0:
256,191,118440,1,0,0:0:0:0:
256,191,118670,1,8,0:0:0:0:
256,191,118786,1,0,0:0:0:0:
256,191,118901,1,8,0:0:0:0:
256,191,119017,1,0,0:0:0:0:
256,191,119132,1,8,0:0:0:0:
256,191,119247,1,8,0:0:0:0:
256,191,119363,1,8,0:0:0:0:
256,191,119478,1,0,0:0:0:0:
256,191,119594,1,8,0:0:0:0:
256,191,119709,1,0,0:0:0:0:
256,191,119824,1,0,0:0:0:0:
256,191,119940,1,8,0:0:0:0:
256,191,120055,1,0,0:0:0:0:
256,191,120286,1,0,0:0:0:0:
256,191,120517,1,8,0:0:0:0:
256,191,120747,1,8,0:0:0:0:
256,191,120863,1,0,0:0:0:0:
256,191,120978,1,8,0:0:0:0:
256,191,121209,1,0,0:0:0:0:
256,191,121324,1,8,0:0:0:0:
256,191,121440,1,0,0:0:0:0:
256,191,121670,1,8,0:0:0:0:
256,191,121786,1,0,0:0:0:0:
256,191,121901,1,8,0:0:0:0:
256,191,122132,1,0,0:0:0:0:
256,191,122247,1,0,0:0:0:0:
256,191,122363,1,8,0:0:0:0:
256,191,122594,1,8,0:0:0:0:
256,191,122824,1,8,0:0:0:0:
256,191,123055,1,8,0:0:0:0:
256,191,123286,1,8,0:0:0:0:
256,191,123517,1,8,0:0:0:0:
256,191,123747,1,8,0:0:0:0:
256,191,123978,1,8,0:0:0:0:
256,191,124209,1,8,0:0:0:0:
256,191,124324,1,0,0:0:0:0:
256,191,124440,1,8,0:0:0:0:
256,191,124555,1,0,0:0:0:0:
256,191,124670,1,8,0:0:0:0:
256,191,124786,1,0,0:0:0:0:
256,191,124901,1,8,0:0:0:0:
256,191,125017,1,0,0:0:0:0:
256,191,125132,1,8,0:0:0:0:
256,191,125247,1,0,0:0:0:0:
256,191,125363,1,8,0:0:0:0:
256,191,125478,1,0,0:0:0:0:
256,191,125594,1,8,0:0:0:0:
256,191,125709,1,0,0:0:0:0:
256,191,125824,1,8,0:0:0:0:
256,191,125940,1,0,0:0:0:0:
256,191,126055,1,8,0:0:0:0:
256,191,126170,1,8,0:0:0:0:
256,191,126286,1,8,0:0:0:0:
256,191,126402,1,8,0:0:0:0:
256,191,126517,1,8,0:0:0:0:
256,191,126632,1,8,0:0:0:0:
256,191,126747,1,8,0:0:0:0:
256,191,126863,1,8,0:0:0:0:
256,191,126978,1,8,0:0:0:0:
256,191,127055,1,8,0:0:0:0:
256,191,127132,1,8,0:0:0:0:
256,191,127209,1,8,0:0:0:0:
256,191,127286,1,8,0:0:0:0:
256,191,127363,1,8,0:0:0:0:
256,191,127440,1,8,0:0:0:0:
256,191,127497,1,8,0:0:0:0:
256,191,127555,1,8,0:0:0:0:
256,191,127613,1,8,0:0:0:0:
256,191,127670,1,8,0:0:0:0:
256,191,127728,1,8,0:0:0:0:
256,191,127786,1,8,0:0:0:0:
256,191,128132,1,0,0:0:0:0:
256,191,128248,1,0,0:0:0:0:
256,191,128363,1,8,0:0:0:0:
256,191,128594,1,8,0:0:0:0:
256,191,128671,1,8,0:0:0:0:
256,191,128709,1,8,0:0:0:0:
256,191,128825,1,0,0:0:0:0:
256,191,128940,1,0,0:0:0:0:
256,191,129094,1,8,0:0:0:0:
256,191,129286,1,8,0:0:0:0:
256,191,129440,1,0,0:0:0:0:
256,191,129594,1,8,0:0:0:0:
256,191,129748,1,0,0:0:0:0:
256,191,129940,1,8,0:0:0:0:
256,191,130055,1,8,0:0:0:0:
256,191,130209,1,0,0:0:0:0:
256,191,130479,1,8,0:0:0:0:
256,191,130671,1,0,0:0:0:0:
256,191,130748,1,0,0:0:0:0:
256,191,131017,1,8,0:0:0:0:
256,191,131132,1,0,0:0:0:0:
256,191,131363,1,8,0:0:0:0:
256,191,131555,1,8,0:0:0:0:
256,191,131786,1,0,0:0:0:0:
256,191,131902,1,0,0:0:0:0:
256,191,132017,1,8,0:0:0:0:
256,191,132248,1,0,0:0:0:0:
256,191,132363,1,8,0:0:0:0:
256,191,132479,1,8,0:0:0:0:
256,191,132594,1,0,0:0:0:0:
256,191,132863,1,8,0:0:0:0:
256,191,132979,1,0,0:0:0:0:
256,191,133209,1,8,0:0:0:0:
256,191,133402,1,8,0:0:0:0:
256,191,133440,1,0,0:0:0:0:
256,191,133632,1,0,0:0:0:0:
256,191,133863,1,8,0:0:0:0:
256,191,134094,1,0,0:0:0:0:
256,191,134209,1,0,0:0:0:0:
256,191,134363,1,8,0:0:0:0:
256,191,134709,1,8,0:0:0:0:
256,191,134825,1,0,0:0:0:0:
256,191,135055,1,8,0:0:0:0:
256,191,135286,1,0,0:0:0:0:
256,191,135517,1,8,0:0:0:0:
256,191,135594,1,8,0:0:0:0:
256,191,135709,1,0,0:0:0:0:
256,191,135940,1,0,0:0:0:0:
256,191,136209,1,8,0:0:0:0:
256,191,136286,1,8,0:0:0:0:
256,191,136517,1,8,0:0:0:0:
256,191,136671,1,0,0:0:0:0:
256,191,136863,1,8,0:0:0:0:
256,191,137094,1,8,0:0:0:0:
256,191,137209,1,0,0:0:0:0:
256,191,137325,1,0,0:0:0:0:
256,191,137479,1,0,0:0:0:0:
256,191,137594,1,8,0:0:0:0:
256,191,137671,1,0,0:0:0:0:
256,191,137825,1,0,0:0:0:0:
256,191,137940,1,0,0:0:0:0:
256,191,138055,1,8,0:0:0:0:
256,191,138171,1,0,0:0:0:0:
256,191,138286,1,0,0:0:0:0:
256,191,138402,1,8,0:0:0:0:
256,191,138479,1,8,0:0:0:0:
256,191,138632,1,0,0:0:0:0:
256,191,138748,1,8,0:0:0:0:
256,191,138863,1,8,0:0:0:0:
256,191,138940,1,8,0:0:0:0:
256,191,139055,1,0,0:0:0:0:
256,191,139209,1,0,0:0:0:0:
256,191,139325,1,8,0:0:0:0:
256,191,139440,1,8,0:0:0:0:
256,191,139555,1,0,0:0:0:0:
256,191,139671,1,8,0:0:0:0:
256,191,139748,1,0,0:0:0:0:
256,191,139902,1,8,0:0:0:0:
256,191,139940,1,8,0:0:0:0:
256,191,139979,1,8,0:0:0:0:
256,191,140055,1,8,0:0:0:0:
256,191,140132,1,8,0:0:0:0:
256,191,140171,1,8,0:0:0:0:
256,191,140209,1,8,0:0:0:0:
256,191,140325,1,8,0:0:0:0:
256,191,140402,1,0,0:0:0:0:
256,191,140517,1,0,0:0:0:0:
256,191,140632,1,8,0:0:0:0:
256,191,140709,1,8,0:0:0:0:
256,191,140825,1,0,0:0:0:0:
256,191,140940,1,0,0:0:0:0:
256,191,141055,1,8,0:0:0:0:
256,191,141132,1,8,0:0:0:0:
256,191,141248,1,0,0:0:0:0:
256,191,141363,1,0,0:0:0:0:
256,191,141479,1,8,0:0:0:0:
256,191,141594,1,8,0:0:0:0:
256,191,141709,1,0,0:0:0:0:
256,191,141825,1,8,0:0:0:0:
256,191,141979,1,0,0:0:0:0:
256,191,142055,1,8,0:0:0:0:
256,191,142209,1,0,0:0:0:0:
256,191,142325,1,0,0:0:0:0:
256,191,142440,1,8,0:0:0:0:
256,191,142555,1,8,0:0:0:0:
256,191,142671,1,0,0:0:0:0:
256,191,142979,1,0,0:0:0:0:
256,191,143132,1,0,0:0:0:0:
256,191,143363,1,8,0:0:0:0:
256,191,143594,1,0,0:0:0:0:
256,191,143709,1,8,0:0:0:0:
256,191,143940,1,8,0:0:0:0:
256,191,144094,1,0,0:0:0:0:
256,191,144286,1,8,0:0:0:0:
256,191,144517,1,0,0:0:0:0:
256,191,144748,1,8,0:0:0:0:
256,191,144979,1,0,0:0:0:0:
256,191,145094,1,0,0:0:0:0:
256,191,145209,1,8,0:0:0:0:
256,191,145325,1,8,0:0:0:0:
256,191,145402,1,8,0:0:0:0:
256,191,145555,1,0,0:0:0:0:
256,191,145671,1,8,0:0:0:0:
256,191,145748,1,8,0:0:0:0:
256,191,145902,1,0,0:0:0:0:
256,191,146055,1,8,0:0:0:0:
256,191,146363,1,0,0:0:0:0:
256,191,146440,1,0,0:0:0:0:
256,191,146594,1,8,0:0:0:0:
256,191,146709,1,8,0:0:0:0:
256,191,146825,1,8,0:0:0:0:
256,191,146940,1,0,0:0:0:0:
256,191,147055,1,8,0:0:0:0:
256,191,147209,1,8,0:0:0:0:
256,191,147286,1,8,0:0:0:0:
256,191,147517,1,8,0:0:0:0:
256,191,147748,1,0,0:0:0:0:
256,191,147863,1,8,0:0:0:0:
256,191,148248,1,0,0:0:0:0:
256,191,148363,1,0,0:0:0:0:
256,191,148479,1,8,0:0:0:0:
256,191,148594,1,8,0:0:0:0:
256,191,148671,1,8,0:0:0:0:
256,191,148863,1,0,0:0:0:0:
256,191,149055,1,8,0:0:0:0:
256,191,149209,1,8,0:0:0:0:
256,191,149363,1,0,0:0:0:0:
256,191,149479,1,0,0:0:0:0:
256,191,149632,1,8,0:0:0:0:
256,191,149863,1,8,0:0:0:0:
256,191,149979,1,0,0:0:0:0:
256,191,150248,1,8,0:0:0:0:
256,191,150363,1,8,0:0:0:0:
256,191,150479,1,0,0:0:0:0:
256,191,150671,1,8,0:0:0:0:
256,191,150786,1,8,0:0:0:0:
256,191,150940,1,0,0:0:0:0:
256,191,151017,1,0,0:0:0:0:
256,191,151209,1,8,0:0:0:0:
256,191,151325,1,8,0:0:0:0:
256,191,151479,1,0,0:0:0:0:
256,191,151709,1,8,0:0:0:0:
256,191,151902,1,0,0:0:0:0:
256,191,152171,1,0,0:0:0:0:
256,191,152248,1,8,0:0:0:0:
256,191,152402,1,8,0:0:0:0:
256,191,152709,1,8,0:0:0:0:
256,191,152786,1,0,0:0:0:0:
256,191,153055,1,8,0:0:0:0:
256,191,153132,1,8,0:0:0:0:
256,191,153286,1,0,0:0:0:0:
256,191,153517,1,8,0:0:0:0:
256,191,153671,1,8,0:0:0:0:
256,191,153748,1,0,0:0:0:0:
256,191,153940,1,0,0:0:0:0:
256,191,154055,1,8,0:0:0:0:
256,191,154171,1,8,0:0:0:0:
256,191,154248,1,8,0:0:0:0:
256,191,154325,1,0,0:0:0:0:
256,191,154479,1,8,0:0:0:0:
256,191,154594,1,8,0:0:0:0:
256,191,154709,1,0,0:0:0:0:
256,191,154786,1,0,0:0:0:0:
256,191,154902,1,8,0:0:0:0:
256,191,155017,1,8,0:0:0:0:
256,191,155132,1,0,0:0:0:0:
256,191,155363,1,8,0:0:0:0:
256,191,155594,1,0,0:0:0:0:
256,191,155940,1,8,0:0:0:0:
256,191,156055,1,0,0:0:0:0:
256,191,156286,1,8,0:0:0:0:
256,191,156517,1,0,0:0:0:0:
256,191,156594,1,8,0:0:0:0:
256,191,156863,1,8,0:0:0:0:
256,191,156979,1,0,0:0:0:0:
256,191,157209,1,8,0:0:0:0:
256,191,157286,1,0,0:0:0:0:
256,191,157440,1,0,0:0:0:0:
256,191,157555,1,8,0:0:0:0:
256,191,157786,1,0,0:0:0:0:
256,191,157902,1,8,0:0:0:0:
256,191,158094,1,8,0:0:0:0:
256,191,158171,1,8,0:0:0:0:
256,191,158248,1,8,0:0:0:0:
256,191,158363,1,0,0:0:0:0:
256,191,158479,1,0,0:0:0:0:
256,191,158594,1,8,0:0:0:0:
256,191,158709,1,8,0:0:0:0:
256,191,158863,1,0,0:0:0:0:
256,191,158979,1,0,0:0:0:0:
256,191,159132,1,8,0:0:0:0:
256,191,159286,1,0,0:0:0:0:
256,191,159402,1,0,0:0:0:0:
256,191,159517,1,8,0:0:0:0:
256,191,159632,1,8,0:0:0:0:
256,191,159748,1,0,0:0:0:0:
256,191,159863,1,0,0:0:0:0:
256,191,159979,1,8,0:0:0:0:
256,191,160094,1,8,0:0:0:0:
256,191,160209,1,0,0:0:0:0:
256,191,160325,1,8,0:0:0:0:
256,191,160402,1,8,0:0:0:0:
256,191,160440,1,0,0:0:0:0:
256,191,160555,1,8,0:0:0:0:
256,191,160671,1,0,0:0:0:0:
256,191,160786,1,0,0:0:0:0:
256,191,160902,1,8,0:0:0:0:
256,191,161017,1,8,0:0:0:0:
256,191,161132,1,0,0:0:0:0:
256,191,161248,1,0,0:0:0:0:
256,191,161363,1,8,0:0:0:0:
256,191,161479,1,8,0:0:0:0:
256,191,161555,1,0,0:0:0:0:
256,191,161709,1,0,0:0:0:0:
256,191,161825,1,8,0:0:0:0:
256,191,161940,1,8,0:0:0:0:
256,191,162055,1,0,0:0:0:0:
256,191,162171,1,8,0:0:0:0:
256,191,162209,1,8,0:0:0:0:
256,191,162325,1,0,0:0:0:0:
256,191,162402,1,8,0:0:0:0:
256,191,162517,1,0,0:0:0:0:
256,191,162632,1,0,0:0:0:0:
256,191,162786,1,8,0:0:0:0:
256,191,162863,1,8,0:0:0:0:
256,191,162979,1,0,0:0:0:0:
256,191,163094,1,0,0:0:0:0:
256,191,163171,1,8,0:0:0:0:
256,191,163325,1,8,0:0:0:0:
256,191,163440,1,0,0:0:0:0:
256,191,163517,1,0,0:0:0:0:
256,191,163671,1,8,0:0:0:0:
256,191,163786,1,8,0:0:0:0:
256,191,163902,1,0,0:0:0:0:
256,191,163979,1,8,0:0:0:0:
256,191,164055,1,8,0:0:0:0:
256,191,164132,1,8,0:0:0:0:
256,191,164248,1,8,0:0:0:0:
256,191,164363,1,0,0:0:0:0:
256,191,164440,1,0,0:0:0:0:
256,191,164594,1,8,0:0:0:0:
256,191,164709,1,0,0:0:0:0:
256,191,164825,1,8,0:0:0:0:
256,191,164863,1,8,0:0:0:0:
256,191,165055,1,0,0:0:0:0:
256,191,165171,1,0,0:0:0:0:
256,191,165286,1,12,0:0:0:0:
256,191,165516,1,4,0:0:0:0:
256,191,165748,1,8,0:0:0:0:
256,191,165786,1,8,0:0:0:0:
256,191,165979,1,0,0:0:0:0:
256,191,166094,1,0,0:0:0:0:
256,191,166209,1,8,0:0:0:0:
256,191,166440,1,0,0:0:0:0:
256,191,166632,1,8,0:0:0:0:
256,191,166786,1,0,0:0:0:0:
256,191,166863,1,8,0:0:0:0:
256,191,166979,1,8,0:0:0:0:
256,191,167094,1,0,0:0:0:0:
256,191,167248,1,0,0:0:0:0:
256,191,167363,1,8,0:0:0:0:
256,191,167479,1,8,0:0:0:0:
256,191,167555,1,8,0:0:0:0:
256,191,167671,1,0,0:0:0:0:
256,191,167786,1,8,0:0:0:0:
256,191,167940,1,8,0:0:0:0:
256,191,168055,1,0,0:0:0:0:
256,191,168132,1,0,0:0:0:0:
256,191,168248,1,8,0:0:0:0:
256,191,168325,1,8,0:0:0:0:
256,191,168402,1,8,0:0:0:0:
256,191,168479,1,0,0:0:0:0:
256,191,168594,1,0,0:0:0:0:
256,191,168786,1,8,0:0:0:0:
256,191,168863,1,8,0:0:0:0:
256,191,168979,1,0,0:0:0:0:
256,191,169094,1,0,0:0:0:0:
256,191,169209,1,8,0:0:0:0:
256,191,169325,1,8,0:0:0:0:
256,191,169440,1,8,0:0:0:0:
256,191,169517,1,0,0:0:0:0:
256,191,169632,1,8,0:0:0:0:
256,191,169709,1,8,0:0:0:0:
256,191,169748,1,8,0:0:0:0:
256,191,169863,1,0,0:0:0:0:
256,191,169979,1,0,0:0:0:0:
256,191,170094,1,8,0:0:0:0:
256,191,170209,1,8,0:0:0:0:
256,191,170363,1,0,0:0:0:0:
256,191,170479,1,0,0:0:0:0:
256,191,170594,1,8,0:0:0:0:
256,191,170709,1,8,0:0:0:0:
256,191,170825,1,0,0:0:0:0:
256,191,170940,1,8,0:0:0:0:
256,191,171017,1,8,0:0:0:0:
256,191,171094,1,8,0:0:0:0:
256,191,171171,1,0,0:0:0:0:
256,191,171286,1,0,0:0:0:0:
256,191,171363,1,0,0:0:0:0:
256,191,171517,1,8,0:0:0:0:
256,191,171632,1,8,0:0:0:0:
256,191,171748,1,0,0:0:0:0:
256,191,171863,1,0,0:0:0:0:
256,191,171979,1,8,0:0:0:0:
256,191,172094,1,8,0:0:0:0:
256,191,172209,1,8,0:0:0:0:
256,191,172286,1,0,0:0:0:0:
256,191,172402,1,0,0:0:0:0:
256,191,172517,1,8,0:0:0:0:
256,191,172632,1,8,0:0:0:0:
256,191,172748,1,0,0:0:0:0:
256,191,172902,1,8,0:0:0:0:
256,191,172979,1,8,0:0:0:0:
256,191,173017,1,8,0:0:0:0:
256,191,173132,1,8,0:0:0:0:
256,191,173286,1,0,0:0:0:0:
256,191,173440,1,0,0:0:0:0:
256,191,173555,1,8,0:0:0:0:
256,191,173709,1,8,0:0:0:0:
256,191,173863,1,8,0:0:0:0:
256,191,174055,1,4,0:0:0:0:
256,191,175440,1,0,0:0:0:0:
256,191,175863,1,8,0:0:0:0:
256,191,175902,1,8,0:0:0:0:
256,191,177171,1,0,0:0:0:0:
256,191,177209,1,0,0:0:0:0:
256,191,177248,1,0,0:0:0:0:
256,191,177363,1,8,0:0:0:0:
256,191,177479,1,0,0:0:0:0:
256,191,177632,1,8,0:0:0:0:
256,191,177748,1,8,0:0:0:0:
256,191,179094,1,8,0:0:0:0:
256,191,179132,1,8,0:0:0:0:
256,191,179555,1,8,0:0:0:0:
256,191,179594,1,8,0:0:0:0:
256,191,179825,1,0,0:0:0:0:
256,191,179902,1,0,0:0:0:0:
256,191,179940,1,0,0:0:0:0:
256,191,180055,1,8,0:0:0:0:
256,191,180286,1,0,0:0:0:0:
256,191,180517,1,8,0:0:0:0:
256,191,180748,1,0,0:0:0:0:
256,191,180825,1,0,0:0:0:0:
256,191,180902,1,0,0:0:0:0:
256,191,180979,1,8,0:0:0:0:
256,191,181132,1,8,0:0:0:0:
256,191,181248,1,8,0:0:0:0:
256,191,181440,1,0,0:0:0:0:
256,191,181902,1,8,0:0:0:0:
256,191,182094,1,8,0:0:0:0:
256,191,182363,1,0,0:0:0:0:
256,191,182709,1,8,0:0:0:0:
256,191,182825,1,0,0:0:0:0:
256,191,182863,1,0,0:0:0:0:
256,191,183248,1,0,0:0:0:0:
256,191,183286,1,0,0:0:0:0:
256,191,183517,1,8,0:0:0:0:
256,191,183748,1,8,0:0:0:0:
256,191,184017,1,8,0:0:0:0:
256,191,184248,1,0,0:0:0:0:
256,191,184555,1,8,0:0:0:0:
256,191,184671,1,0,0:0:0:0:
256,191,184709,1,0,0:0:0:0:
256,191,184902,1,0,0:0:0:0:
256,191,185055,1,0,0:0:0:0:
256,191,185171,1,8,0:0:0:0:
256,191,185363,1,8,0:0:0:0:
256,191,185594,1,8,0:0:0:0:
256,191,185863,1,8,0:0:0:0:
256,191,186055,1,0,0:0:0:0:
256,191,186402,1,8,0:0:0:0:
256,191,186517,1,0,0:0:0:0:
256,191,186709,1,0,0:0:0:0:
256,191,186979,1,8,0:0:0:0:
256,191,187209,1,8,0:0:0:0:
256,191,187286,1,8,0:0:0:0:
256,191,187325,1,8,0:0:0:0:
256,191,187402,1,0,0:0:0:0:
256,191,187555,1,8,0:0:0:0:
256,191,187709,1,8,0:0:0:0:
256,191,187940,1,0,0:0:0:0:
256,191,188017,1,0,0:0:0:0:
256,191,188055,1,8,0:0:0:0:
256,191,188286,1,0,0:0:0:0:
256,191,188363,1,0,0:0:0:0:
256,191,188555,1,8,0:0:0:0:
256,191,188825,1,0,0:0:0:0:
256,191,188902,1,0,0:0:0:0:
256,191,189017,1,8,0:0:0:0:
256,191,189132,1,8,0:0:0:0:
256,191,189248,1,0,0:0:0:0:
256,191,189363,1,0,0:0:0:0:
256,191,189479,1,8,0:0:0:0:
256,191,189594,1,8,0:0:0:0:
256,191,189709,1,0,0:0:0:0:
256,191,189786,1,0,0:0:0:0:
256,191,189863,1,8,0:0:0:0:
256,191,189940,1,0,0:0:0:0:
256,191,190094,1,8,0:0:0:0:
256,191,190171,1,0,0:0:0:0:
256,191,190248,1,8,0:0:0:0:
256,191,190402,1,8,0:0:0:0:
256,191,190555,1,8,0:0:0:0:
256,191,190671,1,0,0:0:0:0:
256,191,190863,1,0,0:0:0:0:
256,191,191017,1,8,0:0:0:0:
256,191,191132,1,0,0:0:0:0:
256,191,191363,1,8,0:0:0:0:
256,191,191479,1,8,0:0:0:0:
256,191,191594,1,0,0:0:0:0:
256,191,191709,1,0,0:0:0:0:
256,191,191863,1,0,0:0:0:0:
256,191,191979,1,8,0:0:0:0:
256,191,192094,1,0,0:0:0:0:
256,191,192171,1,0,0:0:0:0:
256,191,192286,1,8,0:0:0:0:
256,191,192402,1,8,0:0:0:0:
256,191,192517,1,0,0:0:0:0:
256,191,192632,1,0,0:0:0:0:
256,191,192748,1,0,0:0:0:0:
256,191,192863,1,8,0:0:0:0:
256,191,192979,1,0,0:0:0:0:
256,191,193055,1,0,0:0:0:0:
256,191,193209,1,8,0:0:0:0:
256,191,193325,1,8,0:0:0:0:
256,191,193440,1,0,0:0:0:0:
256,191,193555,1,0,0:0:0:0:
256,191,193671,1,0,0:0:0:0:
256,191,193786,1,8,0:0:0:0:
256,191,193902,1,0,0:0:0:0:
256,191,194017,1,0,0:0:0:0:
256,191,194094,1,8,0:0:0:0:
256,191,194209,1,8,0:0:0:0:
256,191,194325,1,0,0:0:0:0:
256,191,194440,1,0,0:0:0:0:
256,191,194555,1,8,0:0:0:0:
256,191,194709,1,8,0:0:0:0:
256,191,194825,1,0,0:0:0:0:
256,191,194940,1,0,0:0:0:0:
256,191,195055,1,8,0:0:0:0:
256,191,195132,1,8,0:0:0:0:
256,191,195209,1,8,0:0:0:0:
256,191,195286,1,8,0:0:0:0:
256,191,195402,1,0,0:0:0:0:
256,191,195517,1,0,0:0:0:0:
256,191,195632,1,8,0:0:0:0:
256,191,195709,1,0,0:0:0:0:
256,191,195863,1,0,0:0:0:0:
256,191,195979,1,8,0:0:0:0:
256,191,196055,1,8,0:0:0:0:
256,191,196132,1,8,0:0:0:0:
256,191,196248,1,8,0:0:0:0:
256,191,196325,1,0,0:0:0:0:
256,191,196479,1,8,0:0:0:0:
256,191,196594,1,0,0:0:0:0:
256,191,196709,1,8,0:0:0:0:
256,191,196825,1,0,0:0:0:0:
256,191,196940,1,8,0:0:0:0:
256,191,197094,1,0,0:0:0:0:
256,191,197209,1,8,0:0:0:0:
256,191,197325,1,0,0:0:0:0:
256,191,197440,1,8,0:0:0:0:
256,191,197555,1,0,0:0:0:0:
256,191,197671,1,8,0:0:0:0:
256,191,197786,1,0,0:0:0:0:
256,191,197979,1,8,0:0:0:0:
256,191,198055,1,0,0:0:0:0:
256,191,198132,1,8,0:0:0:0:
256,191,198286,1,8,0:0:0:0:
256,191,198363,1,8,0:0:0:0:
256,191,198479,1,8,0:0:0:0:
256,191,198594,1,8,0:0:0:0:
256,191,198709,1,8,0:0:0:0:
256,191,198863,1,8,0:0:0:0:
256,191,198979,1,8,0:0:0:0:
256,191,199055,1,0,0:0:0:0:
256,191,199132,1,8,0:0:0:0:
256,191,199209,1,8,0:0:0:0:
256,191,199363,1,8,0:0:0:0:
256,191,199479,1,0,0:0:0:0:
256,191,199594,1,8,0:0:0:0:
256,191,199709,1,8,0:0:0:0:
256,191,199902,1,8,0:0:0:0:
256,191,199979,1,8,0:0:0:0:
256,191,200017,1,0,0:0:0:0:
256,191,200132,1,8,0:0:0:0:
256,191,200209,1,8,0:0:0:0:
256,191,200286,1,0,0:0:0:0:
256,191,200402,1,8,0:0:0:0:
256,191,200440,1,8,0:0:0:0:
256,191,200517,1,8,0:0:0:0:
256,191,200594,1,0,0:0:0:0:
256,191,200671,1,8,0:0:0:0:
256,191,200748,1,8,0:0:0:0:
256,191,200863,1,0,0:0:0:0:
256,191,200902,1,0,0:0:0:0:
256,191,200979,1,8,0:0:0:0:
256,191,201055,1,8,0:0:0:0:
256,191,201132,1,8,0:0:0:0:
256,191,201248,1,0,0:0:0:0:
256,191,201325,1,8,0:0:0:0:
256,191,201363,1,8,0:0:0:0:
256,191,201479,1,8,0:0:0:0:
256,191,201594,1,0,0:0:0:0:
256,191,201671,1,8,0:0:0:0:
256,191,201786,1,0,0:0:0:0:
256,191,202094,1,8,0:0:0:0:
256,191,202171,1,8,0:0:0:0:
256,191,202440,1,0,0:0:0:0:
256,191,202479,1,0,0:0:0:0:
256,191,202517,1,0,0:0:0:0:
256,191,202632,1,8,0:0:0:0:
256,191,202786,1,0,0:0:0:0:
256,191,202940,1,0,0:0:0:0:
256,191,203132,1,12,0:0:0:0:
256,191,203363,1,12,0:0:0:0:
256,191,203594,1,8,0:0:0:0:
256,191,203825,1,0,0:0:0:0:
256,191,203940,1,0,0:0:0:0:
256,191,204017,1,0,0:0:0:0:
256,191,204055,1,8,0:0:0:0:
256,191,204171,1,0,0:0:0:0:
256,191,204286,1,0,0:0:0:0:
256,191,204363,1,0,0:0:0:0:
256,191,204517,1,8,0:0:0:0:
256,191,204594,1,0,0:0:0:0:
256,191,204709,1,0,0:0:0:0:
256,191,204825,1,8,0:0:0:0:
256,191,204940,1,0,0:0:0:0:
256,191,205055,1,0,0:0:0:0:
256,191,205209,1,8,0:0:0:0:
256,191,205325,1,0,0:0:0:0:
256,191,205402,1,8,0:0:0:0:
256,191,205479,1,8,0:0:0:0:
256,191,205517,1,8,0:0:0:0:
256,191,205632,1,0,0:0:0:0:
256,191,205748,1,8,0:0:0:0:
256,191,205825,1,8,0:0:0:0:
256,191,205940,1,8,0:0:0:0:
256,191,206055,1,0,0:0:0:0:
256,191,206171,1,0,0:0:0:0:
256,191,206325,1,8,0:0:0:0:
256,191,206402,1,8,0:0:0:0:
256,191,206440,1,8,0:0:0:0:
256,191,206555,1,0,0:0:0:0:
256,191,206671,1,8,0:0:0:0:
256,191,206748,1,8,0:0:0:0:
256,191,206825,1,0,0:0:0:0:
256,191,206902,1,0,0:0:0:0:
256,191,207055,1,8,0:0:0:0:
256,191,207171,1,8,0:0:0:0:
256,191,207286,1,8,0:0:0:0:
256,191,207325,1,8,0:0:0:0:
256,191,207402,1,8,0:0:0:0:
256,191,207479,1,0,0:0:0:0:
256,191,207594,1,0,0:0:0:0:
256,191,207748,1,8,0:0:0:0:
256,191,207825,1,0,0:0:0:0:
256,191,207863,1,0,0:0:0:0:
256,191,207940,1,0,0:0:0:0:
256,191,208055,1,0,0:0:0:0:
256,191,208171,1,8,0:0:0:0:
256,191,208248,1,8,0:0:0:0:
256,191,208325,1,0,0:0:0:0:
256,191,208440,1,0,0:0:0:0:
256,191,208555,1,8,0:0:0:0:
256,191,208632,1,8,0:0:0:0:
256,191,208671,1,0,0:0:0:0:
256,191,208786,1,0,0:0:0:0:
256,191,208902,1,8,0:0:0:0:
256,191,209017,1,8,0:0:0:0:
256,191,209094,1,0,0:0:0:0:
256,191,209209,1,0,0:0:0:0:
256,191,209363,1,8,0:0:0:0:
256,191,209440,1,8,0:0:0:0:
256,191,209555,1,8,0:0:0:0:
256,191,209671,1,0,0:0:0:0:
256,191,209825,1,0,0:0:0:0:
256,191,209902,1,0,0:0:0:0:
256,191,210055,1,8,0:0:0:0:
256,191,210132,1,0,0:0:0:0:
256,191,210248,1,0,0:0:0:0:
256,191,210363,1,8,0:0:0:0:
256,191,210479,1,0,0:0:0:0:
256,191,210594,1,0,0:0:0:0:
256,191,210748,1,0,0:0:0:0:
256,191,210825,1,8,0:0:0:0:
256,191,210940,1,8,0:0:0:0:
256,191,211017,1,0,0:0:0:0:
256,191,211055,1,8,0:0:0:0:
256,191,211171,1,8,0:0:0:0:
256,191,211286,1,8,0:0:0:0:
256,191,211402,1,0,0:0:0:0:
256,191,211517,1,0,0:0:0:0:
256,191,211632,1,8,0:0:0:0:
256,191,211748,1,8,0:0:0:0:
256,191,211863,1,8,0:0:0:0:
256,191,211979,1,0,0:0:0:0:
256,191,212132,1,8,0:0:0:0:
256,191,212248,1,8,0:0:0:0:
256,191,212363,1,0,0:0:0:0:
256,191,212440,1,0,0:0:0:0:
256,191,212555,1,8,0:0:0:0:
256,191,212671,1,8,0:0:0:0:
256,191,212825,1,0,0:0:0:0:
256,191,212902,1,0,0:0:0:0:
256,191,213055,1,8,0:0:0:0:
256,191,213171,1,8,0:0:0:0:
256,191,213286,1,0,0:0:0:0:
256,191,213363,1,0,0:0:0:0:
256,191,213517,1,8,0:0:0:0:
256,191,213632,1,0,0:0:0:0:
256,191,213748,1,8,0:0:0:0:
256,191,213786,1,8,0:0:0:0:
256,191,213863,1,8,0:0:0:0:
256,191,213902,1,8,0:0:0:0:
256,191,213979,1,8,0:0:0:0:
256,191,214055,1,8,0:0:0:0:
256,191,214094,1,8,0:0:0:0:
256,191,214171,1,8,0:0:0:0:
256,191,214286,1,0,0:0:0:0:
256,191,214363,1,0,0:0:0:0:
256,191,214440,1,8,0:0:0:0:
256,191,214555,1,8,0:0:0:0:
256,191,214671,1,0,0:0:0:0:
256,191,214748,1,0,0:0:0:0:
256,191,214786,1,0,0:0:0:0:
256,191,214902,1,8,0:0:0:0:
256,191,214979,1,8,0:0:0:0:
256,191,215132,1,0,0:0:0:0:
256,191,215209,1,0,0:0:0:0:
256,191,215325,1,8,0:0:0:0:
256,191,215440,1,8,0:0:0:0:
256,191,215555,1,0,0:0:0:0:
256,191,215632,1,0,0:0:0:0:
256,191,215671,1,0,0:0:0:0:
256,191,215786,1,8,0:0:0:0:
256,191,215863,1,8,0:0:0:0:
256,191,215979,1,0,0:0:0:0:
256,191,216094,1,0,0:0:0:0:
256,191,216248,1,8,0:0:0:0:
256,191,216363,1,8,0:0:0:0:
256,191,216479,1,0,0:0:0:0:
256,191,217171,1,0,0:0:0:0:
256,191,217209,1,0,0:0:0:0:
256,191,217286,1,0,0:0:0:0:
256,191,217402,1,8,0:0:0:0:
256,191,217555,1,8,0:0:0:0:
256,191,217748,1,8,0:0:0:0:
256,191,217902,1,8,0:0:0:0:
256,191,218132,1,8,0:0:0:0:
256,191,218248,1,8,0:0:0:0:
256,191,218363,1,0,0:0:0:0:
256,191,218594,1,8,0:0:0:0:
256,191,218671,1,8,0:0:0:0:
256,191,218786,1,0,0:0:0:0:
256,191,218902,1,0,0:0:0:0:
256,191,219055,1,8,0:0:0:0:
256,191,219171,1,8,0:0:0:0:
256,191,219286,1,0,0:0:0:0:
256,191,219402,1,8,0:0:0:0:
256,191,219479,1,8,0:0:0:0:
256,191,219517,1,8,0:0:0:0:
256,191,219632,1,8,0:0:0:0:
256,191,219748,1,0,0:0:0:0:
256,191,219863,1,8,0:0:0:0:
256,191,220017,1,8,0:0:0:0:
256,191,220094,1,8,0:0:0:0:
256,191,220209,1,0,0:0:0:0:
256,191,220286,1,0,0:0:0:0:
256,191,220402,1,8,0:0:0:0:
256,191,220555,1,8,0:0:0:0:
256,191,220671,1,0,0:0:0:0:
256,191,220786,1,0,0:0:0:0:
256,191,220902,1,8,0:0:0:0:
256,191,221017,1,8,0:0:0:0:
256,191,221132,1,0,0:0:0:0:
256,191,221248,1,0,0:0:0:0:
256,191,221325,1,8,0:0:0:0:
256,191,221363,1,8,0:0:0:0:
256,191,221479,1,8,0:0:0:0:
256,191,221594,1,0,0:0:0:0:
256,191,221709,1,0,0:0:0:0:
256,191,221825,1,8,0:0:0:0:
256,191,221940,1,8,0:0:0:0:
256,191,222055,1,0,0:0:0:0:
256,191,222171,1,0,0:0:0:0:
256,191,222286,1,8,0:0:0:0:
256,191,222402,1,8,0:0:0:0:
256,191,222517,1,0,0:0:0:0:
256,191,222632,1,0,0:0:0:0:
256,191,222748,1,8,0:0:0:0:
256,191,222825,1,8,0:0:0:0:
256,191,222940,1,0,0:0:0:0:
256,191,223055,1,8,0:0:0:0:
256,191,223132,1,8,0:0:0:0:
256,191,223209,1,8,0:0:0:0:
256,191,223286,1,8,0:0:0:0:
256,191,223440,1,0,0:0:0:0:
256,191,223555,1,0,0:0:0:0:
256,191,223671,1,8,0:0:0:0:
256,191,223786,1,8,0:0:0:0:
256,191,223902,1,0,0:0:0:0:
256,191,223979,1,0,0:0:0:0:
256,191,224132,1,8,0:0:0:0:
256,191,224209,1,8,0:0:0:0:
256,191,224325,1,0,0:0:0:0:
256,191,224440,1,0,0:0:0:0:
256,191,224555,1,8,0:0:0:0:
256,191,224671,1,8,0:0:0:0:
256,191,224786,1,0,0:0:0:0:
256,191,224902,1,0,0:0:0:0:
256,191,225017,1,8,0:0:0:0:
256,191,225094,1,8,0:0:0:0:
256,191,225171,1,8,0:0:0:0:
256,191,225286,1,0,0:0:0:0:
256,191,225402,1,8,0:0:0:0:
256,191,225479,1,0,0:0:0:0:
256,191,225632,1,8,0:0:0:0:
256,191,225709,1,0,0:0:0:0:
256,191,225863,1,8,0:0:0:0:
256,191,225940,1,8,0:0:0:0:
256,191,226055,1,8,0:0:0:0:
256,191,226132,1,0,0:0:0:0:
256,191,226248,1,0,0:0:0:0:
256,191,226363,1,8,0:0:0:0:
256,191,226440,1,8,0:0:0:0:
256,191,226594,1,0,0:0:0:0:
256,191,226709,1,0,0:0:0:0:
256,191,226825,1,0,0:0:0:0:
256,191,226902,1,8,0:0:0:0:
256,191,226979,1,0,0:0:0:0:
256,191,227094,1,0,0:0:0:0:
256,191,227171,1,8,0:0:0:0:
256,191,227286,1,0,0:0:0:0:
256,191,227440,1,8,0:0:0:0:
256,191,227555,1,8,0:0:0:0:
256,191,227671,1,0,0:0:0:0:
256,191,227786,1,8,0:0:0:0:
256,191,227902,1,8,0:0:0:0:
256,191,228017,1,0,0:0:0:0:
256,191,228132,1,0,0:0:0:0:
256,191,228248,1,8,0:0:0:0:
256,191,228402,1,8,0:0:0:0:
256,191,228517,1,0,0:0:0:0:
256,191,228632,1,8,0:0:0:0:
256,191,228671,1,8,0:0:0:0:
256,191,228786,1,0,0:0:0:0:
256,191,228863,1,8,0:0:0:0:
256,191,229017,1,0,0:0:0:0:
256,191,229094,1,8,0:0:0:0:
256,191,229171,1,0,0:0:0:0:
256,191,229286,1,8,0:0:0:0:
256,191,229325,1,8,0:0:0:0:
256,191,229402,1,8,0:0:0:0:
256,191,229479,1,0,0:0:0:0:
256,191,229671,1,8,0:0:0:0:
256,191,229786,1,8,0:0:0:0:
256,191,229863,1,0,0:0:0:0:
256,191,230017,1,0,0:0:0:0:
256,191,230132,1,8,0:0:0:0:
256,191,230209,1,8,0:0:0:0:
256,191,230325,1,0,0:0:0:0:
256,191,230479,1,8,0:0:0:0:
256,191,230517,1,8,0:0:0:0:
256,191,230632,1,8,0:0:0:0:
256,191,230709,1,8,0:0:0:0:
256,191,230863,1,0,0:0:0:0:
256,191,230979,1,8,0:0:0:0:
256,191,231094,1,8,0:0:0:0:
256,191,231171,1,8,0:0:0:0:
256,191,231209,1,8,0:0:0:0:
256,191,231286,1,8,0:0:0:0:
256,191,231325,1,0,0:0:0:0:
256,191,231440,1,0,0:0:0:0:
256,191,231517,1,8,0:0:0:0:
256,191,231632,1,8,0:0:0:0:
256,191,231748,1,0,0:0:0:0:
256,191,231863,1,0,0:0:0:0:
256,191,231979,1,0,0:0:0:0:
256,191,232055,1,0,0:0:0:0:
256,191,232094,1,0,0:0:0:0:
256,191,232248,1,8,0:0:0:0:
256,191,232363,1,8,0:0:0:0:
256,191,232555,1,8,0:0:0:0:
256,191,232671,1,0,0:0:0:0:
256,191,232786,1,8,0:0:0:0:
256,191,232940,1,8,0:0:0:0:
