osu file format v14

[General]
AudioFilename: audio.mp3
AudioLeadIn: 0
PreviewTime: 188821
Countdown: 1
SampleSet: Normal
StackLeniency: 0.7
Mode: 1
LetterboxInBreaks: 0
WidescreenStoryboard: 1

[Editor]
Bookmarks: 11940,26594,33747,41131,52667,62360,68850,83592,91786,100209,111747
DistanceSpacing: 1.5
BeatDivisor: 4
GridSize: 4
TimelineZoom: 2.999999

[Metadata]
Title:Azukita
TitleUnicode:Azukita
Artist:Steve Aoki, Daddy Yankee, Play-N-Skillz & Elvis Crespo
ArtistUnicode:Steve Aoki, Daddy Yankee, Play-N-Skillz & Elvis Crespo
Creator:Warfu
Version:Semi-Converted Diabetes (Testplay)
Source:
Tags:
BeatmapID:1766749
BeatmapSetID:838241

[Difficulty]
HPDrainRate:5
CircleSize:2
OverallDifficulty:5
ApproachRate:5
SliderMultiplier:1.40399919045627
SliderTickRate:1

[Events]
//Background and Video events
0,0,"azukita loading.jpg",0,0
Video,360,"la coreo esta bien prrona.mp4"
//Break Periods
//Storyboard Layer 0 (Background)
//Storyboard Layer 1 (Fail)
//Storyboard Layer 2 (Pass)
//Storyboard Layer 3 (Foreground)
//Storyboard Sound Samples

[TimingPoints]
11594,461.538461538462,4,1,0,40,1,0
19324,-95.2380952380952,4,1,0,40,0,0
21170,-90.9090909090909,4,1,0,40,0,0
22094,-86.9565217391304,4,1,0,40,0,0
23940,-71.4285714285714,4,1,0,40,0,0
24863,-58.8235294117647,4,1,0,40,0,0
25209,-50,4,1,0,40,0,0
25324,-34.4827586206897,4,1,0,40,0,0
25613,-40,4,1,0,40,0,0
25786,-37.7358490566038,4,1,0,40,0,0
26247,-40,4,1,0,40,0,0
26824,-125,4,1,0,40,0,0
28670,-117.647058823529,4,1,0,40,0,0
30517,-111.111111111111,4,1,0,40,0,0
32594,-107.52688172043,4,1,0,45,0,0
33747,-105.263157894737,4,1,0,50,0,0
36055,-100,4,1,0,55,0,0
37440,-97.0873786407767,4,1,0,55,0,0
39055,-90.9090909090909,4,1,0,55,0,0
39286,-83.3333333333333,4,1,0,57,0,0
39517,-76.9230769230769,4,1,0,60,0,0
39747,-71.4285714285714,4,1,0,80,0,0
39978,-66.6666666666667,4,1,0,80,0,0
40209,-58.8235294117647,4,1,0,85,0,0
40440,-47.6190476190476,4,1,0,70,0,0
40824,-40,4,1,0,70,0,0
40978,230.769230769231,4,1,0,85,1,0
40978,-62.5,4,1,0,85,0,0
41132,230.769230769231,4,1,0,85,1,0
41132,-33.3333333333333,4,1,0,85,0,1
42516,-50,4,1,0,85,0,0
42978,-55.5555555555556,4,1,0,85,0,1
44363,-62.5,4,1,0,85,0,0
44824,-62.5,4,1,0,85,0,1
46209,-55.5555555555556,4,1,0,85,0,0
46670,-62.5,4,1,0,85,0,1
47363,461.538461538462,4,1,0,85,1,1
47478,-40,4,1,0,40,0,1
47593,-40,4,1,0,85,0,0
47766,-40,4,1,0,40,0,0
48516,461.538461538462,4,1,0,85,1,1
48516,-36.3636363636364,4,1,0,85,0,1
49900,-33.3333333333333,4,1,0,85,0,0
50362,-33.3333333333333,4,1,0,85,0,1
51746,-38.4615384615385,4,1,0,85,0,0
52208,-38.4615384615385,4,1,0,85,0,1
53592,-40,4,1,0,85,0,0
54054,-41.6666666666667,4,1,0,75,0,1
54169,-41.6666666666667,4,1,0,40,0,1
54400,-43.4782608695652,4,1,0,40,0,1
54746,-45.4545454545455,4,1,0,40,0,1
54977,-47.6190476190476,4,1,0,70,0,0
55208,-48.780487804878,4,1,0,55,0,0
55900,-47.6190476190476,4,1,0,55,0,1
56246,-47.6190476190476,4,1,0,55,0,1
63283,-67.5675675675676,4,1,0,55,0,1
63514,-57.1428571428571,4,1,0,55,0,1
63744,-48.3091787439614,4,1,0,55,0,1
63975,-44.0528634361233,4,1,0,55,0,1
64206,-41.1522633744856,4,1,0,55,0,1
64437,-39.2156862745098,4,1,0,55,0,1
64667,-38.4615384615385,4,1,0,55,0,1
65129,-28.5714285714286,4,1,0,55,0,1
66977,230.769230769231,4,1,0,55,1,1
66977,-50,4,1,0,55,0,1
67208,230.769230769231,4,1,0,55,1,1
67208,-50,4,1,0,55,0,1
67439,230.769230769231,4,1,0,55,1,1
67439,-50,4,1,0,55,0,1
67669,230.769230769231,4,1,0,55,1,1
67669,-50,4,1,0,55,0,1
67900,230.769230769231,4,1,0,55,1,1
67900,-50,4,1,0,55,0,1
68131,230.769230769231,4,1,0,55,1,1
68131,-50,4,1,0,55,0,1
68362,461.538461538462,4,1,0,55,1,1
68362,-33.3333333333333,4,1,0,55,0,1
68708,-33.3333333333333,4,1,0,55,0,0
69285,461.538461538462,4,1,0,55,1,0
69285,-55.5555555555556,4,1,0,70,0,0
70669,461.538461538462,4,1,0,60,1,1
70669,-43.4782608695652,4,1,0,60,0,1
72515,-55.5555555555556,4,1,0,60,0,0
73438,-76.9230769230769,4,1,0,60,0,0
74361,-125,4,1,0,60,0,1
75630,-76.9230769230769,4,1,0,60,0,1
76207,-55.5555555555556,4,1,0,60,0,0
77130,-43.4782608695652,4,1,0,60,0,0
77592,-41.6666666666667,4,1,0,60,0,0
78053,-47.6190476190476,4,1,0,55,0,1
79899,-47.6190476190476,4,1,0,55,0,0
80822,-37.037037037037,4,1,0,55,0,0
81169,-43.4782608695652,4,1,0,55,0,0
81745,-47.6190476190476,4,1,0,55,0,1
83476,-47.6190476190476,4,1,0,55,0,0
83592,-25,4,1,0,55,0,0
84286,461.538461538462,4,1,0,55,1,0
84286,-55.5555555555556,4,1,0,55,0,0
84361,-46.5116279069767,4,1,0,55,0,0
84439,-40,4,1,0,55,0,0
84516,-35.0877192982456,4,1,0,55,0,0
84670,-38.4615384615385,4,1,0,55,0,0
84824,-42.5531914893617,4,1,0,55,0,0
84978,-33.3333333333333,4,1,0,55,0,0
85440,461.538461538462,4,1,0,70,1,1
85440,-28.5714285714286,4,1,0,70,0,1
85555,-55.5555555555556,4,1,0,70,0,1
91209,-54.054054054054,4,1,0,70,0,1
91555,-52.9100529100529,4,1,0,70,0,1
91901,-51.8134715025907,4,1,0,70,0,1
92247,-50.761421319797,4,1,0,70,0,1
92593,-49.7512437810945,4,1,0,70,0,1
92824,-48.780487804878,4,1,0,70,0,1
96286,-52.6315789473684,4,1,0,65,0,1
97209,-55.5555555555556,4,1,0,60,0,1
98363,-100,4,1,0,40,0,0
98478,-98.0392156862745,4,1,0,42,0,0
98593,-95.2380952380952,4,1,0,45,0,0
98709,-90.9090909090909,4,1,0,48,0,0
98824,-86.9565217391304,4,1,0,50,0,0
98940,-83.3333333333333,4,1,0,52,0,0
99055,-76.9230769230769,4,1,0,55,0,0
99170,-71.4285714285714,4,1,0,58,0,0
99286,-50,4,1,0,40,0,0
99363,-50,4,1,0,55,0,0
99440,-50,4,1,0,50,0,0
99516,-50,4,1,0,67,0,0
99747,-33.3333333333333,4,1,0,75,0,0
100093,-40,4,1,0,70,0,0
100209,230.769230769231,4,1,0,80,1,1
100209,-33.3333333333333,4,1,0,80,0,1
101593,-50,4,1,0,80,0,0
102055,-55.5555555555556,4,1,0,80,0,1
103439,-62.5,4,1,0,80,0,0
103901,-62.5,4,1,0,80,0,1
105285,-55.5555555555556,4,1,0,80,0,0
105747,-62.5,4,1,0,80,0,1
106440,461.538461538462,4,1,0,60,1,1
106440,-40,4,1,0,80,0,1
106670,-44.4444444444445,4,1,0,80,0,0
107132,-40,4,1,0,80,0,0
107594,461.538461538462,4,1,0,65,1,1
107594,-36.3636363636364,4,1,0,65,0,1
108978,-33.3333333333333,4,1,0,65,0,0
109440,-33.3333333333333,4,1,0,65,0,1
110824,-38.4615384615385,4,1,0,65,0,0
111286,-38.4615384615385,4,1,0,65,0,1
112670,-40,4,1,0,65,0,0
113132,-41.6666666666667,4,1,0,65,0,1
113478,-43.4782608695652,4,1,0,65,0,1
113594,-43.4782608695652,4,1,0,40,0,1
113824,-45.4545454545455,4,1,0,55,0,1
114055,-38.4615384615385,4,1,0,70,0,0
114170,-47.6190476190476,4,1,0,55,0,0
114286,-48.780487804878,4,1,0,55,0,0
114978,-45.4545454545455,4,1,0,55,0,1
116363,-33.3333333333333,4,1,0,55,0,1
116940,-45.4545454545455,4,1,0,55,0,1
118209,-33.3333333333333,4,1,0,55,0,1
118728,-45.4545454545455,4,1,0,55,0,1
120747,-43.4782608695652,4,1,0,55,0,1
120863,-47.6190476190476,4,1,0,55,0,1
120978,-43.4782608695652,4,1,0,55,0,1
121209,-47.6190476190476,4,1,0,55,0,1
121324,-43.4782608695652,4,1,0,55,0,1
121440,-47.6190476190476,4,1,0,55,0,1
121670,-43.4782608695652,4,1,0,55,0,1
121786,-47.6190476190476,4,1,0,55,0,1
121901,-43.4782608695652,4,1,0,55,0,1
122132,-47.6190476190476,4,1,0,55,0,1
122247,-43.4782608695652,4,1,0,55,0,1
127786,-45.4545454545455,4,1,0,55,0,0
203325,-100,4,1,0,40,0,0
203594,-100,4,1,0,40,0,1
216517,-100,4,1,0,40,0,0
218363,-100,4,1,0,40,0,1
231286,-100,4,1,0,40,0,0

[HitObjects]
256,191,11940,5,8,0:0:0:0:
256,191,12055,1,0,0:0:0:0:
256,191,12286,1,8,0:0:0:0:
256,191,12517,1,0,0:0:0:0:
256,191,12863,1,8,0:0:0:0:
256,191,12978,1,0,0:0:0:0:
256,191,13209,1,8,0:0:0:0:
256,191,13440,1,0,0:0:0:0:
256,191,13786,1,8,0:0:0:0:
256,191,13901,1,0,0:0:0:0:
256,191,14132,1,8,0:0:0:0:
256,191,14363,1,0,0:0:0:0:
256,191,14709,1,8,0:0:0:0:
256,191,14824,1,0,0:0:0:0:
256,191,15055,1,8,0:0:0:0:
256,191,15286,1,0,0:0:0:0:
256,191,15517,1,2,0:0:0:0:
256,191,15747,1,2,0:0:0:0:
256,191,15978,1,10,0:0:0:0:
256,191,16209,1,0,0:0:0:0:
256,191,16555,1,8,0:0:0:0:
256,191,16670,1,0,0:0:0:0:
256,191,16901,1,8,0:0:0:0:
256,191,17132,1,0,0:0:0:0:
256,191,17478,1,8,0:0:0:0:
256,191,17594,1,0,0:0:0:0:
256,191,17824,1,2,0:0:0:0:
256,191,18055,1,2,0:0:0:0:
256,191,18286,1,2,0:0:0:0:
256,191,18517,1,2,0:0:0:0:
256,191,18747,1,2,0:0:0:0:
256,191,18863,1,2,0:0:0:0:
256,191,18978,1,0,0:0:0:0:
256,191,19324,1,8,0:0:0:0:
256,191,19440,1,0,0:0:0:0:
256,191,19670,1,8,0:0:0:0:
256,191,19901,1,0,0:0:0:0:
256,191,20017,1,0,0:0:0:0:
256,191,20247,1,8,0:0:0:0:
256,191,20363,1,0,0:0:0:0:
256,191,20478,1,8,0:0:0:0:
256,191,20709,1,2,0:0:0:0:
256,191,20824,1,0,0:0:0:0:
256,191,21170,1,8,0:0:0:0:
256,191,21286,1,0,0:0:0:0:
256,191,21517,1,8,0:0:0:0:
256,191,21632,1,8,0:0:0:0:
256,191,21747,1,0,0:0:0:0:
256,191,22094,1,2,0:0:0:0:
256,191,22209,1,0,0:0:0:0:
256,191,22324,1,2,0:0:0:0:
256,191,22555,1,10,0:0:0:0:
256,191,22670,1,0,0:0:0:0:
256,191,22786,1,8,0:0:0:0:
256,191,23017,1,8,0:0:0:0:
256,191,23132,1,0,0:0:0:0:
256,191,23363,1,8,0:0:0:0:
256,191,23594,1,0,0:0:0:0:
256,191,23940,1,8,0:0:0:0:
256,191,24055,1,0,0:0:0:0:
256,191,24286,1,8,0:0:0:0:
256,191,24517,1,0,0:0:0:0:
256,191,24863,1,8,0:0:0:0:
256,191,24978,1,0,0:0:0:0:
256,191,25209,1,8,0:0:0:0:
256,191,25324,1,0,0:0:0:0:
256,191,25382,1,0,0:0:0:0:
256,191,25440,1,8,0:0:0:0:
256,191,25613,1,8,0:0:0:0:
256,191,25786,1,8,0:0:0:0:
256,191,25901,1,8,0:0:0:0:
256,191,25988,1,0,0:0:0:0:
256,191,26074,1,8,0:0:0:0:
256,191,26247,1,8,0:0:0:0:
256,191,26363,1,4,0:0:0:0:
256,191,27286,1,0,0:0:0:0:
256,191,27632,1,0,0:0:0:0:
256,191,27747,1,0,0:0:0:0:
256,191,27978,1,0,0:0:0:0:
256,191,28209,1,8,0:0:0:0:
256,191,28670,1,0,0:0:0:0:
256,191,28901,1,0,0:0:0:0:
256,191,29132,1,0,0:0:0:0:
256,191,29247,1,0,0:0:0:0:
256,191,29478,1,0,0:0:0:0:
256,191,29594,1,0,0:0:0:0:
256,191,29824,1,0,0:0:0:0:
256,191,30055,1,8,0:0:0:0:
256,191,30517,1,0,0:0:0:0:
256,191,30747,1,0,0:0:0:0:
256,191,30978,1,0,0:0:0:0:
256,191,31094,1,0,0:0:0:0:
256,191,31324,1,8,0:0:0:0:
256,191,31440,1,0,0:0:0:0:
256,191,31670,1,8,0:0:0:0:
256,191,31901,1,0,0:0:0:0:
256,191,32132,1,2,0:0:0:0:
256,191,32594,1,2,0:0:0:0:
256,191,32824,1,0,0:0:0:0:
256,191,32940,1,8,0:0:0:0:
256,191,33170,1,8,0:0:0:0:
256,191,33286,1,0,0:0:0:0:
256,191,33517,1,8,0:0:0:0:
256,191,33747,1,0,0:0:0:0:
256,191,33978,1,2,0:0:0:0:
256,191,34209,1,0,0:0:0:0:
256,191,34440,1,2,0:0:0:0:
256,191,34670,1,0,0:0:0:0:
256,191,34786,1,8,0:0:0:0:
256,191,35017,1,8,0:0:0:0:
256,191,35132,1,0,0:0:0:0:
256,191,35363,1,0,0:0:0:0:
256,191,35594,1,2,0:0:0:0:
256,191,36055,1,8,0:0:0:0:
256,191,36286,1,0,0:0:0:0:
256,191,36517,1,0,0:0:0:0:
256,191,36632,1,8,0:0:0:0:
256,191,36863,1,8,0:0:0:0:
256,191,36978,1,0,0:0:0:0:
256,191,37209,1,8,0:0:0:0:
256,191,37440,1,0,0:0:0:0:
256,191,37670,1,8,0:0:0:0:
256,191,37901,1,0,0:0:0:0:
256,191,38132,1,8,0:0:0:0:
256,191,38363,1,0,0:0:0:0:
256,191,38478,1,8,0:0:0:0:
256,191,38709,1,8,0:0:0:0:
256,191,38824,1,0,0:0:0:0:
256,191,39055,1,8,0:0:0:0:
256,191,39286,1,0,0:0:0:0:
256,191,39517,1,8,0:0:0:0:
256,191,39747,1,0,0:0:0:0:
256,191,39978,1,8,0:0:0:0:
256,191,40209,1,0,0:0:0:0:
256,191,40324,1,8,0:0:0:0:
256,191,40440,1,0,0:0:0:0:
256,191,40497,1,0,0:0:0:0:
256,191,40555,1,0,0:0:0:0:
256,191,40613,1,0,0:0:0:0:
256,191,40670,1,2,0:0:0:0:
256,191,40824,1,2,0:0:0:0:
256,191,40978,1,2,0:0:0:0:
256,191,41132,1,4,0:0:0:0:
256,191,42516,1,12,0:0:0:0:
256,191,42978,1,4,0:0:0:0:
256,191,44363,1,4,0:0:0:0:
256,191,44517,1,4,0:0:0:0:
256,191,44670,1,4,0:0:0:0:
256,191,44824,1,12,0:0:0:0:
256,191,46209,1,12,0:0:0:0:
256,191,46670,1,4,0:0:0:0:
256,191,47478,1,8,0:0:0:0:
256,191,47536,1,8,0:0:0:0:
256,191,47593,1,8,0:0:0:0:
256,191,47766,1,8,0:0:0:0:
256,191,47939,1,8,0:0:0:0:
256,191,48055,1,8,0:0:0:0:
256,191,48228,1,8,0:0:0:0:
256,191,48401,1,8,0:0:0:0:
256,191,48516,1,4,0:0:0:0:
256,191,49900,1,12,0:0:0:0:
256,191,50362,1,4,0:0:0:0:
256,191,51746,1,4,0:0:0:0:
256,191,51900,1,4,0:0:0:0:
256,191,52054,1,4,0:0:0:0:
256,191,52208,1,12,0:0:0:0:
256,191,53592,1,12,0:0:0:0:
256,191,54054,1,4,0:0:0:0:
256,191,54169,1,8,0:0:0:0:
256,191,54400,1,8,0:0:0:0:
256,191,54746,1,8,0:0:0:0:
256,191,54977,1,4,0:0:0:0:
256,191,55208,1,0,0:0:0:0:
256,191,55266,1,0,0:0:0:0:
256,191,55323,1,0,0:0:0:0:
256,191,55381,1,0,0:0:0:0:
256,191,55439,1,2,0:0:0:0:
256,191,55554,1,8,0:0:0:0:
201,183,55669,1,0,0:0:0:0:
201,183,55785,1,2,0:0:0:0:
256,191,55900,1,4,0:0:0:0:
256,191,56246,1,0,0:0:0:0:
256,191,56362,1,8,0:0:0:0:
256,191,56592,1,8,0:0:0:0:
256,191,56708,1,8,0:0:0:0:
256,191,56823,1,0,0:0:0:0:
256,191,56939,1,8,0:0:0:0:
256,191,57169,1,8,0:0:0:0:
256,191,57285,1,0,0:0:0:0:
256,191,57516,1,8,0:0:0:0:
256,191,57746,1,8,0:0:0:0:
256,191,57977,1,0,0:0:0:0:
256,191,58092,1,0,0:0:0:0:
256,191,58208,1,8,0:0:0:0:
256,191,58439,1,8,0:0:0:0:
256,191,58669,1,0,0:0:0:0:
256,191,58785,1,8,0:0:0:0:
256,191,58900,1,0,0:0:0:0:
256,191,59016,1,8,0:0:0:0:
256,191,59246,1,0,0:0:0:0:
256,191,59362,1,8,0:0:0:0:
256,191,59592,1,8,0:0:0:0:
256,191,59823,1,8,0:0:0:0:
256,191,59939,1,0,0:0:0:0:
256,191,60054,1,8,0:0:0:0:
256,191,60285,1,8,0:0:0:0:
256,191,60516,1,8,0:0:0:0:
256,191,60631,1,0,0:0:0:0:
256,191,60746,1,0,0:0:0:0:
256,191,60862,1,8,0:0:0:0:
256,191,60977,1,8,0:0:0:0:
256,191,61092,1,0,0:0:0:0:
256,191,61208,1,8,0:0:0:0:
256,191,61439,1,8,0:0:0:0:
256,191,61554,1,0,0:0:0:0:
256,191,61669,1,8,0:0:0:0:
256,191,61785,1,8,0:0:0:0:
256,191,61900,1,8,0:0:0:0:
256,191,62016,1,0,0:0:0:0:
256,191,62131,1,8,0:0:0:0:
256,191,62362,1,8,0:0:0:0:
256,191,62477,1,0,0:0:0:0:
256,191,62592,1,8,0:0:0:0:
256,191,62708,1,8,0:0:0:0:
256,191,62823,1,8,0:0:0:0:
256,191,62939,1,0,0:0:0:0:
256,191,63054,1,8,0:0:0:0:
256,191,63285,1,8,0:0:0:0:
256,191,63400,1,0,0:0:0:0:
256,191,63516,1,8,0:0:0:0:
256,191,63631,1,0,0:0:0:0:
256,191,63746,1,8,0:0:0:0:
256,191,63862,1,0,0:0:0:0:
256,191,63977,1,8,0:0:0:0:
256,191,64092,1,0,0:0:0:0:
256,191,64208,1,8,0:0:0:0:
256,191,64323,1,0,0:0:0:0:
256,191,64439,1,8,0:0:0:0:
256,191,64554,1,0,0:0:0:0:
256,191,64669,1,8,0:0:0:0:
256,191,64785,1,0,0:0:0:0:
256,191,64900,1,8,0:0:0:0:
256,191,65016,1,0,0:0:0:0:
256,191,65131,1,12,0:0:0:0:
256,191,65362,1,12,0:0:0:0:
256,191,65592,1,12,0:0:0:0:
256,191,65823,1,12,0:0:0:0:
256,191,66054,1,12,0:0:0:0:
256,191,66285,1,12,0:0:0:0:
256,191,66516,1,12,0:0:0:0:
256,191,66746,1,12,0:0:0:0:
256,191,66977,1,12,0:0:0:0:
256,191,67092,1,4,0:0:0:0:
256,191,67207,1,12,0:0:0:0:
256,191,67323,1,4,0:0:0:0:
256,191,67438,1,12,0:0:0:0:
256,191,67554,1,4,0:0:0:0:
256,191,67669,1,12,0:0:0:0:
256,191,67784,1,4,0:0:0:0:
256,191,67900,1,12,0:0:0:0:
256,191,68015,1,4,0:0:0:0:
256,191,68131,1,12,0:0:0:0:
256,191,68246,1,4,0:0:0:0:
256,191,68362,1,8,0:0:0:0:
256,191,68477,1,8,0:0:0:0:
256,191,68592,1,8,0:0:0:0:
256,191,68708,1,0,0:0:0:0:
256,191,68823,1,0,0:0:0:0:
256,191,69631,1,0,0:0:0:0:
256,191,69688,1,0,0:0:0:0:
256,191,69746,1,8,0:0:0:0:
256,191,69919,1,8,0:0:0:0:
256,191,70092,1,8,0:0:0:0:
256,191,70208,1,8,0:0:0:0:
256,191,70381,1,8,0:0:0:0:
256,191,70554,1,8,0:0:0:0:
256,191,70669,1,4,0:0:0:0:
256,191,70899,1,8,0:0:0:0:
256,191,71015,1,0,0:0:0:0:
256,191,71130,1,0,0:0:0:0:
256,191,71361,1,8,0:0:0:0:
256,191,71592,1,0,0:0:0:0:
256,191,71707,1,8,0:0:0:0:
256,191,71938,1,8,0:0:0:0:
256,191,72053,1,0,0:0:0:0:
256,191,72284,1,8,0:0:0:0:
256,191,72515,1,0,0:0:0:0:
256,191,72745,1,8,0:0:0:0:
256,191,72976,1,0,0:0:0:0:
256,191,73438,1,0,0:0:0:0:
256,191,73553,1,8,0:0:0:0:
256,191,73784,1,8,0:0:0:0:
256,191,73899,1,0,0:0:0:0:
256,191,74130,1,8,0:0:0:0:
256,191,74361,1,0,0:0:0:0:
256,191,74822,1,8,0:0:0:0:
256,191,75284,1,0,0:0:0:0:
256,191,75630,1,8,0:0:0:0:
256,191,75745,1,0,0:0:0:0:
256,191,75976,1,8,0:0:0:0:
256,191,76207,1,0,0:0:0:0:
256,191,76438,1,8,0:0:0:0:
256,191,76669,1,0,0:0:0:0:
256,191,77130,1,0,0:0:0:0:
256,191,77245,1,8,0:0:0:0:
256,191,77476,1,8,0:0:0:0:
256,191,77592,1,0,0:0:0:0:
256,191,77745,1,8,0:0:0:0:
256,191,77899,1,8,0:0:0:0:
256,191,78053,1,4,0:0:0:0:
256,191,78284,1,0,0:0:0:0:
256,191,78399,1,0,0:0:0:0:
256,191,78515,1,8,0:0:0:0:
256,191,78745,1,0,0:0:0:0:
256,191,78861,1,0,0:0:0:0:
256,191,78976,1,8,0:0:0:0:
256,191,79207,1,0,0:0:0:0:
256,191,79322,1,8,0:0:0:0:
256,191,79438,1,0,0:0:0:0:
256,191,79669,1,8,0:0:0:0:
256,191,79784,1,8,0:0:0:0:
256,191,79899,1,0,0:0:0:0:
256,191,80130,1,8,0:0:0:0:
256,191,80245,1,8,0:0:0:0:
256,191,80361,1,0,0:0:0:0:
256,191,80592,1,8,0:0:0:0:
256,191,80707,1,0,0:0:0:0:
256,191,80822,1,8,0:0:0:0:
256,191,80880,1,8,0:0:0:0:
256,191,80938,1,8,0:0:0:0:
256,191,80995,1,8,0:0:0:0:
256,191,81053,1,8,0:0:0:0:
256,191,81169,1,8,0:0:0:0:
256,191,81284,1,0,0:0:0:0:
256,191,81399,1,0,0:0:0:0:
256,191,81515,1,8,0:0:0:0:
256,191,81630,1,8,0:0:0:0:
256,191,81745,1,0,0:0:0:0:
256,191,81976,1,8,0:0:0:0:
256,191,82092,1,0,0:0:0:0:
256,191,82207,1,8,0:0:0:0:
256,191,82438,1,0,0:0:0:0:
256,191,82553,1,0,0:0:0:0:
256,191,82669,1,8,0:0:0:0:
256,191,82899,1,8,0:0:0:0:
256,191,83015,1,0,0:0:0:0:
256,191,83130,1,0,0:0:0:0:
256,191,83361,1,0,0:0:0:0:
256,191,83476,1,0,0:0:0:0:
263,310,83592,2,0,P|364:240|134:194,1,561.599676182508
256,191,84286,1,0,0:0:0:0:
256,191,84362,1,0,0:0:0:0:
256,191,84439,1,0,0:0:0:0:
256,191,84516,1,8,0:0:0:0:
256,191,84670,1,0,0:0:0:0:
256,191,84824,1,0,0:0:0:0:
256,191,84978,1,12,0:0:0:0:
256,191,85209,1,12,0:0:0:0:
256,191,85440,1,4,0:0:0:0:
256,191,85670,1,8,0:0:0:0:
256,191,85786,1,8,0:0:0:0:
256,191,85901,1,0,0:0:0:0:
256,191,86016,1,0,0:0:0:0:
256,191,86132,1,8,0:0:0:0:
256,191,86247,1,8,0:0:0:0:
256,191,86363,1,0,0:0:0:0:
256,191,86478,1,8,0:0:0:0:
256,191,86536,1,8,0:0:0:0:
256,191,86593,1,0,0:0:0:0:
256,191,86709,1,8,0:0:0:0:
256,191,86824,1,0,0:0:0:0:
256,191,86940,1,0,0:0:0:0:
256,191,87055,1,8,0:0:0:0:
256,191,87170,1,8,0:0:0:0:
256,191,87286,1,0,0:0:0:0:
256,191,87343,1,0,0:0:0:0:
256,191,87401,1,0,0:0:0:0:
256,191,87516,1,8,0:0:0:0:
256,191,87632,1,8,0:0:0:0:
256,191,87747,1,0,0:0:0:0:
256,191,87863,1,0,0:0:0:0:
256,191,87978,1,8,0:0:0:0:
256,191,88093,1,8,0:0:0:0:
256,191,88209,1,0,0:0:0:0:
256,191,88324,1,8,0:0:0:0:
256,191,88382,1,8,0:0:0:0:
256,191,88440,1,0,0:0:0:0:
256,191,88555,1,8,0:0:0:0:
256,191,88670,1,0,0:0:0:0:
256,191,88786,1,0,0:0:0:0:
256,191,88901,1,8,0:0:0:0:
256,191,89016,1,8,0:0:0:0:
256,191,89132,1,0,0:0:0:0:
256,191,89190,1,0,0:0:0:0:
256,191,89247,1,8,0:0:0:0:
256,191,89363,1,8,0:0:0:0:
256,191,89478,1,0,0:0:0:0:
256,191,89593,1,0,0:0:0:0:
256,191,89709,1,8,0:0:0:0:
256,191,89824,1,8,0:0:0:0:
256,191,89940,1,0,0:0:0:0:
256,191,89997,1,0,0:0:0:0:
256,191,90055,1,8,0:0:0:0:
256,191,90170,1,0,0:0:0:0:
256,191,90228,1,0,0:0:0:0:
256,191,90286,1,8,0:0:0:0:
256,191,90402,1,8,0:0:0:0:
256,191,90516,1,8,0:0:0:0:
256,191,90632,1,0,0:0:0:0:
256,191,90747,1,0,0:0:0:0:
256,191,90863,1,8,0:0:0:0:
256,191,90978,1,8,0:0:0:0:
256,191,91093,1,0,0:0:0:0:
256,191,91209,1,8,0:0:0:0:
256,191,91324,1,0,0:0:0:0:
256,191,91440,1,0,0:0:0:0:
256,191,91555,1,8,0:0:0:0:
256,191,91670,1,0,0:0:0:0:
256,191,91786,1,0,0:0:0:0:
256,191,91901,1,8,0:0:0:0:
256,191,92016,1,0,0:0:0:0:
256,191,92074,1,0,0:0:0:0:
256,191,92132,1,0,0:0:0:0:
256,191,92190,1,0,0:0:0:0:
256,191,92247,1,8,0:0:0:0:
256,191,92363,1,8,0:0:0:0:
256,191,92478,1,0,0:0:0:0:
256,191,92593,1,8,0:0:0:0:
256,191,92670,1,8,0:0:0:0:
256,191,92747,1,8,0:0:0:0:
256,191,92824,1,8,0:0:0:0:
256,191,92940,1,0,0:0:0:0:
256,191,93055,1,8,0:0:0:0:
256,191,93171,1,8,0:0:0:0:
256,191,93286,1,0,0:0:0:0:
256,191,93401,1,0,0:0:0:0:
256,191,93517,1,8,0:0:0:0:
256,191,93632,1,8,0:0:0:0:
256,191,93748,1,0,0:0:0:0:
256,191,93863,1,8,0:0:0:0:
256,191,93920,1,8,0:0:0:0:
256,191,93978,1,0,0:0:0:0:
256,191,94036,1,0,0:0:0:0:
256,191,94093,1,8,0:0:0:0:
256,191,94209,1,0,0:0:0:0:
256,191,94325,1,0,0:0:0:0:
256,191,94440,1,8,0:0:0:0:
256,191,94555,1,8,0:0:0:0:
256,191,94671,1,0,0:0:0:0:
256,191,94728,1,0,0:0:0:0:
256,191,94786,1,0,0:0:0:0:
256,191,94901,1,8,0:0:0:0:
256,191,94959,1,8,0:0:0:0:
256,191,95017,1,8,0:0:0:0:
256,191,95132,1,0,0:0:0:0:
256,191,95248,1,0,0:0:0:0:
256,191,95363,1,8,0:0:0:0:
256,191,95478,1,8,0:0:0:0:
256,191,95594,1,0,0:0:0:0:
256,191,95709,1,8,0:0:0:0:
256,191,95767,1,8,0:0:0:0:
256,191,95825,1,0,0:0:0:0:
256,191,95882,1,0,0:0:0:0:
256,191,95940,1,8,0:0:0:0:
256,191,96055,1,0,0:0:0:0:
256,191,96171,1,0,0:0:0:0:
256,191,96286,1,8,0:0:0:0:
256,191,96401,1,8,0:0:0:0:
256,191,96517,1,0,0:0:0:0:
256,191,96632,1,0,0:0:0:0:
256,191,96747,1,8,0:0:0:0:
256,191,96805,1,8,0:0:0:0:
256,191,96863,1,8,0:0:0:0:
256,191,96978,1,0,0:0:0:0:
256,191,97093,1,0,0:0:0:0:
256,191,97209,1,8,0:0:0:0:
256,191,97324,1,8,0:0:0:0:
256,191,97440,1,0,0:0:0:0:
256,191,97555,1,8,0:0:0:0:
256,191,97613,1,8,0:0:0:0:
256,191,97670,1,0,0:0:0:0:
256,191,97786,1,8,0:0:0:0:
256,191,97901,1,0,0:0:0:0:
256,191,98016,1,0,0:0:0:0:
256,191,98132,1,8,0:0:0:0:
256,191,98247,1,8,0:0:0:0:
256,191,98363,1,0,0:0:0:0:
256,191,98479,1,0,0:0:0:0:
256,191,98594,1,8,0:0:0:0:
256,191,98709,1,0,0:0:0:0:
256,191,98825,1,0,0:0:0:0:
256,191,98940,1,8,0:0:0:0:
256,191,99055,1,0,0:0:0:0:
256,191,99171,1,0,0:0:0:0:
256,191,99286,1,0,0:0:0:0:
256,191,99363,1,0,0:0:0:0:
256,191,99440,1,0,0:0:0:0:
256,191,99516,1,0,0:0:0:0:
256,191,99593,1,0,0:0:0:0:
256,191,99670,1,0,0:0:0:0:
256,191,99747,1,8,0:0:0:0:
256,191,99805,1,8,0:0:0:0:
256,191,99863,1,8,0:0:0:0:
256,191,99920,1,8,0:0:0:0:
256,191,99978,1,0,0:0:0:0:
256,191,100093,1,8,0:0:0:0:
256,191,100209,1,4,0:0:0:0:
256,191,101593,1,12,0:0:0:0:
256,191,102055,1,4,0:0:0:0:
256,191,103439,1,4,0:0:0:0:
256,191,103593,1,4,0:0:0:0:
256,191,103747,1,4,0:0:0:0:
256,191,103901,1,12,0:0:0:0:
256,191,105285,1,12,0:0:0:0:
256,191,105747,1,4,0:0:0:0:
256,191,106441,1,0,0:0:0:0:
256,191,106517,1,0,0:0:0:0:
256,191,106594,1,0,0:0:0:0:
256,191,106671,1,8,0:0:0:0:
256,191,106844,1,0,0:0:0:0:
256,191,107017,1,0,0:0:0:0:
256,191,107133,1,8,0:0:0:0:
256,191,107306,1,8,0:0:0:0:
256,191,107479,1,8,0:0:0:0:
256,191,107593,1,4,0:0:0:0:
256,191,108978,1,12,0:0:0:0:
256,191,109440,1,4,0:0:0:0:
256,191,110824,1,4,0:0:0:0:
256,191,110978,1,4,0:0:0:0:
256,191,111132,1,4,0:0:0:0:
256,191,111286,1,12,0:0:0:0:
256,191,112670,1,12,0:0:0:0:
256,191,113132,1,4,0:0:0:0:
256,191,113247,1,8,0:0:0:0:
256,191,113478,1,8,0:0:0:0:
256,191,113594,1,0,0:0:0:0:
256,191,113824,1,0,0:0:0:0:
256,191,113940,1,0,0:0:0:0:
256,191,114055,1,4,0:0:0:0:
256,191,114170,1,8,0:0:0:0:
256,191,114286,1,0,0:0:0:0:
256,191,114344,1,0,0:0:0:0:
256,191,114401,1,8,0:0:0:0:
256,191,114517,1,8,0:0:0:0:
256,191,114632,1,8,0:0:0:0:
256,191,114747,1,0,0:0:0:0:
256,191,114863,1,8,0:0:0:0:
256,191,114978,1,4,0:0:0:0:
256,191,115094,1,0,0:0:0:0:
256,191,115209,1,0,0:0:0:0:
256,191,115324,1,0,0:0:0:0:
256,191,115440,1,8,0:0:0:0:
256,191,115555,1,0,0:0:0:0:
256,191,115670,1,8,0:0:0:0:
256,191,115786,1,8,0:0:0:0:
256,191,115901,1,0,0:0:0:0:
256,191,116017,1,8,0:0:0:0:
256,191,116132,1,0,0:0:0:0:
256,191,116247,1,8,0:0:0:0:
256,191,116363,1,0,0:0:0:0:
256,191,116594,1,8,0:0:0:0:
256,191,116824,1,8,0:0:0:0:
256,191,116940,1,8,0:0:0:0:
256,191,117055,1,8,0:0:0:0:
256,191,117170,1,0,0:0:0:0:
256,191,117286,1,8,0:0:0:0:
256,191,117401,1,0,0:0:0:0:
256,191,117517,1,8,0:0:0:0:
256,191,117632,1,8,0:0:0:0:
256,191,117747,1,0,0:0:0:0:
256,191,117863,1,8,0:0:0:0:
256,191,117978,1,0,0:0:0:0:
256,191,118094,1,8,0:0:0:0:
256,191,118209,1,0,0:0:0:0:
256,191,118440,1,0,0:0:0:0:
256,191,118670,1,8,0:0:0:0:
256,191,118786,1,0,0:0:0:0:
256,191,118901,1,8,0:0:0:0:
256,191,119017,1,0,0:0:0:0:
256,191,119132,1,8,0:0:0:0:
256,191,119247,1,8,0:0:0:0:
256,191,119363,1,8,0:0:0:0:
256,191,119478,1,0,0:0:0:0:
256,191,119594,1,8,0:0:0:0:
256,191,119709,1,0,0:0:0:0:
256,191,119824,1,0,0:0:0:0:
256,191,119940,1,8,0:0:0:0:
256,191,120055,1,0,0:0:0:0:
256,191,120286,1,0,0:0:0:0:
256,191,120517,1,8,0:0:0:0:
256,191,120747,1,8,0:0:0:0:
256,191,120863,1,0,0:0:0:0:
256,191,120978,1,8,0:0:0:0:
256,191,121209,1,0,0:0:0:0:
256,191,121324,1,8,0:0:0:0:
256,191,121440,1,0,0:0:0:0:
256,191,121670,1,8,0:0:0:0:
256,191,121786,1,8,0:0:0:0:
256,191,121901,1,8,0:0:0:0:
256,191,122132,1,0,0:0:0:0:
256,191,122247,1,0,0:0:0:0:
256,191,122363,1,8,0:0:0:0:
