osu file format v14

[General]
AudioFilename: audio.mp3
AudioLeadIn: 0
PreviewTime: 117064
Countdown: 0
SampleSet: None
StackLeniency: 0.7
Mode: 0
LetterboxInBreaks: 0
WidescreenStoryboard: 1

[Editor]
DistanceSpacing: 1
BeatDivisor: 4
GridSize: 8
TimelineZoom: 1.3

[Metadata]
Title:Darker Than Blood (feat. LINKIN PARK)
TitleUnicode:Darker Than Blood (feat. LINKIN PARK)
Artist:Steve Aoki
ArtistUnicode:Steve Aoki
Creator:pw384
Version:Normal
Source:
Tags:Neon Future II electronic 384059043
BeatmapID:1481687
BeatmapSetID:642888

[Difficulty]
HPDrainRate:4
CircleSize:3.5
OverallDifficulty:5
ApproachRate:5
SliderMultiplier:1.6
SliderTickRate:1

[Events]
//Background and Video events
0,0,"bg.jpg",0,0
//Break Periods
2,213370,218930
2,284410,286850
//Storyboard Layer 0 (Background)
//Storyboard Layer 1 (Fail)
//Storyboard Layer 2 (Pass)
//Storyboard Layer 3 (Foreground)
//Storyboard Sound Samples

[TimingPoints]
50,480,4,3,0,67,1,0
31730,-105.263157894737,4,3,0,55,0,0
32690,-111.111111111111,4,3,0,50,0,0
33650,-117.647058823529,4,3,0,45,0,0
34610,-125,4,3,0,40,0,0
35570,-133.333333333333,4,3,0,35,0,0
36530,-142.857142857143,4,3,0,30,0,0
37490,-166.666666666667,4,3,0,20,0,0
38450,-200,4,2,0,20,0,0
53570,-142.857142857143,4,3,0,30,0,0
67250,-142.857142857143,4,2,0,30,0,0
68690,-100,4,2,0,30,0,0
69170,-100,4,3,0,50,0,0
82610,-100,4,3,0,50,0,0
86450,-100,4,3,0,60,0,0
93170,-100,4,3,0,67,0,0
101330,-100,4,3,0,75,0,0
101810,-100,4,3,0,80,0,0
103250,-100,4,3,0,80,0,0
103730,-100,4,3,0,80,0,0
105170,-100,4,3,0,80,0,0
105650,-100,4,3,0,80,0,0
107090,-100,4,3,0,80,0,0
107570,-100,4,3,0,80,0,0
109010,-100,4,3,0,80,0,0
109490,-100,4,3,0,80,0,0
110930,-100,4,3,0,80,0,0
111410,-100,4,3,0,80,0,0
112850,-100,4,3,0,80,0,0
113330,-100,4,3,0,80,0,0
114770,-100,4,3,0,80,0,0
115250,-100,4,3,0,80,0,0
115490,-100,4,3,0,80,0,0
115730,-100,4,3,0,80,0,0
115970,-100,4,3,0,80,0,0
116210,-100,4,3,0,80,0,0
116450,-100,4,3,0,80,0,0
116690,-100,4,3,0,80,0,0
116930,-100,4,3,0,80,0,0
117170,-100,4,3,0,60,0,0
119090,-92.5925925925926,4,3,0,60,0,0
121010,-100,4,3,0,60,0,0
128690,-103.092783505155,4,3,0,60,0,0
130610,-100,4,3,0,60,0,0
147890,-125,4,3,0,60,0,0
160850,-100,4,3,0,60,0,0
165170,-100,4,3,0,67,0,0
172850,-100,4,3,0,72,0,0
180050,-100,4,3,0,75,0,0
180530,-100,4,3,0,80,0,0
181970,-100,4,3,0,80,0,0
182450,-100,4,3,0,80,0,0
183890,-100,4,3,0,80,0,0
184370,-100,4,3,0,80,0,0
185810,-100,4,3,0,80,0,0
186290,-100,4,3,0,80,0,0
187730,-100,4,3,0,80,0,0
188210,-100,4,3,0,80,0,0
189650,-100,4,3,0,80,0,0
190130,-100,4,3,0,80,0,0
191570,-100,4,3,0,80,0,0
192050,-100,4,3,0,80,0,0
193490,-100,4,3,0,80,0,0
193970,-100,4,3,0,80,0,0
195890,-100,4,3,0,80,0,0
209330,-100,4,3,0,75,0,0
211250,-100,4,3,0,60,0,0
220850,-100,4,3,0,60,0,0
230450,-100,4,3,0,50,0,0
232370,-100,4,3,0,55,0,0
239570,-100,4,3,0,67,0,0
243890,-100,4,3,0,70,0,0
247250,-100,4,3,0,75,0,0
247730,-100,4,3,0,80,0,0
249170,-100,4,3,0,80,0,0
249650,-100,4,3,0,80,0,0
251090,-100,4,3,0,80,0,0
251570,-100,4,3,0,80,0,0
253010,-100,4,3,0,80,0,0
253490,-100,4,3,0,80,0,0
254930,-100,4,3,0,80,0,0
255410,-100,4,3,0,80,0,0
256850,-100,4,3,0,80,0,0
257330,-100,4,3,0,80,0,0
258770,-100,4,3,0,80,0,0
259250,-100,4,3,0,80,0,0
260690,-100,4,3,0,80,0,0
261170,-100,4,3,0,80,0,0
263090,-100,4,3,0,80,0,1
269330,-100,4,3,0,80,0,1
269810,-100,4,3,0,80,0,1
270290,-100,4,3,0,80,0,1
270770,-100,4,3,0,80,0,1
272210,-100,4,3,0,80,0,1
272690,-100,4,3,0,80,0,1
274130,-100,4,3,0,80,0,1
274610,-100,4,3,0,80,0,1
276050,-100,4,3,0,80,0,1
276530,-100,4,3,0,80,0,1
278450,-97.0873786407767,4,3,0,60,0,0
279890,-100,4,3,0,80,0,0
280370,-100,4,3,0,67,0,0

[Colours]
Combo1 : 216,216,216
Combo2 : 170,105,74
Combo3 : 120,89,54
Combo4 : 207,187,118
Combo5 : 68,68,68

[HitObjects]
360,304,50,6,0,P|416:320|488:248,1,160,4|2,3:1|0:0,0:0:0:0:
408,240,770,1,0,0:0:0:0:
328,232,1010,2,0,B|256:266|256:266|184:232,1,160,0|2,0:0|0:0,0:0:0:0:
152,80,1970,6,0,P|96:64|24:136,1,160,0|2,0:0|0:0,0:0:0:0:
104,144,2690,1,0,0:0:0:0:
184,152,2930,2,0,B|256:118|256:118|328:152,1,160,0|2,0:0|0:0,0:0:0:0:
448,264,3890,6,0,P|408:272|368:272,1,80,0|0,0:0|0:0,0:0:0:0:
296,232,4370,2,0,L|216:232,1,80,2|0,0:0|0:0,0:0:0:0:
143,272,4850,2,0,P|103:271|64:264,2,80,0|0|2,0:0|0:0|0:0,0:0:0:0:
64,120,5810,38,0,P|104:112|144:112,1,80,0|0,0:0|0:0,0:0:0:0:
216,152,6290,2,0,L|296:152,1,80,2|0,0:0|0:0,0:0:0:0:
368,111,6770,2,0,P|408:112|448:120,2,80,0|0|2,0:0|0:0|0:0,0:0:0:0:
256,192,7730,12,2,13490,0:2:0:0:
256,192,14930,6,0,L|256:272,1,80,4|4,0:0|0:0,0:0:0:0:
192,320,15410,6,0,P|88:344|48:320,1,160,4|2,0:1|0:0,0:0:0:0:
0,256,16130,1,0,0:0:0:0:
48,192,16370,2,0,P|152:168|192:192,1,160,0|2,0:0|0:0,0:0:0:0:
320,320,17330,38,0,P|424:344|464:320,1,160,0|2,0:0|0:0,0:0:0:0:
512,256,18050,1,0,0:0:0:0:
464,192,18290,2,0,P|360:168|320:192,1,160,0|2,0:0|0:0,0:0:0:0:
176,272,19250,6,0,L|176:112,1,160,0|2,0:0|0:0,0:0:0:0:
96,112,19970,1,0,0:0:0:0:
96,192,20210,2,0,L|96:352,1,160,0|2,0:0|0:0,0:0:0:0:
256,352,21170,6,0,L|256:192,1,160,0|2,0:0|0:0,0:0:0:0:
256,112,21890,1,0,0:0:0:0:
200,56,22130,2,0,P|279:39|311:55,2,120,0|0|8,0:0|1:0|0:0,0:0:0:0:
144,120,23090,38,0,P|168:224|144:264,1,160,0|2,0:0|0:0,0:0:0:0:
80,312,23810,1,0,0:0:0:0:
16,264,24050,2,0,P|-8:160|16:120,1,160,0|2,0:0|0:0,0:0:0:0:
176,192,25010,6,0,L|336:192,2,160,0|2|0,0:0|0:0|0:0,0:0:0:0:
232,344,26450,1,2,0:0:0:0:
368,264,26930,6,0,P|344:160|368:120,1,160,0|2,0:0|0:0,0:0:0:0:
432,72,27650,1,0,0:0:0:0:
496,120,27890,2,0,P|520:224|496:264,1,160,0|2,0:0|0:0,0:0:0:0:
336,192,28850,37,0,0:0:0:0:
336,192,30290,2,0,L|256:192,1,80,0|0,0:0|0:0,0:0:0:0:
176,192,30770,1,0,0:0:0:0:
256,192,31010,12,0,37490,0:0:0:0:
216,80,38450,6,0,P|127:148|40:79,1,240,0|0,0:0|0:0,0:0:0:0:
128,56,40370,1,0,0:0:0:0:
296,80,42290,6,0,P|384:148|471:79,1,240,0|0,0:0|0:0,0:0:0:0:
384,56,44210,1,0,0:0:0:0:
256,192,46130,38,0,B|240:232|256:272|256:272|272:312|256:352,2,160,0|0|0,0:0|0:0|0:0,0:0:0:0:
176,312,49010,1,0,0:0:0:0:
336,231,49970,6,0,P|256:58|176:232,1,480,0|0,0:0|0:0,0:0:0:0:
336,343,53810,6,0,L|336:231,1,111.999996582031,4|0,0:0|0:0,0:0:0:0:
448,248,54770,2,0,L|448:136,1,111.999996582031,8|0,0:0|0:0,0:0:0:0:
336,152,55730,38,0,B|288:120|232:152|232:152|168:200|64:136|112:40,1,335.999989746094,8|0,0:0|0:0,0:0:0:0:
16,112,57650,6,0,L|16:224,1,111.999996582031,8|0,0:0|0:0,0:0:0:0:
128,248,58610,2,0,L|128:360,1,111.999996582031,8|0,0:0|0:0,0:0:0:0:
232,320,59570,6,0,B|284:360|328:336|336:272|288:256|288:256|240:240|248:176|292:152|344:192,1,335.999989746094,8|0,0:0|0:0,0:0:0:0:
368,80,61490,38,0,P|304:64|168:136,2,223.999993164063,8|8|8,0:0|0:0|0:0,0:0:0:0:
368,304,64370,1,8,0:0:0:0:
143,303,65330,6,0,P|256:148|368:304,1,447.999986328125,8|0,0:0|0:0,0:0:0:0:
256,272,68690,2,0,L|256:192,1,80,2|0,0:0|0:0,0:0:0:0:
256,112,69170,6,0,P|417:29|336:192,1,480,4|2,0:0|0:0,0:0:0:0:
176,192,71090,37,8,0:0:0:0:
176,352,71570,1,2,0:0:0:0:
336,352,72050,1,0,0:0:0:0:
336,192,72530,1,2,0:0:0:0:
175,191,73010,6,0,P|94:354|256:272,1,480,4|2,0:0|0:0,0:0:0:0:
256,111,74930,6,0,P|328:82|400:112,1,160,8|2,0:0|0:0,0:0:0:0:
400,271,75890,2,0,P|328:301|256:272,1,160,0|2,0:0|0:0,0:0:0:0:
255,111,76850,38,0,P|82:192|256:272,1,480,4|2,0:0|0:0,0:0:0:0:
400,192,78770,5,8,0:0:0:0:
255,111,79250,1,2,0:0:0:0:
112,192,79730,1,0,0:0:0:0:
256,272,80210,1,2,0:0:0:0:
400,192,80690,6,0,P|255:34|112:192,1,480,4|2,0:0|0:0,0:0:0:0:
168,336,82610,2,0,B|168:272|256:240|256:240|288:240|312:216|312:184|312:184|312:104|200:104|200:184|200:184|200:216|224:240|256:240|256:240|344:272|344:336,2,640,8|0|4,0:0|2:0|0:1,0:0:0:0:
256,192,86690,12,0,93170,0:0:0:0:
32,240,94130,38,0,P|72:240|112:256,1,80,8|2,0:0|0:0,0:0:0:0:
168,312,94610,2,0,P|208:312|248:296,1,80,0|2,0:0|0:0,0:0:0:0:
267,214,95090,2,0,P|304:199|343:199,1,80,8|2,0:0|0:0,0:0:0:0:
403,257,95570,2,0,P|440:271|479:271,1,80,0|2,0:0|0:0,0:0:0:0:
456,192,96050,6,0,L|456:112,1,80,8|2,0:0|0:0,0:0:0:0:
376,88,96530,2,0,P|336:80|288:80,1,80,0|2,0:0|0:0,0:0:0:0:
215,79,97010,2,0,P|175:79|135:87,1,80,8|2,0:0|0:0,0:0:0:0:
56,112,97490,2,0,L|56:192,1,80,0|2,0:0|0:0,0:0:0:0:
104,256,97970,6,0,B|136:328|240:328|272:256|272:256|272:208|272:208|240:176|240:176|240:128|240:128|272:56|376:56|408:128,1,560,2|2,0:0|0:0,0:0:0:0:
456,192,99890,38,0,L|456:352,3,160,2|2|2|4,0:0|0:0|0:0|0:2,0:0:0:0:
296,352,101810,5,4,0:2:0:0:
256,280,102050,1,2,0:0:0:0:
216,352,102290,1,0,1:0:0:0:
56,352,102770,2,0,L|56:192,1,160,0|0,0:0|1:0,0:0:0:0:
96,40,103730,6,0,P|120:48|176:56,1,80,4|2,0:2|0:0,0:0:0:0:
256,48,104210,1,0,1:0:0:0:
338,55,104450,2,0,P|377:51|416:40,1,80,2|0,0:0|0:0,0:0:0:0:
456,192,105170,2,0,L|456:272,1,80,4|4,1:2|1:2,0:0:0:0:
456,352,105650,37,4,0:2:0:0:
376,352,105890,1,2,0:0:0:0:
296,352,106130,1,0,1:0:0:0:
160,272,106610,2,0,B|120:256|80:272|80:272|40:288|0:272,1,160,0|0,0:0|1:0,0:0:0:0:
24,112,107570,6,0,L|104:112,1,80,4|2,0:2|0:0,0:0:0:0:
176,80,108050,2,0,P|223:95|255:95,1,80,0|2,1:0|0:0,0:0:0:0:
335,80,108530,2,0,P|340:156|408:191,1,160,0|4,0:0|0:0,0:0:0:0:
408,112,109250,1,4,0:0:0:0:
480,144,109490,6,0,P|475:67|407:32,2,160,4|0|0,0:2|1:0|0:0,0:0:0:0:
480,224,110690,2,0,L|480:312,1,80,2|0,0:0|1:0,0:0:0:0:
324,248,111410,38,0,P|256:212|188:248,2,160,4|0|0,0:2|1:0|0:0,0:0:0:0:
256,296,112610,1,0,0:0:0:0:
296,368,112850,2,0,P|256:376|216:368,1,80,4|4,1:2|1:2,0:0:0:0:
152,320,113330,6,0,P|84:284|16:320,2,160,4|0|0,0:2|1:0|0:0,0:0:0:0:
217,368,114530,2,0,P|257:375|296:368,1,80,2|0,0:0|1:0,0:0:0:0:
495,319,115250,6,0,P|427:284|360:320,1,160,4|0,0:2|1:0,0:0:0:0:
256,192,116210,2,0,L|256:32,2,160,0|4|4,0:0|0:0|0:1,0:0:0:0:
336,328,117650,37,2,0:0:0:0:
176,328,118130,1,0,0:0:0:0:
96,192,118610,1,2,0:0:0:0:
176,56,119090,6,0,B|336:56|336:56|256:128|256:128|256:256|256:256|256:328|336:328,1,518.40001265625,0|2,0:0|0:0,0:0:0:0:
336,328,121010,5,0,0:0:0:0:
416,192,121490,1,2,0:0:0:0:
336,56,121970,1,0,0:0:0:0:
176,56,122450,1,2,0:0:0:0:
96,192,122930,38,0,B|152:232|176:280|176:280|208:228|256:192|256:192|308:228|336:280|336:280|360:232|416:192,1,480,0|2,0:0|0:0,0:0:0:0:
336,56,124850,6,0,L|176:56,2,160,0|2|0,0:0|0:0|0:0,0:0:0:0:
416,192,126290,1,2,0:0:0:0:
336,328,126770,2,0,L|176:328,1,160,0|2,0:0|0:0,0:0:0:0:
96,192,127730,2,0,L|256:192,1,160,0|2,0:0|0:0,0:0:0:0:
176,56,128690,6,0,B|176:328|176:328|176:146|336:146|336:328,1,620.800014682618,0|0,0:0|0:0,0:0:0:0:
416,192,131090,37,2,0:0:0:0:
336,56,131570,1,2,0:2:0:0:
256,56,131810,1,0,0:0:0:0:
176,56,132050,1,2,0:0:0:0:
96,192,132530,6,0,P|160:232|176:312,1,160,4|2,0:1|0:0,0:0:0:0:
335,310,133490,2,0,P|350:234|416:192,1,160,2|2,0:2|0:0,0:0:0:0:
464,40,134450,6,0,B|424:8|368:8|328:40|328:40|296:80|296:80|256:56|216:80|216:80|184:40|184:40|144:8|88:8|48:40,1,480,0|2,0:0|0:0,0:0:0:0:
96,192,136370,38,0,L|96:360,1,160,0|2,0:0|0:0,0:0:0:0:
256,352,137330,2,0,L|256:192,1,160,2|2,0:2|0:0,0:0:0:0:
415,191,138290,6,0,P|256:44|96:192,1,480,0|2,0:0|0:0,0:0:0:0:
176,328,140210,6,0,L|336:328,1,160,0|2,0:0|0:0,0:0:0:0:
476,248,141170,2,0,L|316:248,1,160,2|2,0:2|0:0,0:0:0:0:
196,136,142130,38,0,L|36:136,1,160,0|2,0:0|0:0,0:0:0:0:
176,56,143090,2,0,L|336:56,1,160,2|2,0:2|0:0,0:0:0:0:
476,136,144050,6,0,L|316:136,1,160,0|2,0:0|0:0,0:0:0:0:
256,288,145010,2,0,L|256:368,2,80,2|0|2,0:2|0:0|0:0,0:0:0:0:
176,152,145970,6,0,P|141:85|176:17,1,160,0|2,0:0|0:0,0:0:0:0:
334,15,146930,2,0,P|370:83|336:152,1,160,2|2,0:0|0:0,0:0:0:0:
344,280,147890,38,0,B|256:240|256:240|168:280,2,192,4|0|0,0:0|0:0|0:0,0:0:0:0:
432,372,149810,6,0,B|472:340|472:292|472:292|472:252,1,128
472,127,150770,2,0,B|472:92|472:92|472:44|432:12,1,128
344,104,151730,6,0,B|256:144|256:144|168:104,2,192
416,208,153650,38,0,B|358:236|358:236|319:286,1,128
192,286,154610,2,0,B|154:236|154:236|96:208,1,128
128,88,155570,6,0,L|384:88,1,256,4|0,0:0|0:0,0:0:0:0:
456,192,157010,1,2,0:0:0:0:
384,296,157490,6,0,L|128:296,1,256
56,192,158930,1,2,0:0:0:0:
256,192,159410,12,0,164210,0:0:0:0:
128,192,165170,38,0,P|22:219|39:327,1,240,2|0,0:0|0:0,0:0:0:0:
88,264,166130,2,0,B|128:280|168:264|168:264|208:280|248:264,1,160,2|0,0:0|0:0,0:0:0:0:
384,192,167090,6,0,P|489:164|472:56,1,240,2|0,0:0|0:0,0:0:0:0:
424,120,168050,2,0,B|384:104|344:120|344:120|304:104|264:120,1,160,2|0,0:0|0:0,0:0:0:0:
120,48,169010,6,0,P|104:176|184:256,1,240,2|0,0:0|0:0,0:0:0:0:
256,256,169970,2,0,L|256:344,2,80,2|0|0,0:0|0:0|0:0,0:0:0:0:
392,336,170930,38,0,P|408:208|328:128,1,240,2|0,0:0|0:0,0:0:0:0:
256,128,171890,2,0,L|256:40,2,80,2|0|0,0:0|0:0|0:0,0:0:0:0:
136,24,172850,6,0,B|120:48|120:72|120:72|120:100,1,80,8|2,0:0|0:0,0:0:0:0:
136,176,173330,2,0,B|168:176|184:184|216:184,1,80,0|2,0:0|0:0,0:0:0:0:
296,200,173810,2,0,B|328:200|344:208|376:208,1,80,8|2,0:0|0:0,0:0:0:0:
392,284,174290,2,0,B|392:312|392:312|392:336|376:360,1,80,0|2,0:0|0:0,0:0:0:0:
296,360,174770,6,0,L|216:360,1,80,8|2,0:0|0:0,0:0:0:0:
136,360,175250,2,0,B|120:336|120:312|120:312|120:284,1,80,0|2,0:0|0:0,0:0:0:0:
136,208,175730,2,0,B|168:208|184:200|216:200,1,80,8|2,0:0|0:0,0:0:0:0:
296,184,176210,2,0,B|328:184|344:176|376:176,1,80,0|2,0:0|0:0,0:0:0:0:
408,104,176690,38,0,B|256:104|256:16|104:16|104:16|8:80|8:80|72:80|112:136,1,560,2|2,0:0|0:0,0:0:0:0:
56,192,178610,2,0,L|56:352,3,160,2|0|0|4,0:0|0:0|0:0|0:2,0:0:0:0:
216,352,180530,5,4,0:2:0:0:
256,280,180770,1,2,0:0:0:0:
296,352,181010,1,0,1:0:0:0:
456,352,181490,2,0,L|456:192,1,160,0|0,0:0|1:0,0:0:0:0:
416,40,182450,6,0,P|392:48|336:56,1,80,4|2,0:2|0:0,0:0:0:0:
256,48,182930,1,0,1:0:0:0:
174,55,183170,2,0,P|135:51|96:40,1,80,2|0,0:0|0:0,0:0:0:0:
56,192,183890,2,0,L|56:272,1,80,4|4,1:2|1:2,0:0:0:0:
56,352,184370,37,4,0:2:0:0:
136,352,184610,1,2,0:0:0:0:
216,352,184850,1,0,1:0:0:0:
352,272,185330,2,0,B|392:256|432:272|432:272|472:288|512:272,1,160,0|0,0:0|1:0,0:0:0:0:
488,112,186290,6,0,L|408:112,1,80,4|2,0:2|0:0,0:0:0:0:
336,80,186770,2,0,P|289:95|257:95,1,80,0|2,1:0|0:0,0:0:0:0:
177,80,187250,2,0,P|172:156|104:191,1,160,0|4,0:0|0:0,0:0:0:0:
104,112,187970,1,4,0:0:0:0:
32,144,188210,6,0,P|37:67|105:32,2,160,4|0|0,0:2|1:0|0:0,0:0:0:0:
32,224,189410,2,0,L|32:312,1,80,2|0,0:0|1:0,0:0:0:0:
188,248,190130,38,0,P|256:212|324:248,2,160,4|0|0,0:2|1:0|0:0,0:0:0:0:
256,296,191330,1,0,0:0:0:0:
216,368,191570,2,0,P|256:376|296:368,1,80,4|4,1:2|1:2,0:0:0:0:
360,320,192050,6,0,P|428:284|496:320,2,160,4|0|0,0:2|1:0|0:0,0:0:0:0:
295,368,193250,2,0,P|255:375|216:368,1,80,2|0,0:0|1:0,0:0:0:0:
17,319,193970,6,0,P|85:284|152:320,1,160,4|0,0:2|1:0,0:0:0:0:
256,192,194930,2,0,L|256:32,1,160,0|4,0:0|0:0,0:0:0:0:
392,112,195890,38,0,L|392:192,1,80,4|2,0:2|0:0,0:0:0:0:
460,236,196370,2,0,P|368:268|323:235,1,160,0|0,1:0|0:0,0:0:0:0:
256,192,197090,1,2,0:0:0:0:
256,272,197330,2,0,P|232:296|184:312,1,80,0|2,1:0|0:0,0:0:0:0:
120,272,197810,6,0,L|120:192,1,80,0|2,0:0|0:0,0:0:0:0:
52,148,198290,2,0,P|144:116|188:148,1,160,0|0,1:0|0:0,0:0:0:0:
256,192,199010,1,2,0:0:0:0:
256,112,199250,2,0,P|280:88|328:72,1,80,0|2,1:0|0:0,0:0:0:0:
405,72,199730,6,0,P|443:84|472:112,1,80,4|2,0:2|0:0,0:0:0:0:
400,152,200210,2,0,L|400:232,1,80,0|2,1:0|0:0,0:0:0:0:
405,311,200690,2,0,P|443:299|472:272,2,80,0|2|0,0:0|0:0|1:0,0:0:0:0:
328,304,201410,1,2,0:0:0:0:
256,264,201650,38,0,P|256:224|264:184,1,80,0|2,0:0|0:0,0:0:0:0:
344,168,202130,2,0,P|351:128|351:88,1,80,0|2,1:0|0:0,0:0:0:0:
320,16,202610,1,0,0:0:0:0:
160,40,203090,2,0,P|128:32|80:40,1,80,0|6,1:0|0:0,0:0:0:0:
120,112,203570,6,0,L|120:192,1,80,4|2,0:2|0:0,0:0:0:0:
52,236,204050,2,0,P|144:268|188:235,1,160,0|0,1:0|0:0,0:0:0:0:
256,192,204770,1,2,0:0:0:0:
256,272,205010,2,0,P|280:296|328:312,1,80,0|2,1:0|0:0,0:0:0:0:
392,272,205490,6,0,L|392:192,1,80,0|2,0:0|0:0,0:0:0:0:
460,148,205970,2,0,P|368:116|323:148,1,160,0|0,1:0|0:0,0:0:0:0:
256,192,206690,1,2,0:0:0:0:
256,112,206930,2,0,P|232:88|184:72,1,80,0|2,1:0|0:0,0:0:0:0:
106,72,207410,38,0,P|68:84|40:112,1,80,4|2,0:2|0:0,0:0:0:0:
112,152,207890,2,0,L|112:232,1,80,0|2,1:0|0:0,0:0:0:0:
106,311,208370,2,0,P|68:299|40:272,2,80,0|2|0,0:0|0:0|1:0,0:0:0:0:
184,304,209090,1,2,0:0:0:0:
256,272,209330,6,0,P|350:277|296:192,1,240,8|8,0:0|0:0,0:0:0:0:
215,192,210290,2,0,P|158:113|256:112,1,240,8|8,0:0|0:0,0:0:0:0:
336,112,211250,6,0,L|496:112,1,160,0|0,0:0|0:0,0:0:0:0:
496,272,212210,2,0,L|336:272,2,160,0|0|4,0:0|0:0|0:2,0:0:0:0:
135,48,220850,22,0,B|56:-24|-77:61|-64:261|157:292|175:147,1,480
260,1,222770,54,0,B|283:66|279:153|279:153|273:77|340:34|444:67|446:197|355:227|301:186,1,480
184,80,224690,6,0,B|149:75|110:85|86:91|54:180|54:180|69:117|73:71|72:24,1,320
294,266,226610,54,0,B|256:344|176:280|223:210|248:144|248:144|210:176|168:168,1,320
440,296,228530,6,0,B|469:301|504:294|505:225|479:212|420:208|420:208|394:357,1,320
104,192,230450,6,0,L|256:240,1,160,0|0,0:0|0:0,0:0:0:0:
408,192,231410,2,0,L|256:144,1,160,4|2,0:0|0:0,0:0:0:0:
136,32,232370,5,4,0:0:0:0:
104,192,232850,1,2,0:0:0:0:
136,32,233330,1,0,0:0:0:0:
104,192,233810,2,0,L|120:272,1,80,2|0,0:0|0:0,0:0:0:0:
135,351,234290,6,0,P|256:185|376:352,1,480,0|2,0:0|0:0,0:0:0:0:
480,240,236210,37,4,0:0:0:0:
328,208,236690,1,2,0:0:0:0:
376,352,237170,1,0,0:0:0:0:
408,192,237650,2,0,L|392:112,1,80,2|0,0:0|0:0,0:0:0:0:
376,32,238130,6,0,P|255:198|136:31,1,480,4|2,0:0|0:0,0:0:0:0:
32,152,240050,5,4,0:0:0:0:
32,232,240290,1,4,0:0:0:0:
32,312,240530,2,0,P|96:312|192:336,1,160,0|0,1:0|0:0,0:0:0:0:
256,288,241250,2,0,P|296:296|336:288,1,80,4|0,0:0|1:0,0:0:0:0:
480,232,241970,37,4,0:0:0:0:
480,152,242210,1,4,0:0:0:0:
480,72,242450,2,0,P|416:72|320:48,1,160,0|0,1:0|0:0,0:0:0:0:
256,96,243170,2,0,P|216:88|176:96,1,80,4|0,0:0|1:0,0:0:0:0:
48,192,243890,6,0,P|40:232|40:272,1,80,4|4,0:0|0:0,0:0:0:0:
88,336,244370,2,0,P|128:344|168:344,1,80,4|4,0:0|0:0,0:0:0:0:
216,280,244850,2,0,P|256:272|296:280,1,80,4|4,0:0|0:0,0:0:0:0:
344,344,245330,2,0,P|384:343|424:336,1,80,4|4,0:0|0:0,0:0:0:0:
472,271,245810,6,0,L|472:112,3,160,2|0|0|4,0:0|0:0|0:0|0:2,0:0:0:0:
336,24,247730,38,0,L|256:24,1,80,4|2,0:2|0:0,0:0:0:0:
220,96,248210,2,0,P|212:136|220:176,1,80,0|2,1:0|0:0,0:0:0:0:
292,209,248690,2,0,P|299:249|292:288,1,80,0|2,0:0|0:0,0:0:0:0:
256,360,249170,1,0,1:0:0:0:
112,288,249650,6,0,L|32:288,1,80,4|2,0:2|0:0,0:0:0:0:
32,368,250130,2,0,L|112:368,1,80,0|2,1:0|0:0,0:0:0:0:
184,328,250610,1,0,0:0:0:0:
144,176,251090,2,0,P|136:136|144:96,1,80,4|4,1:2|1:2,0:0:0:0:
176,24,251570,6,0,L|256:24,1,80,4|2,0:2|0:0,0:0:0:0:
292,96,252050,2,0,P|300:136|292:176,1,80,0|2,1:0|0:0,0:0:0:0:
219,209,252530,2,0,P|212:249|220:288,1,80,0|2,0:0|0:0,0:0:0:0:
256,360,253010,1,0,1:0:0:0:
400,288,253490,38,0,L|480:288,1,80,4|2,0:2|0:0,0:0:0:0:
480,368,253970,2,0,L|400:368,1,80,0|2,1:0|0:0,0:0:0:0:
328,328,254450,1,0,0:0:0:0:
368,176,254930,2,0,P|376:136|368:96,1,80,4|4,0:0|0:0,0:0:0:0:
296,136,255410,6,0,L|456:136,2,160,4|0|0,0:2|1:0|0:0,0:0:0:0:
143,208,256850,2,0,P|136:246|143:286,1,80,0|0,1:0|0:0,0:0:0:0:
216,248,257330,6,0,L|56:248,2,160,4|0|0,0:2|1:0|0:0,0:0:0:0:
296,248,258530,1,2,0:0:0:0:
368,286,258770,2,0,P|375:246|368:208,1,80,4|4,1:2|1:2,0:0:0:0:
327,135,259250,38,0,P|255:106|183:136,1,160,4|0,0:2|1:0,0:0:0:0:
144,207,259970,2,0,P|136:246|144:286,1,80,2|0,0:0|0:0,0:0:0:0:
296,336,260690,2,0,L|376:336,1,80,0|0,1:0|1:0,0:0:0:0:
424,272,261170,6,0,B|416:176|464:216|456:120,1,160,4|0,0:2|1:0,0:0:0:0:
376,144,261890,2,0,P|320:152|296:152,1,80,2|0,0:0|0:0,0:0:0:0:
256,80,262370,1,2,0:0:0:0:
215,152,262610,2,0,P|175:150|136:144,1,80,4|6,0:0|0:0,0:0:0:0:
56,120,263090,6,0,B|48:216|96:176|88:272,3,160,4|0|0|0,0:2|1:0|0:0|1:0,0:0:0:0:
48,344,264770,1,2,0:0:0:0:
128,344,265010,38,0,L|208:344,1,80,0|2,0:0|0:0,0:0:0:0:
288,344,265490,2,0,P|296:304|288:264,1,80,0|2,1:0|0:0,0:0:0:0:
216,224,265970,2,0,P|208:184|216:144,1,80,0|2,0:0|0:0,0:0:0:0:
296,144,266450,2,0,L|376:144,1,80,0|2,1:0|0:0,0:0:0:0:
456,120,266930,6,0,B|464:216|416:176|424:272,3,160,4|0|0|0,0:2|1:0|0:0|1:0,0:0:0:0:
464,344,268610,1,2,0:0:0:0:
384,344,268850,6,0,L|304:344,1,80,0|2,0:0|0:0,0:0:0:0:
224,344,269330,2,0,P|192:272|224:200,1,160,0|0,1:0|0:0,0:0:0:0:
296,168,270050,1,2,0:0:0:0:
336,96,270290,2,0,P|296:88|256:96,1,80,0|6,1:0|0:0,0:0:0:0:
184,128,270770,38,0,B|144:144|104:128|104:128|64:112|24:128,2,160,4|0|0,0:2|1:0|0:0,0:0:0:0:
176,288,272210,2,0,P|216:296|256:288,1,80,0|0,1:0|0:0,0:0:0:0:
328,256,272690,6,0,B|368:240|408:256|408:256|448:272|488:256,2,160,4|0|0,0:2|1:0|0:0,0:0:0:0:
336,96,274130,2,0,P|296:88|256:96,1,80,4|4,1:2|1:2,0:0:0:0:
176,112,274610,6,0,P|112:176|112:248,1,160,4|0,0:2|1:0,0:0:0:0:
72,312,275330,2,0,P|112:320|152:312,1,80,2|0,0:0|0:0,0:0:0:0:
256,192,276050,1,0,1:0:0:0:
256,112,276290,1,2,0:0:0:0:
336,112,276530,38,0,P|400:176|400:248,1,160,4|0,0:2|1:0,0:0:0:0:
440,312,277250,2,0,P|400:320|360:312,1,80,2|0,0:0|0:0,0:0:0:0:
256,192,277970,1,0,1:0:0:0:
256,112,278210,1,0,1:0:0:0:
256,32,278450,6,0,B|152:40|152:184|256:192|256:192|360:200|360:344|256:352,1,494.39999585083,0|4,0:0|0:2,0:0:0:0:
96,352,280370,1,4,0:1:0:0:
256,192,280610,12,0,284210,0:0:0:0:
149,127,288050,6,0,P|33:293|231:328,1,480
368,360,289970,2,0,B|400:288|352:192|256:192|256:192|160:192|112:96|144:24,1,480
280,55,291890,38,0,P|478:90|362:256,1,480
216,192,293810,2,0,L|56:192,1,160
24,352,294770,2,0,L|184:352,1,160
256,312,295490,1,0,0:0:0:0:
328,352,295730,6,0,L|488:352,1,160,0|2,0:0|0:0,0:0:0:0:
456,192,296690,2,0,L|296:192,1,160,0|2,0:0|0:0,0:0:0:0:
160,272,297650,6,0,L|24:355,2,160,0|2|0,0:0|0:0|0:0,0:0:0:0:
16,192,299090,1,2,0:0:0:0:
176,192,299570,38,0,L|176:32,1,160,0|2,0:0|0:0,0:0:0:0:
336,32,300530,2,0,L|336:192,1,160,0|2,0:0|0:0,0:0:0:0:
496,192,301490,5,0,0:0:0:0:
352,272,301970,2,0,L|488:355,2,160,2|0|2,0:0|0:0|0:0,0:0:0:0:
256,192,303410,12,0,309170,0:0:0:0:
256,192,310610,6,0,L|256:272,1,80,4|2,0:0|0:0,0:0:0:0:
