osu file format v14

[General]
AudioFilename: audio.mp3
AudioLeadIn: 0
PreviewTime: 117064
Countdown: 0
SampleSet: None
StackLeniency: 0.7
Mode: 0
LetterboxInBreaks: 0
WidescreenStoryboard: 1

[Editor]
DistanceSpacing: 1.1
BeatDivisor: 4
GridSize: 32
TimelineZoom: 1.3

[Metadata]
Title:Darker Than Blood (feat. LINKIN PARK)
TitleUnicode:Darker Than Blood (feat. LINKIN PARK)
Artist:Steve Aoki
ArtistUnicode:Steve Aoki
Creator:pw384
Version:Insane
Source:
Tags:Neon Future II electronic 384059043
BeatmapID:1557842
BeatmapSetID:642888

[Difficulty]
HPDrainRate:5
CircleSize:4
OverallDifficulty:7.5
ApproachRate:8
SliderMultiplier:1.8
SliderTickRate:1

[Events]
//Background and Video events
0,0,"bg.jpg",0,0
//Break Periods
2,213369,218930
2,284410,287300
//Storyboard Layer 0 (Background)
//Storyboard Layer 1 (Fail)
//Storyboard Layer 2 (Pass)
//Storyboard Layer 3 (Foreground)
//Storyboard Sound Samples

[TimingPoints]
50,480,4,3,0,67,1,0
31730,-105.263157894737,4,3,0,55,0,0
32690,-111.111111111111,4,3,0,50,0,0
33650,-117.647058823529,4,3,0,45,0,0
34610,-125,4,3,0,40,0,0
35570,-133.333333333333,4,3,0,35,0,0
36530,-142.857142857143,4,3,0,30,0,0
37490,-166.666666666667,4,3,0,20,0,0
38450,-200,4,2,0,20,0,0
53570,-142.857142857143,4,3,0,30,0,0
67250,-142.857142857143,4,2,0,30,0,0
69170,-100,4,3,0,50,0,0
86450,-142.857142857143,4,3,0,60,0,0
93170,-100,4,3,0,67,0,0
101330,-50,4,3,0,75,0,0
101810,-71.4285714285714,4,3,0,80,0,0
103250,-200,4,3,0,80,0,0
103730,-71.4285714285714,4,3,0,80,0,0
105170,-50,4,3,0,80,0,1
105650,-71.4285714285714,4,3,0,80,0,0
107090,-200,4,3,0,80,0,0
107570,-71.4285714285714,4,3,0,80,0,0
109010,-55.5555555555556,4,3,0,80,0,0
109490,-71.4285714285714,4,3,0,80,0,0
110930,-200,4,3,0,80,0,0
111410,-71.4285714285714,4,3,0,80,0,0
112850,-50,4,3,0,80,0,1
113330,-71.4285714285714,4,3,0,80,0,0
114770,-200,4,3,0,80,0,0
115250,-71.4285714285714,4,3,0,80,0,0
115490,-74.0740740740741,4,3,0,80,0,0
115730,-76.9230769230769,4,3,0,80,0,0
115970,-80,4,3,0,80,0,0
116210,-83.3333333333333,4,3,0,80,0,0
116450,-86.9565217391304,4,3,0,80,0,0
116690,-90.9090909090909,4,3,0,80,0,0
116930,-100,4,3,0,80,0,0
117170,-100,4,3,0,60,0,0
147890,-133.333333333333,4,3,0,60,0,0
160850,-133.333333333333,4,3,0,60,0,0
165170,-100,4,3,0,67,0,0
172850,-100,4,3,0,72,0,0
180050,-50,4,3,0,75,0,0
180530,-66.6666666666667,4,3,0,80,0,0
181970,-200,4,3,0,80,0,0
182450,-66.6666666666667,4,3,0,80,0,0
183890,-50,4,3,0,80,0,1
184370,-66.6666666666667,4,3,0,80,0,0
185810,-200,4,3,0,80,0,0
186290,-66.6666666666667,4,3,0,80,0,0
187730,-58.8235294117647,4,3,0,80,0,0
188210,-66.6666666666667,4,3,0,80,0,0
189650,-200,4,3,0,80,0,0
190130,-66.6666666666667,4,3,0,80,0,0
191570,-50,4,3,0,80,0,1
192050,-66.6666666666667,4,3,0,80,0,0
193490,-200,4,3,0,80,0,0
193970,-66.6666666666667,4,3,0,80,0,0
195890,-62.5,4,3,0,80,0,0
209330,-76.9230769230769,4,3,0,75,0,0
211250,-100,4,3,0,60,0,0
220850,-100,4,3,0,50,0,0
232370,-100,4,3,0,55,0,0
239570,-100,4,3,0,67,0,0
243890,-100,4,3,0,70,0,0
247250,-50,4,3,0,75,0,0
247730,-62.5,4,3,0,80,0,0
249170,-200,4,3,0,80,0,0
249650,-62.5,4,3,0,80,0,0
251090,-50,4,3,0,80,0,1
251570,-62.5,4,3,0,80,0,0
253010,-200,4,3,0,80,0,0
253490,-62.5,4,3,0,80,0,0
254930,-52.6315789473684,4,3,0,80,0,0
255410,-62.5,4,3,0,80,0,0
256850,-200,4,3,0,80,0,0
257330,-62.5,4,3,0,80,0,0
258770,-50,4,3,0,80,0,1
259250,-62.5,4,3,0,80,0,0
260690,-200,4,3,0,80,0,0
261170,-62.5,4,3,0,80,0,0
263090,-62.5,4,3,0,80,0,1
269330,-200,4,3,0,80,0,1
269810,-62.5,4,3,0,80,0,1
270290,-55.5555555555556,4,3,0,80,0,1
270770,-62.5,4,3,0,80,0,1
272210,-200,4,3,0,80,0,1
272690,-62.5,4,3,0,80,0,1
274130,-50,4,3,0,80,0,1
274610,-62.5,4,3,0,80,0,1
276050,-200,4,3,0,80,0,1
276530,-62.5,4,3,0,80,0,1
278450,-100,4,3,0,60,0,0
279890,-100,4,3,0,80,0,0
280370,-100,4,3,0,67,0,0

[Colours]
Combo1 : 216,216,216
Combo2 : 170,105,74
Combo3 : 120,89,54
Combo4 : 207,187,118
Combo5 : 68,68,68

[HitObjects]
104,114,50,6,0,P|167:128|227:79,1,135,4|0,3:1|0:0,0:0:0:0:
152,54,530,1,2,0:0:0:0:
3,194,1010,6,0,P|73:198|145:209,1,135,0|0,0:0|0:0,0:0:0:0:
190,268,1490,2,0,P|235:264|280:264,1,90,2|0,0:0|0:0,0:0:0:0:
439,219,1970,6,0,P|376:233|316:184,1,135,0|0,0:0|0:0,0:0:0:0:
391,159,2450,1,2,0:0:0:0:
123,341,2930,38,0,P|127:271|138:199,1,135,0|0,0:0|0:0,0:0:0:0:
197,154,3410,2,0,P|196:109|192:64,1,90,2|0,0:0|0:0,0:0:0:0:
32,20,3890,6,0,P|28:88|19:155,1,135,0|0,0:0|0:0,0:0:0:0:
53,233,4370,1,2,0:0:0:0:
53,233,4850,6,0,P|126:230|203:233,1,135,0|0,0:0|0:0,0:0:0:0:
261,265,5330,2,0,P|314:266|364:269,1,90,2|0,0:0|0:0,0:0:0:0:
479,363,5810,38,0,P|483:295|493:229,1,135,0|0,0:0|0:0,0:0:0:0:
459,151,6290,1,2,0:0:0:0:
459,151,6770,6,0,P|386:154|309:151,1,135,0|0,0:0|0:0,0:0:0:0:
251,119,7250,2,0,P|198:118|148:115,1,90,2|0,0:0|0:0,0:0:0:0:
31,232,7730,6,0,L|90:231,1,60,2|0,0:2|0:0,0:0:0:0:
172,265,8050,2,0,L|231:264,1,60,0|2,0:0|0:0,0:0:0:0:
313,298,8370,2,0,L|372:297,1,60,0|0,0:0|0:0,0:0:0:0:
502,242,8690,38,0,L|443:241,1,60,2|0,0:2|0:0,0:0:0:0:
361,209,9010,2,0,L|302:208,1,60,0|2,0:0|0:0,0:0:0:0:
220,176,9330,2,0,L|161:175,1,60,0|0,0:0|0:0,0:0:0:0:
31,232,9650,6,0,L|32:291,1,60,2|0,0:2|0:0,0:0:0:0:
119,258,9970,2,0,L|120:317,1,60,0|2,0:0|0:0,0:0:0:0:
207,284,10290,2,0,L|208:343,1,60,0|0,0:0|0:0,0:0:0:0:
305,284,10610,6,0,L|304:343,1,60,2|0,0:2|0:0,0:0:0:0:
393,258,10930,2,0,L|392:317,1,60,0|2,0:0|0:0,0:0:0:0:
481,232,11250,2,0,L|480:291,1,60,0|0,0:0|0:0,0:0:0:0:
481,152,11570,38,0,L|480:93,1,60,2|0,0:2|0:0,0:0:0:0:
393,126,11890,2,0,L|392:67,1,60,0|2,0:0|0:0,0:0:0:0:
305,100,12210,2,0,L|304:41,1,60,0|0,0:0|0:0,0:0:0:0:
207,100,12530,6,0,L|208:41,1,60,2|0,0:2|0:0,0:0:0:0:
119,126,12850,2,0,L|120:67,1,60,0|2,0:0|0:0,0:0:0:0:
31,152,13170,2,0,L|32:93,1,60,0|0,0:0|0:0,0:0:0:0:
94,214,13490,6,0,L|155:217,1,60,2|0,0:2|0:0,0:0:0:0:
256,294,13810,2,0,L|195:297,1,60,0|2,0:0|0:0,0:0:0:0:
256,175,14130,2,0,L|317:178,1,60,0|0,0:0|0:0,0:0:0:0:
418,255,14450,1,2,0:2:0:0:
418,255,14930,38,0,L|425:351,1,90,4|4,0:0|0:0,0:0:0:0:
489,201,15410,6,0,P|440:168|365:183,1,135,4|0,0:1|0:0,0:0:0:0:
337,253,15890,1,2,0:0:0:0:
337,253,16370,6,0,P|288:220|213:235,1,135,0|0,0:0|0:0,0:0:0:0:
185,305,16850,2,0,P|154:284|92:278,1,90,2|0,0:0|0:0,0:0:0:0:
268,301,17330,38,0,L|261:161,1,135,0|0,0:0|0:0,0:0:0:0:
256,87,17810,1,2,0:0:0:0:
256,87,18290,6,0,L|392:104,1,135,0|0,0:0|0:0,0:0:0:0:
476,112,18770,2,0,L|482:207,1,90,2|0,0:0|0:0,0:0:0:0:
402,318,19250,6,0,L|395:178,1,135,0|0,0:0|0:0,0:0:0:0:
390,104,19730,1,2,0:0:0:0:
389,103,20210,38,0,L|256:87,1,135,0|0,0:0|0:0,0:0:0:0:
172,79,20690,2,0,L|178:174,1,90,2|0,0:0|0:0,0:0:0:0:
267,307,21170,6,0,L|260:167,1,135,0|0,0:0|0:0,0:0:0:0:
348,189,21650,2,0,L|442:202,1,90,2|0,0:0|0:0,0:0:0:0:
267,307,22130,6,0,L|173:294,1,90,0|0,0:0|0:0,0:0:0:0:
94,255,22490,1,0,1:0:0:0:
94,255,22610,2,0,L|87:351,1,90,0|8,1:0|0:0,0:0:0:0:
23,201,23090,38,0,P|72:168|147:183,1,135,0|0,0:0|0:0,0:0:0:0:
175,253,23570,1,2,0:0:0:0:
175,253,24050,6,0,P|224:220|299:235,1,135,0|0,0:0|0:0,0:0:0:0:
327,305,24530,2,0,P|358:284|420:278,1,90,2|0,0:0|0:0,0:0:0:0:
244,301,25010,6,0,L|251:161,1,135,0|0,0:0|0:0,0:0:0:0:
256,87,25490,1,2,0:0:0:0:
256,87,25970,38,0,L|120:104,1,135,0|0,0:0|0:0,0:0:0:0:
36,112,26450,2,0,L|30:207,1,90,2|0,0:0|0:0,0:0:0:0:
110,318,26930,6,0,L|117:178,1,135,0|0,0:0|0:0,0:0:0:0:
122,104,27410,1,2,0:0:0:0:
122,103,27890,6,0,L|256:87,1,135,0|0,0:0|0:0,0:0:0:0:
340,79,28370,2,0,L|334:174,1,90,2|0,0:0|0:0,0:0:0:0:
245,307,28850,38,0,L|252:167,1,135,0|0,0:0|0:0,0:0:0:0:
164,189,29330,2,0,L|70:202,1,90,0|0,0:0|0:0,0:0:0:0:
245,307,29810,6,0,L|378:290,1,135,0|0,0:0|0:0,0:0:0:0:
467,284,30290,2,0,L|461:379,1,90,0|0,0:0|0:0,0:0:0:0:
474,193,30770,5,0,0:0:0:0:
256,192,31010,12,0,37490,0:0:0:0:
155,60,38450,37,0,0:0:0:0:
244,70,38930,1,0,0:0:0:0:
234,159,39410,1,0,0:0:0:0:
145,149,39890,1,0,0:0:0:0:
317,130,40370,6,0,B|406:140|406:140|396:228|396:228|307:219|307:219|312:172,1,315,0|0,0:0|0:0,0:0:0:0:
317,130,42290,5,0,0:0:0:0:
406,140,42770,1,0,0:0:0:0:
396,229,43250,1,0,0:0:0:0:
307,219,43730,1,0,0:0:0:0:
479,137,44210,38,0,B|464:259|464:259|445:297|406:301|406:301|289:288,1,315,0|0,0:0|0:0,0:0:0:0:
204,275,46130,6,0,L|207:369,1,90,0|0,0:0|0:0,0:0:0:0:
118,261,47090,2,0,L|121:355,1,90,0|0,0:0|0:0,0:0:0:0:
32,247,48050,5,0,0:0:0:0:
118,261,48530,1,0,0:0:0:0:
204,275,49010,1,0,0:0:0:0:
290,289,49490,1,0,0:0:0:0:
376,302,49970,38,0,B|421:260|433:180|429:90|365:16|365:16|301:126|141:148|87:139,1,630,0|0,0:0|0:0,0:0:0:0:
129,59,53570,2,0,P|187:49|210:42,1,62.9999980773926,0|4,0:0|0:0,0:0:0:0:
304,164,54290,6,0,P|241:154|170:152,2,125.999996154785,0|8|0,0:0|0:0|0:0,0:0:0:0:
420,318,55730,2,0,B|459:255|422:197|422:197|379:146|377:90|419:46|419:46|452:97|440:138,1,377.999988464356,8|0,0:0|0:0,0:0:0:0:
358,252,57410,2,0,P|326:243|276:236,1,62.9999980773926,0|8,0:0|0:0,0:0:0:0:
94,300,58130,6,0,P|148:304|224:295,2,125.999996154785,0|8|0,0:0|0:0|0:0,0:0:0:0:
315,329,59570,2,0,P|412:219|411:366,1,377.999988464356,8|0,0:0|0:0,0:0:0:0:
385,293,61250,2,0,L|394:217,1,62.9999980773926,0|8,0:0|0:0,0:0:0:0:
326,32,61970,38,0,L|311:166,2,125.999996154785,0|8|0,0:0|0:0|0:0,0:0:0:0:
200,226,63410,2,0,L|186:352,2,125.999996154785,8|0|8,0:0|0:0|0:0,0:0:0:0:
214,101,64850,1,0,0:0:0:0:
298,283,65330,6,0,P|400:298|312:157,1,377.999988464356,8|0,0:0|0:0,0:0:0:0:
359,226,67010,2,0,L|446:223,1,62.9999980773926,0|0,0:0|0:0,0:0:0:0:
359,226,68690,2,0,L|446:223,1,62.9999980773926,2|0,0:0|0:0,0:0:0:0:
382,136,69170,6,0,B|331:124|280:155|267:208|267:208|274:120|251:35|102:19|42:97|44:183,1,540,4|2,0:0|0:0,0:0:0:0:
167,355,71090,38,0,L|155:172,1,180,8|2,0:0|0:0,0:0:0:0:
345,29,72050,2,0,L|357:212,1,180,0|2,0:0|0:0,0:0:0:0:
167,355,73010,6,0,B|104:280|128:152|256:192|256:192|384:232|408:104|345:29,1,540,4|2,0:0|0:0,0:0:0:0:
56,200,74930,6,0,B|177:208|128:188|216:261,1,180,8|2,0:0|0:0,0:0:0:0:
456,184,75890,2,0,B|335:176|384:196|295:122,1,180,0|2,0:0|0:0,0:0:0:0:
56,200,76850,38,0,B|64:136|116:120|116:120|160:112|200:144|200:144|312:240|312:240|352:272|396:264|396:264|448:248|456:184,1,540,4|2,0:0|0:0,0:0:0:0:
136,192,78770,6,0,B|232:272|208:232|215:337,1,180,8|2,0:0|0:0,0:0:0:0:
376,192,79730,2,0,B|280:112|304:152|296:46,1,180,0|2,0:0|0:0,0:0:0:0:
296,46,80690,6,0,P|220:81|464:230,1,630,4|0,0:0|2:0,0:0:0:0:
259,227,82610,38,0,B|273:288|386:297|421:227|424:125|319:90|258:147|258:147|217:132|217:132|176:151|176:151|135:131|135:131|95:150|95:150|55:130|55:130|14:146|14:146|14:237|14:237|97:275|97:275|34:338|34:338|118:358|118:358|188:293|188:293|226:346|308:368|346:356,1,1260,8|0,0:0|0:0,0:0:0:0:
345,356,86450,5,4,0:1:0:0:
256,192,86570,12,0,93170,0:0:0:0:
129,108,94130,6,0,P|172:91|215:91,1,90,8|2,0:0|0:0,0:0:0:0:
146,194,94610,2,0,P|129:151|129:108,1,90,0|2,0:0|0:0,0:0:0:0:
232,177,95090,2,0,P|189:194|146:194,1,90,8|2,0:0|0:0,0:0:0:0:
215,91,95570,2,0,P|232:134|232:177,1,90,0|2,0:0|0:0,0:0:0:0:
167,303,96050,38,0,P|124:293|79:289,1,90,8|2,0:0|0:0,0:0:0:0:
257,290,96530,2,0,P|213:300|168:304,1,90,0|2,0:0|0:0,0:0:0:0:
345,304,97010,2,0,P|301:293|256:289,1,90,8|2,0:0|0:0,0:0:0:0:
434,290,97490,2,0,P|390:300|345:304,1,90,0|2,0:0|0:0,0:0:0:0:
439,107,97970,6,0,L|443:156,3,45,2|2|2|2,0:0|0:0|0:0|0:0,0:0:0:0:
355,155,98450,2,0,L|359:204,3,45,2|2|2|2,0:0|0:0|0:0|0:0,0:0:0:0:
264,100,98930,2,0,L|268:149,3,45,2|2|2|2,0:0|0:0|0:0|0:0,0:0:0:0:
180,148,99410,2,0,L|184:197,3,45,2|2|2|2,0:0|0:0|0:0|0:0,0:0:0:0:
89,93,99890,6,0,L|91:117,24,22.5,2|2|2|2|2|2|2|2|2|2|2|2|2|2|2|2|2|2|2|2|2|2|2|2|4,0:0|0:0|0:0|0:0|0:0|0:0|0:0|0:0|0:0|0:0|0:0|0:0|0:0|0:0|0:0|0:0|0:0|0:0|0:0|0:0|0:0|0:0|0:0|0:0|0:2,0:0:0:0:
89,93,101810,38,0,L|77:219,1,125.999996154785,4|2,0:2|0:0,0:0:0:0:
213,142,102290,2,0,L|225:16,1,125.999996154785,0|2,1:0|0:0,0:0:0:0:
77,218,102770,2,0,L|203:230,1,125.999996154785,0|2,0:0|0:0,0:0:0:0:
281,238,103130,1,0,0:0:0:0:
281,238,103250,54,0,L|284:307,1,67.5,0|0,1:0|2:0,0:0:0:0:
345,352,103730,22,0,P|276:341|217:355,1,125.999996154785,4|2,0:2|0:0,0:0:0:0:
351,185,104210,2,0,P|420:196|479:182,1,125.999996154785,0|2,1:0|0:0,0:0:0:0:
284,71,104690,1,0,0:0:0:0:
244,272,104930,1,2,0:0:0:0:
244,272,105050,1,0,0:0:0:0:
244,272,105170,22,0,L|423:291,1,180,4|4,1:2|1:2,0:0:0:0:
423,291,105650,54,0,L|435:165,1,125.999996154785,4|2,0:2|0:0,0:0:0:0:
299,242,106130,2,0,L|287:368,1,125.999996154785,0|2,1:0|0:0,0:0:0:0:
435,166,106610,2,0,L|309:154,1,125.999996154785,0|2,0:0|0:0,0:0:0:0:
231,146,106970,1,0,0:0:0:0:
231,146,107090,22,0,L|228:77,1,67.5,0|0,1:0|2:0,0:0:0:0:
167,32,107570,6,0,P|236:43|295:29,1,125.999996154785,4|2,0:2|0:0,0:0:0:0:
161,199,108050,2,0,P|92:188|33:202,1,125.999996154785,0|2,1:0|0:0,0:0:0:0:
244,358,108530,1,0,0:0:0:0:
332,249,108770,2,0,P|339:309|340:323,1,62.9999980773926,0|0,0:0|0:0,0:0:0:0:
440,325,109010,38,0,P|444:249|462:153,1,161.999995056153,4|4,0:0|0:0,0:0:0:0:
459,164,109490,38,0,P|394:163|332:154,1,125.999996154785,4|2,0:2|0:0,0:0:0:0:
160,40,109970,2,0,P|222:31|285:30,1,125.999996154785,0|2,1:0|0:0,0:0:0:0:
233,209,110450,1,0,0:0:0:0:
85,173,110690,1,2,0:0:0:0:
85,173,110810,1,0,0:0:0:0:
85,173,110930,38,0,L|81:101,1,67.5,0|0,1:0|2:0,0:0:0:0:
6,145,111410,38,0,L|13:273,1,125.999996154785,4|2,0:2|0:0,0:0:0:0:
229,334,111890,2,0,L|222:206,1,125.999996154785,0|2,1:0|0:0,0:0:0:0:
20,351,112370,1,0,0:0:0:0:
118,244,112610,2,0,L|121:306,1,62.9999980773926,2|0,0:0|0:0,0:0:0:0:
229,334,112850,6,0,B|265:317|314:331|314:331|363:346|406:323,1,180,4|4,1:2|1:2,0:0:0:0:
405,324,113330,22,0,P|442:270|434:207,1,125.999996154785,4|2,0:2|0:0,0:0:0:0:
349,53,113810,2,0,P|312:103|316:165,1,125.999996154785,0|2,1:0|0:0,0:0:0:0:
512,161,114290,2,0,P|462:124|400:128,1,125.999996154785,0|2,0:0|0:0,0:0:0:0:
316,165,114650,1,0,0:0:0:0:
316,165,114770,54,0,L|249:159,1,67.5,0|0,1:0|2:0,0:0:0:0:
170,150,115250,22,0,B|145:212|145:212|154:271,1,125.999996154785,4|2,0:2|0:0,0:0:0:0:
342,308,115730,2,0,B|286:294|286:294|233:323,1,116.999994644165,0|2,1:0|0:0,0:0:0:0:
443,333,116210,2,0,B|495:316|495:316|450:282,1,107.999996704102,0|2,0:0|0:0,0:0:0:0:
226,244,116690,6,0,L|231:296,1,49.5000015106202,4|0,0:0|0:0,0:0:0:0:
140,350,116930,2,0,L|134:297,1,45,4|0,0:0|0:0,0:0:0:0:
40,241,117170,38,0,L|47:331,1,90,4|0,0:1|0:0,0:0:0:0:
119,126,117650,2,0,L|126:216,1,90,2|0,0:0|0:0,0:0:0:0:
33,151,118130,2,0,L|40:241,1,90
112,36,118610,2,0,L|119:126,1,90,2|0,0:0|0:0,0:0:0:0:
233,60,119090,6,0,B|290:64|352:62|410:51|410:51|317:82|316:86|314:196|326:366,1,540,0|2,0:0|0:0,0:0:0:0:
395,190,120770,1,0,0:0:0:0:
395,190,121010,6,0,P|396:240|399:287,1,90,0|0,0:0|0:0,0:0:0:0:
240,350,121490,2,0,P|237:305|236:260,1,90,2|0,0:0|0:0,0:0:0:0:
391,100,121970,2,0,P|392:150|395:197,1,90,0|0,0:0|0:0,0:0:0:0:
236,260,122450,2,0,P|233:215|232:170,1,90,2|0,0:0|0:0,0:0:0:0:
26,43,122930,38,0,B|61:96|72:165|72:165|126:132|153:68|153:68|203:113|232:171|232:171|284:104|284:34,1,540,0|2,0:0|0:0,0:0:0:0:
102,13,124610,1,0,0:0:0:0:
159,199,124850,6,0,P|156:249|152:296,1,90,0|0,0:0|0:0,0:0:0:0:
35,364,125330,2,0,P|31:319|28:274,1,90,2|0,0:0|0:0,0:0:0:0:
153,289,125810,2,0,L|248:293,1,90,0|0,0:0|0:0,0:0:0:0:
390,158,126290,2,0,L|295:154,1,90,2|0,0:0|0:0,0:0:0:0:
337,342,126770,6,0,L|341:247,1,90,0|0,0:0|0:0,0:0:0:0:
206,105,127250,2,0,L|202:200,1,90,2|0,0:0|0:0,0:0:0:0:
341,252,127730,2,0,P|423:249|491:172,1,180,0|2,0:0|0:0,0:0:0:0:
245,45,128690,38,0,B|244:189|236:336|236:336|248:186|306:139|417:135|439:243|429:344,1,720,0|0,0:0|0:0,0:0:0:0:
155,20,131090,5,2,0:0:0:0:
155,20,131570,5,2,0:2:0:0:
245,45,131810,1,0,0:0:0:0:
335,70,132050,1,2,0:0:0:0:
335,70,132530,38,0,P|268:78|155:107,3,180,4|2|2|2,0:1|0:0|0:2|0:0,0:0:0:0:
159,105,134450,6,0,B|99:39|-24:78|-24:206|19:304|148:305|187:220,1,450,0|0,0:0|0:0,0:0:0:0:
316,171,135890,2,0,P|308:206|307:262,1,90,2|0,0:0|0:0,0:0:0:0:
413,152,136370,6,0,P|332:145|222:143,3,180,0|2|2|2,0:0|0:0|0:2|0:0,0:0:0:0:
440,77,138290,38,0,B|414:48|314:64|316:167|316:167|317:264|306:335|278:368|201:363|201:344,1,450
52,261,139730,2,0,P|96:271|139:287,1,90,2|0,0:0|0:0,0:0:0:0:
399,269,140210,6,0,P|312:257|224:222,3,180,0|2|2|2,0:0|0:0|0:2|0:0,0:0:0:0:
265,33,142130,6,0,P|178:45|90:80,3,180,0|2|2|2,0:0|0:0|0:2|0:0,0:0:0:0:
202,348,144050,38,0,B|201:363|278:368|306:335|317:264|316:167|316:167|314:64|414:48|440:77,1,450
363,167,145490,2,0,L|274:156,1,90,2|0,0:0|0:0,0:0:0:0:
184,129,145970,5,0,0:0:0:0:
454,162,146450,1,2,0:0:0:0:
273,324,146930,2,0,L|372:337,1,90,0|0,1:0|1:0,0:0:0:0:
395,306,147290,1,0,1:0:0:0:
425,272,147410,2,0,L|336:261,1,90,0|0,1:0|1:0,0:0:0:0:
106,132,147890,6,0,B|160:134|160:134|202:136|225:170|225:217|179:238|179:238|221:256|218:303|203:339|160:340|160:340|102:337,1,405.000015449525
101,336,149810,38,0,L|83:197,1,135.000005149842,0|0,0:0|0:0,0:0:0:0:
306,184,150770,2,0,L|288:45,1,135.000005149842,0|0,0:0|0:0,0:0:0:0:
488,202,151730,6,0,B|425:192|425:192|394:190|357:212|365:269|414:279|414:279|458:287|477:332|441:373|403:366|403:366|344:353,1,405.000015449525,0|0,0:0|0:0,0:0:0:0:
101,336,153650,6,0,L|119:197,1,135.000005149842,0|0,0:0|0:0,0:0:0:0:
306,184,154610,2,0,L|324:45,1,135.000005149842,0|0,0:0|0:0,0:0:0:0:
485,164,155570,38,0,B|427:161|427:161|384:162|369:198|366:245|408:263|408:263|362:284|362:331|385:365|427:367|427:367|481:369,1,405.000015449525,0|2,0:0|0:0,0:0:0:0:
101,336,157490,6,0,P|85:265|113:194,1,135.000005149842,0|2,0:0|0:0,0:0:0:0:
305,183,158450,2,0,P|324:119|308:55,1,135.000005149842,0|2,0:0|0:0,0:0:0:0:
281,256,159410,6,0,P|292:357|364:221,1,405.000015449525,8|2,0:0|0:0,0:0:0:0:
151,31,161330,38,0,B|139:150|126:280|109:313|109:313|151:274|213:284|233:364|349:299,1,540,4|4,0:0|0:0,0:0:0:0:
380,45,163730,5,2,0:0:0:0:
279,179,164210,1,0,0:0:0:0:
368,140,164450,1,0,0:0:0:0:
445,199,164690,1,2,0:0:0:0:
355,237,164930,1,2,0:2:0:0:
279,179,165170,5,0,0:0:0:0:
256,192,165410,12,0,172370,0:0:0:0:
186,219,172850,38,0,L|181:314,1,90,8|2,0:0|0:0,0:0:0:0:
96,214,173330,2,0,L|191:219,1,90,0|2,0:0|0:0,0:0:0:0:
91,303,173810,2,0,L|96:208,1,90,8|2,0:0|0:0,0:0:0:0:
181,308,174290,2,0,L|86:303,1,90,0|2,0:0|0:0,0:0:0:0:
326,165,174770,6,0,L|416:169,1,90,8|2,0:0|0:0,0:0:0:0:
330,75,175250,2,0,L|326:164,1,90,0|2,0:0|0:0,0:0:0:0:
420,80,175730,2,0,L|331:75,1,90,8|2,0:0|0:0,0:0:0:0:
416,170,176210,2,0,L|421:81,1,90,0|2,0:0|0:0,0:0:0:0:
171,26,176690,6,0,L|168:81,3,45,2|2|2|2,0:0|0:0|0:0|0:0,0:0:0:0:
215,139,177170,2,0,L|212:194,3,45,2|2|2|2,0:0|0:0|0:0|0:0,0:0:0:0:
299,200,177650,2,0,L|297:245,3,45,2|2|2|2,0:0|0:0|0:0|0:0,0:0:0:0:
343,313,178131,2,0,L|341:358,3,45,2|2|2|2,0:0|0:0|0:0|0:0,0:0:0:0:
257,318,178610,38,0,L|227:317,24,22.5,2|2|2|2|2|2|2|2|2|2|2|2|2|2|2|2|2|2|2|2|2|2|2|2|4,0:0|0:0|0:0|0:0|0:0|0:0|0:0|0:0|0:0|0:0|0:0|0:0|0:0|0:0|0:0|0:0|0:0|0:0|0:0|0:0|0:0|0:0|0:0|0:0|0:2,0:0:0:0:
257,318,180530,6,0,B|192:342|192:342|126:334,1,135.000005149842,4|2,0:2|0:0,0:0:0:0:
102,185,181010,2,0,B|167:161|167:161|233:169,1,135.000005149842,0|2,1:0|0:0,0:0:0:0:
256,192,181370,1,0,0:0:0:0:
279,215,181490,2,0,B|345:223|345:223|410:199,1,135.000005149842,0|2,0:0|0:0,0:0:0:0:
355,63,181970,38,0,B|320:58|320:58|286:71,1,67.5,0|0,1:0|2:0,0:0:0:0:
221,30,182450,38,0,L|87:47,1,135.000005149842,4|2,0:2|0:0,0:0:0:0:
379,134,182930,2,0,L|513:117,1,135.000005149842,0|2,1:0|0:0,0:0:0:0:
221,30,183410,2,0,P|208:77|258:145,1,135.000005149842,0|2,0:0|0:0,0:0:0:0:
385,334,183890,6,0,B|328:265|328:265|255:318,1,180,4|4,1:2|1:2,0:0:0:0:
255,318,184370,22,0,B|320:342|320:342|386:334,1,135.000005149842,4|2,0:2|0:0,0:0:0:0:
410,185,184850,2,0,B|345:161|345:161|279:169,1,135.000005149842,0|2,1:0|0:0,0:0:0:0:
256,192,185210,1,0,0:0:0:0:
233,215,185330,2,0,B|167:223|167:223|102:199,1,135.000005149842,0|2,0:0|0:0,0:0:0:0:
157,63,185810,54,0,B|192:58|192:58|226:71,1,67.5,0|0,1:0|2:0,0:0:0:0:
291,30,186290,22,0,L|425:47,1,135.000005149842,4|2,0:2|0:0,0:0:0:0:
133,134,186770,2,0,L|-1:117,1,135.000005149842,0|2,1:0|0:0,0:0:0:0:
291,30,187250,2,0,P|304:77|254:145,1,135.000005149842,0|2,0:0|0:0,0:0:0:0:
108,303,187730,22,0,L|119:222,2,76.5000014591217,4|0|4,0:0|0:0|0:0,0:0:0:0:
108,303,188210,54,0,L|244:289,1,135.000005149842,4|2,0:2|0:0,0:0:0:0:
449,351,188690,2,0,L|313:365,1,135.000005149842,0|2,1:0|0:0,0:0:0:0:
292,199,189170,2,0,L|426:185,1,135.000005149842,0|2,0:0|0:0,0:0:0:0:
438,268,189530,1,0,0:0:0:0:
438,268,189650,22,0,L|368:275,1,67.5,0|0,1:0|2:0,0:0:0:0:
292,199,190130,6,0,P|262:124|283:68,1,135.000005149842,4|2,0:2|0:0,0:0:0:0:
412,60,190610,2,0,P|441:120|426:184,1,135.000005149842,0|2,1:0|0:0,0:0:0:0:
378,341,191090,2,0,L|371:274,2,67.5000025749208,0|0|2,0:0|0:0|0:0,0:0:0:0:
378,341,191570,38,0,B|296:306|296:306|205:330,1,180,4|4,1:2|1:2,0:0:0:0:
208,329,192050,38,0,L|242:187,1,135.000005149842,4|2,0:2|0:0,0:0:0:0:
96,99,192530,2,0,L|62:241,1,135.000005149842,0|2,1:0|0:0,0:0:0:0:
239,197,193010,2,0,L|381:163,1,135.000005149842,0|2,0:0|0:0,0:0:0:0:
317,96,193370,1,0,0:0:0:0:
317,96,193490,38,0,L|252:111,1,67.5,0|0,1:0|2:0,0:0:0:0:
266,25,193970,38,0,P|331:13|386:50,1,135.000005149842,4|2,0:2|0:0,0:0:0:0:
251,111,194450,2,0,P|186:99|131:136,1,135.000005149842,0|2,1:0|0:0,0:0:0:0:
266,196,194930,2,0,P|330:184|385:221,1,135.000005149842,0|2,0:0|0:0,0:0:0:0:
301,334,195410,2,0,L|315:262,2,67.5000025749208,4|8|4,0:0|0:0|0:0,0:0:0:0:
301,334,195890,38,0,B|228:323|228:323|163:350,1,144,4|2,0:2|0:0,0:0:0:0:
15,232,196370,2,0,B|88:221|88:221|153:248,1,144,0|2,1:0|0:0,0:0:0:0:
116,59,196850,1,0,0:0:0:0:
153,247,197090,6,0,L|137:170,1,72,2|0,0:0|0:0,0:0:0:0:
116,59,197330,2,0,L|253:104,1,144,0|2,1:0|0:0,0:0:0:0:
435,254,197810,6,0,L|298:209,1,144,0|2,0:0|0:0,0:0:0:0:
352,44,198290,2,0,L|489:89,1,144,0|2,1:0|0:0,0:0:0:0:
435,254,198770,1,0,0:0:0:0:
325,130,199010,38,0,L|398:154,1,72,2|0,0:0|0:0,0:0:0:0:
435,254,199250,2,0,L|298:209,1,144,0|2,1:0|0:0,0:0:0:0:
159,61,199730,6,0,P|188:101|175:195,1,144,4|2,0:2|0:0,0:0:0:0:
40,213,200210,2,0,P|11:173|24:79,1,144,0|2,1:0|0:0,0:0:0:0:
118,268,200690,1,0,0:0:0:0:
94,103,200930,6,0,L|105:181,1,72,2|0,0:0|0:0,0:0:0:0:
57,327,201170,2,0,P|122:299|193:309,1,144,0|2,1:0|0:0,0:0:0:0:
431,177,201650,38,0,P|365:204|294:194,1,144,0|2,0:0|0:0,0:0:0:0:
274,60,202130,2,0,P|339:32|410:42,1,144,0|2,1:0|0:0,0:0:0:0:
205,257,202610,6,0,L|190:113,1,144,0|2,0:0|0:0,0:0:0:0:
61,38,203090,2,0,L|76:182,1,144,0|6,1:0|0:0,0:0:0:0:
211,334,203570,6,0,B|284:323|284:323|349:350,1,144,4|2,0:2|0:0,0:0:0:0:
497,232,204050,2,0,B|424:221|424:221|359:248,1,144,0|2,1:0|0:0,0:0:0:0:
396,59,204530,1,0,0:0:0:0:
359,247,204770,38,0,L|375:170,1,72,2|0,0:0|0:0,0:0:0:0:
396,59,205010,2,0,L|259:104,1,144,0|2,1:0|0:0,0:0:0:0:
77,254,205490,6,0,L|214:209,1,144,0|2,0:0|0:0,0:0:0:0:
160,44,205970,2,0,L|23:89,1,144,0|2,1:0|0:0,0:0:0:0:
77,254,206450,1,0,0:0:0:0:
187,130,206690,6,0,L|114:154,1,72,2|0,0:0|0:0,0:0:0:0:
77,254,206930,2,0,L|214:209,1,144,0|2,1:0|0:0,0:0:0:0:
353,61,207410,38,0,P|324:101|337:195,1,144,4|2,0:2|0:0,0:0:0:0:
472,213,207890,2,0,P|501:173|488:79,1,144,0|2,1:0|0:0,0:0:0:0:
394,268,208370,1,0,0:0:0:0:
418,103,208610,6,0,L|407:181,1,72,2|0,0:0|0:0,0:0:0:0:
455,327,208850,2,0,P|389:299|318:309,1,144,0|2,1:0|0:0,0:0:0:0:
18,283,209330,6,0,L|81:302,1,58.4999973220826,8|8,0:0|0:0,0:0:0:0:
139,244,209570,2,0,L|202:263,1,58.4999973220826,8|8,0:0|0:0,0:0:0:0:
260,205,209810,2,0,L|323:224,2,58.4999973220826,8|8|8,0:0|0:0|0:0,0:0:0:0:
481,111,210290,38,0,L|418:130,1,58.4999973220826,8|8,0:0|0:0,0:0:0:0:
360,72,210530,2,0,L|297:91,1,58.4999973220826,8|8,0:0|0:0,0:0:0:0:
239,33,210770,2,0,L|176:52,2,58.4999973220826,2|2|8,0:0|0:0|0:0,0:0:0:0:
26,183,211250,6,0,L|116:177,1,90,0|2,0:0|0:2,0:0:0:0:
116,177,211730,2,0,L|206:171,1,90,0|2,0:0|0:2,0:0:0:0:
206,171,212210,2,0,L|296:165,1,90,0|2,0:0|0:2,0:0:0:0:
296,165,212690,6,0,P|361:176|310:128,1,180,0|4,0:0|0:2,0:0:0:0:
161,86,220850,22,0,B|63:17|-76:129|-34:351|219:356|219:191,1,540,0|0,0:0|0:0,0:0:0:0:
294,25,222770,54,0,B|332:105|318:206|318:206|312:116|385:76|487:107|492:254|379:297|305:195,1,540,0|0,0:0|0:0,0:0:0:0:
68,45,224690,6,0,B|64:80|59:132|46:202|46:202|79:103|106:96|150:84|190:90,1,360,0|0,0:0|0:0,0:0:0:0:
178,177,226610,54,0,B|214:183|240:163|240:163|228:222|200:284|246:337|296:278,1,270,0|0,0:0|2:0,0:0:0:0:
262,74,227570,1,0,0:0:0:0:
368,332,228530,6,0,B|398:165|398:165|464:169|493:184|492:262|453:269|413:263,1,360,0|0,0:0|0:0,0:0:0:0:
79,225,230450,6,0,B|166:246|166:246|220:318,1,180,0|0,0:0|0:0,0:0:0:0:
430,143,231410,2,0,B|364:127|364:127|323:73,1,135,4|2,0:0|0:0,0:0:0:0:
292,39,231890,2,0,L|273:138,1,90,2|2,0:0|0:0,0:0:0:0:
49,134,232370,5,4,0:0:0:0:
134,163,232850,1,2,0:0:0:0:
219,192,233330,1,0,0:0:0:0:
304,221,233810,2,0,L|392:251,1,90,2|0,0:0|0:0,0:0:0:0:
473,352,234290,6,0,P|483:270|508:174,1,180,0|2,0:0|0:0,0:0:0:0:
304,221,235250,2,0,P|294:139|269:43,1,180,0|2,0:0|0:0,0:0:0:0:
49,134,236210,37,4,0:0:0:0:
134,163,236690,1,2,0:0:0:0:
219,192,237170,1,0,0:0:0:0:
304,221,237650,2,0,L|392:251,1,90,2|0,0:0|0:0,0:0:0:0:
445,320,238130,6,0,P|379:329|263:361,1,180,4|2,0:0|0:0,0:0:0:0:
512,174,239090,2,0,P|446:165|330:133,1,180,0|2,0:0|0:0,0:0:0:0:
49,134,240050,5,4,0:0:0:0:
134,163,240290,1,4,0:0:0:0:
219,192,240530,1,0,1:0:0:0:
219,192,241010,1,0,0:0:0:0:
304,221,241250,2,0,L|392:251,2,90,4|0|0,0:0|1:0|0:0,0:0:0:0:
134,163,241970,38,0,P|122:210|126:258,1,90,4|4,0:0|0:0,0:0:0:0:
291,127,242450,2,0,P|303:80|299:32,1,90,0|0,1:0|0:0,0:0:0:0:
124,251,242930,2,0,L|212:281,2,90,0|4|0,0:0|0:0|1:0,0:0:0:0:
124,251,243890,5,4,0:0:0:0:
134,163,244130,1,4,0:0:0:0:
144,75,244370,2,0,L|54:65,1,90,4|4,0:0|0:0,0:0:0:0:
134,163,244850,5,4,0:0:0:0:
222,173,245090,1,4,0:0:0:0:
310,183,245330,2,0,L|320:93,1,90,4|4,0:0|0:0,0:0:0:0:
442,8,245810,38,0,L|435:67,1,45,2|2,0:0|0:0,0:0:0:0:
511,90,246050,2,0,L|504:149,1,45,2|2,0:0|0:0,0:0:0:0:
418,161,246290,2,0,L|411:220,1,45,2|2,0:0|0:0,0:0:0:0:
487,243,246530,2,0,L|480:302,1,45,2|2,0:0|0:0,0:0:0:0:
394,314,246770,6,0,L|387:373,4,45,4|4|4|4|4,0:0|0:0|0:0|0:0|0:2,0:0:0:0:
394,314,247730,6,0,P|326:292|261:320,1,144,4|2,0:2|0:0,0:0:0:0:
38,255,248210,2,0,P|106:277|171:249,1,144,0|2,1:0|0:0,0:0:0:0:
205,175,248570,1,0,0:0:0:0:
205,175,248690,1,0,0:0:0:0:
13,65,248930,2,0,L|13:140,1,72,2|0,0:0|0:0,0:0:0:0:
103,175,249170,22,0,L|103:108,1,67.5,0|0,1:0|2:0,0:0:0:0:
102,25,249650,6,0,B|163:56|163:56|241:45,1,144,4|2,0:2|0:0,0:0:0:0:
453,122,250130,2,0,B|378:111|378:111|317:142,1,144,0|2,1:0|0:0,0:0:0:0:
247,190,250490,1,0,0:0:0:0:
247,190,250610,1,0,0:0:0:0:
407,277,250850,2,0,L|394:203,1,72,2|0,0:0|0:0,0:0:0:0:
317,142,251090,38,0,P|239:105|170:157,1,180,4|4,1:2|1:2,0:0:0:0:
118,314,251570,38,0,P|186:292|251:320,1,144,4|2,0:2|0:0,0:0:0:0:
474,255,252050,2,0,P|406:277|341:249,1,144,0|2,1:0|0:0,0:0:0:0:
307,175,252410,1,0,0:0:0:0:
307,175,252530,1,0,0:0:0:0:
499,65,252770,2,0,L|499:140,1,72,2|0,0:0|0:0,0:0:0:0:
409,175,253010,38,0,L|409:108,1,67.5,0|0,1:0|2:0,0:0:0:0:
410,25,253490,38,0,B|349:56|349:56|271:45,1,144,4|2,0:2|0:0,0:0:0:0:
59,122,253970,2,0,B|133:111|133:111|194:142,1,144,0|2,1:0|0:0,0:0:0:0:
265,190,254330,1,0,0:0:0:0:
265,190,254450,1,0,0:0:0:0:
105,277,254690,2,0,L|118:203,1,72,2|0,0:0|0:0,0:0:0:0:
265,190,254930,6,0,L|233:364,1,170.999995433807,4|4,0:0|0:0,0:0:0:0:
234,358,255410,22,0,L|380:336,1,144,4|2,0:2|0:0,0:0:0:0:
490,157,255890,2,0,L|344:179,1,144,0|2,1:0|0:0,0:0:0:0:
265,190,256250,1,0,0:0:0:0:
265,190,256370,1,0,0:0:0:0:
416,137,256610,2,0,L|405:62,1,72,2|0,0:0|0:0,0:0:0:0:
277,25,256850,54,0,L|283:69,1,45,0|0,1:0|2:0,0:0:0:0:
277,25,257330,22,0,L|132:48,1,144,4|2,0:2|0:0,0:0:0:0:
22,227,257810,2,0,L|167:204,1,144,0|2,1:0|0:0,0:0:0:0:
247,194,258170,1,0,0:0:0:0:
247,194,258290,1,0,0:0:0:0:
96,247,258530,2,0,L|107:322,1,72,2|0,0:0|0:0,0:0:0:0:
192,344,258770,22,0,B|216:300|256:284|256:284|296:300|320:344,1,180,4|4,1:2|1:2,0:0:0:0:
320,344,259250,22,0,B|343:317|381:307|381:307|419:317|442:344,1,144,4|2,0:2|0:0,0:0:0:0:
317,174,259730,2,0,B|293:200|255:210|255:210|217:200|194:174,1,144,0|2,1:0|0:0,0:0:0:0:
256,112,260090,1,0,0:0:0:0:
256,112,260210,1,0,0:0:0:0:
384,236,260450,1,2,0:0:0:0:
128,236,260690,54,0,P|101:241|73:251,1,45,0|0,1:0|1:0,0:0:0:0:
192,344,261170,38,0,B|168:317|130:307|130:307|92:317|69:344,1,144,4|2,0:2|0:0,0:0:0:0:
195,174,261650,2,0,B|218:200|256:210|256:210|294:200|317:174,1,144,0|2,1:0|0:0,0:0:0:0:
256,112,262010,1,0,0:0:0:0:
256,112,262130,1,0,0:0:0:0:
320,344,262370,2,0,B|343:317|381:307|381:307|419:317|442:344,1,144,2|4,0:0|0:0,0:0:0:0:
256,286,262850,1,6,0:0:0:0:
69,344,263090,38,0,B|92:317|130:307|130:307|168:317|192:344,1,144,4|2,0:2|0:0,0:0:0:0:
305,254,263570,2,0,B|331:230|341:192|341:192|331:154|305:131,1,144,0|2,1:0|0:0,0:0:0:0:
256,120,263930,1,0,0:0:0:0:
207,131,264050,2,0,B|180:154|170:192|170:192|180:230|207:254,1,144,0|2,0:0|0:0,0:0:0:0:
320,344,264530,2,0,B|343:317|381:307|381:307|419:317|442:344,1,144,0|2,1:0|0:0,0:0:0:0:
473,210,265010,6,0,L|498:66,1,144,0|2,0:0|0:0,0:0:0:0:
398,96,265370,1,0,0:0:0:0:
398,96,265490,2,0,L|373:240,1,144,0|2,1:0|0:0,0:0:0:0:
185,214,265970,6,0,L|210:73,1,144,0|2,0:0|0:0,0:0:0:0:
121,22,266330,1,0,0:0:0:0:
121,22,266450,2,0,L|97:164,1,144,0|2,1:0|0:0,0:0:0:0:
276,262,266930,38,0,B|345:239|345:239|415:251,1,144,4|2,0:2|0:0,0:0:0:0:
206,329,267410,2,0,B|137:352|137:352|66:339,1,144,0|2,1:0|0:0,0:0:0:0:
35,256,267770,1,0,0:0:0:0:
35,256,267890,1,0,0:0:0:0:
213,141,268130,2,0,L|200:213,1,72,2|0,0:0|0:0,0:0:0:0:
276,262,268370,2,0,L|304:111,1,144,0|2,1:0|0:0,0:0:0:0:
351,313,268850,5,0,0:0:0:0:
391,99,269090,1,2,0:0:0:0:
365,240,269330,38,0,L|377:173,1,67.5,0|0,1:0|2:0,0:0:0:0:
391,99,269810,37,0,0:0:0:0:
351,313,270050,1,2,0:0:0:0:
466,141,270290,6,0,L|435:300,1,161.999995056153,0|6,1:0|0:0,0:0:0:0:
302,120,270770,22,0,L|276:262,1,144,4|2,0:2|0:0,0:0:0:0:
167,169,271250,2,0,L|302:120,1,144,0|2,1:0|0:0,0:0:0:0:
243,62,271610,2,0,L|175:86,1,72,0|0,0:0|0:0,0:0:0:0:
356,238,271970,2,0,L|368:167,1,72,2|0,0:0|0:0,0:0:0:0:
373,73,272210,54,0,L|327:36,1,45,0|0,1:0|0:0,0:0:0:0:
167,169,272690,22,0,L|276:261,1,144,0|2,0:0|0:0,0:0:0:0:
141,310,273170,2,0,L|167:168,1,144,0|2,1:0|0:0,0:0:0:0:
87,189,273530,2,0,L|73:259,1,72,0|0,0:0|0:0,0:0:0:0:
296,179,273890,2,0,L|240:133,1,72,2|0,0:0|0:0,0:0:0:0:
167,168,274130,22,0,L|229:343,1,180,4|4,1:2|1:2,0:0:0:0:
227,337,274610,54,0,L|373:329,1,144,4|2,0:2|0:0,0:0:0:0:
476,241,275090,2,0,L|330:249,1,144,0|2,1:0|0:0,0:0:0:0:
248,252,275450,1,0,0:0:0:0:
248,252,275570,1,0,0:0:0:0:
399,167,275810,2,0,L|396:93,1,72,2|0,0:0|0:0,0:0:0:0:
308,116,276050,22,0,L|309:160,1,45,0|2,1:0|0:0,0:0:0:0:
285,337,276530,6,0,L|139:329,1,144,8|2,0:0|0:0,0:0:0:0:
36,241,277010,2,0,L|182:249,1,144,0|2,1:0|0:0,0:0:0:0:
264,252,277370,1,0,0:0:0:0:
264,252,277490,1,0,0:0:0:0:
113,167,277730,2,0,L|116:93,1,72,2|0,0:0|0:0,0:0:0:0:
44,60,277970,2,0,L|37:210,1,144,0|0,1:0|1:0,0:0:0:0:
191,24,278450,6,0,L|189:74,1,45,0|0,0:0|0:0,0:0:0:0:
266,46,278690,2,0,L|264:96,1,45,0|0,0:0|0:0,0:0:0:0:
341,68,278930,2,0,L|339:118,1,45,0|0,0:0|0:0,0:0:0:0:
416,90,279170,2,0,L|414:140,1,45,0|0,0:0|0:0,0:0:0:0:
491,112,279410,6,0,L|489:162,4,45,0|0|0|0|4,0:0|0:0|0:0|0:0|0:2,0:0:0:0:
480,278,280370,37,4,0:1:0:0:
256,192,280610,12,0,284210,0:0:0:0:
216,369,288050,6,0,L|217:310,3,45
304,343,288530,2,0,L|305:284,3,45,2|0|0|0,0:0|0:0|0:0|0:0,0:0:0:0:
392,317,289010,2,0,L|393:258,3,45
480,291,289490,2,0,L|481:232,3,45,2|0|0|0,0:0|0:0|0:0|0:0,0:0:0:0:
489,125,289970,6,0,L|430:124,3,45
354,170,290450,2,0,L|295:169,3,45,2|0|0|0,0:0|0:0|0:0|0:0,0:0:0:0:
219,215,290930,2,0,L|160:214,3,45
84,260,291410,2,0,L|25:259,3,45,2|0|0|0,0:0|0:0|0:0|0:0,0:0:0:0:
31,152,291890,38,0,L|32:93,3,45
119,126,292370,2,0,L|120:67,3,45,2|0|0|0,0:0|0:0|0:0|0:0,0:0:0:0:
207,100,292850,2,0,L|208:41,3,45
305,100,293330,2,0,L|304:41,3,45,2|0|0|0,0:0|0:0|0:0|0:0,0:0:0:0:
392,81,293810,6,0,L|393:126,3,45
480,107,294290,2,0,L|481:152,3,45,2|0|0|0,0:0|0:0|0:0|0:0,0:0:0:0:
483,234,294770,6,0,L|486:369,1,135,4|0,3:1|0:0,0:0:0:0:
397,371,295250,2,0,L|396:282,1,90,0|0,1:0|1:0,0:0:0:0:
408,114,295730,38,0,P|345:128|285:79,1,135,4|0,3:1|0:0,0:0:0:0:
360,54,296210,1,2,0:0:0:0:
509,194,296690,6,0,P|439:198|367:209,1,135,0|0,0:0|0:0,0:0:0:0:
322,268,297170,2,0,P|277:264|232:264,1,90,2|0,0:0|0:0,0:0:0:0:
73,219,297650,6,0,P|136:233|196:184,1,135,0|0,0:0|0:0,0:0:0:0:
121,159,298130,1,2,0:0:0:0:
389,341,298610,38,0,P|385:271|374:199,1,135,0|0,0:0|0:0,0:0:0:0:
315,154,299090,2,0,P|316:109|320:64,1,90,2|0,0:0|0:0,0:0:0:0:
480,20,299570,6,0,P|484:88|493:155,1,135,0|0,0:0|0:0,0:0:0:0:
459,233,300050,1,2,0:0:0:0:
459,233,300530,6,0,P|386:230|309:233,1,135,0|0,0:0|0:0,0:0:0:0:
251,265,301010,2,0,P|198:266|148:269,1,90,2|0,0:0|0:0,0:0:0:0:
33,363,301490,38,0,P|29:295|19:229,1,135,0|0,0:0|0:0,0:0:0:0:
53,151,301970,1,2,0:0:0:0:
53,151,302450,6,0,P|126:154|203:151,1,135,0|0,0:0|0:0,0:0:0:0:
261,119,302930,2,0,P|314:118|364:115,1,90,2|0,0:0|0:0,0:0:0:0:
481,232,303410,6,0,L|422:231,1,60,2|0,0:2|0:0,0:0:0:0:
340,265,303730,2,0,L|281:264,1,60,0|2,0:0|0:0,0:0:0:0:
199,298,304050,2,0,L|140:297,1,60,0|0,0:0|0:0,0:0:0:0:
10,242,304370,38,0,L|69:241,1,60,2|0,0:2|0:0,0:0:0:0:
151,209,304690,2,0,L|210:208,1,60,0|2,0:0|0:0,0:0:0:0:
292,176,305010,2,0,L|351:175,1,60,0|0,0:0|0:0,0:0:0:0:
481,232,305330,6,0,L|480:291,1,60,2|0,0:2|0:0,0:0:0:0:
393,258,305650,2,0,L|392:317,1,60,0|2,0:0|0:0,0:0:0:0:
305,284,305970,2,0,L|304:343,1,60,0|0,0:0|0:0,0:0:0:0:
207,284,306290,6,0,L|208:343,1,60,2|0,0:2|0:0,0:0:0:0:
119,258,306610,2,0,L|120:317,1,60,0|2,0:0|0:0,0:0:0:0:
31,232,306930,2,0,L|32:291,1,60,0|0,0:0|0:0,0:0:0:0:
31,152,307250,38,0,L|32:93,1,60,2|0,0:2|0:0,0:0:0:0:
119,126,307570,2,0,L|120:67,1,60,0|2,0:0|0:0,0:0:0:0:
207,100,307890,2,0,L|208:41,1,60,0|0,0:0|0:0,0:0:0:0:
305,100,308210,6,0,L|304:41,1,60,2|0,0:2|0:0,0:0:0:0:
393,126,308530,2,0,L|392:67,1,60,0|2,0:0|0:0,0:0:0:0:
481,152,308850,2,0,L|480:93,1,60,0|0,0:0|0:0,0:0:0:0:
418,214,309170,6,0,L|357:217,1,60,2|0,0:2|0:0,0:0:0:0:
256,294,309490,2,0,L|317:297,1,60,0|2,0:0|0:0,0:0:0:0:
256,175,309810,2,0,L|195:178,1,60,0|0,0:0|0:0,0:0:0:0:
94,255,310130,1,2,0:2:0:0:
94,255,310610,38,0,L|87:351,1,90,4|4,0:0|0:0,0:0:0:0:
