osu file format v14

[General]
AudioFilename: audio.mp3
AudioLeadIn: 0
PreviewTime: 117064
Countdown: 0
SampleSet: None
StackLeniency: 0.7
Mode: 0
LetterboxInBreaks: 0
WidescreenStoryboard: 1

[Editor]
DistanceSpacing: 1.4
BeatDivisor: 4
GridSize: 8
TimelineZoom: 1.3

[Metadata]
Title:Darker Than Blood (feat. LINKIN PARK)
TitleUnicode:Darker Than Blood (feat. LINKIN PARK)
Artist:Steve Aoki
ArtistUnicode:Steve Aoki
Creator:pw384
Version:Hard
Source:
Tags:Neon Future II electronic 384059043
BeatmapID:1400386
BeatmapSetID:642888

[Difficulty]
HPDrainRate:5
CircleSize:4
OverallDifficulty:6.7
ApproachRate:7.3
SliderMultiplier:1.6
SliderTickRate:1

[Events]
//Background and Video events
0,0,"bg.jpg",0,0
//Break Periods
2,213370,218930
2,284410,287196
//Storyboard Layer 0 (Background)
//Storyboard Layer 1 (Fail)
//Storyboard Layer 2 (Pass)
//Storyboard Layer 3 (Foreground)
//Storyboard Sound Samples

[TimingPoints]
50,480,4,3,0,67,1,0
31730,-105.263157894737,4,3,0,55,0,0
32690,-111.111111111111,4,3,0,50,0,0
33650,-117.647058823529,4,3,0,45,0,0
34610,-125,4,3,0,40,0,0
35570,-133.333333333333,4,3,0,35,0,0
36530,-142.857142857143,4,3,0,30,0,0
37490,-166.666666666667,4,3,0,20,0,0
38450,-200,4,2,0,20,0,0
53570,-142.857142857143,4,3,0,30,0,0
67250,-142.857142857143,4,2,0,30,0,0
69170,-100,4,3,0,50,0,0
82610,-200,4,3,0,50,0,0
86450,-142.857142857143,4,3,0,60,0,0
93170,-100,4,3,0,67,0,0
101330,-100,4,3,0,75,0,0
101810,-71.4285714285714,4,3,0,80,0,0
103250,-200,4,3,0,80,0,0
103730,-71.4285714285714,4,3,0,80,0,0
105170,-62.5,4,3,0,80,0,0
105650,-71.4285714285714,4,3,0,80,0,0
107090,-200,4,3,0,80,0,0
107570,-71.4285714285714,4,3,0,80,0,0
109010,-71.4285714285714,4,3,0,80,0,0
109490,-71.4285714285714,4,3,0,80,0,0
110930,-200,4,3,0,80,0,0
111410,-71.4285714285714,4,3,0,80,0,0
112850,-62.5,4,3,0,80,0,0
113330,-71.4285714285714,4,3,0,80,0,0
114770,-200,4,3,0,80,0,0
115250,-71.4285714285714,4,3,0,80,0,0
115490,-74.0740740740741,4,3,0,80,0,0
115730,-76.9230769230769,4,3,0,80,0,0
115970,-80,4,3,0,80,0,0
116210,-83.3333333333333,4,3,0,80,0,0
116450,-86.9565217391304,4,3,0,80,0,0
116690,-90.9090909090909,4,3,0,80,0,0
116930,-95.2380952380952,4,3,0,80,0,0
117170,-100,4,3,0,60,0,0
147890,-133.333333333333,4,3,0,60,0,0
160850,-133.333333333333,4,3,0,60,0,0
165170,-100,4,3,0,67,0,0
172850,-100,4,3,0,72,0,0
180050,-50,4,3,0,75,0,0
180530,-71.4285714285714,4,3,0,80,0,0
181970,-200,4,3,0,80,0,0
182450,-71.4285714285714,4,3,0,80,0,0
183890,-62.5,4,3,0,80,0,0
184370,-71.4285714285714,4,3,0,80,0,0
185810,-200,4,3,0,80,0,0
186290,-71.4285714285714,4,3,0,80,0,0
187730,-71.4285714285714,4,3,0,80,0,0
188210,-71.4285714285714,4,3,0,80,0,0
189650,-200,4,3,0,80,0,0
190130,-71.4285714285714,4,3,0,80,0,0
191570,-62.5,4,3,0,80,0,0
192050,-71.4285714285714,4,3,0,80,0,0
193490,-200,4,3,0,80,0,0
193970,-71.4285714285714,4,3,0,80,0,0
195890,-66.6666666666667,4,3,0,80,0,0
209330,-76.9230769230769,4,3,0,75,0,0
211250,-100,4,3,0,60,0,0
220850,-88.8888888888889,4,3,0,60,0,0
230450,-100,4,3,0,50,0,0
232370,-100,4,3,0,55,0,0
239570,-100,4,3,0,67,0,0
243890,-100,4,3,0,70,0,0
247250,-50,4,3,0,75,0,0
247730,-66.6666666666667,4,3,0,80,0,0
249170,-200,4,3,0,80,0,0
249650,-66.6666666666667,4,3,0,80,0,0
251090,-55.5555555555556,4,3,0,80,0,0
251570,-66.6666666666667,4,3,0,80,0,0
253010,-200,4,3,0,80,0,0
253490,-66.6666666666667,4,3,0,80,0,0
254930,-66.6666666666667,4,3,0,80,0,0
255410,-66.6666666666667,4,3,0,80,0,0
256850,-200,4,3,0,80,0,0
257330,-66.6666666666667,4,3,0,80,0,0
258770,-55.5555555555556,4,3,0,80,0,0
259250,-66.6666666666667,4,3,0,80,0,0
260690,-200,4,3,0,80,0,0
261170,-66.6666666666667,4,3,0,80,0,0
263090,-66.6666666666667,4,3,0,80,0,1
269330,-200,4,3,0,80,0,1
269810,-66.6666666666667,4,3,0,80,0,1
270290,-66.6666666666667,4,3,0,80,0,1
270770,-66.6666666666667,4,3,0,80,0,1
272210,-200,4,3,0,80,0,1
272690,-66.6666666666667,4,3,0,80,0,1
274130,-55.5555555555556,4,3,0,80,0,1
274610,-66.6666666666667,4,3,0,80,0,1
276050,-200,4,3,0,80,0,1
276530,-66.6666666666667,4,3,0,80,0,1
278450,-100,4,3,0,60,0,0
279890,-100,4,3,0,80,0,0
280370,-100,4,3,0,67,0,0

[Colours]
Combo1 : 216,216,216
Combo2 : 170,105,74
Combo3 : 120,89,54
Combo4 : 207,187,118
Combo5 : 68,68,68

[HitObjects]
40,207,50,6,0,P|90:258|69:364,1,160,4|2,3:1|0:0,0:0:0:0:
1,294,770,1,0,0:0:0:0:
40,207,1010,6,0,L|202:192,1,160,0|2,0:0|0:0,0:0:0:0:
256,269,1730,1,0,0:0:0:0:
312,192,1970,6,0,L|472:207,1,160,0|2,0:0|0:0,0:0:0:0:
511,294,2690,1,0,0:0:0:0:
426,341,2930,38,0,P|419:264|472:207,1,160,0|2,0:0|0:0,0:0:0:0:
510,119,3650,1,0,0:0:0:0:
434,59,3890,6,0,B|390:31|346:35|346:35|360:65|347:100,1,160,0|2,0:0|0:0,0:0:0:0:
256,68,4610,1,0,0:0:0:0:
164,100,4850,6,0,B|152:65|166:35|166:35|122:31|78:59,1,160,0|2,0:0|0:0,0:0:0:0:
2,119,5570,1,0,0:0:0:0:
78,177,5810,38,0,B|97:200|105:226|105:226|157:219|202:252,1,160,0|2,0:0|0:0,0:0:0:0:
256,331,6530,1,0,0:0:0:0:
310,252,6770,6,0,B|355:219|407:226|407:226|415:200|434:177,1,160,0|2,0:0|0:0,0:0:0:0:
510,119,7490,1,0,0:0:0:0:
256,192,7730,12,2,13490,0:2:0:0:
58,181,14930,5,4,0:0:0:0:
58,181,15170,1,4,0:0:0:0:
58,181,15410,38,0,P|113:127|188:144,1,160,4|2,0:1|0:0,0:0:0:0:
136,205,16130,1,0,0:0:0:0:
83,265,16370,2,0,P|157:281|213:228,1,160,0|2,0:0|0:0,0:0:0:0:
324,144,17330,6,0,P|398:127|454:180,1,160,0|2,0:0|0:0,0:0:0:0:
376,204,18050,1,0,0:0:0:0:
299,228,18290,2,0,P|354:281|429:264,1,160,0|2,0:0|0:0,0:0:0:0:
324,144,19250,6,0,P|232:112|188:144,1,160,0|2,0:0|0:0,0:0:0:0:
256,192,19970,1,0,0:0:0:0:
324,240,20210,2,0,P|232:272|188:240,1,160,0|2,0:0|0:0,0:0:0:0:
32,264,21170,38,0,B|56:336|56:336|136:360,1,160,0|2,0:0|0:0,0:0:0:0:
256,248,22130,1,0,0:0:0:0:
256,248,22490,6,0,L|256:296,1,40,0|0,1:0|1:0,0:0:0:0:
296,360,22850,1,8,0:0:0:0:
376,360,23090,6,0,B|456:336|456:336|480:264,1,160,0|2,0:0|0:0,0:0:0:0:
448,192,23810,1,0,0:0:0:0:
480,120,24050,2,0,B|456:48|456:48|376:24,1,160,0|2,0:0|0:0,0:0:0:0:
208,124,25010,38,0,P|176:216|208:260,1,160,0|2,0:0|0:0,0:0:0:0:
256,192,25730,1,0,0:0:0:0:
304,124,25970,2,0,P|336:216|304:259,1,160,0|2,0:0|0:0,0:0:0:0:
136,360,26930,6,0,B|56:336|56:336|32:264,1,160,0|2,0:0|0:0,0:0:0:0:
64,192,27650,1,0,0:0:0:0:
32,120,27890,2,0,B|56:48|56:48|136:24,1,160,0|2,0:0|0:0,0:0:0:0:
296,86,28850,6,0,P|255:308|216:86,1,640,0|0,0:0|0:0,0:0:0:0:
256,192,31010,12,0,37490,0:0:0:0:
144,152,38450,38,0,P|136:208|112:240,3,80,0|0|0|0,0:0|0:0|0:0|0:0,0:0:0:0:
63,167,40370,2,0,P|122:75|219:124,1,240,0|0,0:0|0:0,0:0:0:0:
256,192,42290,6,0,L|336:200,3,80,0|0|0|0,0:0|0:0|0:0|0:0,0:0:0:0:
415,209,44210,2,0,B|408:240|400:256|360:280|360:280|312:272|264:304|263:363,1,240,0|0,0:0|0:0,0:0:0:0:
344,360,46130,6,0,P|384:352|424:328,3,80,0|0|0|0,0:0|0:0|0:0|0:0,0:0:0:0:
448,256,48050,2,0,P|448:208|440:176,3,80,0|0|0|0,0:0|0:0|0:0|0:0,0:0:0:0:
374,135,49970,38,0,B|280:128|8:152|160:416|440:296|240:104|132:81,1,560,0|0,0:0|0:0,0:0:0:0:
48,192,53810,6,0,P|32:256|48:296,3,111.999996582031,4|0|8|0,0:0|0:0|0:0|0:0,0:0:0:0:
120,320,55490,1,0,0:0:0:0:
144,248,55730,6,0,P|256:144|368:248,1,335.999989746094,8|0,0:0|0:0,0:0:0:0:
392,320,57410,1,0,0:0:0:0:
463,296,57650,38,0,P|480:244|464:192,3,111.999996582031,8|0|8|0,0:0|0:0|0:0|0:0,0:0:0:0:
392,168,59330,1,0,0:0:0:0:
368,96,59570,6,0,P|256:200|144:96,1,335.999989746094,8|0,0:0|0:0,0:0:0:0:
120,168,61250,1,0,0:0:0:0:
96,240,61490,6,0,L|64:352,3,111.999996582031,8|0|8|0,0:0|0:0|0:0|0:0,0:0:0:0:
232,296,63410,38,0,L|264:184,2,111.999996582031,8|0|8,0:0|0:0|0:0,0:0:0:0:
188,104,64850,1,0,0:0:0:0:
188,104,65330,6,0,B|222:-4|222:-4|294:84|294:84|262:188,1,335.999989746094,8|0,0:0|0:0,0:0:0:0:
190,180,67010,2,0,L|118:172,1,55.9999982910157,0|0,0:0|0:0,0:0:0:0:
190,180,68690,2,0,L|118:172,1,55.9999982910157,2|0,0:0|0:0,0:0:0:0:
40,144,69170,6,0,B|62:205|46:317|46:317|38:229|150:197|222:301|118:405|59:331,1,480,4|2,0:0|0:0,0:0:0:0:
256,320,71090,38,0,P|264:264|304:160,1,160,8|2,0:0|0:0,0:0:0:0:
488,200,72050,2,0,P|480:144|440:40,1,160,0|2,0:0|0:0,0:0:0:0:
256,64,73010,6,0,B|196:4|117:44|117:143|196:153|196:153|275:162|275:261|196:301|137:242,1,480,4|2,0:0|0:0,0:0:0:0:
336,192,74930,6,0,P|392:168|496:152,1,160,8|2,0:0|0:0,0:0:0:0:
256,64,75890,2,0,P|200:40|96:24,1,160,0|2,0:0|0:0,0:0:0:0:
112,232,76850,38,0,B|200:196|200:196|184:124|96:108|8:164|16:260|80:348|176:308|208:260,1,480,4|2,0:0|0:0,0:0:0:0:
360,200,78770,6,0,P|360:272|384:368,1,160,8|2,0:0|0:0,0:0:0:0:
480,192,79730,2,0,P|480:120|456:24,1,160,0|2,0:0|0:0,0:0:0:0:
272,48,80690,6,0,P|224:200|352:72,1,480,4|2,0:0|0:0,0:0:0:0:
72,32,82610,38,0,B|104:128|80:264|32:328|32:328|152:296|152:392|280:320,1,560,8|0,0:0|0:0,0:0:0:0:
256,192,86450,5,4,0:1:0:0:
256,192,86690,12,0,93170,0:0:0:0:
24,88,94130,6,0,P|8:128|16:168,1,80,8|2,0:0|0:0,0:0:0:0:
104,136,94610,2,0,L|184:136,1,80,0|2,0:0|0:0,0:0:0:0:
264,88,95090,2,0,P|279:124|274:163,1,80,8|2,0:0|0:0,0:0:0:0:
256,192,95450,1,0,0:0:0:0:
237,220,95570,2,0,P|232:259|248:296,1,80,0|2,0:0|0:0,0:0:0:0:
328,248,96050,38,0,L|408:248,1,80,8|2,0:0|0:0,0:0:0:0:
488,295,96531,2,0,P|503:259|498:220,1,80,0|2,0:0|0:0,0:0:0:0:
429,163,97010,2,0,P|424:124|440:88,1,80,8|2,0:0|0:0,0:0:0:0:
464,72,97370,1,0,0:0:0:0:
488,56,97490,2,0,L|408:56,1,80,0|2,0:0|0:0,0:0:0:0:
320,104,97970,6,0,L|280:104,7,40,2|2|2|2|2|2|2|2,0:0|0:0|0:0|0:0|0:0|0:0|0:0|0:0,0:0:0:0:
232,104,98930,2,0,L|192:104,7,40,2|2|2|2|2|2|2|2,0:0|0:0|0:0|0:0|0:0|0:0|0:0|0:0,0:0:0:0:
144,104,99890,6,0,B|24:104|24:104|0:72,3,160,2|2|2|4,0:0|0:0|0:0|0:2,0:0:0:0:
56,256,101810,38,0,P|120:256|168:232,1,111.999996582031,4|2,0:2|0:0,0:0:0:0:
256,104,102290,2,0,P|256:168|280:216,1,111.999996582031,0|2,1:0|0:0,0:0:0:0:
432,184,102770,2,0,P|432:120|408:72,1,111.999996582031,0|2,0:0|0:0,0:0:0:0:
328,64,103130,1,0,0:0:0:0:
328,64,103250,1,0,1:0:0:0:
328,64,103730,6,0,P|280:88|216:88,1,111.999996582031,4|2,0:2|0:0,0:0:0:0:
72,48,104210,2,0,P|96:96|96:160,1,111.999996582031,0|2,1:0|0:0,0:0:0:0:
56,304,104690,2,0,P|96:280|208:304,1,167.999994873047,0|0,0:0|0:0,0:0:0:0:
256,360,105170,2,0,L|384:360,1,128,4|4,1:2|1:2,0:0:0:0:
352,216,105650,6,0,P|320:256|320:320,1,111.999996582031,4|2,0:2|0:0,0:0:0:0:
464,368,106130,2,0,P|496:328|496:264,1,111.999996582031,0|2,1:0|0:0,0:0:0:0:
472,112,106610,2,0,L|360:120,1,111.999996582031,0|2,0:0|0:0,0:0:0:0:
280,128,106970,1,0,0:0:0:0:
280,128,107090,1,0,1:0:0:0:
280,128,107570,38,0,P|272:80|296:24,1,111.999996582031,4|2,0:2|0:0,0:0:0:0:
456,48,108050,2,0,P|464:96|440:152,1,111.999996582031,0|2,1:0|0:0,0:0:0:0:
336,264,108530,2,0,B|296:288|256:264|256:264|216:240|176:264,1,167.999994873047,0|0,0:0|0:0,0:0:0:0:
114,314,109010,2,0,P|161:342|216:336,1,111.999996582031,4|4,0:0|0:0,0:0:0:0:
400,216,109490,6,0,P|353:188|298:194,1,111.999996582031,4|2,0:2|0:0,0:0:0:0:
295,335,109970,2,0,P|350:342|398:314,1,111.999996582031,0|2,1:0|0:0,0:0:0:0:
214,194,110450,2,0,P|159:187|112:216,1,111.999996582031,0|2,0:0|0:0,0:0:0:0:
176,264,110810,1,0,0:0:0:0:
180,268,110930,1,0,1:0:0:0:
400,216,111410,6,0,P|432:168|432:112,1,111.999996582031,4|2,0:2|0:0,0:0:0:0:
280,136,111890,2,0,P|248:184|248:240,1,111.999996582031,0|2,1:0|0:0,0:0:0:0:
344,56,112370,2,0,P|272:40|184:96,1,167.999994873047,0|0,0:0|0:0,0:0:0:0:
112,64,112850,2,0,L|120:192,1,128,4|4,1:2|1:2,0:0:0:0:
200,328,113330,38,0,P|152:328|88:352,1,111.999996582031,4|2,0:2|0:0,0:0:0:0:
224,240,113810,2,0,P|276:260|331:261,1,111.999996582031,0|2,1:0|0:0,0:0:0:0:
462,151,114290,2,0,P|407:152|355:173,1,111.999996582031,0|2,0:0|0:0,0:0:0:0:
331,261,114650,1,0,0:0:0:0:
331,261,114770,1,0,1:0:0:0:
331,261,115250,6,0,L|344:376,1,111.999996582031,4|2,0:2|0:0,0:0:0:0:
240,264,115730,2,0,L|253:379,1,103.999995239258,0|2,1:0|0:0,0:0:0:0:
152,264,116210,2,0,L|165:379,1,95.9999970703126,0|0,0:0|0:0,0:0:0:0:
64,264,116690,2,0,L|73:351,1,88.000002685547,4|4,0:0|0:0,0:0:0:0:
56,168,117170,6,0,P|104:176|176:96,1,160,4|2,0:1|0:0,0:0:0:0:
136,32,117890,1,0,0:0:0:0:
96,96,118130,2,0,B|152:144|152:144|240:152,1,160,0|2,0:0|0:0,0:0:0:0:
352,40,119090,38,0,B|400:48|432:48|488:40|488:40|448:64|408:72|416:96|416:280,1,400,0|0,0:0|0:0,0:0:0:0:
336,288,120530,2,0,L|336:192,1,80,2|0,0:0|0:0,0:0:0:0:
256,192,121010,6,0,P|208:184|136:264,1,160,0|2,0:0|0:0,0:0:0:0:
176,328,121730,1,0,0:0:0:0:
216,264,121970,2,0,B|160:216|160:216|72:208,1,160,0|2,0:0|0:0,0:0:0:0:
48,48,122930,6,0,B|80:80|96:136|96:136|136:80|160:64|160:64|184:80|208:136|208:136|248:96|272:40,1,400,0|0,0:0|0:0,0:0:0:0:
336,88,124370,2,0,P|384:96|432:104,1,80,2|0,0:0|0:0,0:0:0:0:
456,168,124850,38,0,P|432:208|440:280,1,120,0|0,0:0|0:0,0:0:0:0:
464,304,125330,1,2,0:0:0:0:
464,304,125810,2,0,P|432:296|384:296,1,80,0|0,0:0|0:0,0:0:0:0:
312,336,126290,2,0,P|273:344|233:344,1,80,2|0,0:0|0:0,0:0:0:0:
159,319,126770,6,0,P|113:258|141:187,1,160,0|2,0:0|0:0,0:0:0:0:
224,176,127490,1,0,0:0:0:0:
192,248,127730,2,0,P|112:256|64:176,1,160,0|2,0:0|0:0,0:0:0:0:
200,40,128690,6,0,B|200:128|192:248|192:248|200:136|256:104|320:152|312:216|312:256,1,480,0|2,0:0|0:0,0:0:0:0:
376,80,130610,37,0,0:0:0:0:
408,240,131090,1,2,0:0:0:0:
376,80,131570,5,2,0:2:0:0:
392,160,131810,1,0,0:0:0:0:
408,240,132050,1,2,0:0:0:0:
408,240,132530,6,0,P|344:232|248:232,3,160,4|2|2|2,0:1|0:0|0:2|0:0,0:0:0:0:
136,56,134450,2,0,B|88:16|16:24|-56:96|-16:240|112:240|160:160,1,400,0|0,0:0|0:0,0:0:0:0:
248,120,135890,2,0,P|240:160|240:200,1,80,2|0,0:0|0:0,0:0:0:0:
328,160,136370,38,0,P|392:160|488:168,3,160,0|2|2|2,0:0|0:0|0:2|0:0,0:0:0:0:
504,56,138290,2,0,B|488:48|392:32|376:120|440:168|440:344|376:352|304:344,1,400,0|0,0:0|0:0,0:0:0:0:
248,296,139730,2,0,P|184:288|136:288,1,80,2|0,0:0|0:0,0:0:0:0:
80,248,140210,6,0,P|80:184|72:88,3,160,0|2|2|2,0:0|0:0|0:2|0:0,0:0:0:0:
248,168,142130,2,0,P|312:168|408:176,3,160,0|2|2|2,0:0|0:0|0:2|0:0,0:0:0:0:
424,64,144050,6,0,B|408:56|312:40|296:128|360:176|360:352|296:360|224:352,1,400,0|0,0:0|0:0,0:0:0:0:
168,296,145490,2,0,P|120:296|88:304,1,80,2|0,0:0|0:0,0:0:0:0:
168,295,145970,38,0,P|204:228|168:160,1,160,0|2,0:0|0:0,0:0:0:0:
34,39,146930,2,0,P|26:79|34:119,1,80,0|0,1:0|1:0,0:0:0:0:
58,143,147290,1,0,1:0:0:0:
90,159,147410,2,0,P|130:167|170:159,1,80,0|0,1:0|1:0,0:0:0:0:
128,87,147890,6,0,P|255:21|383:87,1,300.000011444092,4|0,0:0|0:0,0:0:0:0:
422,159,149330,1,0,0:0:0:0:
328,344,149810,6,0,L|312:216,1,120.000004577637
184,40,150770,2,0,L|198:159,1,120.000004577637
112,312,151730,38,0,B|184:276|256:312|256:312|328:348|400:312,1,300.000011444092
472,272,153170,1,0,0:0:0:0:
416,112,153650,6,0,L|280:128,1,120.000004577637
96,272,154610,2,0,L|232:256,1,120.000004577637
71,192,155570,6,0,P|23:313|152:333,1,300.000011444092
96,272,157010,1,2,0:0:0:0:
240,336,157490,54,0,B|248:280|248:280|288:224,1,120.000004577637,0|2,0:0|0:0,0:0:0:0:
272,48,158450,2,0,B|264:104|264:104|224:160,1,120.000004577637,0|2,0:0|0:0,0:0:0:0:
72,192,159410,6,0,B|104:152|160:128|216:152|256:192|256:192|296:232|352:256|408:232|440:192,1,420.000016021729,4|0,0:0|0:0,0:0:0:0:
480,120,161330,1,4,0:0:0:0:
256,192,161450,12,2,164690,0:0:0:0:
120,96,165170,54,0,P|56:96|-8:88,2,120
216,88,166130,2,0,P|216:128|224:184,1,80,2|0,0:0|0:0,0:0:0:0:
301,216,166610,2,0,P|301:256|296:296,1,80,2|0,0:0|0:0,0:0:0:0:
392,288,167090,6,0,P|456:288|520:296,2,120,0|0|0,0:0|0:0|0:0,0:0:0:0:
296,296,168050,2,0,P|296:256|288:200,1,80,2|0,0:0|0:0,0:0:0:0:
212,167,168530,2,0,P|212:127|216:88,1,80,2|0,0:0|0:0,0:0:0:0:
304,48,169010,38,0,B|360:72|360:72|424:64,2,120,0|0|0,0:0|0:0|0:0,0:0:0:0:
216,88,169970,2,0,B|208:128|208:128|216:168,1,80,2|0,0:0|0:0,0:0:0:0:
297,217,170450,2,0,B|304:256|304:256|296:296,1,80,2|0,0:0|0:0,0:0:0:0:
208,336,170930,6,0,B|152:312|152:312|88:320,2,120,0|0|0,0:0|0:0|0:0,0:0:0:0:
296,296,171890,2,0,B|304:256|304:256|296:216,1,80,2|0,0:0|0:0,0:0:0:0:
216,166,172370,2,0,B|208:128|208:128|216:88,1,80,2|0,0:0|0:0,0:0:0:0:
304,48,172850,6,0,L|384:48,1,80,8|2,0:0|0:0,0:0:0:0:
472,88,173330,2,0,B|480:126|480:126|472:166,1,80,0|2,0:0|0:0,0:0:0:0:
384,208,173810,2,0,L|304:208,1,80,8|2,0:0|0:0,0:0:0:0:
208,176,174290,2,0,L|128:176,1,80,0|2,0:0|0:0,0:0:0:0:
41,217,174770,38,0,B|33:257|33:257|40:296,1,80,8|2,0:0|0:0,0:0:0:0:
128,336,175250,2,0,L|208:336,1,80,0|2,0:0|0:0,0:0:0:0:
296,296,175730,2,0,B|304:256|304:256|296:216,1,80,8|2,0:0|0:0,0:0:0:0:
216,166,176210,2,0,B|208:128|208:128|216:88,1,80,0|2,0:0|0:0,0:0:0:0:
304,48,176690,6,0,L|344:48,7,40,2|2|2|2|2|2|2|2,0:0|0:0|0:0|0:0|0:0|0:0|0:0|0:0,0:0:0:0:
384,24,177650,2,0,L|424:24,7,40,2|2|2|2|2|2|2|2,0:0|0:0|0:0|0:0|0:0|0:0|0:0|0:0,0:0:0:0:
472,8,178610,6,0,B|472:128|472:128|504:152,3,160,2|0|0|4,0:0|0:0|0:0|0:2,0:0:0:0:
456,256,180530,38,0,P|392:256|344:232,1,111.999996582031,4|2,0:2|0:0,0:0:0:0:
256,104,181010,2,0,P|256:168|232:216,1,111.999996582031,0|2,1:0|0:0,0:0:0:0:
80,184,181490,2,0,P|80:120|104:72,1,111.999996582031,0|2,0:0|0:0,0:0:0:0:
184,64,181850,1,0,0:0:0:0:
184,64,181970,1,0,1:0:0:0:
184,64,182450,6,0,P|232:88|296:88,1,111.999996582031,4|2,0:2|0:0,0:0:0:0:
440,48,182930,2,0,P|416:96|416:160,1,111.999996582031,0|2,1:0|0:0,0:0:0:0:
456,304,183410,2,0,P|416:280|304:304,1,167.999994873047,0|0,0:0|0:0,0:0:0:0:
256,360,183890,2,0,L|128:360,1,128,4|4,1:2|1:2,0:0:0:0:
160,216,184370,6,0,P|192:256|192:320,1,111.999996582031,4|2,0:2|0:0,0:0:0:0:
48,368,184850,2,0,P|16:328|16:264,1,111.999996582031,0|2,1:0|0:0,0:0:0:0:
40,112,185330,2,0,L|152:120,1,111.999996582031,0|2,0:0|0:0,0:0:0:0:
232,128,185690,1,0,0:0:0:0:
232,128,185810,1,0,1:0:0:0:
232,128,186290,38,0,P|240:80|216:24,1,111.999996582031,4|2,0:2|0:0,0:0:0:0:
56,48,186770,2,0,P|48:96|72:152,1,111.999996582031,0|2,1:0|0:0,0:0:0:0:
176,264,187250,2,0,B|216:288|256:264|256:264|296:240|336:264,1,167.999994873047,0|0,0:0|0:0,0:0:0:0:
398,314,187730,2,0,P|351:342|296:336,1,111.999996582031,4|4,0:0|0:0,0:0:0:0:
112,216,188210,6,0,P|159:188|214:194,1,111.999996582031,4|2,0:2|0:0,0:0:0:0:
217,335,188690,2,0,P|162:342|114:314,1,111.999996582031,0|2,1:0|0:0,0:0:0:0:
298,194,189170,2,0,P|353:187|400:216,1,111.999996582031,0|2,0:0|0:0,0:0:0:0:
336,264,189530,1,0,0:0:0:0:
340,268,189650,1,0,1:0:0:0:
112,216,190130,6,0,P|80:168|80:112,1,111.999996582031,4|2,0:2|0:0,0:0:0:0:
232,136,190610,2,0,P|264:184|264:240,1,111.999996582031,0|2,1:0|0:0,0:0:0:0:
168,56,191090,2,0,P|240:40|328:96,1,167.999994873047,0|0,0:0|0:0,0:0:0:0:
400,64,191570,2,0,L|392:192,1,128,4|4,1:2|1:2,0:0:0:0:
312,328,192050,38,0,P|360:328|424:352,1,111.999996582031,4|2,0:2|0:0,0:0:0:0:
288,240,192530,2,0,P|236:260|181:261,1,111.999996582031,0|2,1:0|0:0,0:0:0:0:
50,151,193010,2,0,P|105:152|157:173,1,111.999996582031,0|2,0:0|0:0,0:0:0:0:
181,261,193370,1,0,0:0:0:0:
181,261,193490,1,0,1:0:0:0:
181,261,193970,6,0,P|168:296|176:368,1,111.999996582031,4|2,0:2|0:0,0:0:0:0:
335,368,194450,2,0,P|346:314|331:261,1,111.999996582031,0|2,1:0|0:0,0:0:0:0:
256,136,194930,2,0,L|256:16,2,111.999996582031,0|2|4,0:0|0:0|0:0,0:0:0:0:
256,136,195890,6,0,P|200:112|136:112,1,120.000004577637,4|2,0:2|0:0,0:0:0:0:
56,240,196370,2,0,P|112:264|176:264,1,120.000004577637,0|2,1:0|0:0,0:0:0:0:
256,136,196850,2,0,P|312:112|376:112,1,120.000004577637,0|2,0:0|0:0,0:0:0:0:
456,240,197330,2,0,P|400:264|336:264,1,120.000004577637,0|2,1:0|0:0,0:0:0:0:
256,136,197810,38,0,B|200:112|200:112|136:112,1,120.000004577637,0|2,0:0|0:0,0:0:0:0:
56,240,198290,2,0,B|112:264|112:264|176:264,1,120.000004577637,0|2,1:0|0:0,0:0:0:0:
256,136,198770,2,0,B|312:112|312:112|376:112,1,120.000004577637,0|2,0:0|0:0,0:0:0:0:
456,240,199250,2,0,B|400:264|400:264|336:264,1,120.000004577637,0|2,1:0|0:0,0:0:0:0:
256,136,199730,5,4,0:2:0:0:
128,192,199970,2,0,L|8:192,2,120.000004577637,2|0|2,0:0|1:0|0:0,0:0:0:0:
256,136,200690,5,0,0:0:0:0:
384,192,200930,2,0,L|504:192,2,120.000004577637,2|0|2,0:0|1:0|0:0,0:0:0:0:
256,248,201650,37,0,0:0:0:0:
128,192,201890,2,0,L|8:192,2,120.000004577637,2|0|2,0:0|1:0|0:0,0:0:0:0:
256,248,202610,5,0,0:0:0:0:
384,192,202850,2,0,L|504:192,2,120.000004577637,2|0|6,0:0|1:0|0:0,0:0:0:0:
256,248,203570,6,0,B|200:272|200:272|136:272,1,120.000004577637,4|2,0:2|0:0,0:0:0:0:
56,144,204050,2,0,B|112:120|112:120|176:120,1,120.000004577637,0|2,1:0|0:0,0:0:0:0:
256,248,204530,2,0,B|312:272|312:272|376:272,1,120.000004577637,0|2,0:0|0:0,0:0:0:0:
456,144,205010,2,0,B|400:120|400:120|336:120,1,120.000004577637,0|2,1:0|0:0,0:0:0:0:
256,248,205490,38,0,B|208:288|208:288|136:272,1,120.000004577637,0|2,0:0|0:0,0:0:0:0:
56,144,205970,2,0,B|104:104|104:104|176:120,1,120.000004577637,0|2,1:0|0:0,0:0:0:0:
256,248,206450,2,0,B|304:288|304:288|376:272,1,120.000004577637,0|2,0:0|0:0,0:0:0:0:
456,144,206930,2,0,B|408:104|408:104|336:120,1,120.000004577637,0|2,1:0|0:0,0:0:0:0:
256,248,207410,5,4,0:2:0:0:
128,192,207650,2,0,B|80:200|80:200|56:184|56:184|8:192,2,120.000004577637,2|0|2,0:0|1:0|0:0,0:0:0:0:
256,248,208370,5,0,0:0:0:0:
384,192,208610,2,0,B|432:184|432:184|456:200|456:200|504:192,2,120.000004577637,2|0|2,0:0|1:0|0:0,0:0:0:0:
216,248,209330,38,0,P|255:361|296:248,1,311.999985717774,8|8,0:0|0:0,0:0:0:0:
216,136,210290,2,0,P|255:22|296:135,1,311.999985717774,8|8,0:0|0:0,0:0:0:0:
160,192,211250,6,0,P|120:184|80:192,1,80,0|2,0:0|0:2,0:0:0:0:
120,264,211730,2,0,P|112:304|120:344,1,80,0|2,0:0|0:2,0:0:0:0:
192,304,212210,2,0,P|232:312|272:304,1,80,0|2,0:0|0:2,0:0:0:0:
232,232,212690,6,0,P|240:176|160:104,1,160,0|4,0:0|0:2,0:0:0:0:
161,86,220850,22,0,B|63:17|-76:129|-34:351|219:356|219:191,1,540,0|0,0:0|0:0,0:0:0:0:
294,25,222770,54,0,B|332:105|318:206|318:206|312:116|385:76|487:107|492:254|379:297|305:195,1,540,0|0,0:0|0:0,0:0:0:0:
68,45,224690,6,0,B|64:80|59:132|46:202|46:202|79:103|106:96|150:84|190:90,1,360,0|0,0:0|0:0,0:0:0:0:
178,177,226610,54,0,B|214:183|240:163|240:163|228:222|200:284|246:337|296:278,1,270,0|0,0:0|2:0,0:0:0:0:
262,74,227570,1,0,0:0:0:0:
368,332,228530,6,0,B|398:165|398:165|464:169|493:184|492:262|453:269|413:263,1,360,0|0,0:0|0:0,0:0:0:0:
48,240,230450,6,0,B|88:256|124:256|124:256|136:288|176:320,1,160,0|0,0:0|0:0,0:0:0:0:
440,120,231410,6,0,B|410:107|383:107|383:107|374:83|344:59,1,120,4|2,0:0|0:0,0:0:0:0:
312,48,231890,2,0,L|304:128,1,80,2|2,0:0|0:0,0:0:0:0:
160,64,232370,5,4,0:0:0:0:
208,128,232850,1,2,0:0:0:0:
256,192,233330,1,0,0:0:0:0:
312,248,233810,2,0,L|368:312,1,80,2|0,0:0|0:0,0:0:0:0:
311,247,234290,38,0,P|239:218|167:248,3,160,0|2|0|2,0:0|0:0|0:0|0:0,0:0:0:0:
160,64,236210,5,4,0:0:0:0:
208,128,236690,1,2,0:0:0:0:
256,192,237170,1,0,0:0:0:0:
312,248,237650,2,0,L|368:312,1,80,2|0,0:0|0:0,0:0:0:0:
311,247,238130,6,0,B|238:214|238:214|167:248,3,160,4|2|0|2,0:0|0:0|0:0|0:0,0:0:0:0:
160,64,240050,37,4,0:0:0:0:
208,128,240290,1,4,0:0:0:0:
256,192,240530,1,0,1:0:0:0:
256,192,241010,1,0,0:0:0:0:
312,248,241250,2,0,L|368:312,2,80,4|0|0,0:0|1:0|0:0,0:0:0:0:
200,248,241970,6,0,L|144:312,2,80,4|4|0,0:0|0:0|1:0,0:0:0:0:
256,192,242690,1,0,0:0:0:0:
296,120,242930,2,0,P|256:112|216:120,2,80,0|4|0,0:0|0:0|1:0,0:0:0:0:
448,56,243890,6,0,L|368:72,1,80,4|4,0:0|0:0,0:0:0:0:
296,32,244370,2,0,L|216:32,1,80,4|4,0:0|0:0,0:0:0:0:
142,71,244850,2,0,L|63:55,2,80,4|4|4,0:0|0:0|0:0,0:0:0:0:
216,112,245570,1,4,0:0:0:0:
216,192,245810,38,0,B|216:232|256:264|256:264|336:288|328:384|256:400|184:384|176:288|256:264|256:264|296:232|296:192,1,480,2|4,0:0|0:2,0:0:0:0:
464,80,247730,6,0,P|483:135|464:191,1,120.000004577637,4|2,0:2|0:0,0:0:0:0:
296,191,248210,2,0,P|276:135|295:79,1,120.000004577637,0|2,1:0|0:0,0:0:0:0:
352,264,248690,2,0,P|296:283|240:264,1,120.000004577637,0|2,0:0|0:0,0:0:0:0:
176,216,249050,1,0,0:0:0:0:
176,216,249170,1,0,1:0:0:0:
176,216,249650,6,0,P|195:271|176:327,1,120.000004577637,4|2,0:2|0:0,0:0:0:0:
8,327,250130,2,0,P|-12:271|7:215,1,120.000004577637,0|2,1:0|0:0,0:0:0:0:
104,77,250610,2,0,B|104:144|104:144|104:184|136:216|176:216,1,180.000006866455,0|0,0:0|0:0,0:0:0:0:
176,144,251090,2,0,L|176:288,1,143.999995605469,4|4,1:2|1:2,0:0:0:0:
312,360,251570,38,0,P|367:379|423:360,1,120.000004577637,4|2,0:2|0:0,0:0:0:0:
423,192,252050,2,0,P|367:172|311:191,1,120.000004577637,0|2,1:0|0:0,0:0:0:0:
496,248,252530,2,0,P|515:192|496:136,1,120.000004577637,0|2,0:0|0:0,0:0:0:0:
448,72,252890,1,0,0:0:0:0:
448,72,253010,1,0,1:0:0:0:
448,72,253490,6,0,P|393:53|337:72,1,120.000004577637,4|2,0:2|0:0,0:0:0:0:
200,192,253970,2,0,P|256:212|312:193,1,120.000004577637,0|2,1:0|0:0,0:0:0:0:
175,72,254450,2,0,P|119:52|32:128,1,180.000006866455,0|0,0:0|0:0,0:0:0:0:
120,136,254930,2,0,P|101:192|120:248,1,120.000004577637,4|4,0:0|0:0,0:0:0:0:
256,360,255410,6,0,L|376:360,1,120.000004577637,4|2,0:2|0:0,0:0:0:0:
496,248,255890,2,0,L|376:248,1,120.000004577637,0|2,1:0|0:0,0:0:0:0:
256,136,256370,2,0,L|376:136,1,120.000004577637,0|2,0:0|0:0,0:0:0:0:
496,24,256850,1,0,1:0:0:0:
256,24,257330,38,0,L|136:24,1,120.000004577637,4|2,0:2|0:0,0:0:0:0:
16,136,257810,2,0,L|136:136,1,120.000004577637,0|2,1:0|0:0,0:0:0:0:
256,248,258290,2,0,L|136:248,1,120.000004577637,0|2,0:0|0:0,0:0:0:0:
16,360,258770,2,0,B|88:344|88:344|160:360,1,143.999995605469,4|4,1:2|1:2,0:0:0:0:
320,344,259250,6,0,P|375:363|431:344,1,120.000004577637,4|2,0:2|0:0,0:0:0:0:
376,248,259730,2,0,P|356:192|375:136,1,120.000004577637,0|2,1:0|0:0,0:0:0:0:
431,39,260210,2,0,P|375:20|320:40,1,120.000004577637,0|2,0:0|0:0,0:0:0:0:
256,136,260690,1,0,1:0:0:0:
256,136,260930,1,0,1:0:0:0:
192,40,261170,6,0,P|136:20|80:39,1,120.000004577637,4|2,0:2|0:0,0:0:0:0:
136,136,261650,2,0,P|155:191|136:247,1,120.000004577637,0|2,1:0|0:0,0:0:0:0:
80,344,262130,2,0,P|136:363|192:344,1,120.000004577637,0|2,0:0|0:0,0:0:0:0:
256,248,262610,1,4,0:0:0:0:
256,248,262850,1,6,0:0:0:0:
320,344,263090,38,0,P|376:364|432:345,1,120.000004577637,4|2,0:2|0:0,0:0:0:0:
376,136,263570,2,0,P|356:192|375:248,1,120.000004577637,0|2,1:0|0:0,0:0:0:0:
400,264,263930,2,0,L|464:264,1,60.0000022888184,0|0,0:0|0:0,0:0:0:0:
256,192,264290,2,0,L|136:192,2,120.000004577637,2|0|2,0:0|1:0|0:0,0:0:0:0:
176,40,265010,6,0,B|112:40|112:40|64:72,1,120.000004577637,0|2,0:0|0:0,0:0:0:0:
65,160,265370,1,0,0:0:0:0:
65,160,265490,2,0,B|111:191|111:191|175:191,1,120.000004577637,0|2,1:0|0:0,0:0:0:0:
336,192,265970,6,0,B|400:192|400:192|448:160,1,120.000004577637,0|2,0:0|0:0,0:0:0:0:
447,72,266330,1,0,0:0:0:0:
447,72,266450,2,0,B|400:40|400:40|336:40,1,120.000004577637,0|2,1:0|0:0,0:0:0:0:
192,40,266930,38,0,P|136:20|80:39,1,120.000004577637,4|2,0:2|0:0,0:0:0:0:
136,248,267410,2,0,P|156:192|137:136,1,120.000004577637,0|2,1:0|0:0,0:0:0:0:
112,120,267770,2,0,L|48:120,1,60.0000022888184,0|0,0:0|0:0,0:0:0:0:
256,192,268130,2,0,L|376:192,2,120.000004577637,2|0|2,0:0|1:0|0:0,0:0:0:0:
336,344,268850,6,0,B|400:344|400:344|448:312,1,120.000004577637,0|2,0:0|0:0,0:0:0:0:
447,224,269210,1,0,0:0:0:0:
447,224,269330,1,0,1:0:0:0:
176,192,269810,6,0,B|112:192|112:192|64:224,1,120.000004577637,0|2,0:0|0:0,0:0:0:0:
65,312,270170,1,0,0:0:0:0:
65,312,270290,2,0,B|111:343|111:343|175:343,1,120.000004577637,0|6,1:0|0:0,0:0:0:0:
336,344,270770,38,0,P|355:288|336:232,1,120.000004577637,4|2,0:2|0:0,0:0:0:0:
175,231,271250,2,0,P|156:286|175:342,1,120.000004577637,0|2,1:0|0:0,0:0:0:0:
256,288,271610,1,0,0:0:0:0:
256,288,271730,2,0,L|256:168,1,120.000004577637,0|2,0:0|0:0,0:0:0:0:
256,16,272210,1,0,0:0:0:0:
175,151,272690,6,0,P|155:95|176:39,1,120.000004577637,0|2,0:0|0:0,0:0:0:0:
335,40,273170,2,0,P|354:96|337:153,1,120.000004577637,0|2,1:0|0:0,0:0:0:0:
256,96,273530,1,0,0:0:0:0:
256,96,273650,2,0,L|256:216,1,120.000004577637,0|2,0:0|0:0,0:0:0:0:
188,352,274130,2,0,B|256:328|256:328|324:352,1,143.999995605469,4|4,1:2|1:2,0:0:0:0:
448,256,274610,6,0,B|392:277|392:277|336:256,1,120.000004577637,4|2,0:2|0:0,0:0:0:0:
336,128,275090,2,0,B|392:107|392:107|448:128,1,120.000004577637,0|2,1:0|0:0,0:0:0:0:
256,192,275570,1,0,0:0:0:0:
64,128,276050,37,0,1:0:0:0:
0,192,276290,1,2,0:0:0:0:
64,128,276530,6,0,B|120:107|120:107|176:128,1,120.000004577637,8|2,0:0|0:0,0:0:0:0:
176,256,277010,2,0,B|120:277|120:277|64:256,1,120.000004577637,0|2,1:0|0:0,0:0:0:0:
336,128,277490,6,0,B|392:107|392:107|448:128,1,120.000004577637,0|2,0:0|0:0,0:0:0:0:
448,256,277970,2,0,B|392:277|392:277|336:256,1,120.000004577637,0|0,1:0|1:0,0:0:0:0:
256,96,278450,38,0,L|256:56,12,40,0|0|0|0|0|0|0|0|0|0|0|0|4,0:0|0:0|0:0|0:0|0:0|0:0|0:0|0:0|0:0|0:0|0:0|0:0|0:2,0:0:0:0:
256,96,280370,1,4,0:1:0:0:
256,192,280610,12,0,284210,0:0:0:0:
416,104,288050,6,0,L|256:88,3,160,0|2|0|2,0:0|0:0|0:0|0:0,0:0:0:0:
168,32,289730,1,0,0:0:0:0:
168,32,289970,6,0,L|152:192,3,160,0|2|0|2,0:0|0:0|0:0|0:0,0:0:0:0:
96,280,291650,1,0,0:0:0:0:
96,280,291890,38,0,L|256:296,3,160,0|2|0|2,0:0|0:0|0:0|0:0,0:0:0:0:
344,352,293570,1,0,0:0:0:0:
344,352,293810,6,0,L|360:192,1,160,0|8,0:0|0:0,0:0:0:0:
168,32,294770,2,0,L|156:152,1,120
152,184,295250,2,0,P|200:176|248:176,1,80,8|0,0:0|0:0,0:0:0:0:
312,224,295730,6,0,P|376:248|456:208,1,160,4|2,0:1|0:0,0:0:0:0:
440,64,296690,2,0,P|376:40|296:80,1,160,0|2,0:0|0:0,0:0:0:0:
200,224,297650,38,0,P|136:248|56:208,1,160,0|2,0:0|0:0,0:0:0:0:
72,64,298610,2,0,P|136:40|216:80,1,160,0|2,0:0|0:0,0:0:0:0:
296,248,299570,6,0,B|352:248|352:248|392:264|392:264|464:264,1,160,0|2,0:0|0:0,0:0:0:0:
452,72,300530,2,0,B|396:72|396:72|356:88|356:88|296:88,1,160,0|2,0:0|0:0,0:0:0:0:
216,248,301490,6,0,B|160:248|160:248|120:264|120:264|48:264,1,160,0|2,0:0|0:0,0:0:0:0:
59,72,302450,2,0,B|115:72|115:72|155:88|155:88|216:88,1,160,0|2,0:0|0:0,0:0:0:0:
408,24,303410,38,0,P|384:72|384:128,1,106.666666666667
408,152,303890,2,0,P|407:196|400:232,1,80,2|0,0:0|0:0,0:0:0:0:
440,344,304370,6,0,L|328:336,1,106.666666666667
304,360,304850,2,0,P|264:368|208:352,1,80,2|0,0:0|0:0,0:0:0:0:
104,360,305330,6,0,P|128:312|128:256,1,106.666666666667
104,232,305810,2,0,P|104:187|112:152,1,80,2|0,0:0|0:0,0:0:0:0:
72,40,306290,38,0,L|184:48,1,106.666666666667
200,80,306770,2,0,P|240:88|296:72,1,80,2|0,0:0|0:0,0:0:0:0:
408,56,307250,6,0,B|376:112|408:168|408:168|440:224|408:288,1,240,4|0,0:0|0:0,0:0:0:0:
320,200,308210,2,0,P|240:280|192:200,1,240,4|0,0:0|0:0,0:0:0:0:
102,285,309170,6,0,B|72:224|104:168|104:168|136:112|104:56,1,240,4|0,0:0|0:0,0:0:0:0:
24,112,310130,1,4,0:0:0:0:
216,168,310610,2,0,L|296:168,1,80,2|4,0:0|0:0,0:0:0:0:
