osu file format v14

[General]
AudioFilename: audio.mp3
AudioLeadIn: 0
PreviewTime: 117064
Countdown: 0
SampleSet: None
StackLeniency: 0.7
Mode: 0
LetterboxInBreaks: 0
WidescreenStoryboard: 1

[Editor]
DistanceSpacing: 1
BeatDivisor: 4
GridSize: 32
TimelineZoom: 1.3

[Metadata]
Title:Darker Than Blood (feat. LINKIN PARK)
TitleUnicode:Darker Than Blood (feat. LINKIN PARK)
Artist:Steve Aoki
ArtistUnicode:Steve Aoki
Creator:pw384
Version:Extra
Source:
Tags:Neon Future II electronic 384059043
BeatmapID:1368881
BeatmapSetID:642888

[Difficulty]
HPDrainRate:5
CircleSize:4
OverallDifficulty:8.5
ApproachRate:9
SliderMultiplier:1.8
SliderTickRate:1

[Events]
//Background and Video events
0,0,"bg.jpg",0,0
//Break Periods
2,213370,218930
//Storyboard Layer 0 (Background)
//Storyboard Layer 1 (Fail)
//Storyboard Layer 2 (Pass)
//Storyboard Layer 3 (Foreground)
//Storyboard Sound Samples

[TimingPoints]
50,480,4,3,0,67,1,0
31730,-105.263157894737,4,3,0,55,0,0
32690,-111.111111111111,4,3,0,50,0,0
33650,-117.647058823529,4,3,0,45,0,0
34610,-125,4,3,0,40,0,0
35570,-133.333333333333,4,3,0,35,0,0
36530,-142.857142857143,4,3,0,30,0,0
37490,-166.666666666667,4,3,0,20,0,0
37610,-166.666666666667,4,2,0,5,0,0
38450,-200,4,2,0,20,0,0
53570,-142.857142857143,4,3,0,30,0,0
67250,-142.857142857143,4,2,0,30,0,0
69170,-100,4,3,0,50,0,0
86450,-142.857142857143,4,3,0,60,0,0
93170,-100,4,3,0,67,0,0
101330,-50,4,3,0,75,0,0
101810,-66.6666666666667,4,3,0,80,0,0
103250,-200,4,3,0,80,0,0
103730,-66.6666666666667,4,3,0,80,0,0
105170,-37.037037037037,4,3,0,80,0,1
105650,-66.6666666666667,4,3,0,80,0,0
107090,-200,4,3,0,80,0,0
107570,-66.6666666666667,4,3,0,80,0,0
109010,-45.4545454545455,4,3,0,80,0,0
109490,-66.6666666666667,4,3,0,80,0,0
110930,-200,4,3,0,80,0,0
111410,-66.6666666666667,4,3,0,80,0,0
112850,-37.037037037037,4,3,0,80,0,1
113330,-66.6666666666667,4,3,0,80,0,0
114770,-200,4,3,0,80,0,0
115250,-66.6666666666667,4,3,0,80,0,0
115490,-68.9655172413793,4,3,0,80,0,0
115730,-71.4285714285714,4,3,0,80,0,0
115970,-74.0740740740741,4,3,0,80,0,0
116210,-76.9230769230769,4,3,0,80,0,0
116450,-83.3333333333333,4,3,0,80,0,0
116690,-90.9090909090909,4,3,0,80,0,0
116930,-100,4,3,0,80,0,0
117170,-100,4,3,0,60,0,0
147890,-133.333333333333,4,3,0,60,0,0
160850,-100,4,3,0,60,0,0
165170,-100,4,3,0,67,0,0
172850,-100,4,3,0,72,0,0
180050,-40,4,3,0,75,0,0
180530,-58.8235294117647,4,3,0,80,0,0
181970,-200,4,3,0,80,0,0
182450,-58.8235294117647,4,3,0,80,0,0
183890,-35.7142857142857,4,3,0,80,0,1
184370,-58.8235294117647,4,3,0,80,0,0
185810,-200,4,3,0,80,0,0
186290,-58.8235294117647,4,3,0,80,0,0
187730,-45.4545454545455,4,3,0,80,0,0
188210,-58.8235294117647,4,3,0,80,0,0
189650,-200,4,3,0,80,0,0
190130,-58.8235294117647,4,3,0,80,0,0
191570,-35.7142857142857,4,3,0,80,0,1
192050,-58.8235294117647,4,3,0,80,0,0
193490,-200,4,3,0,80,0,0
193970,-58.8235294117647,4,3,0,80,0,0
195890,-55.5555555555556,4,3,0,80,0,0
209330,-71.4285714285714,4,3,0,75,0,0
211250,-100,4,3,0,60,0,0
220850,-100,4,3,0,50,0,0
232370,-100,4,3,0,55,0,0
239570,-100,4,3,0,67,0,0
243890,-100,4,3,0,70,0,0
247250,-33.3333333333333,4,3,0,75,0,0
247730,-55.5555555555556,4,3,0,80,0,0
249170,-200,4,3,0,80,0,0
249650,-55.5555555555556,4,3,0,80,0,0
251090,-33.3333333333333,4,3,0,80,0,1
251570,-55.5555555555556,4,3,0,80,0,0
253010,-200,4,3,0,80,0,0
253490,-55.5555555555556,4,3,0,80,0,0
254930,-43.4782608695652,4,3,0,80,0,0
255410,-55.5555555555556,4,3,0,80,0,0
256850,-200,4,3,0,80,0,0
257330,-55.5555555555556,4,3,0,80,0,0
258770,-33.3333333333333,4,3,0,80,0,1
259250,-55.5555555555556,4,3,0,80,0,0
260690,-200,4,3,0,80,0,0
261170,-55.5555555555556,4,3,0,80,0,0
263090,-50,4,3,0,80,0,1
269330,-200,4,3,0,80,0,1
269810,-50,4,3,0,80,0,1
270290,-41.6666666666667,4,3,0,80,0,1
270770,-50,4,3,0,80,0,1
272210,-200,4,3,0,80,0,1
272690,-50,4,3,0,80,0,1
274130,-31.25,4,3,0,80,0,1
274610,-50,4,3,0,80,0,1
276050,-200,4,3,0,80,0,1
276530,-50,4,3,0,80,0,1
278450,-100,4,3,0,60,0,0
279890,-29.4117647058824,4,3,0,80,0,0
280370,-100,4,3,0,67,0,0

[Colours]
Combo1 : 216,216,216
Combo2 : 170,105,74
Combo3 : 120,89,54
Combo4 : 207,187,118
Combo5 : 68,68,68

[HitObjects]
70,243,50,6,0,P|118:263|194:234,1,135,4|0,3:1|0:0,0:0:0:0:
238,170,530,2,0,L|331:174,1,90,2|0,0:0|0:0,0:0:0:0:
178,89,1010,6,0,L|317:97,1,135,0|0,0:0|0:0,0:0:0:0:
390,120,1490,2,0,P|410:163|398:218,1,90,2|0,0:0|0:0,0:0:0:0:
469,90,1970,6,0,P|493:154|482:228,1,135,0|0,0:0|0:0,0:0:0:0:
429,281,2450,2,0,L|329:284,1,90,2|0,0:0|0:0,0:0:0:0:
488,355,2930,38,0,L|351:359,1,135,0|0,0:0|0:0,0:0:0:0:
277,337,3410,2,0,P|260:300|266:249,1,90,2|0,0:0|0:0,0:0:0:0:
317,67,3890,6,0,P|338:107|322:203,1,135,0|0,0:0|0:0,0:0:0:0:
264,252,4370,2,0,L|169:242,1,90,2|0,0:0|0:0,0:0:0:0:
277,337,4850,6,0,L|134:322,1,135,0|0,0:0|0:0,0:0:0:0:
92,258,5330,2,0,P|98:210|131:172,1,90,2|0,0:0|0:0,0:0:0:0:
9,227,5810,38,0,P|21:174|75:109,1,135,0|0,0:0|0:0,0:0:0:0:
155,103,6290,2,0,L|252:109,1,90,2|0,0:0|0:0,0:0:0:0:
126,22,6770,6,0,L|273:31,1,135,0|0,0:0|0:0,0:0:0:0:
325,83,7250,2,0,P|329:117|307:170,1,90,2|0,0:0|0:0,0:0:0:0:
213,326,7730,6,0,L|208:260,1,60,2|0,0:2|0:0,0:0:0:0:
55,202,8050,2,0,L|60:268,1,60,0|2,0:0|0:0,0:0:0:0:
227,293,8370,2,0,L|222:227,1,60,0|0,0:0|0:0,0:0:0:0:
69,169,8690,38,0,L|74:235,1,60,2|0,0:2|0:0,0:0:0:0:
241,260,9010,2,0,L|236:194,1,60,0|2,0:0|0:0,0:0:0:0:
83,136,9330,2,0,L|88:202,1,60,0|0,0:0|0:0,0:0:0:0:
236,170,9650,6,0,L|295:165,1,60,2|0,0:2|0:0,0:0:0:0:
360,12,9970,2,0,L|300:16,1,60,0|2,0:0|0:0,0:0:0:0:
269,184,10290,2,0,L|328:179,1,60,0|0,0:0|0:0,0:0:0:0:
393,26,10610,6,0,L|333:30,1,60,2|0,0:2|0:0,0:0:0:0:
302,198,10930,2,0,L|361:193,1,60,0|2,0:0|0:0,0:0:0:0:
426,40,11250,2,0,L|366:44,1,60,0|0,0:0|0:0,0:0:0:0:
209,22,11570,38,0,P|213:55|211:85,1,60,2|0,0:2|0:0,0:0:0:0:
135,99,11890,2,0,P|130:131|120:160,1,60,0|2,0:0|0:0,0:0:0:0:
43,154,12210,2,0,P|29:184|13:209,1,60,0|0,0:0|0:0,0:0:0:0:
101,241,12530,6,0,P|114:271|130:296,1,60,2|0,0:2|0:0,0:0:0:0:
203,270,12850,2,0,P|223:296|246:315,1,60,0|2,0:0|0:0,0:0:0:0:
310,272,13170,2,0,P|336:291|363:305,1,60,0|0,0:0|0:0,0:0:0:0:
442,107,13490,6,0,P|409:103|379:104,1,60,2|0,0:2|0:0,0:0:0:0:
365,180,13810,2,0,P|332:184|303:194,1,60,0|2,0:0|0:0,0:0:0:0:
310,272,14130,2,0,P|279:285|254:301,1,60,0|0,0:0|0:0,0:0:0:0:
35,291,14450,38,0,P|98:293|162:323,1,135,2|0,0:2|0:0,0:0:0:0:
197,246,14930,2,0,L|181:154,1,90,4|4,0:0|0:0,0:0:0:0:
70,6,15410,6,0,L|96:148,1,135,4|0,0:1|0:0,0:0:0:0:
181,157,15890,2,0,L|165:65,1,90,2|0,0:0|0:0,0:0:0:0:
301,129,16370,2,0,P|354:131|398:115,1,90,0|0,0:0|0:0,0:0:0:0:
406,102,16730,1,0,0:0:0:0:
414,78,16850,2,0,L|504:85,1,90,2|0,0:0|0:0,0:0:0:0:
455,197,17330,6,0,P|435:251|480:324,1,135,0|0,0:0|0:0,0:0:0:0:
509,251,17810,2,0,L|413:261,1,90,2|0,0:0|0:0,0:0:0:0:
212,317,18290,2,0,L|308:327,1,90,0|0,0:0|0:0,0:0:0:0:
321,292,18650,1,0,0:0:0:0:
341,258,18770,2,0,L|329:164,1,90,2|0,0:0|0:0,0:0:0:0:
209,20,19250,38,0,B|194:85|194:85|236:142,1,135,0|0,0:0|0:0,0:0:0:0:
163,94,19730,2,0,L|73:115,1,90,2|0,0:0|0:0,0:0:0:0:
17,233,20210,2,0,L|107:212,1,90,0|0,0:0|0:0,0:0:0:0:
132,204,20570,1,0,0:0:0:0:
165,196,20690,2,0,B|190:233|190:233|193:281,1,90,2|0,0:0|0:0,0:0:0:0:
364,82,21170,6,0,L|228:74,1,135,0|0,0:0|0:0,0:0:0:0:
240,151,21650,2,0,L|330:157,1,90,2|0,0:0|0:0,0:0:0:0:
477,291,22130,2,0,P|414:293|350:323,1,135,0|0,0:0|1:0,0:0:0:0:
315,246,22610,2,0,L|331:154,1,90,0|8,1:0|0:0,0:0:0:0:
442,6,23090,6,0,L|416:148,1,135,0|0,0:0|0:0,0:0:0:0:
331,157,23570,2,0,L|347:65,1,90,2|0,0:0|0:0,0:0:0:0:
211,129,24050,2,0,P|158:131|114:115,1,90,0|0,0:0|0:0,0:0:0:0:
106,102,24410,1,0,0:0:0:0:
98,78,24530,2,0,L|8:85,1,90,2|0,0:0|0:0,0:0:0:0:
57,197,25010,38,0,P|77:251|32:324,1,135,0|0,0:0|0:0,0:0:0:0:
3,251,25490,2,0,L|99:261,1,90,2|0,0:0|0:0,0:0:0:0:
300,317,25970,2,0,L|204:327,1,90,0|0,0:0|0:0,0:0:0:0:
191,292,26330,1,0,0:0:0:0:
171,258,26450,2,0,L|183:164,1,90,2|0,0:0|0:0,0:0:0:0:
302,20,26930,6,0,B|317:85|317:85|276:142,1,135,0|0,0:0|0:0,0:0:0:0:
349,94,27410,2,0,L|439:115,1,90,2|0,0:0|0:0,0:0:0:0:
495,233,27890,2,0,L|405:212,1,90,0|0,0:0|0:0,0:0:0:0:
380,204,28250,1,0,0:0:0:0:
347,196,28370,2,0,B|322:233|322:233|319:281,1,90,2|0,0:0|0:0,0:0:0:0:
148,82,28850,6,0,L|284:74,1,135,0|0,0:0|0:0,0:0:0:0:
271,151,29330,2,0,L|182:157,1,90,0|0,0:0|0:0,0:0:0:0:
35,291,29810,2,0,P|98:293|162:323,1,135,0|0,0:0|0:0,0:0:0:0:
197,246,30290,2,0,L|181:154,1,90,0|0,0:0|0:0,0:0:0:0:
165,68,30770,38,0,L|181:157,1,90,0|0,0:0|0:0,0:0:0:0:
94,138,31129,2,0,L|70:6,1,135,0|0,0:0|0:0,0:0:0:0:
253,87,31730,6,0,L|268:175,1,85.4999977169037,0|0,0:0|0:0,0:0:0:0:
181,157,32089,2,0,L|156:24,1,128.249996575356,0|0,0:0|0:0,0:0:0:0:
339,101,32690,6,0,L|354:189,1,80.9999975280763,0|0,0:0|0:0,0:0:0:0:
267,171,33049,2,0,L|242:38,1,121.499996292114,0|0,0:0|0:0,0:0:0:0:
424,110,33650,38,0,L|439:198,1,76.5000014591217,0|0,0:0|0:0,0:0:0:0:
352,180,34010,2,0,L|327:47,1,114.750002188683,0|0,0:0|0:0,0:0:0:0:
158,235,34610,6,0,L|145:305,1,72,0|0,0:0|0:0,0:0:0:0:
53,332,34970,2,0,L|72:225,1,108,0|0,0:0|0:0,0:0:0:0:
244,237,35570,6,0,L|231:307,1,67.5000025749208,0|0,0:0|0:0,0:0:0:0:
139,334,35930,2,0,L|158:227,1,101.250003862381,0|0,0:0|0:0,0:0:0:0:
331,232,36530,38,0,L|318:302,1,62.9999980773926,0|0,0:0|0:0,0:0:0:0:
226,329,36889,2,0,L|245:222,1,94.499997116089,0|0,0:0|0:0,0:0:0:0:
416,241,37490,6,0,P|366:292|333:229,1,161.999995056153,0|0,0:0|0:0,0:0:0:0:
382,166,38450,5,0,0:0:0:0:
398,77,38930,1,0,0:0:0:0:
331,15,39410,1,0,0:0:0:0:
243,37,39890,1,0,0:0:0:0:
221,125,40370,38,0,B|327:8|478:47|435:157,1,315
436,155,42290,5,0,0:0:0:0:
428,244,42770,1,0,0:0:0:0:
340,242,43250,1,0,0:0:0:0:
330,329,43730,1,0,0:0:0:0:
240,323,44210,6,0,B|279:350|330:329|330:329|383:304|433:328|433:328|429:263|455:219,1,315
455,218,46130,37,0,0:0:0:0:
473,134,46610,1,0,0:0:0:0:
407,76,47090,1,0,0:0:0:0:
319,82,47570,1,0,0:0:0:0:
261,147,48050,1,0,0:0:0:0:
250,236,48530,1,0,0:0:0:0:
191,301,49010,1,0,0:0:0:0:
103,307,49490,1,0,0:0:0:0:
38,249,49970,6,0,B|83:353|263:324|256:192|256:192|248:59|428:30|473:134,1,630,0|0,0:0|0:0,0:0:0:0:
402,182,53570,2,0,P|366:171|324:168,1,62.9999980773926,0|4,0:0|0:0,0:0:0:0:
475,275,54290,6,0,P|420:266|342:264,2,125.999996154785,0|8|0,0:0|0:0|0:0,0:0:0:0:
388,348,55730,2,0,P|329:339|4:371,1,377.999988464356,8|0,0:0|0:0,0:0:0:0:
76,253,57410,2,0,P|91:287|95:325,1,62.9999980773926,0|8,0:0|0:0,0:0:0:0:
81,129,58130,38,0,P|89:191|75:252,2,125.999996154785,0|8|0,0:0|0:0|0:0,0:0:0:0:
339,235,59570,2,0,B|212:263|212:263|230:200|230:200|175:211|175:211|182:169|178:137|160:88,1,377.999988464356,8|0,0:0|0:0,0:0:0:0:
252,124,61250,2,0,P|245:91|227:42,1,62.9999980773926,0|8,0:0|0:0,0:0:0:0:
362,111,61970,6,0,P|355:143|339:241,2,125.999996154785,0|8|0,0:0|0:0|0:0,0:0:0:0:
438,344,63410,2,0,P|445:312|461:214,2,125.999996154785,8|0|8,0:0|0:0|0:0,0:0:0:0:
256,144,64850,1,0,0:0:0:0:
60,323,65330,2,0,P|249:328|438:344,1,377.999988464356,8|0,0:0|0:0,0:0:0:0:
359,242,67010,6,0,P|359:273|363:313,1,62.9999980773926,0|0,0:0|0:0,0:0:0:0:
359,242,68690,2,0,P|359:273|363:313,1,62.9999980773926,2|0,0:0|0:0,0:0:0:0:
402,149,69170,38,0,P|363:144|307:151,1,90,4|0,0:0|0:0,0:0:0:0:
415,134,69650,2,0,P|376:129|320:136,1,90,0|0,0:0|0:0,0:0:0:0:
428,119,70130,2,0,P|389:114|333:121,1,90,2|0,0:0|0:0,0:0:0:0:
441,104,70610,2,0,P|402:99|346:106,1,90,2|0,0:0|0:0,0:0:0:0:
454,89,71090,6,0,B|413:75|390:76|357:84|357:84|313:100|265:140|250:287|0:236|-17:-61|290:-48|197:89,1,630,8|0,0:0|0:0,0:0:0:0:
149,242,73010,6,0,P|101:221|65:183,1,90,4|0,0:0|0:0,0:0:0:0:
153,259,73490,2,0,P|105:238|69:200,1,90,0|0,0:0|0:0,0:0:0:0:
157,276,73970,2,0,P|109:255|73:217,1,90,2|0,0:0|0:0,0:0:0:0:
161,293,74450,2,0,P|113:272|77:234,1,90,2|0,0:0|0:0,0:0:0:0:
168,312,74930,38,0,B|88:271|110:162|238:149|261:249|261:249|279:324|346:378|466:337|494:279|467:166,1,630,8|0,0:0|0:0,0:0:0:0:
358,59,76850,6,0,L|452:78,1,90,4|0,0:0|0:0,0:0:0:0:
281,135,77330,2,0,L|187:154,1,90,0|0,0:0|0:0,0:0:0:0:
366,78,77810,2,0,L|460:97,1,90,2|0,0:0|0:0,0:0:0:0:
289,154,78290,2,0,L|195:173,1,90,2|0,0:0|0:0,0:0:0:0:
374,97,78770,6,0,B|462:115|462:115|483:203|483:203|394:186|394:186|419:273|419:273|359:337|359:337|269:324|269:324|188:363,1,630,8|0,0:0|0:0,0:0:0:0:
330,247,80690,38,0,B|240:236|240:236|159:278|159:278|82:237|82:237|77:146|77:146|-1:191|-1:191|-9:101|-9:101|67:56,1,630,4|0,0:0|2:0,0:0:0:0:
151,26,82610,6,0,B|161:182|161:182|237:153|237:153|335:166|335:166|448:161|479:69|409:-15|310:16|281:130|400:182|400:182|485:203|485:203|508:277|508:277|447:341|447:341|427:273|427:273|376:340|280:316|265:252,1,1260,8|0,0:0|0:0,0:0:0:0:
265,252,86450,6,0,B|280:316|376:340|427:273|427:273|447:341|447:341|508:277|508:277|485:203|485:203|400:182|400:182|281:130|310:16|409:-15|479:69|448:161|335:166|335:166|237:153|237:153|161:182|161:182|151:27|151:27|64:101|64:101|76:308|76:308|128:270|210:300|210:379,1,1763.99994616699,4|0,0:1|0:0,0:0:0:0:
131,368,93650,1,2,0:0:0:0:
131,368,94130,38,0,P|83:365|37:351,1,90,8|2,0:0|0:0,0:0:0:0:
126,346,94610,2,0,P|78:343|32:329,1,90,0|2,0:0|0:0,0:0:0:0:
214,286,95090,6,0,P|262:283|308:269,1,90,8|2,0:0|0:0,0:0:0:0:
219,264,95570,2,0,P|267:261|313:247,1,90,0|2,0:0|0:0,0:0:0:0:
131,204,96050,6,0,P|83:201|37:187,1,90,8|2,0:0|0:0,0:0:0:0:
126,182,96530,2,0,P|78:179|32:165,1,90,0|2,0:0|0:0,0:0:0:0:
214,122,97010,38,0,P|262:119|308:105,1,90,8|2,0:0|0:0,0:0:0:0:
219,100,97490,2,0,P|267:97|313:83,1,90,0|2,0:0|0:0,0:0:0:0:
142,54,97970,5,2,0:0:0:0:
180,67,98090,1,2,0:0:0:0:
220,67,98210,1,2,0:0:0:0:
259,57,98330,1,2,0:0:0:0:
298,48,98450,1,2,0:0:0:0:
338,46,98570,1,2,0:0:0:0:
375,61,98690,2,0,L|392:105,1,45,2|2,0:0|0:0,0:0:0:0:
477,81,98930,5,2,0:0:0:0:
472,121,99050,1,2,0:0:0:0:
467,161,99170,1,2,0:0:0:0:
462,201,99290,1,2,0:0:0:0:
457,241,99410,1,2,0:0:0:0:
453,281,99530,1,2,0:0:0:0:
449,321,99650,2,0,L|443:372,1,45,2|2,0:0|0:0,0:0:0:0:
356,317,99890,38,0,L|325:322,7,22.5,2|2|2|2|2|2|2|2,0:0|0:0|0:0|0:0|0:0|0:0|0:0|0:0,0:0:0:0:
313,324,100370,2,0,L|282:329,7,22.5,2|2|2|2|2|2|2|2,0:0|0:0|0:0|0:0|0:0|0:0|0:0|0:0,0:0:0:0:
270,331,100850,2,0,L|239:336,7,22.5,2|2|2|2|2|2|2|2,0:0|0:0|0:0|0:0|0:0|0:0|0:0|0:0,0:0:0:0:
227,339,101330,38,0,B|212:297|129:265|74:316|74:316|105:273|96:224,1,270,4|0,0:2|2:0,0:0:0:0:
187,145,101810,38,0,L|185:216,1,67.5000025749208,4|0,0:2|0:0,0:0:0:0:
8,246,102050,2,0,L|10:175,1,67.5000025749208,2|0,0:0|0:0,0:0:0:0:
102,95,102290,2,0,L|97:230,1,135.000005149842,0|2,1:0|0:0,0:0:0:0:
183,279,102650,1,0,0:0:0:0:
183,279,102770,6,0,L|185:208,1,67.5000025749208,0|0,0:0|0:0,0:0:0:0:
362,178,103010,2,0,L|360:249,1,67.5000025749208,2|0,0:0|0:0,0:0:0:0:
272,194,103250,22,0,L|273:126,1,67.5,0|0,1:0|2:0,0:0:0:0:
278,39,103730,6,0,L|207:42,1,67.5000025749208,4|0,0:2|0:0,0:0:0:0:
359,90,103970,2,0,L|430:87,1,67.5000025749208,2|0,0:0|0:0,0:0:0:0:
274,126,104210,2,0,L|139:131,1,135.000005149842,0|2,1:0|0:0,0:0:0:0:
22,217,104570,1,0,0:0:0:0:
22,217,104690,6,0,L|93:214,1,67.5000025749208,0|0,0:0|0:0,0:0:0:0:
222,344,104930,2,0,L|151:347,1,67.5000025749208,2|0,0:0|0:0,0:0:0:0:
10,296,105170,22,0,B|89:293|89:293|162:263|162:263|247:261,1,243.000000926971,4|4,1:2|1:2,0:0:0:0:
325,145,105650,54,0,L|327:216,1,67.5000025749208,4|0,0:2|0:0,0:0:0:0:
504,246,105890,2,0,L|502:175,1,67.5000025749208,2|0,0:0|0:0,0:0:0:0:
410,95,106130,2,0,L|415:230,1,135.000005149842,0|2,1:0|0:0,0:0:0:0:
329,279,106490,1,0,0:0:0:0:
329,279,106610,38,0,L|327:208,1,67.5000025749208,0|0,0:0|0:0,0:0:0:0:
150,178,106850,2,0,L|152:249,1,67.5000025749208,2|0,0:0|0:0,0:0:0:0:
240,194,107090,54,0,L|238:126,1,67.5,0|0,1:0|2:0,0:0:0:0:
234,39,107570,22,0,L|305:42,1,67.5000025749208,4|0,0:2|0:0,0:0:0:0:
153,90,107810,2,0,L|82:87,1,67.5000025749208,2|0,0:0|0:0,0:0:0:0:
238,126,108050,2,0,L|373:131,1,135.000005149842,0|2,1:0|0:0,0:0:0:0:
490,217,108410,1,0,0:0:0:0:
490,217,108530,6,0,L|419:214,1,67.5000025749208,0|0,0:0|0:0,0:0:0:0:
290,344,108770,2,0,L|361:347,1,67.5000025749208,0|0,0:0|0:0,0:0:0:0:
487,297,109010,6,0,B|422:294|422:294|362:269|362:269|293:268,1,198.000006042481,4|4,0:0|0:0,0:0:0:0:
20,75,109490,22,0,L|17:143,1,67.5000025749208,4|0,0:2|0:0,0:0:0:0:
116,98,109730,2,0,L|113:166,1,67.5000025749208,2|0,0:0|0:0,0:0:0:0:
210,52,109970,2,0,L|207:120,1,67.5000025749208,0|0,1:0|0:0,0:0:0:0:
306,75,110210,2,0,L|303:143,1,67.5000025749208,2|0,0:0|0:0,0:0:0:0:
400,31,110450,2,0,L|397:99,1,67.5000025749208
496,54,110690,2,0,L|493:122,1,67.5000025749208,2|0,0:0|0:0,0:0:0:0:
440,192,110930,54,0,L|373:192,1,67.5,0|0,1:0|2:0,0:0:0:0:
493,263,111410,22,0,L|496:331,1,67.5000025749208,4|0,0:2|0:0,0:0:0:0:
397,286,111650,2,0,L|400:354,1,67.5000025749208,2|0,0:0|0:0,0:0:0:0:
303,241,111890,2,0,L|306:309,1,67.5000025749208,0|0,1:0|0:0,0:0:0:0:
207,264,112130,2,0,L|210:332,1,67.5000025749208,2|0,0:0|0:0,0:0:0:0:
113,219,112370,2,0,L|116:287,1,67.5000025749208,0|0,0:0|0:0,0:0:0:0:
17,242,112610,2,0,L|20:310,1,67.5000025749208,2|0,0:0|0:0,0:0:0:0:
43,130,112850,22,0,P|131:116|61:27,1,243.000000926971,4|4,1:2|1:2,0:0:0:0:
235,110,113330,54,0,L|307:104,1,67.5000025749208,4|0,0:2|0:0,0:0:0:0:
437,250,113570,2,0,L|375:212,1,67.5000025749208,2|0,0:0|0:0,0:0:0:0:
355,18,113810,38,0,L|382:84,1,67.5000025749208,0|0,1:0|0:0,0:0:0:0:
284,253,114050,2,0,L|300:182,1,67.5000025749208,2|0,0:0|0:0,0:0:0:0:
479,104,114290,6,0,L|424:151,1,67.5000025749208,0|0,0:0|0:0,0:0:0:0:
235,110,114530,2,0,L|307:104,1,67.5000025749208,2|0,0:0|0:0,0:0:0:0:
160,159,114770,38,0,P|149:116|152:86,1,67.5,0|0,1:0|2:0,0:0:0:0:
242,42,115250,38,0,L|234:114,1,67.5000025749208,4|0,0:2|0:0,0:0:0:0:
53,182,115490,2,0,L|60:117,1,65.250001991272,2|0,0:0|0:0,0:0:0:0:
285,182,115730,2,0,L|269:326,1,125.999996154785,0|2,1:0|0:0,0:0:0:0:
94,350,116210,54,0,L|106:233,1,116.999994644165
132,9,116690,2,0,L|125:62,1,49.5000015106202,4|0,0:0|0:0,0:0:0:0:
34,106,116930,2,0,L|29:149,1,45,4|0,0:0|0:0,0:0:0:0:
16,238,117170,6,0,L|106:234,1,90,4|0,0:1|0:0,0:0:0:0:
288,300,117650,2,0,L|198:304,1,90,2|0,0:0|0:0,0:0:0:0:
342,242,118010,1,0,0:0:0:0:
342,242,118130,38,0,P|362:276|363:328,1,90,0|0,0:0|0:0,0:0:0:0:
266,121,118610,2,0,P|265:76|286:37,1,90,2|0,0:0|0:0,0:0:0:0:
461,162,119090,6,0,L|467:268,1,90,0|0,0:0|0:0,0:0:0:0:
288,300,119570,2,0,L|282:194,1,90,2|2,0:0|0:0,0:0:0:0:
364,326,119930,1,2,0:2:0:0:
364,326,120050,6,0,P|340:360|283:380,1,90,2|0,0:2|0:0,0:0:0:0:
139,240,120530,2,0,P|179:257|205:293,1,90,2|0,0:0|0:0,0:0:0:0:
17,269,121010,38,0,P|11:224|30:184,1,90,0|0,0:0|0:0,0:0:0:0:
215,85,121490,2,0,L|210:184,1,90,2|0,0:0|0:0,0:0:0:0:
149,31,121850,1,0,0:0:0:0:
149,31,121970,6,0,P|176:10|235:1,1,90,0|0,0:0|0:0,0:0:0:0:
412,116,122450,2,0,P|367:110|331:85,1,90,2|0,0:0|0:0,0:0:0:0:
368,230,122930,6,0,L|373:325,1,90,0|0,0:0|0:0,0:0:0:0:
181,309,123410,2,0,L|270:313,1,90,2|0,0:0|0:0,0:0:0:0:
108,348,123770,1,2,0:2:0:0:
108,348,123890,38,0,P|101:299|116:258,1,90,2|0,0:2|0:0,0:0:0:0:
237,133,124370,2,0,P|244:182|229:223,1,90,2|0,0:0|0:0,0:0:0:0:
56,165,124850,6,0,L|145:169,1,90,0|0,0:0|0:0,0:0:0:0:
207,54,125330,2,0,L|118:50,1,90,2|0,0:0|0:0,0:0:0:0:
237,133,125690,1,0,0:0:0:0:
237,133,125810,6,0,L|326:137,1,90,0|0,0:0|0:0,0:0:0:0:
388,22,126290,2,0,L|299:18,1,90,2|0,0:0|0:0,0:0:0:0:
117,50,126770,38,0,L|113:139,1,90,0|0,0:0|0:0,0:0:0:0:
228,201,127250,2,0,L|232:112,1,90,2|0,0:0|0:0,0:0:0:0:
149,231,127610,1,2,0:2:0:0:
149,231,127730,6,0,L|145:320,1,90,2|0,0:2|0:0,0:0:0:0:
260,382,128210,2,0,L|264:293,1,90,2|0,0:0|0:0,0:0:0:0:
37,158,128690,6,0,L|29:347,1,180,0|2,0:0|0:0,0:0:0:0:
264,292,129410,1,0,0:0:0:0:
264,292,129530,1,0,0:0:0:0:
264,292,129650,2,0,L|175:288,1,90,0|0,0:0|0:0,0:0:0:0:
372,262,130130,2,0,L|368:351,1,90,2|0,0:0|0:0,0:0:0:0:
475,226,130610,38,0,L|483:37,1,180,0|2,0:0|0:0,0:0:0:0:
248,92,131330,1,0,0:0:0:0:
248,92,131450,1,2,0:2:0:0:
248,92,131570,2,0,L|337:96,1,90,2|0,0:2|0:0,0:0:0:0:
140,122,132050,2,0,L|144:33,1,90,2|0,0:0|0:0,0:0:0:0:
48,191,132530,6,0,P|53:241|55:293,1,90,4|0,0:1|0:0,0:0:0:0:
308,268,133010,2,0,P|273:264|216:263,1,90,2|0,0:0|0:0,0:0:0:0:
140,296,133370,2,0,B|135:317|135:344|135:345,1,45,0|0,0:0|0:0,0:0:0:0:
378,177,133730,6,0,P|373:127|371:75,1,90,0|2,0:0|0:0,0:0:0:0:
409,330,134210,1,0,0:0:0:0:
464,193,134450,38,0,P|459:143|457:91,1,90,0|0,0:0|0:0,0:0:0:0:
204,116,134930,2,0,P|239:120|296:121,1,90,2|0,0:0|0:0,0:0:0:0:
372,88,135290,2,0,B|376:66|377:40|377:39,1,45,2|2,0:2|0:2,0:0:0:0:
134,207,135650,6,0,P|139:257|141:309,1,90,0|2,0:0|0:0,0:0:0:0:
103,54,136130,1,0,0:0:0:0:
223,250,136370,6,0,P|274:247|316:247,1,90,0|0,0:0|0:0,0:0:0:0:
512,341,136850,2,0,P|461:338|419:338,1,90,2|0,0:0|0:0,0:0:0:0:
391,266,137210,2,0,P|391:232|387:213,1,45,0|0,0:0|0:0,0:0:0:0:
287,44,137570,38,0,P|285:92|289:136,1,90,0|2,0:0|0:0,0:0:0:0:
461,91,138050,1,0,0:0:0:0:
289,134,138290,6,0,P|238:137|196:137,1,90,0|0,0:0|0:0,0:0:0:0:
0,43,138770,2,0,P|51:46|93:46,1,90,2|0,0:0|0:0,0:0:0:0:
121,118,139130,2,0,P|121:152|125:171,1,45,2|2,0:2|0:2,0:0:0:0:
225,340,139490,6,0,P|227:292|223:248,1,90,0|2,0:0|0:0,0:0:0:0:
51,293,139970,1,0,0:0:0:0:
225,340,140210,38,0,P|274:339|321:336,1,90,0|0,0:0|0:0,0:0:0:0:
355,176,140690,2,0,P|352:220|351:265,1,90,2|0,0:0|0:0,0:0:0:0:
403,331,141050,2,0,P|405:354|405:379,1,45,0|0,0:0|0:0,0:0:0:0:
283,133,141410,6,0,P|283:88|286:43,1,90,0|2,0:0|0:0,0:0:0:0:
400,15,141890,1,0,0:0:0:0:
287,44,142130,6,0,P|238:45|191:48,1,90,0|0,0:0|0:0,0:0:0:0:
157,208,142610,2,0,P|159:163|160:118,1,90,2|0,0:0|0:0,0:0:0:0:
109,53,142970,2,0,P|107:30|107:5,1,45,2|2,0:2|0:2,0:0:0:0:
229,251,143330,38,0,P|228:295|225:340,1,90,0|2,0:0|0:0,0:0:0:0:
112,369,143810,1,0,0:0:0:0:
341,309,144050,6,0,P|385:304|437:305,1,90,0|0,0:0|0:0,0:0:0:0:
229,251,144530,2,0,P|184:246|133:247,1,90,2|0,0:0|0:0,0:0:0:0:
60,265,144890,2,0,P|64:289|65:321,1,45,0|0,0:0|0:0,0:0:0:0:
229,251,145250,6,0,P|233:206|233:155,1,90,0|2,0:0|0:0,0:0:0:0:
156,16,145730,1,0,0:0:0:0:
89,146,145970,38,0,P|44:150|-7:150,1,90,0|0,0:0|0:0,0:0:0:0:
156,16,146450,2,0,P|200:11|252:12,1,90,2|0,0:0|0:0,0:0:0:0:
366,221,146930,6,0,P|321:220|276:216,1,90,0|0,1:0|1:0,0:0:0:0:
242,150,147290,1,0,1:0:0:0:
209,86,147410,2,0,P|164:81|119:81,1,90,0|0,1:0|1:0,0:0:0:0:
327,146,147890,6,0,P|434:162|313:84,1,405.000015449525,0|0,0:0|0:0,0:0:0:0:
145,258,149810,38,0,P|145:207|130:116,1,135.000005149842,0|0,0:0|0:0,0:0:0:0:
292,374,150770,2,0,P|292:323|307:232,1,135.000005149842,0|0,0:0|0:0,0:0:0:0:
387,29,151730,6,0,B|367:70|372:118|385:152|385:152|350:128|314:104|314:104|305:125|296:153|296:153|260:157|214:198|222:266,1,405.000015449525,0|0,0:0|0:0,0:0:0:0:
437,261,153650,6,0,P|371:247|303:240,1,135.000005149842,0|0,0:0|0:0,0:0:0:0:
387,29,154610,2,0,P|320:42|253:50,1,135.000005149842,0|0,0:0|0:0,0:0:0:0:
48,184,155570,38,0,P|100:153|179:169,1,135.000005149842,0|2,0:0|0:0,0:0:0:0:
189,279,156530,2,0,P|137:310|58:294,1,135.000005149842,0|2,0:0|0:0,0:0:0:0:
210,246,157490,6,0,P|262:215|341:231,1,135.000005149842,0|2,0:0|0:0,0:0:0:0:
351,341,158450,2,0,P|299:372|220:356,1,135.000005149842,0|2,0:0|0:0,0:0:0:0:
378,154,159410,6,0,P|535:179|405:270,1,405.000015449525,8|2,0:0|0:0,0:0:0:0:
453,199,161090,1,0,0:0:0:0:
429,367,161330,38,0,P|373:367|334:370,1,90,4|0,0:0|0:0,0:0:0:0:
214,303,161810,2,0,P|206:257|209:198,1,90,2|2,0:0|0:0,0:0:0:0:
214,190,162170,1,2,0:0:0:0:
222,168,162290,2,0,P|230:140|232:124,1,45,0|0,0:0|0:0,0:0:0:0:
201,8,162530,2,0,P|193:36|191:52,1,45,0|0,0:0|0:0,0:0:0:0:
309,160,162770,2,0,P|352:153|410:153,1,90,2|2,0:0|0:0,0:0:0:0:
426,160,163130,1,2,0:0:0:0:
452,169,163250,6,0,P|443:216|444:262,1,90,4|0,0:0|0:0,0:0:0:0:
272,358,163730,2,0,P|280:310|280:265,1,90,2|2,0:0|0:0,0:0:0:0:
269,239,164090,1,2,0:0:0:0:
251,220,164210,2,0,P|228:217|205:213,1,45,0|0,0:0|0:0,0:0:0:0:
92,165,164450,2,0,P|115:162|138:158,1,45,0|0,0:0|0:0,0:0:0:0:
200,13,164690,2,0,P|201:57|205:108,1,90,2|2,0:0|0:2,0:0:0:0:
217,126,165050,1,0,0:0:0:0:
238,140,165170,6,0,P|286:136|377:137,1,135,0|0,0:0|0:0,0:0:0:0:
372,136,165890,2,0,P|372:159|375:187,1,45,0|0,0:0|0:0,0:0:0:0:
463,206,166130,2,0,P|461:157|462:107,1,90,0|0,0:0|0:0,0:0:0:0:
331,260,166610,2,0,P|333:309|332:359,1,90,0|0,0:0|0:0,0:0:0:0:
209,231,167090,38,0,P|213:183|212:92,1,135,0|0,0:0|0:0,0:0:0:0:
213,97,167810,2,0,P|189:96|162:94,1,45,0|0,0:0|0:0,0:0:0:0:
143,6,168050,2,0,P|192:8|242:7,1,90,0|0,0:0|0:0,0:0:0:0:
89,138,168530,2,0,P|40:136|-10:137,1,90,0|0,0:0|0:0,0:0:0:0:
213,97,169010,6,0,P|262:95|312:96,1,90,0|0,0:0|0:0,0:0:0:0:
375,128,169370,2,0,P|424:126|474:127,1,90,0|0,0:0|0:0,0:0:0:0:
485,205,169730,2,0,P|486:227|487:251,1,45,0|0,0:0|0:0,0:0:0:0:
397,342,169970,6,0,P|400:297|398:251,1,90,0|0,0:0|0:0,0:0:0:0:
138,166,170450,2,0,P|135:211|137:257,1,90,0|0,0:0|0:0,0:0:0:0:
299,287,170930,38,0,P|250:289|200:288,1,90,0|0,0:0|0:0,0:0:0:0:
137,256,171290,2,0,P|88:258|38:257,1,90,0|0,0:0|0:0,0:0:0:0:
27,179,171650,2,0,P|26:157|25:133,1,45,0|0,0:0|0:0,0:0:0:0:
115,42,171890,2,0,P|112:87|114:133,1,90,0|0,0:0|0:0,0:0:0:0:
374,218,172370,2,0,P|377:173|375:127,1,90,0|0,0:0|0:0,0:0:0:0:
257,37,172850,5,8,0:0:0:0:
235,115,173090,1,2,0:0:0:0:
213,193,173330,1,0,0:0:0:0:
191,271,173570,1,2,0:0:0:0:
157,135,173810,5,8,0:0:0:0:
213,193,174050,1,2,0:0:0:0:
270,251,174290,1,0,0:0:0:0:
326,309,174530,1,2,0:0:0:0:
192,271,174770,37,8,0:0:0:0:
270,251,175010,1,2,0:0:0:0:
349,231,175250,1,0,0:0:0:0:
427,211,175490,1,2,0:0:0:0:
326,308,175730,5,8,0:0:0:0:
349,231,175970,1,2,0:0:0:0:
370,152,176210,1,0,0:0:0:0:
393,75,176450,1,2,0:0:0:0:
426,211,176690,5,2,0:0:0:0:
398,181,176810,1,2,0:0:0:0:
370,152,176930,1,2,0:0:0:0:
342,122,177050,1,2,0:0:0:0:
312,94,177170,1,2,0:0:0:0:
284,64,177290,1,2,0:0:0:0:
257,36,177410,2,0,P|220:20|198:18,1,45,2|2,0:0|0:0,0:0:0:0:
86,106,177650,37,2,0:0:0:0:
128,93,177770,1,2,0:0:0:0:
172,101,177890,1,2,0:0:0:0:
208,127,178010,1,2,0:0:0:0:
229,166,178130,1,2,0:0:0:0:
231,211,178250,1,2,0:0:0:0:
213,251,178370,2,0,L|186:297,1,45,2|2,0:0|0:0,0:0:0:0:
261,331,178610,6,0,L|292:326,7,22.5,2|2|2|2|2|2|2|2,0:0|0:0|0:0|0:0|0:0|0:0|0:0|0:0,0:0:0:0:
304,324,179090,2,0,L|335:319,7,22.5,2|2|2|2|2|2|2|2,0:0|0:0|0:0|0:0|0:0|0:0|0:0|0:0,0:0:0:0:
347,317,179570,2,0,L|378:312,7,22.5,2|2|2|2|2|2|2|2,0:0|0:0|0:0|0:0|0:0|0:0|0:0|0:0,0:0:0:0:
392,309,180050,22,0,B|464:318|492:274|484:191|426:181|384:197|384:197|388:169|388:169|421:160|450:122,1,337.5,4|0,0:2|2:0,0:0:0:0:
360,65,180530,22,0,L|281:63,1,76.5000014591217,4|0,0:2|0:0,0:0:0:0:
88,10,180770,2,0,L|164:11,1,76.5000014591217,2|0,0:0|0:0,0:0:0:0:
198,95,181010,2,0,L|45:91,1,153.000002918243,0|2,1:0|0:0,0:0:0:0:
80,173,181370,1,0,0:0:0:0:
80,173,181490,6,0,L|156:174,1,76.5000014591217,0|0,0:0|0:0,0:0:0:0:
313,221,181730,2,0,L|236:219,1,76.5000014591217,2|0,0:0|0:0,0:0:0:0:
112,321,181970,38,0,P|110:287|114:254,1,67.5,0|0,1:0|2:0,0:0:0:0:
314,144,182450,38,0,L|312:223,1,76.5000014591217,4|0,0:2|0:0,0:0:0:0:
232,375,182690,2,0,L|234:296,1,76.5000014591217,2|0,0:0|0:0,0:0:0:0:
416,217,182930,2,0,L|412:370,1,153.000002918243,0|2,1:0|0:0,0:0:0:0:
505,329,183290,1,0,0:0:0:0:
505,329,183410,38,0,L|507:250,1,76.5000014591217,0|0,0:0|0:0,0:0:0:0:
418,140,183650,2,0,L|416:219,1,76.5000014591217,2|0,0:0|0:0,0:0:0:0:
283,321,183890,38,0,B|275:257|321:205|321:205|368:255|360:319,1,251.999992309571,4|4,1:2|1:2,0:0:0:0:
360,319,184370,22,0,L|281:321,1,76.5000014591217,4|0,0:2|0:0,0:0:0:0:
88,374,184610,2,0,L|164:373,1,76.5000014591217,2|0,0:0|0:0,0:0:0:0:
198,289,184850,2,0,L|45:293,1,153.000002918243,0|2,1:0|0:0,0:0:0:0:
80,211,185210,1,0,0:0:0:0:
80,211,185330,6,0,L|156:210,1,76.5000014591217,0|0,0:0|0:0,0:0:0:0:
313,163,185570,2,0,L|236:165,1,76.5000014591217,2|0,0:0|0:0,0:0:0:0:
112,63,185810,38,0,P|110:97|114:130,1,67.5,0|0,1:0|2:0,0:0:0:0:
314,240,186290,38,0,L|312:161,1,76.5000014591217,4|0,0:2|0:0,0:0:0:0:
232,9,186530,2,0,L|234:88,1,76.5000014591217,2|0,0:0|0:0,0:0:0:0:
416,167,186770,2,0,L|412:14,1,153.000002918243,0|2,1:0|0:0,0:0:0:0:
505,55,187130,1,0,0:0:0:0:
505,55,187250,38,0,L|507:134,1,76.5000014591217,0|0,0:0|0:0,0:0:0:0:
418,244,187490,2,0,L|416:165,1,76.5000014591217,2|0,0:0|0:0,0:0:0:0:
322,60,187730,38,0,B|305:106|305:106|323:166,1,99.0000030212403,4|0,0:0|0:0,0:0:0:0:
277,240,187970,2,0,B|294:286|294:286|276:346,1,99.0000030212403,4|0,0:0|0:0,0:0:0:0:
118,292,188210,38,0,L|194:290,1,76.5000014591217,4|0,0:2|0:0,0:0:0:0:
320,154,188450,2,0,L|243:155,1,76.5000014591217,2|0,0:0|0:0,0:0:0:0:
41,206,188690,6,0,L|117:204,1,76.5000014591217,0|0,1:0|0:0,0:0:0:0:
243,68,188930,2,0,L|166:69,1,76.5000014591217,2|0,0:0|0:0,0:0:0:0:
118,292,189170,38,0,L|270:287,1,153.000002918243,0|2,0:0|0:0,0:0:0:0:
357,247,189530,1,0,0:0:0:0:
357,247,189650,54,0,P|365:281|360:314,1,67.5,0|0,1:0|2:0,0:0:0:0:
270,287,190130,22,0,L|268:210,1,76.5000014591217,4|0,0:2|0:0,0:0:0:0:
132,85,190370,2,0,L|133:161,1,76.5000014591217,2|0,0:0|0:0,0:0:0:0:
184,364,190610,6,0,L|182:287,1,76.5000014591217,0|0,1:0|0:0,0:0:0:0:
46,162,190850,2,0,L|47:238,1,76.5000014591217,2|0,0:0|0:0,0:0:0:0:
270,287,191090,38,0,L|265:134,1,153.000002918243,0|2,0:0|0:0,0:0:0:0:
262,30,191450,1,0,0:0:0:0:
262,30,191570,38,0,B|349:79|349:79|353:231,1,251.999992309571,4|4,1:2|1:2,0:0:0:0:
353,231,192050,38,0,L|276:229,1,76.5000014591217,4|0,0:2|0:0,0:0:0:0:
151,93,192290,2,0,L|227:94,1,76.5000014591217,2|0,0:0|0:0,0:0:0:0:
430,145,192530,6,0,L|353:143,1,76.5000014591217,0|0,1:0|0:0,0:0:0:0:
228,7,192770,2,0,L|304:8,1,76.5000014591217,2|0,0:0|0:0,0:0:0:0:
353,231,193010,38,0,L|200:226,1,153.000002918243,0|2,0:0|0:0,0:0:0:0:
114,186,193370,1,0,0:0:0:0:
114,186,193490,54,0,P|106:220|111:253,1,67.5,0|0,1:0|2:0,0:0:0:0:
200,226,193970,22,0,L|202:149,1,76.5000014591217,4|0,0:2|0:0,0:0:0:0:
338,24,194210,2,0,L|337:100,1,76.5000014591217,2|0,0:0|0:0,0:0:0:0:
286,303,194450,6,0,L|288:226,1,76.5000014591217,0|0,1:0|0:0,0:0:0:0:
424,101,194690,2,0,L|423:177,1,76.5000014591217,2|0,0:0|0:0,0:0:0:0:
200,226,194930,38,0,L|205:73,1,153.000002918243,0|2,0:0|0:0,0:0:0:0:
423,326,195410,1,4,0:0:0:0:
423,326,195530,1,8,0:0:0:0:
423,326,195650,1,4,0:0:0:0:
205,73,195890,6,0,L|113:68,1,80.9999975280763,4|0,0:2|0:0,0:0:0:0:
17,161,196130,2,0,L|109:156,1,80.9999975280763,2|0,0:0|0:0,0:0:0:0:
216,82,196370,6,0,L|124:77,1,80.9999975280763,0|0,1:0|0:0,0:0:0:0:
28,170,196610,2,0,L|120:165,1,80.9999975280763,2|0,0:0|0:0,0:0:0:0:
227,91,196850,38,0,L|135:86,1,80.9999975280763,0|0,0:0|0:0,0:0:0:0:
39,179,197090,2,0,L|131:174,1,80.9999975280763,2|0,0:0|0:0,0:0:0:0:
273,222,197330,6,0,B|193:218|193:218|119:269,1,161.999995056153,0|2,1:0|0:0,0:0:0:0:
125,264,197810,6,0,L|217:259,1,80.9999975280763,0|0,0:0|0:0,0:0:0:0:
313,352,198050,2,0,L|221:347,1,80.9999975280763,2|0,0:0|0:0,0:0:0:0:
199,241,198290,38,0,L|291:236,1,80.9999975280763,0|0,1:0|0:0,0:0:0:0:
387,329,198530,2,0,L|295:324,1,80.9999975280763,2|0,0:0|0:0,0:0:0:0:
273,222,198770,6,0,L|365:217,1,80.9999975280763,0|0,0:0|0:0,0:0:0:0:
461,310,199010,2,0,L|369:305,1,80.9999975280763,2|0,0:0|0:0,0:0:0:0:
321,137,199250,6,0,B|401:146|401:146|476:106,1,161.999995056153,0|2,1:0|0:0,0:0:0:0:
472,107,199730,38,0,L|462:195,1,80.9999975280763,4|0,0:2|0:0,0:0:0:0:
380,305,199970,2,0,L|369:217,1,80.9999975280763,2|0,0:0|0:0,0:0:0:0:
459,99,200210,6,0,L|448:186,1,80.9999975280763,0|0,1:0|0:0,0:0:0:0:
366,296,200450,2,0,L|355:208,1,80.9999975280763,2|0,0:0|0:0,0:0:0:0:
445,90,200690,6,0,L|434:177,1,80.9999975280763,0|0,0:0|0:0,0:0:0:0:
352,287,200930,2,0,L|341:199,1,80.9999975280763,2|0,0:0|0:0,0:0:0:0:
366,17,201170,38,0,B|354:97|354:97|274:62,1,161.999995056153,0|2,1:0|0:0,0:0:0:0:
279,64,201650,6,0,L|196:78,1,80.9999975280763,0|0,0:0|0:0,0:0:0:0:
43,111,201890,2,0,L|126:125,1,80.9999975280763,2|0,0:0|0:0,0:0:0:0:
277,148,202130,6,0,L|194:162,1,80.9999975280763,0|0,1:0|0:0,0:0:0:0:
41,195,202370,2,0,L|124:209,1,80.9999975280763,2|0,0:0|0:0,0:0:0:0:
275,232,202610,38,0,L|192:246,1,80.9999975280763,0|0,0:0|0:0,0:0:0:0:
39,279,202850,2,0,L|122:293,1,80.9999975280763,2|0,0:0|0:0,0:0:0:0:
275,232,203090,6,0,L|307:73,1,161.999995056153,0|6,1:0|0:0,0:0:0:0:
307,73,203570,6,0,L|399:68,1,80.9999975280763,4|0,0:2|0:0,0:0:0:0:
495,161,203810,2,0,L|403:156,1,80.9999975280763,2|0,0:0|0:0,0:0:0:0:
296,82,204050,38,0,L|388:77,1,80.9999975280763,0|0,1:0|0:0,0:0:0:0:
484,170,204290,2,0,L|392:165,1,80.9999975280763,2|0,0:0|0:0,0:0:0:0:
285,91,204530,6,0,L|377:86,1,80.9999975280763,0|0,0:0|0:0,0:0:0:0:
473,179,204770,2,0,L|381:174,1,80.9999975280763,2|0,0:0|0:0,0:0:0:0:
239,222,205010,6,0,B|319:218|319:218|393:269,1,161.999995056153,0|2,1:0|0:0,0:0:0:0:
387,264,205490,38,0,L|295:259,1,80.9999975280763,0|0,0:0|0:0,0:0:0:0:
199,352,205730,2,0,L|291:347,1,80.9999975280763,2|0,0:0|0:0,0:0:0:0:
313,241,205970,6,0,L|221:236,1,80.9999975280763,0|0,1:0|0:0,0:0:0:0:
125,329,206210,2,0,L|217:324,1,80.9999975280763,2|0,0:0|0:0,0:0:0:0:
239,222,206450,6,0,L|147:217,1,80.9999975280763,0|0,0:0|0:0,0:0:0:0:
51,310,206690,2,0,L|143:305,1,80.9999975280763,2|0,0:0|0:0,0:0:0:0:
191,137,206930,38,0,B|111:146|111:146|36:106,1,161.999995056153,0|2,1:0|0:0,0:0:0:0:
39,107,207410,6,0,L|50:195,1,80.9999975280763,4|0,0:2|0:0,0:0:0:0:
132,305,207650,2,0,L|142:217,1,80.9999975280763,2|0,0:0|0:0,0:0:0:0:
53,99,207890,6,0,L|63:186,1,80.9999975280763,0|0,1:0|0:0,0:0:0:0:
146,296,208130,2,0,L|156:208,1,80.9999975280763,2|0,0:0|0:0,0:0:0:0:
67,90,208370,38,0,L|77:177,1,80.9999975280763,0|0,0:0|0:0,0:0:0:0:
160,287,208610,2,0,L|170:199,1,80.9999975280763,2|0,0:0|0:0,0:0:0:0:
146,17,208850,6,0,B|158:97|158:97|238:62,1,161.999995056153,0|2,1:0|0:0,0:0:0:0:
232,64,209330,5,8,0:0:0:0:
269,68,209450,1,8,0:0:0:0:
306,72,209570,1,8,0:0:0:0:
343,76,209690,1,8,0:0:0:0:
380,80,209810,1,8,0:0:0:0:
417,85,209930,1,8,0:0:0:0:
454,90,210050,2,0,L|518:98,1,62.9999980773926,8|0,0:0|0:0,0:0:0:0:
498,206,210290,37,8,0:0:0:0:
459,182,210410,1,8,0:0:0:0:
415,178,210530,1,8,0:0:0:0:
373,195,210650,1,8,0:0:0:0:
343,228,210770,1,2,0:0:0:0:
331,270,210890,1,2,0:0:0:0:
339,314,211010,2,0,P|355:341|379:366,1,62.9999980773926,8|0,0:0|0:0,0:0:0:0:
343,228,211250,6,0,L|247:224,1,90,0|2,0:0|0:2,0:0:0:0:
253,224,211730,2,0,L|157:220,1,90,0|2,0:0|0:2,0:0:0:0:
163,220,212210,2,0,B|125:217|125:217|101:202|101:202|81:216,1,90,0|2,0:0|0:2,0:0:0:0:
82,215,212690,6,0,P|18:223|76:191,1,180,0|4,0:0|0:2,0:0:0:0:
161,86,220850,22,0,B|63:17|-76:129|-34:351|219:356|219:191,1,540,0|0,0:0|0:0,0:0:0:0:
294,25,222770,54,0,B|332:105|318:206|318:206|312:116|385:76|487:107|492:254|379:297|305:195,1,540,0|0,0:0|0:0,0:0:0:0:
68,45,224690,6,0,B|64:80|59:132|46:202|46:202|79:103|106:96|150:84|190:90,1,360,0|0,0:0|0:0,0:0:0:0:
178,177,226610,54,0,B|214:183|240:163|240:163|228:222|200:284|246:337|296:278,1,270,0|0,0:0|2:0,0:0:0:0:
262,74,227570,1,0,0:0:0:0:
368,332,228530,6,0,B|398:165|398:165|464:169|493:184|492:262|453:269|413:263,1,360,0|0,0:0|0:0,0:0:0:0:
45,269,230450,6,0,B|156:275|122:263|196:342,1,180,0|0,0:0|0:0,0:0:0:0:
453,118,231410,6,0,B|368:113|394:122|338:62,1,135,4|2,0:0|0:0,0:0:0:0:
320,43,231890,2,0,L|309:141,1,90,2|2,0:0|0:0,0:0:0:0:
112,20,232370,5,4,0:0:0:0:
127,99,232850,1,2,0:0:0:0:
142,178,233330,1,0,0:0:0:0:
157,257,233810,2,0,L|174:345,1,90,2|0,0:0|0:0,0:0:0:0:
291,384,234290,38,0,P|292:332|318:200,1,180,0|2,0:0|0:0,0:0:0:0:
460,225,235250,2,0,P|459:173|433:41,1,180,0|2,0:0|0:0,0:0:0:0:
112,20,236210,5,4,0:0:0:0:
127,99,236690,1,2,0:0:0:0:
142,178,237170,1,0,0:0:0:0:
157,257,237650,2,0,L|174:345,1,90,2|0,0:0|0:0,0:0:0:0:
289,290,238130,6,0,P|370:253|459:241,1,180,4|2,0:0|0:0,0:0:0:0:
127,99,239090,2,0,P|208:135|297:147,1,180,0|2,0:0|0:0,0:0:0:0:
112,20,240050,37,4,0:0:0:0:
127,99,240290,1,4,0:0:0:0:
142,178,240530,1,0,1:0:0:0:
142,178,241010,1,0,0:0:0:0:
157,257,241250,2,0,L|174:345,2,90,4|0|0,0:0|1:0|0:0,0:0:0:0:
254,192,241970,6,0,P|289:182|347:179,1,90,4|4,0:0|0:0,0:0:0:0:
500,304,242450,2,0,P|465:314|407:317,1,90,0|0,1:0|0:0,0:0:0:0:
433,125,242930,2,0,P|443:160|446:218,1,90,0|4,0:0|0:0,0:0:0:0:
321,371,243410,2,0,P|311:336|308:278,1,90,0|0,1:0|0:0,0:0:0:0:
369,24,243890,5,4,0:0:0:0:
279,36,244130,1,4,0:0:0:0:
189,48,244370,1,4,0:0:0:0:
99,60,244610,1,4,0:0:0:0:
242,118,244850,37,4,0:0:0:0:
332,130,245090,1,4,0:0:0:0:
422,142,245330,1,4,0:0:0:0:
512,154,245570,1,4,0:0:0:0:
366,222,245810,6,0,L|361:269,1,45,2|2,0:0|0:0,0:0:0:0:
276,234,246050,2,0,L|271:281,1,45,2|2,0:0|0:0,0:0:0:0:
186,246,246290,2,0,L|181:293,1,45,2|2,0:0|0:0,0:0:0:0:
96,258,246530,2,0,L|91:305,1,45,2|2,0:0|0:0,0:0:0:0:
6,270,246770,6,0,L|1:317,3,45,4|4|4|4,0:0|0:0|0:0|0:0,0:0:0:0:
96,258,247250,6,0,B|64:49|64:49|144:101|144:101|243:90,1,405.000015449525,4|0,0:2|2:0,0:0:0:0:
313,33,247730,22,0,L|401:39,1,80.9999975280763,4|0,0:2|0:0,0:0:0:0:
511,126,247970,2,0,L|423:120,1,80.9999975280763,2|0,0:0|0:0,0:0:0:0:
232,171,248210,2,0,B|313:157|313:157|386:196,1,161.999995056153,0|2,1:0|0:0,0:0:0:0:
495,259,248570,1,0,0:0:0:0:
495,259,248690,6,0,L|487:342,1,80.9999975280763,0|0,0:0|0:0,0:0:0:0:
375,275,248930,2,0,L|383:192,1,80.9999975280763,2|0,0:0|0:0,0:0:0:0:
266,296,249170,38,0,L|259:368,1,67.5,0|0,1:0|2:0,0:0:0:0:
156,308,249650,38,0,L|164:225,1,80.9999975280763,4|0,0:2|0:0,0:0:0:0:
41,53,249890,2,0,L|33:136,1,80.9999975280763,2|0,0:0|0:0,0:0:0:0:
2,222,250130,2,0,L|164:228,1,161.999995056153,0|2,1:0|0:0,0:0:0:0:
247,191,250490,1,0,0:0:0:0:
167,149,250610,38,0,P|159:203|165:231,1,80.9999975280763,0|0,0:0|0:0,0:0:0:0:
288,116,250850,2,0,P|291:61|285:36,1,80.9999975280763,2|0,0:0|0:0,0:0:0:0:
118,38,251090,38,0,B|92:112|166:150|166:150|231:102|199:33,1,270.000010299683,4|4,1:2|1:2,0:0:0:0:
199,33,251570,38,0,L|111:39,1,80.9999975280763,4|0,0:2|0:0,0:0:0:0:
1,126,251810,2,0,L|89:120,1,80.9999975280763,2|0,0:0|0:0,0:0:0:0:
280,171,252050,2,0,B|199:157|199:157|126:196,1,161.999995056153,0|2,1:0|0:0,0:0:0:0:
17,259,252410,1,0,0:0:0:0:
17,259,252530,6,0,L|25:342,1,80.9999975280763,0|0,0:0|0:0,0:0:0:0:
137,275,252770,2,0,L|129:192,1,80.9999975280763,2|0,0:0|0:0,0:0:0:0:
246,296,253010,22,0,L|253:368,1,67.5,0|0,1:0|2:0,0:0:0:0:
356,308,253490,6,0,L|348:225,1,80.9999975280763,4|0,0:2|0:0,0:0:0:0:
471,53,253730,2,0,L|479:136,1,80.9999975280763,2|0,0:0|0:0,0:0:0:0:
510,222,253970,2,0,L|348:228,1,161.999995056153,0|2,1:0|0:0,0:0:0:0:
265,191,254330,1,0,0:0:0:0:
345,149,254450,6,0,P|353:203|347:231,1,80.9999975280763,0|0,0:0|0:0,0:0:0:0:
224,116,254690,2,0,P|221:61|227:36,1,80.9999975280763,2|0,0:0|0:0,0:0:0:0:
265,191,254930,22,0,B|213:198|213:198|163:175,1,103.500001974106,4|0,0:0|0:0,0:0:0:0:
21,116,255170,2,0,B|68:95|68:95|120:102,1,103.500001974106,4|0,0:0|0:0,0:0:0:0:
156,281,255410,54,0,L|151:361,1,80.9999975280763,4|0,0:2|0:0,0:0:0:0:
74,262,255650,2,0,L|78:181,1,80.9999975280763,2|0,0:0|0:0,0:0:0:0:
177,15,255890,2,0,L|166:176,1,161.999995056153,0|2,1:0|0:0,0:0:0:0:
237,301,256250,1,0,0:0:0:0:
237,301,256370,54,0,L|317:296,1,80.9999975280763,0|0,0:0|0:0,0:0:0:0:
475,219,256610,2,0,L|394:223,1,80.9999975280763,2|0,0:0|0:0,0:0:0:0:
383,61,256850,38,0,P|416:58|444:68,1,45,0|0,1:0|2:0,0:0:0:0:
475,219,257330,6,0,L|480:299,1,80.9999975280763,4|0,0:2|0:0,0:0:0:0:
317,295,257570,2,0,L|313:214,1,80.9999975280763,2|0,0:0|0:0,0:0:0:0:
383,61,257810,2,0,L|394:222,1,161.999995056153,0|2,1:0|0:0,0:0:0:0:
245,359,258170,1,0,0:0:0:0:
245,359,258290,6,0,L|165:354,1,80.9999975280763,0|0,0:0|0:0,0:0:0:0:
7,277,258530,2,0,L|88:281,1,80.9999975280763,2|0,0:0|0:0,0:0:0:0:
232,206,258770,22,0,B|260:140|198:87|198:87|133:132|152:204,1,270.000010299683,4|4,1:2|1:2,0:0:0:0:
152,203,259250,54,0,L|233:207,1,80.9999975280763,4|0,0:2|0:0,0:0:0:0:
383,61,259490,2,0,L|302:57,1,80.9999975280763,2|0,0:0|0:0,0:0:0:0:
104,122,259730,2,0,L|266:130,1,161.999995056153,0|2,1:0|0:0,0:0:0:0:
321,204,260090,1,0,0:0:0:0:
321,204,260210,38,0,P|335:240|329:289,1,80.9999975280763,0|0,0:0|0:0,0:0:0:0:
240,384,260450,2,0,P|226:348|232:299,1,80.9999975280763,2|0,0:0|0:0,0:0:0:0:
434,259,260690,5,0,1:0:0:0:
434,259,260930,1,0,1:0:0:0:
434,259,261170,6,0,L|442:342,1,80.9999975280763,4|0,0:2|0:0,0:0:0:0:
339,363,261410,2,0,L|331:282,1,80.9999975280763,2|0,0:0|0:0,0:0:0:0:
221,225,261650,2,0,L|229:308,1,80.9999975280763,0|0,1:0|0:0,0:0:0:0:
126,329,261890,2,0,L|118:248,1,80.9999975280763,2|0,0:0|0:0,0:0:0:0:
43,131,262130,38,0,B|117:161|117:161|200:148,1,161.999995056153,0|2,0:0|0:0,0:0:0:0:
256,76,262490,1,0,0:0:0:0:
313,148,262610,2,0,B|395:161|395:161|469:131,1,161.999995056153,4|6,0:0|0:0,0:0:0:0:
468,131,263090,6,0,L|378:119,1,90,4|0,0:2|0:0,0:0:0:0:
210,226,263330,2,0,L|300:238,1,90,2|0,0:0|0:0,0:0:0:0:
309,68,263570,2,0,P|292:107|301:156,1,90,0|0,1:0|0:0,0:0:0:0:
370,288,263810,2,0,P|387:249|378:200,1,90,2|0,0:0|0:0,0:0:0:0:
309,68,264050,6,0,L|129:92,1,180,0|2,0:0|0:0,0:0:0:0:
57,39,264410,1,0,0:0:0:0:
57,39,264530,38,0,P|41:88|56:141,1,90,0|0,1:0|0:0,0:0:0:0:
115,262,264770,2,0,P|131:213|116:160,1,90,2|0,0:0|0:0,0:0:0:0:
18,289,265010,6,0,P|92:287|183:343,1,180,0|2,0:0|0:0,0:0:0:0:
256,290,265370,1,0,0:0:0:0:
331,340,265490,2,0,P|405:290|494:289,1,180,0|2,1:0|0:0,0:0:0:0:
494,95,265970,6,0,P|420:97|329:41,1,180,0|2,0:0|0:0,0:0:0:0:
256,94,266330,1,0,0:0:0:0:
180,43,266450,2,0,P|106:93|18:95,1,180,0|2,1:0|0:0,0:0:0:0:
44,253,266930,38,0,L|134:265,1,90,4|0,0:2|0:0,0:0:0:0:
302,158,267170,2,0,L|212:146,1,90,2|0,0:0|0:0,0:0:0:0:
203,316,267410,2,0,P|220:277|211:228,1,90,0|0,1:0|0:0,0:0:0:0:
142,96,267650,2,0,P|125:135|134:184,1,90,2|0,0:0|0:0,0:0:0:0:
203,316,267890,6,0,L|383:292,1,180,0|2,0:0|0:0,0:0:0:0:
464,259,268250,1,0,0:0:0:0:
464,259,268370,6,0,P|470:303|455:345,1,90,0|0,1:0|0:0,0:0:0:0:
387,207,268610,2,0,P|381:163|397:122,1,90,2|0,0:0|0:0,0:0:0:0:
494,95,268850,38,0,P|420:97|329:41,1,180,0|2,0:0|0:0,0:0:0:0:
222,130,269210,1,0,0:0:0:0:
222,130,269330,54,0,P|255:127|289:129,1,67.5,0|0,1:0|2:0,0:0:0:0:
180,43,269810,22,0,P|106:93|18:95,1,180,0|2,0:0|0:0,0:0:0:0:
125,177,270170,1,0,0:0:0:0:
125,177,270290,22,0,P|144:219|137:281,1,107.999996704102,0|0,1:0|0:0,0:0:0:0:
12,297,270530,2,0,P|-7:255|0:193,1,107.999996704102,6|0,0:0|0:0,0:0:0:0:
232,258,270770,54,0,L|221:352,1,90,4|0,0:2|0:0,0:0:0:0:
70,237,271010,2,0,L|81:143,1,90,2|0,0:0|0:0,0:0:0:0:
252,79,271250,2,0,L|231:257,1,180,0|2,1:0|0:0,0:0:0:0:
317,322,271610,1,0,0:0:0:0:
317,322,271730,38,0,P|362:334|411:327,1,90,0|0,0:0|0:0,0:0:0:0:
412,211,271970,2,0,P|367:199|318:206,1,90,2|0,0:0|0:0,0:0:0:0:
185,255,272210,54,0,L|230:256,1,45,0|0,1:0|0:0,0:0:0:0:
230,256,272690,6,0,L|132:253,1,90,0|0,0:0|0:0,0:0:0:0:
18,143,272930,2,0,L|107:146,1,90,2|0,0:0|0:0,0:0:0:0:
140,253,273170,2,0,B|120:201|120:201|161:80,1,180,0|2,1:0|0:0,0:0:0:0:
269,23,273530,1,0,0:0:0:0:
269,23,273650,6,0,L|241:117,1,90,0|0,0:0|0:0,0:0:0:0:
409,174,273890,2,0,L|341:102,1,90,2|0,0:0|0:0,0:0:0:0:
208,219,274130,22,0,B|294:198|294:198|367:278|367:278|457:252,1,288,4|4,1:2|1:2,0:0:0:0:
454,252,274610,54,0,L|445:343,1,90,4|0,0:2|0:0,0:0:0:0:
264,384,274850,2,0,L|273:293,1,90,2|0,0:0|0:0,0:0:0:0:
378,145,275090,2,0,L|358:325,1,180,0|2,1:0|0:0,0:0:0:0:
273,294,275450,1,0,0:0:0:0:
273,294,275570,38,0,B|230:277|230:277|178:277,1,90,0|0,0:0|0:0,0:0:0:0:
28,342,275810,2,0,B|71:359|71:359|123:359,1,90,2|0,0:0|0:0,0:0:0:0:
102,195,276050,54,0,L|93:241,1,45,0|2,1:0|0:0,0:0:0:0:
93,239,276530,38,0,L|110:150,1,90,8|0,0:0|0:0,0:0:0:0:
189,203,276770,2,0,L|171:291,1,90,2|0,0:0|0:0,0:0:0:0:
38,88,277010,2,0,B|123:58|123:58|203:106,1,180,0|2,1:0|0:0,0:0:0:0:
279,166,277370,1,0,0:0:0:0:
279,166,277490,38,0,B|364:196|364:196|441:149,1,180,0|2,0:0|0:0,0:0:0:0:
428,42,277850,1,0,0:0:0:0:
428,42,277970,2,0,B|343:12|343:12|265:58,1,180,0|0,1:0|1:0,0:0:0:0:
65,194,278450,5,0,0:0:0:0:
100,200,278570,1,0,0:0:0:0:
135,206,278690,1,0,0:0:0:0:
170,213,278810,1,0,0:0:0:0:
205,219,278930,1,0,0:0:0:0:
240,226,279050,1,0,0:0:0:0:
275,233,279170,1,0,0:0:0:0:
310,240,279290,1,0,0:0:0:0:
345,247,279410,6,0,L|401:258,1,45,0|0,0:0|0:0,0:0:0:0:
464,274,279650,2,0,L|520:285,2,45,0|0|4,0:0|0:0|0:2,0:0:0:0:
442,141,280370,38,0,P|394:121|318:150,1,135,4|0,0:1|0:0,0:0:0:0:
300,61,280850,2,0,L|207:57,1,90,2|0,0:0|0:0,0:0:0:0:
319,148,281330,6,0,L|180:140,1,135,0|0,0:0|0:0,0:0:0:0:
118,193,281810,2,0,P|98:150|110:95,1,90,2|0,0:0|0:0,0:0:0:0:
36,227,282290,6,0,P|12:163|23:89,1,135,0|0,0:0|0:0,0:0:0:0:
76,32,282770,2,0,L|176:29,1,90,2|0,0:0|0:0,0:0:0:0:
102,108,283250,38,0,L|239:104,1,135,0|0,0:0|0:0,0:0:0:0:
300,54,283730,2,0,P|317:91|311:142,1,90,2|0,0:0|0:0,0:0:0:0:
195,317,284210,6,0,P|169:275|196:185,1,135,0|0,0:0|0:0,0:0:0:0:
253,250,284690,2,0,L|348:260,1,90,2|0,0:0|0:0,0:0:0:0:
273,337,285170,6,0,L|416:352,1,135,0|0,0:0|0:0,0:0:0:0:
475,307,285650,2,0,B|497:265|497:265|490:223,1,90,2|0,0:0|0:0,0:0:0:0:
434,68,286130,38,0,B|399:124|399:124|405:197,1,135,0|0,0:0|0:0,0:0:0:0:
342,259,286610,2,0,L|245:253,1,90,2|0,0:0|0:0,0:0:0:0:
318,175,287090,6,0,L|171:166,1,135,0|0,0:0|0:0,0:0:0:0:
104,198,287570,2,0,P|100:164|122:111,1,90,2|0,0:0|0:0,0:0:0:0:
161,305,288050,6,0,L|165:261,3,45,0|0|0|0,0:0|0:0|0:0|0:0,0:0:0:0:
248,297,288530,2,0,L|252:253,3,45,2|0|0|0,0:0|0:0|0:0|0:0,0:0:0:0:
335,289,289010,2,0,L|339:245,3,45,0|0|0|0,0:0|0:0|0:0|0:0,0:0:0:0:
422,281,289490,2,0,L|426:237,3,45,2|0|0|0,0:0|0:0|0:0|0:0,0:0:0:0:
347,123,289970,38,0,L|352:61,3,45,0|0|0|0,0:0|0:0|0:0|0:0,0:0:0:0:
260,131,290450,2,0,L|265:69,3,45,2|0|0|0,0:0|0:0|0:0|0:0,0:0:0:0:
173,139,290930,2,0,L|178:77,3,45,0|0|0|0,0:0|0:0|0:0|0:0,0:0:0:0:
86,147,291410,2,0,L|91:85,3,45,2|0|0|0,0:0|0:0|0:0|0:0,0:0:0:0:
21,248,291890,6,0,L|83:243,3,45,0|0|0|0,0:0|0:0|0:0|0:0,0:0:0:0:
149,281,292370,2,0,L|211:276,3,45,2|0|0|0,0:0|0:0|0:0|0:0,0:0:0:0:
277,314,292850,2,0,L|339:309,3,45,0|0|0|0,0:0|0:0|0:0|0:0,0:0:0:0:
405,347,293330,2,0,L|467:342,3,45,2|0|0|0,0:0|0:0|0:0|0:0,0:0:0:0:
193,277,293810,6,0,L|131:282,3,45,0|0|0|0,0:0|0:0|0:0|0:0,0:0:0:0:
386,168,294290,2,0,L|448:163,3,45,2|0|0|0,0:0|0:0|0:0|0:0,0:0:0:0:
187,73,294770,2,0,P|245:71|320:118,1,135,4|0,3:1|0:0,0:0:0:0:
386,168,295250,2,0,P|398:122|396:69,1,90,0|0,1:0|1:0,0:0:0:0:
442,243,295730,38,0,P|394:263|318:234,1,135,4|0,3:1|0:0,0:0:0:0:
274,170,296210,2,0,L|181:174,1,90,2|0,0:0|0:0,0:0:0:0:
334,89,296690,6,0,L|195:97,1,135,0|0,0:0|0:0,0:0:0:0:
122,120,297170,2,0,P|102:163|114:218,1,90,2|0,0:0|0:0,0:0:0:0:
43,90,297650,6,0,P|19:154|30:228,1,135,0|0,0:0|0:0,0:0:0:0:
83,281,298130,2,0,L|183:284,1,90,2|0,0:0|0:0,0:0:0:0:
24,355,298610,38,0,L|161:359,1,135,0|0,0:0|0:0,0:0:0:0:
235,337,299090,2,0,P|252:300|246:249,1,90,2|0,0:0|0:0,0:0:0:0:
195,67,299570,6,0,P|174:107|190:203,1,135,0|0,0:0|0:0,0:0:0:0:
248,252,300050,2,0,L|343:242,1,90,2|0,0:0|0:0,0:0:0:0:
235,337,300530,6,0,L|378:322,1,135,0|0,0:0|0:0,0:0:0:0:
420,258,301010,2,0,P|414:210|381:172,1,90,2|0,0:0|0:0,0:0:0:0:
503,227,301490,38,0,P|491:174|437:109,1,135,0|0,0:0|0:0,0:0:0:0:
357,103,301970,2,0,L|260:109,1,90,2|0,0:0|0:0,0:0:0:0:
386,22,302450,6,0,L|239:31,1,135,0|0,0:0|0:0,0:0:0:0:
187,83,302930,2,0,P|183:117|205:170,1,90,2|0,0:0|0:0,0:0:0:0:
299,326,303410,6,0,L|304:260,1,60,2|0,0:2|0:0,0:0:0:0:
457,202,303730,2,0,L|452:268,1,60,0|2,0:0|0:0,0:0:0:0:
285,293,304050,2,0,L|290:227,1,60,0|0,0:0|0:0,0:0:0:0:
443,169,304370,38,0,L|438:235,1,60,2|0,0:2|0:0,0:0:0:0:
271,260,304690,2,0,L|276:194,1,60,0|2,0:0|0:0,0:0:0:0:
429,136,305010,2,0,L|424:202,1,60,0|0,0:0|0:0,0:0:0:0:
276,170,305330,6,0,L|217:165,1,60,2|0,0:2|0:0,0:0:0:0:
152,12,305650,2,0,L|212:16,1,60,0|2,0:0|0:0,0:0:0:0:
243,184,305970,2,0,L|184:179,1,60,0|0,0:0|0:0,0:0:0:0:
119,26,306290,6,0,L|179:30,1,60,2|0,0:2|0:0,0:0:0:0:
210,198,306610,2,0,L|151:193,1,60,0|2,0:0|0:0,0:0:0:0:
86,40,306930,2,0,L|146:44,1,60,0|0,0:0|0:0,0:0:0:0:
303,22,307250,38,0,P|299:55|301:85,1,60,2|0,0:2|0:0,0:0:0:0:
377,99,307570,2,0,P|382:131|392:160,1,60,0|2,0:0|0:0,0:0:0:0:
469,154,307890,2,0,P|483:184|499:209,1,60,0|0,0:0|0:0,0:0:0:0:
411,241,308210,6,0,P|398:271|382:296,1,60,2|0,0:2|0:0,0:0:0:0:
309,270,308530,2,0,P|289:296|266:315,1,60,0|2,0:0|0:0,0:0:0:0:
202,272,308850,2,0,P|176:291|149:305,1,60,0|0,0:0|0:0,0:0:0:0:
70,107,309170,6,0,P|103:103|133:104,1,60,2|0,0:2|0:0,0:0:0:0:
147,180,309490,2,0,P|180:184|209:194,1,60,0|2,0:0|0:0,0:0:0:0:
202,272,309810,2,0,P|233:285|258:301,1,60,0|0,0:0|0:0,0:0:0:0:
477,291,310130,38,0,P|414:293|350:323,1,135,2|0,0:2|0:0,0:0:0:0:
315,246,310610,2,0,L|331:154,1,90,4|4,0:0|0:0,0:0:0:0:
